  0
SECTION
  2
HEADER
  9
$ACADVER
  1
AC1027
  9
$ACADMAINTVER
 70
    57
  9
$DWGCODEPAGE
  3
ANSI_932
  9
$LASTSAVEDBY
  1
kashikeiQC
  9
$REQUIREDVERSIONS
160
                 0
  9
$INSBASE
 10
0.0
 20
0.0
 30
0.0
  9
$EXTMIN
 10
5.0
 20
0.0
 30
0.0
  9
$EXTMAX
 10
425.0
 20
297.0
 30
0.0
  9
$LIMMIN
 10
0.0
 20
0.0
  9
$LIMMAX
 10
420.0
 20
297.0
  9
$ORTHOMODE
 70
     0
  9
$REGENMODE
 70
     1
  9
$FILLMODE
 70
     1
  9
$QTEXTMODE
 70
     0
  9
$MIRRTEXT
 70
     1
  9
$LTSCALE
 40
0.3
  9
$ATTMODE
 70
     1
  9
$TEXTSIZE
 40
2.5
  9
$TRACEWID
 40
1.0
  9
$TEXTSTYLE
  7
Standard
  9
$CLAYER
  8
寸法
  9
$CELTYPE
  6
ByLayer
  9
$CECOLOR
 62
   256
  9
$CELTSCALE
 40
1.0
  9
$DISPSILH
 70
     0
  9
$DIMSCALE
 40
1.0
  9
$DIMASZ
 40
2.5
  9
$DIMEXO
 40
0.625
  9
$DIMDLI
 40
3.75
  9
$DIMRND
 40
0.0
  9
$DIMDLE
 40
0.0
  9
$DIMEXE
 40
1.25
  9
$DIMTP
 40
0.0
  9
$DIMTM
 40
0.0
  9
$DIMTXT
 40
3.5
  9
$DIMCEN
 40
2.5
  9
$DIMTSZ
 40
0.0
  9
$DIMTOL
 70
     0
  9
$DIMLIM
 70
     0
  9
$DIMTIH
 70
     0
  9
$DIMTOH
 70
     0
  9
$DIMSE1
 70
     0
  9
$DIMSE2
 70
     0
  9
$DIMTAD
 70
     1
  9
$DIMZIN
 70
     8
  9
$DIMBLK
  1

  9
$DIMASO
 70
     1
  9
$DIMSHO
 70
     1
  9
$DIMPOST
  1

  9
$DIMAPOST
  1

  9
$DIMALT
 70
     0
  9
$DIMALTD
 70
     3
  9
$DIMALTF
 40
0.03937007874016
  9
$DIMLFAC
 40
1.0
  9
$DIMTOFL
 70
     1
  9
$DIMTVP
 40
0.0
  9
$DIMTIX
 70
     0
  9
$DIMSOXD
 70
     0
  9
$DIMSAH
 70
     0
  9
$DIMBLK1
  1

  9
$DIMBLK2
  1

  9
$DIMSTYLE
  2
ｺﾋﾟｰ - ISO-25
  9
$DIMCLRD
 70
     0
  9
$DIMCLRE
 70
     0
  9
$DIMCLRT
 70
     2
  9
$DIMTFAC
 40
1.0
  9
$DIMGAP
 40
1.0
  9
$DIMJUST
 70
     0
  9
$DIMSD1
 70
     0
  9
$DIMSD2
 70
     0
  9
$DIMTOLJ
 70
     0
  9
$DIMTZIN
 70
     8
  9
$DIMALTZ
 70
     0
  9
$DIMALTTZ
 70
     0
  9
$DIMUPT
 70
     0
  9
$DIMDEC
 70
     1
  9
$DIMTDEC
 70
     1
  9
$DIMALTU
 70
     2
  9
$DIMALTTD
 70
     3
  9
$DIMTXSTY
  7
寸法
  9
$DIMAUNIT
 70
     0
  9
$DIMADEC
 70
     0
  9
$DIMALTRND
 40
0.0
  9
$DIMAZIN
 70
     0
  9
$DIMDSEP
 70
    46
  9
$DIMATFIT
 70
     3
  9
$DIMFRAC
 70
     0
  9
$DIMLDRBLK
  1

  9
$DIMLUNIT
 70
     2
  9
$DIMLWD
 70
    -2
  9
$DIMLWE
 70
    -2
  9
$DIMTMOVE
 70
     0
  9
$DIMFXL
 40
1.0
  9
$DIMFXLON
 70
     0
  9
$DIMJOGANG
 40
0.7853981633974483
  9
$DIMTFILL
 70
     0
  9
$DIMTFILLCLR
 70
     0
  9
$DIMARCSYM
 70
     0
  9
$DIMLTYPE
  6

  9
$DIMLTEX1
  6

  9
$DIMLTEX2
  6

  9
$DIMTXTDIRECTION
 70
     0
  9
$LUNITS
 70
     2
  9
$LUPREC
 70
     4
  9
$SKETCHINC
 40
1.0
  9
$FILLETRAD
 40
1.0
  9
$AUNITS
 70
     0
  9
$AUPREC
 70
     0
  9
$MENU
  1
.
  9
$ELEVATION
 40
0.0
  9
$PELEVATION
 40
0.0
  9
$THICKNESS
 40
0.0
  9
$LIMCHECK
 70
     0
  9
$CHAMFERA
 40
0.0
  9
$CHAMFERB
 40
0.0
  9
$CHAMFERC
 40
20.0
  9
$CHAMFERD
 40
0.0
  9
$SKPOLY
 70
     0
  9
$TDCREATE
 40
2452970.700528056
  9
$TDUCREATE
 40
2452970.325528056
  9
$TDUPDATE
 40
2458814.678184144
  9
$TDUUPDATE
 40
2458814.303184144
  9
$TDINDWG
 40
1.8869464468
  9
$TDUSRTIMER
 40
1.8869455093
  9
$USRTIMER
 70
     1
  9
$ANGBASE
 50
0.0
  9
$ANGDIR
 70
     0
  9
$PDMODE
 70
     3
  9
$PDSIZE
 40
-3.0
  9
$PLINEWID
 40
0.0
  9
$SPLFRAME
 70
     0
  9
$SPLINETYPE
 70
     6
  9
$SPLINESEGS
 70
     8
  9
$HANDSEED
  5
2B250
  9
$SURFTAB1
 70
     6
  9
$SURFTAB2
 70
     6
  9
$SURFTYPE
 70
     6
  9
$SURFU
 70
     6
  9
$SURFV
 70
     6
  9
$UCSBASE
  2

  9
$UCSNAME
  2

  9
$UCSORG
 10
0.0
 20
0.0
 30
0.0
  9
$UCSXDIR
 10
1.0
 20
0.0
 30
0.0
  9
$UCSYDIR
 10
0.0
 20
1.0
 30
0.0
  9
$UCSORTHOREF
  2

  9
$UCSORTHOVIEW
 70
     0
  9
$UCSORGTOP
 10
0.0
 20
0.0
 30
0.0
  9
$UCSORGBOTTOM
 10
0.0
 20
0.0
 30
0.0
  9
$UCSORGLEFT
 10
0.0
 20
0.0
 30
0.0
  9
$UCSORGRIGHT
 10
0.0
 20
0.0
 30
0.0
  9
$UCSORGFRONT
 10
0.0
 20
0.0
 30
0.0
  9
$UCSORGBACK
 10
0.0
 20
0.0
 30
0.0
  9
$PUCSBASE
  2

  9
$PUCSNAME
  2

  9
$PUCSORG
 10
0.0
 20
0.0
 30
0.0
  9
$PUCSXDIR
 10
1.0
 20
0.0
 30
0.0
  9
$PUCSYDIR
 10
0.0
 20
1.0
 30
0.0
  9
$PUCSORTHOREF
  2

  9
$PUCSORTHOVIEW
 70
     0
  9
$PUCSORGTOP
 10
0.0
 20
0.0
 30
0.0
  9
$PUCSORGBOTTOM
 10
0.0
 20
0.0
 30
0.0
  9
$PUCSORGLEFT
 10
0.0
 20
0.0
 30
0.0
  9
$PUCSORGRIGHT
 10
0.0
 20
0.0
 30
0.0
  9
$PUCSORGFRONT
 10
0.0
 20
0.0
 30
0.0
  9
$PUCSORGBACK
 10
0.0
 20
0.0
 30
0.0
  9
$USERI1
 70
     0
  9
$USERI2
 70
     0
  9
$USERI3
 70
     0
  9
$USERI4
 70
     0
  9
$USERI5
 70
     0
  9
$USERR1
 40
0.0
  9
$USERR2
 40
0.0
  9
$USERR3
 40
0.0
  9
$USERR4
 40
0.0
  9
$USERR5
 40
0.0
  9
$WORLDVIEW
 70
     1
  9
$SHADEDGE
 70
     3
  9
$SHADEDIF
 70
    70
  9
$TILEMODE
 70
     1
  9
$MAXACTVP
 70
    64
  9
$PINSBASE
 10
0.0
 20
0.0
 30
0.0
  9
$PLIMCHECK
 70
     0
  9
$PEXTMIN
 10
-58.82240024691737
 20
-86.72323328256494
 30
0.0
  9
$PEXTMAX
 10
448.1718497119468
 20
324.5569721112054
 30
0.0
  9
$PLIMMIN
 10
-3.757080078125
 20
-3.757083415985107
  9
$PLIMMAX
 10
416.2601318359374
 20
293.2112393379211
  9
$UNITMODE
 70
     0
  9
$VISRETAIN
 70
     1
  9
$PLINEGEN
 70
     0
  9
$PSLTSCALE
 70
     1
  9
$TREEDEPTH
 70
  3020
  9
$CMLSTYLE
  2
Standard
  9
$CMLJUST
 70
     0
  9
$CMLSCALE
 40
20.0
  9
$PROXYGRAPHICS
 70
     1
  9
$MEASUREMENT
 70
     1
  9
$CELWEIGHT
370
    -1
  9
$ENDCAPS
280
     0
  9
$JOINSTYLE
280
     0
  9
$LWDISPLAY
290
     0
  9
$INSUNITS
 70
     4
  9
$HYPERLINKBASE
  1

  9
$STYLESHEET
  1
monochrome.ctb
  9
$XEDIT
290
     1
  9
$CEPSNTYPE
380
     0
  9
$PSTYLEMODE
290
     1
  9
$FINGERPRINTGUID
  2
{FDEAD578-A652-11D2-9A35-0060089B3A3F}
  9
$VERSIONGUID
  2
{3EB5742F-196D-4375-AC33-63845E677DC7}
  9
$EXTNAMES
290
     1
  9
$PSVPSCALE
 40
0.0
  9
$OLESTARTUP
290
     0
  9
$SORTENTS
280
   127
  9
$INDEXCTL
280
     0
  9
$HIDETEXT
280
     1
  9
$XCLIPFRAME
280
     0
  9
$HALOGAP
280
     0
  9
$OBSCOLOR
 70
   257
  9
$OBSLTYPE
280
     0
  9
$INTERSECTIONDISPLAY
280
     0
  9
$INTERSECTIONCOLOR
 70
   257
  9
$DIMASSOC
280
     2
  9
$PROJECTNAME
  1

  9
$CAMERADISPLAY
290
     0
  9
$LENSLENGTH
 40
50.0
  9
$CAMERAHEIGHT
 40
0.0
  9
$STEPSPERSEC
 40
2.0
  9
$STEPSIZE
 40
6.0
  9
$3DDWFPREC
 40
2.0
  9
$PSOLWIDTH
 40
0.25
  9
$PSOLHEIGHT
 40
4.0
  9
$LOFTANG1
 40
1.570796326794896
  9
$LOFTANG2
 40
1.570796326794896
  9
$LOFTMAG1
 40
0.0
  9
$LOFTMAG2
 40
0.0
  9
$LOFTPARAM
 70
     7
  9
$LOFTNORMALS
280
     1
  9
$LATITUDE
 40
37.795
  9
$LONGITUDE
 40
-122.394
  9
$NORTHDIRECTION
 40
0.0
  9
$TIMEZONE
 70
 -8000
  9
$LIGHTGLYPHDISPLAY
280
     1
  9
$TILEMODELIGHTSYNCH
280
     1
  9
$CMATERIAL
347
2762
  9
$SOLIDHIST
280
     1
  9
$SHOWHIST
280
     1
  9
$DWFFRAME
280
     2
  9
$DGNFRAME
280
     0
  9
$REALWORLDSCALE
290
     1
  9
$INTERFERECOLOR
 62
     1
  9
$INTERFEREOBJVS
345
276F
  9
$INTERFEREVPVS
346
276C
  9
$CSHADOW
280
     0
  9
$SHADOWPLANELOCATION
 40
0.0
  0
ENDSEC
  0
SECTION
  2
CLASSES
  0
CLASS
  1
ACDBDICTIONARYWDFLT
  2
AcDbDictionaryWithDefault
  3
ObjectDBX Classes
 90
        0
 91
        1
280
     0
281
     0
  0
CLASS
  1
DICTIONARYVAR
  2
AcDbDictionaryVar
  3
ObjectDBX Classes
 90
        0
 91
       13
280
     0
281
     0
  0
CLASS
  1
DIMASSOC
  2
AcDbDimAssoc
  3
"AcDbDimAssoc|Product Desc:     AcDim ARX App For Dimension|Company:          Autodesk, Inc.|WEB Address:      www.autodesk.com"
 90
        0
 91
        4
280
     0
281
     0
  0
CLASS
  1
PLOTSETTINGS
  2
AcDbPlotSettings
  3
ObjectDBX Classes
 90
        0
 91
        1
280
     0
281
     0
  0
CLASS
  1
MATERIAL
  2
AcDbMaterial
  3
ObjectDBX Classes
 90
     1153
 91
        3
280
     0
281
     0
  0
CLASS
  1
VISUALSTYLE
  2
AcDbVisualStyle
  3
ObjectDBX Classes
 90
     4095
 91
       26
280
     0
281
     0
  0
CLASS
  1
TABLESTYLE
  2
AcDbTableStyle
  3
ObjectDBX Classes
 90
     4095
 91
        2
280
     0
281
     0
  0
CLASS
  1
SORTENTSTABLE
  2
AcDbSortentsTable
  3
ObjectDBX Classes
 90
        0
 91
        2
280
     0
281
     0
  0
CLASS
  1
ACAD_EVALUATION_GRAPH
  2
AcDbEvalGraph
  3
ObjectDBX Classes
 90
     1153
 91
        0
280
     0
281
     0
  0
CLASS
  1
ACAECUSTOBJ
  2
AcAeEditorObj
  3
AcAeEditorObj
 90
     1024
 91
        0
280
     0
281
     0
  0
CLASS
  1
ACDB_DYNAMICBLOCKPURGEPREVENTER_VERSION
  2
AcDbDynamicBlockPurgePreventer
  3
ObjectDBX Classes
 90
     1153
 91
        0
280
     0
281
     0
  0
CLASS
  1
ACAD_TABLE
  2
AcDbTable
  3
ObjectDBX Classes
 90
     1025
 91
        0
280
     0
281
     1
  0
CLASS
  1
SCALE
  2
AcDbScale
  3
ObjectDBX Classes
 90
     1153
 91
       17
280
     0
281
     0
  0
CLASS
  1
MLEADERSTYLE
  2
AcDbMLeaderStyle
  3
ACDB_MLEADERSTYLE_CLASS
 90
     4095
 91
        1
280
     0
281
     0
  0
CLASS
  1
TABLECONTENT
  2
AcDbTableContent
  3
ObjectDBX Classes
 90
     1152
 91
        0
280
     0
281
     0
  0
CLASS
  1
TABLEGEOMETRY
  2
AcDbTableGeometry
  3
ObjectDBX Classes
 90
     1152
 91
        0
280
     0
281
     0
  0
CLASS
  1
ACDBSECTIONVIEWSTYLE
  2
AcDbSectionViewStyle
  3
ObjectDBX Classes
 90
     1025
 91
        1
280
     0
281
     0
  0
CLASS
  1
ACDBDETAILVIEWSTYLE
  2
AcDbDetailViewStyle
  3
ObjectDBX Classes
 90
     1025
 91
        1
280
     0
281
     0
  0
CLASS
  1
CELLSTYLEMAP
  2
AcDbCellStyleMap
  3
ObjectDBX Classes
 90
     1152
 91
        2
280
     0
281
     0
  0
ENDSEC
  0
SECTION
  2
TABLES
  0
TABLE
  2
VPORT
  5
8
330
0
100
AcDbSymbolTable
 70
     1
  0
VPORT
  5
275F
330
8
100
AcDbSymbolTableRecord
100
AcDbViewportTableRecord
  2
*Active
 70
     0
 10
0.0
 20
0.0
 11
1.0
 21
1.0
 12
219.5771941137449
 22
148.5000039764133
 13
0.0
 23
0.0
 14
10.0
 24
10.0
 15
10.0
 25
10.0
 16
0.0
 26
0.0
 36
1.0
 17
0.0
 27
0.0
 37
0.0
 40
260.9398842715829
 41
2.367088607594936
 42
50.0
 43
0.0
 44
0.0
 50
0.0
 51
0.0
 71
     0
 72
   100
 73
     1
 74
     3
 75
     0
 76
     0
 77
     0
 78
     0
281
     0
 65
     1
110
0.0
120
0.0
130
0.0
111
1.0
121
0.0
131
0.0
112
0.0
122
1.0
132
0.0
 79
     0
146
0.0
348
276B
 60
     3
 61
     5
292
     1
282
     1
141
0.0
142
0.0
 63
   250
421
  3355443
1001
ACAD_NAV_VCDISPLAY
1070
     3
  0
ENDTAB
  0
TABLE
  2
LTYPE
  5
5
330
0
100
AcDbSymbolTable
 70
     4
  0
LTYPE
  5
14
330
5
100
AcDbSymbolTableRecord
100
AcDbLinetypeTableRecord
  2
ByBlock
 70
     0
  3

 72
    65
 73
     0
 40
0.0
  0
LTYPE
  5
15
330
5
100
AcDbSymbolTableRecord
100
AcDbLinetypeTableRecord
  2
ByLayer
 70
     0
  3

 72
    65
 73
     0
 40
0.0
  0
LTYPE
  5
16
330
5
100
AcDbSymbolTableRecord
100
AcDbLinetypeTableRecord
  2
Continuous
 70
     0
  3
Solid line
 72
    65
 73
     0
 40
0.0
  0
LTYPE
  5
A5
330
5
100
AcDbSymbolTableRecord
100
AcDbLinetypeTableRecord
  2
CENTER
 70
     0
  3
Center ____ _ ____ _ ____ _ ____ _ ____ _ ____
 72
    65
 73
     4
 40
50.8
 49
31.75
 74
     0
 49
-6.349999999999998
 74
     0
 49
6.349999999999998
 74
     0
 49
-6.349999999999998
 74
     0
  0
LTYPE
  5
A6
330
5
100
AcDbSymbolTableRecord
100
AcDbLinetypeTableRecord
  2
HIDDEN
 70
     0
  3
Hidden __ __ __ __ __ __ __ __ __ __ __ __ __ _
 72
    65
 73
     2
 40
9.524999999999996
 49
6.349999999999998
 74
     0
 49
-3.174999999999998
 74
     0
  0
LTYPE
  5
2365
330
5
100
AcDbSymbolTableRecord
100
AcDbLinetypeTableRecord
  2
DIVIDE
 70
     0
  3
Divide ____ . . ____ . . ____ . . ____ . . ____
 72
    65
 73
     6
 40
31.74999999999999
 49
12.7
 74
     0
 49
-6.349999999999998
 74
     0
 49
0.0
 74
     0
 49
-6.349999999999998
 74
     0
 49
0.0
 74
     0
 49
-6.349999999999998
 74
     0
  0
ENDTAB
  0
TABLE
  2
LAYER
  5
2
102
{ACAD_XDICTIONARY
360
279F
102
}
330
0
100
AcDbSymbolTable
 70
    11
  0
LAYER
  5
10
102
{ACAD_XDICTIONARY
360
24E13
102
}
330
2
100
AcDbSymbolTableRecord
100
AcDbLayerTableRecord
  2
0
 70
     0
 62
     7
  6
Continuous
370
    -3
390
F
347
2764
348
0
  0
LAYER
  5
A7
102
{ACAD_XDICTIONARY
360
24E15
102
}
330
2
100
AcDbSymbolTableRecord
100
AcDbLayerTableRecord
  2
破線
 70
     0
 62
     4
  6
HIDDEN
370
    20
390
F
347
2764
348
0
  0
LAYER
  5
A8
102
{ACAD_XDICTIONARY
360
24E17
102
}
330
2
100
AcDbSymbolTableRecord
100
AcDbLayerTableRecord
  2
一点鎖線
 70
     0
 62
     5
  6
CENTER
370
    15
390
F
347
2764
348
0
  0
LAYER
  5
A9
102
{ACAD_XDICTIONARY
360
24E19
102
}
330
2
100
AcDbSymbolTableRecord
100
AcDbLayerTableRecord
  2
補助線
 70
     0
 62
     8
  6
Continuous
290
     0
370
    -3
390
F
347
2764
348
0
  0
LAYER
  5
AA
102
{ACAD_XDICTIONARY
360
24E1B
102
}
330
2
100
AcDbSymbolTableRecord
100
AcDbLayerTableRecord
  2
実線
 70
     0
 62
     7
  6
Continuous
370
    -3
390
F
347
2764
348
0
  0
LAYER
  5
AB
102
{ACAD_XDICTIONARY
360
24E1D
102
}
330
2
100
AcDbSymbolTableRecord
100
AcDbLayerTableRecord
  2
寸法
 70
     0
 62
     3
  6
Continuous
370
    15
390
F
347
2764
348
0
  0
LAYER
  5
AC
102
{ACAD_XDICTIONARY
360
24E1F
102
}
330
2
100
AcDbSymbolTableRecord
100
AcDbLayerTableRecord
  2
文字
 70
     0
 62
     2
  6
Continuous
370
    15
390
F
347
2764
348
0
  0
LAYER
  5
185
330
2
100
AcDbSymbolTableRecord
100
AcDbLayerTableRecord
  2
Defpoints
 70
     0
 62
     7
  6
Continuous
290
     0
370
    -3
390
F
347
2764
348
0
  0
LAYER
  5
58C
102
{ACAD_XDICTIONARY
360
24E21
102
}
330
2
100
AcDbSymbolTableRecord
100
AcDbLayerTableRecord
  2
細線
 70
     0
 62
     6
  6
Continuous
370
     9
390
F
347
2764
348
0
  0
LAYER
  5
1023
102
{ACAD_XDICTIONARY
360
24E23
102
}
330
2
100
AcDbSymbolTableRecord
100
AcDbLayerTableRecord
  2
太線
 70
     0
 62
     3
  6
Continuous
370
    40
390
F
347
2764
348
0
  0
LAYER
  5
2366
102
{ACAD_XDICTIONARY
360
24E25
102
}
330
2
100
AcDbSymbolTableRecord
100
AcDbLayerTableRecord
  2
二点鎖線
 70
     0
 62
     1
  6
DIVIDE
370
    20
390
F
347
2764
348
0
  0
ENDTAB
  0
TABLE
  2
STYLE
  5
3
330
0
100
AcDbSymbolTable
 70
    17
  0
STYLE
  5
11
330
3
100
AcDbSymbolTableRecord
100
AcDbTextStyleTableRecord
  2
Standard
 70
     0
 40
2.5
 41
0.8
 50
0.0
 71
     0
 42
2.5
  3
romans.shx
  4
bigfont.shx
  0
STYLE
  5
A4
330
3
100
AcDbSymbolTableRecord
100
AcDbTextStyleTableRecord
  2

 70
     1
 40
0.0
 41
1.0
 50
0.0
 71
     0
 42
2.5
  3
ltypeshp.shx
  4

  0
STYLE
  5
2A5
330
3
100
AcDbSymbolTableRecord
100
AcDbTextStyleTableRecord
  2
寸法
 70
     0
 40
0.0
 41
0.75
 50
0.0
 71
     0
 42
2.5
  3
romans.shx
  4
bigfont.shx
  0
STYLE
  5
109D
330
3
100
AcDbSymbolTableRecord
100
AcDbTextStyleTableRecord
  2
縦書き
 70
     4
 40
3.0
 41
0.8
 50
0.0
 71
     0
 42
3.0
  3
romans.shx
  4
bigfont.shx
  0
STYLE
  5
10EC
330
3
100
AcDbSymbolTableRecord
100
AcDbTextStyleTableRecord
  2
ｽﾀｲﾙ1
 70
     0
 40
3.0
 41
0.8
 50
0.0
 71
     0
 42
3.0
  3
romans.shx
  4
bigfont.shx
  0
STYLE
  5
114D
330
3
100
AcDbSymbolTableRecord
100
AcDbTextStyleTableRecord
  2
ｽﾀｲﾙ2
 70
     0
 40
9.0
 41
1.0
 50
0.0
 71
     0
 42
9.0
  3
swisscbo.ttf
  4

1001
ACAD
1000
Swis721 BdCnOul BT
1071
       82
  0
STYLE
  5
2367
330
3
100
AcDbSymbolTableRecord
100
AcDbTextStyleTableRecord
  2
ｽﾀｲﾙ3
 70
     0
 40
2.0
 41
1.0
 50
0.0
 71
     0
 42
2.0
  3
isocp.shx
  4
bigfont.shx
  0
STYLE
  5
2368
330
3
100
AcDbSymbolTableRecord
100
AcDbTextStyleTableRecord
  2
ｽﾀｲﾙ4
 70
     0
 40
4.5
 41
1.0
 50
0.0
 71
     0
 42
4.5
  3
swisscbo.ttf
  4

1001
ACAD
1000
Swis721 BdCnOul BT
1071
       82
  0
STYLE
  5
3AB5
330
3
100
AcDbSymbolTableRecord
100
AcDbTextStyleTableRecord
  2
スタイル1
 70
     0
 40
3.0
 41
0.8
 50
0.0
 71
     0
 42
3.0
  3
romans.shx
  4
bigfont.shx
  0
STYLE
  5
3E4F
330
3
100
AcDbSymbolTableRecord
100
AcDbTextStyleTableRecord
  2
hhhhhhhhhhhhhhhhhh
 70
     0
 40
1.5
 41
0.8
 50
0.0
 71
     0
 42
1.0
  3
bold.shx
  4
bigfont.shx
  0
STYLE
  5
3E50
330
3
100
AcDbSymbolTableRecord
100
AcDbTextStyleTableRecord
  2
書き込み
 70
     0
 40
2.5
 41
0.75
 50
0.0
 71
     0
 42
1.0
  3
romand.shx
  4
bigfont.shx
  0
STYLE
  5
24822
330
3
100
AcDbSymbolTableRecord
100
AcDbTextStyleTableRecord
  2
ﾛｺﾞ
 70
     0
 40
14.0
 41
0.7
 50
0.0
 71
     0
 42
2.5
  3
swisscbo.ttf
  4

1001
ACAD
1000
Swis721 BdCnOul BT
1071
       82
  0
STYLE
  5
264FC
330
3
100
AcDbSymbolTableRecord
100
AcDbTextStyleTableRecord
  2
寸法２
 70
     0
 40
1.8
 41
0.8
 50
0.0
 71
     0
 42
1.8
  3
romans.shx
  4
bigfont.shx
  0
STYLE
  5
264FD
330
3
100
AcDbSymbolTableRecord
100
AcDbTextStyleTableRecord
  2
カシケイ
 70
     0
 40
3.0
 41
0.8
 50
0.0
 71
     0
 42
2.5
  3
swisscbo.ttf
  4

1001
ACAD
1000
Swis721 BdCnOul BT
1071
       82
  0
STYLE
  5
29418
330
3
100
AcDbSymbolTableRecord
100
AcDbTextStyleTableRecord
  2
スタイル6
 70
     0
 40
3.0
 41
1.0
 50
0.0
 71
     0
 42
3.0
  3
swissc.ttf
  4

1001
ACAD
1000
Swis721 Cn BT
1071
       34
  0
STYLE
  5
29419
330
3
100
AcDbSymbolTableRecord
100
AcDbTextStyleTableRecord
  2
スタイル3
 70
     0
 40
9.0
 41
1.0
 50
0.0
 71
     0
 42
2.5
  3
swisscbo.ttf
  4

1001
ACAD
1000
Swis721 BdCnOul BT
1071
       82
  0
STYLE
  5
2A7F0
330
3
100
AcDbSymbolTableRecord
100
AcDbTextStyleTableRecord
  2
BIGFONT
 70
     0
 40
0.0
 41
1.0
 50
0.0
 71
     0
 42
20.0
  3
txt.shx
  4
bigfont
  0
ENDTAB
  0
TABLE
  2
VIEW
  5
6
330
0
100
AcDbSymbolTable
 70
     1
  0
ENDTAB
  0
TABLE
  2
UCS
  5
7
330
0
100
AcDbSymbolTable
 70
     0
  0
ENDTAB
  0
TABLE
  2
APPID
  5
9
330
0
100
AcDbSymbolTable
 70
    12
  0
APPID
  5
12
330
9
100
AcDbSymbolTableRecord
100
AcDbRegAppTableRecord
  2
ACAD
 70
     0
  0
APPID
  5
2789
330
9
100
AcDbSymbolTableRecord
100
AcDbRegAppTableRecord
  2
ACAD_PSEXT
 70
     0
  0
APPID
  5
28B6
330
9
100
AcDbSymbolTableRecord
100
AcDbRegAppTableRecord
  2
ACAD_EXEMPT_FROM_CAD_STANDARDS
 70
     0
  0
APPID
  5
2977
330
9
100
AcDbSymbolTableRecord
100
AcDbRegAppTableRecord
  2
ACAUTHENVIRON
 70
     0
  0
APPID
  5
29B0
330
9
100
AcDbSymbolTableRecord
100
AcDbRegAppTableRecord
  2
AcDbDynamicBlockTrueName
 70
     0
  0
APPID
  5
29B1
330
9
100
AcDbSymbolTableRecord
100
AcDbRegAppTableRecord
  2
AcDbDynamicBlockGUID
 70
     0
  0
APPID
  5
29B3
330
9
100
AcDbSymbolTableRecord
100
AcDbRegAppTableRecord
  2
AcDbBlockRepETag
 70
     0
  0
APPID
  5
24823
330
9
100
AcDbSymbolTableRecord
100
AcDbRegAppTableRecord
  2
ACAD_DSTYLE_DIMJAG
 70
     0
  0
APPID
  5
24824
330
9
100
AcDbSymbolTableRecord
100
AcDbRegAppTableRecord
  2
ACAD_DSTYLE_DIMTALN
 70
     0
  0
APPID
  5
2867E
330
9
100
AcDbSymbolTableRecord
100
AcDbRegAppTableRecord
  2
ACAD_DSTYLE_DIMRADIAL_EXTENSION
 70
     0
  0
APPID
  5
2A28D
330
9
100
AcDbSymbolTableRecord
100
AcDbRegAppTableRecord
  2
AcadAnnoPO
 70
     0
  0
APPID
  5
2B23D
330
9
100
AcDbSymbolTableRecord
100
AcDbRegAppTableRecord
  2
ACAD_NAV_VCDISPLAY
 70
     0
  0
ENDTAB
  0
TABLE
  2
DIMSTYLE
  5
A
330
0
100
AcDbSymbolTable
 70
     2
100
AcDbDimStyleTable
 71
     2
340
FF
340
27
  0
DIMSTYLE
105
27
330
A
100
AcDbSymbolTableRecord
100
AcDbDimStyleTableRecord
  2
ISO-25
 70
     0
 41
2.5
 42
0.625
 43
3.75
 44
1.25
 73
     0
 74
     0
 77
     1
 78
     8
140
2.5
141
2.5
143
0.03937007874016
147
0.625
171
     3
172
     1
271
     2
272
     2
274
     3
278
    44
283
     0
284
     8
340
11
  0
DIMSTYLE
105
FF
102
{ACAD_REACTORS
330
2B05F
330
2B0AC
330
2B0C4
330
2B0DC
102
}
330
A
100
AcDbSymbolTableRecord
100
AcDbDimStyleTableRecord
  2
ｺﾋﾟｰ - ISO-25
 70
     0
 41
2.5
 42
0.625
 43
3.75
 44
1.25
 73
     0
 74
     0
 77
     1
 78
     8
140
3.5
141
2.5
143
0.03937007874016
147
1.0
171
     3
172
     1
178
     2
271
     1
272
     1
274
     3
283
     0
284
     8
340
2A5
1001
ACAD_DSTYLE_DIMJAG
1070
   388
1040
1.5
1001
ACAD_DSTYLE_DIMTALN
1070
   392
1070
     0
  0
ENDTAB
  0
TABLE
  2
BLOCK_RECORD
  5
1
330
0
100
AcDbSymbolTable
 70
    14
  0
BLOCK_RECORD
  5
1F
102
{ACAD_XDICTIONARY
360
2D98
102
}
330
1
100
AcDbSymbolTableRecord
100
AcDbBlockTableRecord
  2
*Model_Space
340
22
 70
     0
280
     1
281
     0
  0
BLOCK_RECORD
  5
50
330
1
100
AcDbSymbolTableRecord
100
AcDbBlockTableRecord
  2
*Paper_Space
340
51
 70
     0
280
     1
281
     0
  0
BLOCK_RECORD
  5
55
330
1
100
AcDbSymbolTableRecord
100
AcDbBlockTableRecord
  2
*Paper_Space0
340
56
 70
     0
280
     1
281
     0
  0
BLOCK_RECORD
  5
341
102
{ACAD_XDICTIONARY
360
29CF
102
}
330
1
100
AcDbSymbolTableRecord
100
AcDbBlockTableRecord
  2
_None
340
0
 70
     0
280
     1
281
     0
1001
AcDbDynamicBlockGUID
1000
{FDCFC2F5-9095-49BF-99B6-274B4C3B84BC}
1001
AcDbBlockRepETag
1070
     1
1071
       24
  0
BLOCK_RECORD
  5
429
330
1
100
AcDbSymbolTableRecord
100
AcDbBlockTableRecord
  2
_DotSmall
340
0
 70
     0
280
     1
281
     0
  0
BLOCK_RECORD
  5
10CB
330
1
100
AcDbSymbolTableRecord
100
AcDbBlockTableRecord
  2
mark
340
0
310
2800000020000000200000000100080000000000000400000000000000000000000000000000000000000000000080000080000000808000800000008000800080800000C0C0C000C0DCC000F0CAA6000020400000206000002080000020A0000020C0000020E00000400000004020000040400000406000004080000040A0
310
000040C0000040E00000600000006020000060400000606000006080000060A0000060C0000060E00000800000008020000080400000806000008080000080A0000080C0000080E00000A0000000A0200000A0400000A0600000A0800000A0A00000A0C00000A0E00000C0000000C0200000C0400000C0600000C0800000C0
310
A00000C0C00000C0E00000E0000000E0200000E0400000E0600000E0800000E0A00000E0C00000E0E00040000000400020004000400040006000400080004000A0004000C0004000E00040200000402020004020400040206000402080004020A0004020C0004020E000404000004040200040404000404060004040800040
310
40A0004040C0004040E00040600000406020004060400040606000406080004060A0004060C0004060E00040800000408020004080400040806000408080004080A0004080C0004080E00040A0000040A0200040A0400040A0600040A0800040A0A00040A0C00040A0E00040C0000040C0200040C0400040C0600040C08000
310
40C0A00040C0C00040C0E00040E0000040E0200040E0400040E0600040E0800040E0A00040E0C00040E0E00080000000800020008000400080006000800080008000A0008000C0008000E00080200000802020008020400080206000802080008020A0008020C0008020E00080400000804020008040400080406000804080
310
008040A0008040C0008040E00080600000806020008060400080606000806080008060A0008060C0008060E00080800000808020008080400080806000808080008080A0008080C0008080E00080A0000080A0200080A0400080A0600080A0800080A0A00080A0C00080A0E00080C0000080C0200080C0400080C0600080C0
310
800080C0A00080C0C00080C0E00080E0000080E0200080E0400080E0600080E0800080E0A00080E0C00080E0E000C0000000C0002000C0004000C0006000C0008000C000A000C000C000C000E000C0200000C0202000C0204000C0206000C0208000C020A000C020C000C020E000C0400000C0402000C0404000C0406000C0
310
408000C040A000C040C000C040E000C0600000C0602000C0604000C0606000C0608000C060A000C060C000C060E000C0800000C0802000C0804000C0806000C0808000C080A000C080C000C080E000C0A00000C0A02000C0A04000C0A06000C0A08000C0A0A000C0A0C000C0A0E000C0C00000C0C02000C0C04000C0C06000
310
C0C08000C0C0A000F0FBFF00A4A0A000808080000000FF0000FF000000FFFF00FF000000FF00FF00FFFF0000FFFFFF0000000000000000000000000000000000000000000000000000000000000000000000000000000000000000000000000000000000000000000000000000000000000000000000000000000000000000
310
00000000000000000000000000000000000000000000000000000000000000000000000000000000000000000000000000000000000000000000000000000000000000000000000000000000000000000000000000000000000000000000000000000000000000000000000000000000000000000000000000000000000000
310
FF0000FF0000000000000000000000000000000000000000000000000000FFFFFF0000FFFFFF0000000000000000000000000000000000000000000000FF0000FF0000FF0000FF0000000000000000000000000000000000000000FFFF0000FF00000000FF0000FFFF0000000000000000000000000000000000FF0000FFFF
310
000000FF0000FFFF0000FF000000000000000000FFFFFFFF0000FF0000FF000000FFFF00FF000000FF0000FF0000FFFFFFFF0000FF0000FFFFFF0000FF000000FF00000000FF000000FF0000FFFFFF0000FF0000FF0000FF000000FF000000FF00FFFFFFFF00FF000000FF000000FF0000FF0000FF00000000FFFF00000000
310
FF00FF0000FF00FF00000000FFFF00000000FF0000FF000000FF000000000000FF00FF0000FF00FF000000000000FF000000FF0000FF0000FF00000000000000FF00FF0000FF00FF00000000000000FF0000FF0000FF000000FFFF0000000000FF00FF0000FF00FF0000000000FFFF000000FF0000FF0000FF0000FF000000
310
00FF00FFFFFFFF00FF00000000FF0000FF0000FF0000FF0000FFFFFF00FF00000000FFFF000000FF00000000FF00FFFFFF0000FF0000FFFFFFFF0000FF00FFFF00000000FF00FF000000FFFF00FF0000FFFFFFFF000000000000000000FF0000FF00000000FF000000FF0000FF0000000000000000000000000000000000FF
310
FF00FFFF00000000FFFF00FFFF0000000000000000000000000000000000000000FF0000FF0000FF0000FF0000000000000000000000000000000000000000000000FFFFFF0000FFFFFF0000000000000000000000000000000000000000000000000000FF0000FF0000000000000000000000000000000000000000000000
310
00000000000000000000000000000000000000000000000000000000000000000000000000000000000000000000000000000000000000000000000000000000000000000000000000000000000000000000000000000000000000000000000000000000000000000000000000000000000000000000000000000000000000
310
0000000000000000000000000000000000000000000000000000000000000000000000000000000000000000000000000000000000000000
102
{BLKREFS
331
2AF27
102
}
 70
     4
280
     1
281
     0
  0
BLOCK_RECORD
  5
2D20
330
1
100
AcDbSymbolTableRecord
100
AcDbBlockTableRecord
  2
A$C34DA08B7
340
0
 70
     4
280
     1
281
     0
  0
BLOCK_RECORD
  5
2D24
330
1
100
AcDbSymbolTableRecord
100
AcDbBlockTableRecord
  2
A$C04A47E41
340
0
 70
     4
280
     1
281
     0
  0
BLOCK_RECORD
  5
2D46
330
1
100
AcDbSymbolTableRecord
100
AcDbBlockTableRecord
  2
A$C2FFA21FC
340
0
 70
     4
280
     1
281
     0
  0
BLOCK_RECORD
  5
2B060
330
1
100
AcDbSymbolTableRecord
100
AcDbBlockTableRecord
  2
*D7
340
0
 70
     0
280
     1
281
     0
  0
BLOCK_RECORD
  5
2B0AD
330
1
100
AcDbSymbolTableRecord
100
AcDbBlockTableRecord
  2
*D8
340
0
 70
     0
280
     1
281
     0
  0
BLOCK_RECORD
  5
2B0C5
330
1
100
AcDbSymbolTableRecord
100
AcDbBlockTableRecord
  2
*D9
340
0
 70
     0
280
     1
281
     0
  0
BLOCK_RECORD
  5
2B0DD
330
1
100
AcDbSymbolTableRecord
100
AcDbBlockTableRecord
  2
*D10
340
0
 70
     0
280
     1
281
     0
  0
ENDTAB
  0
ENDSEC
  0
SECTION
  2
BLOCKS
  0
BLOCK
  5
20
330
1F
100
AcDbEntity
  8
0
100
AcDbBlockBegin
  2
*Model_Space
 70
     0
 10
0.0
 20
0.0
 30
0.0
  3
*Model_Space
  1

  0
ENDBLK
  5
21
330
1F
100
AcDbEntity
  8
0
100
AcDbBlockEnd
  0
BLOCK
  5
52
330
50
100
AcDbEntity
 67
     1
  8
0
100
AcDbBlockBegin
  2
*Paper_Space
 70
     0
 10
0.0
 20
0.0
 30
0.0
  3
*Paper_Space
  1

  0
ENDBLK
  5
53
330
50
100
AcDbEntity
 67
     1
  8
0
100
AcDbBlockEnd
  0
BLOCK
  5
57
330
55
100
AcDbEntity
 67
     1
  8
0
100
AcDbBlockBegin
  2
*Paper_Space0
 70
     0
 10
0.0
 20
0.0
 30
0.0
  3
*Paper_Space0
  1

  0
VIEWPORT
  5
71
330
55
100
AcDbEntity
 67
     1
  8
0
100
AcDbViewport
 10
133.3499908447265
 20
101.5999970436096
 30
0.0
 40
381.3957395593834
 41
218.2856291881582
 68
     0
 69
     0
 12
133.3499908447265
 22
101.5999970436096
 13
0.0
 23
0.0
 14
10.0
 24
10.0
 15
10.0
 25
10.0
 16
0.0
 26
0.0
 36
1.0
 17
0.0
 27
0.0
 37
0.0
 42
50.0
 43
0.0
 44
0.0
 45
218.2856291881582
 50
0.0
 51
0.0
 72
   100
 90
    32800
  1

281
     0
 71
     1
 74
     0
110
0.0
120
0.0
130
0.0
111
1.0
121
0.0
131
0.0
112
0.0
122
1.0
132
0.0
 79
     0
146
0.0
170
     0
 61
     5
348
276B
292
     1
282
     1
141
0.0
142
0.0
 63
   250
421
  3355443
  0
VIEWPORT
  5
73
330
55
100
AcDbEntity
 67
     1
  8
0
100
AcDbViewport
 10
133.349993944168
 20
101.599993944168
 30
0.0
 40
213.3599903106689
 41
162.5599903106689
 68
     0
 69
     0
 12
210.0
 22
148.5
 13
0.0
 23
0.0
 14
10.0
 24
10.0
 15
10.0
 25
10.0
 16
0.0
 26
0.0
 36
1.0
 17
0.0
 27
0.0
 37
0.0
 42
50.0
 43
0.0
 44
0.0
 45
324.0677920111345
 50
0.0
 51
0.0
 72
   100
 90
    32864
  1

281
     0
 71
     1
 74
     0
110
0.0
120
0.0
130
0.0
111
1.0
121
0.0
131
0.0
112
0.0
122
1.0
132
0.0
 79
     0
146
0.0
170
     0
 61
     5
348
276B
292
     1
282
     1
141
0.0
142
0.0
 63
   250
421
  3355443
  0
ENDBLK
  5
58
330
55
100
AcDbEntity
 67
     1
  8
0
100
AcDbBlockEnd
  0
BLOCK
  5
342
330
341
100
AcDbEntity
  8
0
100
AcDbBlockBegin
  2
_None
 70
     0
 10
0.0
 20
0.0
 30
0.0
  3
_None
  1

  0
LINE
  5
29B7
102
{ACAD_REACTORS
330
29F6
102
}
330
341
100
AcDbEntity
  8
0
100
AcDbLine
 10
7.618927466172911
 20
14.9090276980656
 30
0.0
 11
13.53608213148402
 21
23.35960033891454
 31
0.0
1001
AcDbBlockRepETag
1070
     1
1071
        0
1005
29B7
  0
LINE
  5
29B8
102
{ACAD_REACTORS
330
29F6
102
}
330
341
100
AcDbEntity
  8
0
100
AcDbLine
 10
7.618927466172911
 20
14.9090276980656
 30
0.0
 11
8.516181951946554
 21
13.62761549266754
 31
0.0
1001
AcDbBlockRepETag
1070
     1
1071
        1
1005
29B8
  0
LINE
  5
29B9
102
{ACAD_REACTORS
330
29F6
102
}
330
341
100
AcDbEntity
  8
0
100
AcDbLine
 10
21.97323679679512
 20
14.90902769806559
 30
0.0
 11
21.07598231102148
 21
16.19043990346365
 31
0.0
1001
AcDbBlockRepETag
1070
     1
1071
        2
1005
29B9
  0
LINE
  5
29BA
102
{ACAD_REACTORS
330
29F6
102
}
330
341
100
AcDbEntity
  8
0
100
AcDbLine
 10
21.97323679679512
 20
14.90902769806559
 30
0.0
 11
16.056082131484
 21
6.458455057216698
 31
0.0
1001
AcDbBlockRepETag
1070
     1
1071
        3
1005
29BA
  0
LINE
  5
29BB
102
{ACAD_REACTORS
330
29F6
102
}
330
341
100
AcDbEntity
  8
0
100
AcDbLine
 10
15.556082131484
 20
21.42363521294153
 30
0.0
 11
19.54408298552672
 21
15.72817974235458
 31
0.0
1001
AcDbBlockRepETag
1070
     1
1071
        4
1005
29BB
  0
LINE
  5
29BC
102
{ACAD_REACTORS
330
29F6
102
}
330
341
100
AcDbEntity
  8
0
100
AcDbLine
 10
9.761293059265803
 20
14.49945167592111
 30
0.0
 11
8.516181951946544
 21
13.62761549266753
 31
0.0
1001
AcDbBlockRepETag
1070
     1
1071
        5
1005
29BC
  0
LINE
  5
29BD
102
{ACAD_REACTORS
330
29F6
102
}
330
341
100
AcDbEntity
  8
0
100
AcDbLine
 10
10.04808127744132
 20
14.08987565377662
 30
0.0
 11
8.802970170122067
 21
13.21803947052303
 31
0.0
1001
AcDbBlockRepETag
1070
     1
1071
        6
1005
29BD
  0
LINE
  5
29BE
102
{ACAD_REACTORS
330
29F6
102
}
330
341
100
AcDbEntity
  8
0
100
AcDbLine
 10
14.03608213148402
 20
5.744381053845643
 30
0.0
 11
14.03608213148402
 21
24.07367434228561
 31
0.0
1001
AcDbBlockRepETag
1070
     1
1071
        7
1005
29BE
  0
LINE
  5
29BF
102
{ACAD_REACTORS
330
29F6
102
}
330
341
100
AcDbEntity
  8
0
100
AcDbLine
 10
15.556082131484
 20
5.744381053845648
 30
0.0
 11
15.556082131484
 21
21.42363521294153
 31
0.0
1001
AcDbBlockRepETag
1070
     1
1071
        8
1005
29BF
  0
LINE
  5
29C0
102
{ACAD_REACTORS
330
29F6
102
}
330
341
100
AcDbEntity
  8
0
100
AcDbLine
 10
13.53608213148402
 20
6.458455057216702
 30
0.0
 11
13.53608213148402
 21
9.108494186560758
 31
0.0
1001
AcDbBlockRepETag
1070
     1
1071
        9
1005
29C0
  0
LINE
  5
29C1
102
{ACAD_REACTORS
330
29F6
102
}
330
341
100
AcDbEntity
  8
0
100
AcDbLine
 10
16.056082131484
 20
6.458455057216702
 30
0.0
 11
16.056082131484
 21
9.108494186560749
 31
0.0
1001
AcDbBlockRepETag
1070
     1
1071
       10
1005
29C1
  0
LINE
  5
29C2
102
{ACAD_REACTORS
330
29F6
102
}
330
341
100
AcDbEntity
  8
0
100
AcDbLine
 10
14.03608213148402
 20
24.0736743422856
 30
0.0
 11
14.79608213148402
 21
25.15906682740961
 31
0.0
1001
AcDbBlockRepETag
1070
     1
1071
       11
1005
29C2
  0
LINE
  5
29C3
102
{ACAD_REACTORS
330
29F6
102
}
330
341
100
AcDbEntity
  8
0
100
AcDbLine
 10
13.53608213148402
 20
20.70956120957047
 30
0.0
 11
9.474504841090279
 21
14.90902769806561
 31
0.0
1001
AcDbBlockRepETag
1070
     1
1071
       12
1005
29C3
  0
LINE
  5
29C4
102
{ACAD_REACTORS
330
29F6
102
}
330
341
100
AcDbEntity
  8
0
100
AcDbLine
 10
16.056082131484
 20
9.108494186560754
 30
0.0
 11
20.11765942187774
 21
14.90902769806561
 31
0.0
1001
AcDbBlockRepETag
1070
     1
1071
       13
1005
29C4
  0
LINE
  5
29C5
102
{ACAD_REACTORS
330
29F6
102
}
330
341
100
AcDbEntity
  8
0
100
AcDbLine
 10
15.556082131484
 20
5.744381053845644
 30
0.0
 11
14.79608213148401
 21
4.658988568721649
 31
0.0
1001
AcDbBlockRepETag
1070
     1
1071
       14
1005
29C5
  0
LINE
  5
29C6
102
{ACAD_REACTORS
330
29F6
102
}
330
341
100
AcDbEntity
  8
0
100
AcDbLine
 10
14.03608213148402
 20
5.744381053845645
 30
0.0
 11
14.79608213148401
 21
4.658988568721649
 31
0.0
1001
AcDbBlockRepETag
1070
     1
1071
       15
1005
29C6
  0
LINE
  5
29C7
102
{ACAD_REACTORS
330
29F6
102
}
330
341
100
AcDbEntity
  8
0
100
AcDbLine
 10
8.802970170122078
 20
13.21803947052304
 30
0.0
 11
13.53608213148402
 21
6.458455057216703
 31
0.0
1001
AcDbBlockRepETag
1070
     1
1071
       16
1005
29C7
  0
LINE
  5
29C8
102
{ACAD_REACTORS
330
29F6
102
}
330
341
100
AcDbEntity
  8
0
100
AcDbLine
 10
10.04808127744132
 20
14.08987565377662
 30
0.0
 11
13.53608213148402
 21
9.10849418656076
 31
0.0
1001
AcDbBlockRepETag
1070
     1
1071
       17
1005
29C8
  0
LINE
  5
29C9
102
{ACAD_REACTORS
330
29F6
102
}
330
341
100
AcDbEntity
  8
0
100
AcDbLine
 10
13.53608213148402
 20
20.70956120957048
 30
0.0
 11
13.53608213148402
 21
23.35960033891454
 31
0.0
1001
AcDbBlockRepETag
1070
     1
1071
       18
1005
29C9
  0
LINE
  5
29CA
102
{ACAD_REACTORS
330
29F6
102
}
330
341
100
AcDbEntity
  8
0
100
AcDbLine
 10
19.83087120370222
 20
15.31860372021007
 30
0.0
 11
21.07598231102148
 21
16.19043990346365
 31
0.0
1001
AcDbBlockRepETag
1070
     1
1071
       19
1005
29CA
  0
LINE
  5
29CB
102
{ACAD_REACTORS
330
29F6
102
}
330
341
100
AcDbEntity
  8
0
100
AcDbLine
 10
19.54408298552669
 20
15.72817974235456
 30
0.0
 11
20.78919409284595
 21
16.60001592560815
 31
0.0
1001
AcDbBlockRepETag
1070
     1
1071
       20
1005
29CB
  0
LINE
  5
29CC
102
{ACAD_REACTORS
330
29F6
102
}
330
341
100
AcDbEntity
  8
0
100
AcDbLine
 10
19.83087120370224
 20
15.31860372021007
 30
0.0
 11
20.11765942187774
 21
14.90902769806561
 31
0.0
1001
AcDbBlockRepETag
1070
     1
1071
       21
1005
29CC
  0
LINE
  5
29CD
102
{ACAD_REACTORS
330
29F6
102
}
330
341
100
AcDbEntity
  8
0
100
AcDbLine
 10
20.78919409284596
 20
16.60001592560815
 30
0.0
 11
14.79608213148402
 21
25.15906682740961
 31
0.0
1001
AcDbBlockRepETag
1070
     1
1071
       22
1005
29CD
  0
LINE
  5
29CE
102
{ACAD_REACTORS
330
29F6
102
}
330
341
100
AcDbEntity
  8
0
100
AcDbLine
 10
9.761293059265803
 20
14.49945167592111
 30
0.0
 11
9.474504841090279
 21
14.90902769806561
 31
0.0
1001
AcDbBlockRepETag
1070
     1
1071
       23
1005
29CE
  0
ENDBLK
  5
343
330
341
100
AcDbEntity
  8
0
100
AcDbBlockEnd
  0
BLOCK
  5
42B
330
429
100
AcDbEntity
  8
0
100
AcDbBlockBegin
  2
_DotSmall
 70
     0
 10
0.0
 20
0.0
 30
0.0
  3
_DotSmall
  1

  0
LWPOLYLINE
  5
42A
330
429
100
AcDbEntity
  8
0
  6
ByBlock
 62
     0
100
AcDbPolyline
 90
        2
 70
     1
 43
0.5
 10
-0.0625
 20
0.0
 42
1.0
 10
0.0625
 20
0.0
 42
1.0
  0
ENDBLK
  5
42C
330
429
100
AcDbEntity
  8
0
100
AcDbBlockEnd
  0
BLOCK
  5
10EA
330
10CB
100
AcDbEntity
  8
0
100
AcDbBlockBegin
  2
mark
 70
     0
 10
0.0
 20
0.0
 30
0.0
  3
mark
  1

  4
柏原計器(株)マーク
  0
LINE
  5
10CC
330
10CB
100
AcDbEntity
  8
実線
100
AcDbLine
 10
45.0
 20
-8.5
 30
0.0
 11
27.0
 21
-21.10373568777475
 31
0.0
  0
LINE
  5
10CD
330
10CB
100
AcDbEntity
  8
実線
100
AcDbLine
 10
45.0
 20
-8.5
 30
0.0
 11
27.0
 21
4.103735687774785
 31
0.0
  0
LINE
  5
10CE
330
10CB
100
AcDbEntity
  8
実線
100
AcDbLine
 10
46.0
 20
-4.317109183163836
 30
0.0
 11
27.0
 21
8.986834042820532
 31
0.0
  0
LINE
  5
10CF
330
10CB
100
AcDbEntity
  8
実線
100
AcDbLine
 10
46.0
 20
-12.6828908168361
 30
0.0
 11
27.0
 21
-25.9868340428206
 31
0.0
  0
LINE
  5
10D0
330
10CB
100
AcDbEntity
  8
実線
100
AcDbLine
 10
5.0
 20
-8.5
 30
0.0
 11
23.0
 21
-21.10373568777475
 31
0.0
  0
LINE
  5
10D1
330
10CB
100
AcDbEntity
  8
実線
100
AcDbLine
 10
4.0
 20
-12.6828908168361
 30
0.0
 11
22.99999999999994
 21
-25.98683404282056
 31
0.0
  0
LINE
  5
10D2
330
10CB
100
AcDbEntity
  8
実線
100
AcDbLine
 10
5.0
 20
-8.5
 30
0.0
 11
23.0
 21
4.103735687774785
 31
0.0
  0
LINE
  5
10D3
330
10CB
100
AcDbEntity
  8
実線
100
AcDbLine
 10
4.0
 20
-4.317109183163863
 30
0.0
 11
23.0
 21
8.986834042820587
 31
0.0
  0
LINE
  5
10D4
330
10CB
100
AcDbEntity
  8
実線
100
AcDbLine
 10
4.0
 20
-4.317109183163863
 30
0.0
 11
4.0
 21
0.0
 31
0.0
  0
LINE
  5
10D5
330
10CB
100
AcDbEntity
  8
実線
100
AcDbLine
 10
0.0
 20
0.0
 30
0.0
 11
0.0
 21
-17.0
 31
0.0
  0
LINE
  5
10D6
330
10CB
100
AcDbEntity
  8
実線
100
AcDbLine
 10
0.0
 20
-17.0
 30
0.0
 11
4.0
 21
-17.0
 31
0.0
  0
LINE
  5
10D7
330
10CB
100
AcDbEntity
  8
実線
100
AcDbLine
 10
4.0
 20
-17.0
 30
0.0
 11
4.0
 21
-12.6828908168361
 31
0.0
  0
LINE
  5
10D8
330
10CB
100
AcDbEntity
  8
実線
100
AcDbLine
 10
4.0
 20
0.0
 30
0.0
 11
0.0
 21
0.0
 31
0.0
  0
LINE
  5
10D9
330
10CB
100
AcDbEntity
  8
実線
100
AcDbLine
 10
27.0
 20
-21.10373568777475
 30
0.0
 11
27.0
 21
-25.9868340428206
 31
0.0
  0
LINE
  5
10DA
330
10CB
100
AcDbEntity
  8
実線
100
AcDbLine
 10
23.0
 20
-21.1037356877747
 30
0.0
 11
22.99999999999994
 21
-25.98683404282056
 31
0.0
  0
ARC
  5
10DB
330
10CB
100
AcDbEntity
  8
実線
100
AcDbCircle
 10
25.0
 20
-12.5
 30
0.0
 40
6.0
100
AcDbArc
 50
180.0
 51
0.0
  0
ARC
  5
10DC
330
10CB
100
AcDbEntity
  8
実線
100
AcDbCircle
 10
25.0
 20
-12.5
 30
0.0
 40
3.0
100
AcDbArc
 50
180.0
 51
0.0
  0
ARC
  5
10DD
330
10CB
100
AcDbEntity
  8
実線
100
AcDbCircle
 10
25.0
 20
-4.5
 30
0.0
 40
6.0
100
AcDbArc
 50
0.0
 51
180.0
  0
ARC
  5
10DE
330
10CB
100
AcDbEntity
  8
実線
100
AcDbCircle
 10
25.0
 20
-4.5
 30
0.0
 40
3.0
100
AcDbArc
 50
0.0
 51
180.0
  0
LINE
  5
10DF
330
10CB
100
AcDbEntity
  8
実線
100
AcDbLine
 10
22.0
 20
-4.499999999999943
 30
0.0
 11
22.0
 21
-12.50000000000005
 31
0.0
  0
LINE
  5
10E0
330
10CB
100
AcDbEntity
  8
実線
100
AcDbLine
 10
19.0
 20
-4.499999999999943
 30
0.0
 11
19.0
 21
-12.50000000000005
 31
0.0
  0
LINE
  5
10E1
330
10CB
100
AcDbEntity
  8
実線
100
AcDbLine
 10
23.0
 20
8.986834042820587
 30
0.0
 11
23.0
 21
4.103735687774785
 31
0.0
  0
LINE
  5
10E2
330
10CB
100
AcDbEntity
  8
実線
100
AcDbLine
 10
28.0
 20
-4.499999999999971
 30
0.0
 11
28.0
 21
-12.50000000000005
 31
0.0
  0
LINE
  5
10E3
330
10CB
100
AcDbEntity
  8
実線
100
AcDbLine
 10
31.0
 20
-4.499999999999943
 30
0.0
 11
31.0
 21
-12.50000000000005
 31
0.0
  0
LINE
  5
10E4
330
10CB
100
AcDbEntity
  8
実線
100
AcDbLine
 10
27.0
 20
8.986834042820532
 30
0.0
 11
27.0
 21
4.103735687774785
 31
0.0
  0
LINE
  5
10E5
330
10CB
100
AcDbEntity
  8
実線
100
AcDbLine
 10
50.0
 20
0.0
 30
0.0
 11
50.0
 21
-17.0
 31
0.0
  0
LINE
  5
10E6
330
10CB
100
AcDbEntity
  8
実線
100
AcDbLine
 10
46.0
 20
0.0
 30
0.0
 11
46.0
 21
-4.317109183163836
 31
0.0
  0
LINE
  5
10E7
330
10CB
100
AcDbEntity
  8
実線
100
AcDbLine
 10
46.0
 20
-17.0
 30
0.0
 11
50.0
 21
-17.0
 31
0.0
  0
LINE
  5
10E8
330
10CB
100
AcDbEntity
  8
実線
100
AcDbLine
 10
46.0
 20
-12.6828908168361
 30
0.0
 11
46.0
 21
-17.0
 31
0.0
  0
LINE
  5
10E9
330
10CB
100
AcDbEntity
  8
実線
100
AcDbLine
 10
50.0
 20
0.0
 30
0.0
 11
46.0
 21
0.0
 31
0.0
  0
ENDBLK
  5
10EB
330
10CB
100
AcDbEntity
  8
0
100
AcDbBlockEnd
  0
BLOCK
  5
2D22
330
2D20
100
AcDbEntity
  8
0
100
AcDbBlockBegin
  2
A$C34DA08B7
 70
     0
 10
0.0
 20
0.0
 30
0.0
  3
A$C34DA08B7
  1

  0
LINE
  5
2D21
330
2D20
100
AcDbEntity
  8
実線
100
AcDbLine
 10
3.443694327872606
 20
-0.000000348593062
 30
0.0
 11
0.0000000833857712
 21
3.443693895893829
 31
0.0
  0
ENDBLK
  5
2D23
330
2D20
100
AcDbEntity
  8
0
100
AcDbBlockEnd
  0
BLOCK
  5
2D26
330
2D24
100
AcDbEntity
  8
0
100
AcDbBlockBegin
  2
A$C04A47E41
 70
     0
 10
0.0
 20
0.0
 30
0.0
  3
A$C04A47E41
  1

  0
LINE
  5
2D25
330
2D24
100
AcDbEntity
  8
実線
100
AcDbLine
 10
0.0
 20
0.0
 30
0.0
 11
-3.443694244486835
 21
3.443694244486891
 31
0.0
  0
ENDBLK
  5
2D27
330
2D24
100
AcDbEntity
  8
0
100
AcDbBlockEnd
  0
BLOCK
  5
2D4F
330
2D46
100
AcDbEntity
  8
0
100
AcDbBlockBegin
  2
A$C2FFA21FC
 70
     0
 10
0.0
 20
0.0
 30
0.0
  3
A$C2FFA21FC
  1

  0
LINE
  5
2D47
330
2D46
100
AcDbEntity
  8
実線
100
AcDbLine
 10
1.673649195882092
 20
5.714196736163046
 30
0.0
 11
4.040546862123335
 21
5.714196736163046
 31
0.0
  0
LINE
  5
2D48
330
2D46
100
AcDbEntity
  8
実線
100
AcDbLine
 10
-0.0000001942917152
 20
1.673649679747882
 30
0.0
 11
-0.0000001942917152
 21
4.040547345989125
 31
0.0
  0
LINE
  5
2D49
330
2D46
100
AcDbEntity
  8
実線
100
AcDbLine
 10
-0.0000001942917152
 20
4.040547345989239
 30
0.0
 11
1.673649195882092
 21
5.714196736162989
 31
0.0
  0
LINE
  5
2D4A
330
2D46
100
AcDbEntity
  8
実線
100
AcDbLine
 10
1.673649195882092
 20
0.0000002895740749
 30
0.0
 11
4.040546862123335
 21
0.0000002895740749
 31
0.0
  0
LINE
  5
2D4B
330
2D46
100
AcDbEntity
  8
実線
100
AcDbLine
 10
-0.0000001942917152
 20
1.673649679747882
 30
0.0
 11
1.673649195882035
 21
0.0000002895740749
 31
0.0
  0
LINE
  5
2D4C
330
2D46
100
AcDbEntity
  8
実線
100
AcDbLine
 10
5.714196252297256
 20
1.673649679747882
 30
0.0
 11
5.714196252297256
 21
4.040547345989125
 31
0.0
  0
LINE
  5
2D4D
330
2D46
100
AcDbEntity
  8
実線
100
AcDbLine
 10
5.714196252297256
 20
4.040547345989239
 30
0.0
 11
4.040546862123449
 21
5.714196736162989
 31
0.0
  0
LINE
  5
2D4E
330
2D46
100
AcDbEntity
  8
実線
100
AcDbLine
 10
5.714196252297256
 20
1.673649679747882
 30
0.0
 11
4.040546862123505
 21
0.0000002895740749
 31
0.0
  0
ENDBLK
  5
2D50
330
2D46
100
AcDbEntity
  8
0
100
AcDbBlockEnd
  0
BLOCK
  5
2B061
330
2B060
100
AcDbEntity
  8
0
100
AcDbBlockBegin
  2
*D7
 70
     1
 10
0.0
 20
0.0
 30
0.0
  3
*D7
  1

  0
LINE
  5
2B177
330
2B060
100
AcDbEntity
  8
寸法
 62
     0
440
 16777216
370
    -2
100
AcDbLine
 10
126.6247263499219
 20
261.6219586868857
 30
0.0
 11
193.2061305693569
 21
261.6219586868856
 31
0.0
  0
LINE
  5
2B178
330
2B060
100
AcDbEntity
  8
寸法
 62
     0
440
 16777216
370
    -2
100
AcDbLine
 10
126.6247263499245
 20
172.6219586868857
 30
0.0
 11
193.2061305693569
 21
172.6219586868857
 31
0.0
  0
LINE
  5
2B179
330
2B060
100
AcDbEntity
  8
寸法
 62
     0
440
 16777216
370
    -2
100
AcDbLine
 10
191.9561305693569
 20
259.1219586868856
 30
0.0
 11
191.9561305693569
 21
175.1219586868857
 31
0.0
  0
SOLID
  5
2B17A
330
2B060
100
AcDbEntity
  8
寸法
 62
     0
440
 16777216
100
AcDbTrace
 10
191.5394639026903
 20
259.1219586868856
 30
0.0
 11
192.3727972360236
 21
259.1219586868856
 31
0.0
 12
191.9561305693569
 22
261.6219586868856
 32
0.0
 13
191.9561305693569
 23
261.6219586868856
 33
0.0
  0
SOLID
  5
2B17B
330
2B060
100
AcDbEntity
  8
寸法
 62
     0
440
 16777216
100
AcDbTrace
 10
191.5394639026902
 20
175.1219586868857
 30
0.0
 11
192.3727972360235
 21
175.1219586868856
 31
0.0
 12
191.9561305693569
 22
172.6219586868857
 32
0.0
 13
191.9561305693569
 23
172.6219586868857
 33
0.0
  0
MTEXT
  5
2B17C
330
2B060
100
AcDbEntity
  8
寸法
 62
     2
440
 16777216
100
AcDbMText
 10
189.2061305693568
 20
217.1219586868857
 30
0.0
 40
3.5
 41
0.0
 46
0.0
 71
     5
 72
     1
  1
89
  7
寸法
 11
0.0000000000000001
 21
1.0
 31
0.0
 73
     1
 44
1.0
  0
POINT
  5
2B17D
330
2B060
100
AcDbEntity
  8
Defpoints
 62
     0
440
 16777216
100
AcDbPoint
 10
125.9997263499219
 20
261.6219586868857
 30
0.0
  0
POINT
  5
2B17E
330
2B060
100
AcDbEntity
  8
Defpoints
 62
     0
440
 16777216
100
AcDbPoint
 10
125.9997263499245
 20
172.6219586868857
 30
0.0
  0
POINT
  5
2B17F
330
2B060
100
AcDbEntity
  8
Defpoints
 62
     0
440
 16777216
100
AcDbPoint
 10
191.9561305693569
 20
172.6219586868857
 30
0.0
  0
ENDBLK
  5
2B062
330
2B060
100
AcDbEntity
  8
0
100
AcDbBlockEnd
  0
BLOCK
  5
2B0AE
330
2B0AD
100
AcDbEntity
  8
0
100
AcDbBlockBegin
  2
*D8
 70
     1
 10
0.0
 20
0.0
 30
0.0
  3
*D8
  1

  0
LINE
  5
2B1BB
330
2B0AD
100
AcDbEntity
  8
寸法
 62
     0
440
 16777216
370
    -2
100
AcDbLine
 10
73.99972634992218
 20
71.15307639711909
 30
0.0
 11
73.99972634992218
 21
38.76573156019873
 31
0.0
  0
LINE
  5
2B1BC
330
2B0AD
100
AcDbEntity
  8
寸法
 62
     0
440
 16777216
370
    -2
100
AcDbLine
 10
173.9997263499222
 20
71.15307639711907
 30
0.0
 11
173.9997263499222
 21
38.76573156019873
 31
0.0
  0
LINE
  5
2B1BD
330
2B0AD
100
AcDbEntity
  8
寸法
 62
     0
440
 16777216
370
    -2
100
AcDbLine
 10
76.49972634992218
 20
40.01573156019873
 30
0.0
 11
171.4997263499222
 21
40.01573156019873
 31
0.0
  0
SOLID
  5
2B1BE
330
2B0AD
100
AcDbEntity
  8
寸法
 62
     0
440
 16777216
100
AcDbTrace
 10
76.49972634992218
 20
40.4323982268654
 30
0.0
 11
76.49972634992218
 21
39.59906489353207
 31
0.0
 12
73.99972634992218
 22
40.01573156019873
 32
0.0
 13
73.99972634992218
 23
40.01573156019873
 33
0.0
  0
SOLID
  5
2B1BF
330
2B0AD
100
AcDbEntity
  8
寸法
 62
     0
440
 16777216
100
AcDbTrace
 10
171.4997263499222
 20
40.4323982268654
 30
0.0
 11
171.4997263499222
 21
39.59906489353207
 31
0.0
 12
173.9997263499222
 22
40.01573156019873
 32
0.0
 13
173.9997263499222
 23
40.01573156019873
 33
0.0
  0
MTEXT
  5
2B1C0
330
2B0AD
100
AcDbEntity
  8
寸法
 62
     2
440
 16777216
100
AcDbMText
 10
123.9997263499222
 20
42.76573156019873
 30
0.0
 40
3.5
 41
0.0
 46
0.0
 71
     5
 72
     1
  1
100
  7
寸法
 73
     1
 44
1.0
  0
POINT
  5
2B1C1
330
2B0AD
100
AcDbEntity
  8
Defpoints
 62
     0
440
 16777216
100
AcDbPoint
 10
73.99972634992218
 20
71.77807639711909
 30
0.0
  0
POINT
  5
2B1C2
330
2B0AD
100
AcDbEntity
  8
Defpoints
 62
     0
440
 16777216
100
AcDbPoint
 10
173.9997263499222
 20
71.77807639711907
 30
0.0
  0
POINT
  5
2B1C3
330
2B0AD
100
AcDbEntity
  8
Defpoints
 62
     0
440
 16777216
100
AcDbPoint
 10
173.9997263499222
 20
40.01573156019873
 30
0.0
  0
ENDBLK
  5
2B0AF
330
2B0AD
100
AcDbEntity
  8
0
100
AcDbBlockEnd
  0
BLOCK
  5
2B0C6
330
2B0C5
100
AcDbEntity
  8
0
100
AcDbBlockBegin
  2
*D9
 70
     1
 10
0.0
 20
0.0
 30
0.0
  3
*D9
  1

  0
LINE
  5
2B0D2
330
2B0C5
100
AcDbEntity
  8
寸法
 62
     0
440
 16777216
370
    -2
100
AcDbLine
 10
100.2577419750472
 20
60.1780763971191
 30
0.0
 11
54.23182027273174
 21
60.17807639711911
 31
0.0
  0
LINE
  5
2B0D3
330
2B0C5
100
AcDbEntity
  8
寸法
 62
     0
440
 16777216
370
    -2
100
AcDbLine
 10
67.24178803672248
 20
83.17807639711915
 30
0.0
 11
54.23182027273174
 21
83.17807639711915
 31
0.0
  0
LINE
  5
2B0D4
330
2B0C5
100
AcDbEntity
  8
寸法
 62
     0
440
 16777216
370
    -2
100
AcDbLine
 10
55.48182027273174
 20
62.67807639711911
 30
0.0
 11
55.48182027273174
 21
80.67807639711915
 31
0.0
  0
SOLID
  5
2B0D5
330
2B0C5
100
AcDbEntity
  8
寸法
 62
     0
440
 16777216
100
AcDbTrace
 10
55.06515360606507
 20
62.67807639711911
 30
0.0
 11
55.8984869393984
 21
62.67807639711911
 31
0.0
 12
55.48182027273174
 22
60.17807639711911
 32
0.0
 13
55.48182027273174
 23
60.17807639711911
 33
0.0
  0
SOLID
  5
2B0D6
330
2B0C5
100
AcDbEntity
  8
寸法
 62
     0
440
 16777216
100
AcDbTrace
 10
55.06515360606508
 20
80.67807639711915
 30
0.0
 11
55.89848693939841
 21
80.67807639711915
 31
0.0
 12
55.48182027273174
 22
83.17807639711915
 32
0.0
 13
55.48182027273174
 23
83.17807639711915
 33
0.0
  0
MTEXT
  5
2B0D7
330
2B0C5
100
AcDbEntity
  8
寸法
 62
     2
440
 16777216
100
AcDbMText
 10
52.73182027273173
 20
71.67807639711914
 30
0.0
 40
3.5
 41
0.0
 46
0.0
 71
     5
 72
     1
  1
23
  7
寸法
 11
0.0000000000000001
 21
1.0
 31
0.0
 73
     1
 44
1.0
  0
POINT
  5
2B0D8
330
2B0C5
100
AcDbEntity
  8
Defpoints
 62
     0
440
 16777216
100
AcDbPoint
 10
100.8827419750472
 20
60.1780763971191
 30
0.0
  0
POINT
  5
2B0D9
330
2B0C5
100
AcDbEntity
  8
Defpoints
 62
     0
440
 16777216
100
AcDbPoint
 10
67.86678803672248
 20
83.17807639711915
 30
0.0
  0
POINT
  5
2B0DA
330
2B0C5
100
AcDbEntity
  8
Defpoints
 62
     0
440
 16777216
100
AcDbPoint
 10
55.48182027273174
 20
83.17807639711915
 30
0.0
  0
ENDBLK
  5
2B0C7
330
2B0C5
100
AcDbEntity
  8
0
100
AcDbBlockEnd
  0
BLOCK
  5
2B0DE
330
2B0DD
100
AcDbEntity
  8
0
100
AcDbBlockBegin
  2
*D10
 70
     1
 10
0.0
 20
0.0
 30
0.0
  3
*D10
  1

  0
LINE
  5
2B0EA
330
2B0DD
100
AcDbEntity
  8
寸法
 62
     0
440
 16777216
370
    -2
100
AcDbLine
 10
100.2577419750472
 20
60.17807639711913
 30
0.0
 11
43.82689248025938
 21
60.17807639711914
 31
0.0
  0
LINE
  5
2B0EB
330
2B0DD
100
AcDbEntity
  8
寸法
 62
     0
440
 16777216
370
    -2
100
AcDbLine
 10
79.67472634992214
 20
151.1780763971191
 30
0.0
 11
43.8268924802594
 21
151.1780763971191
 31
0.0
  0
LINE
  5
2B0EC
330
2B0DD
100
AcDbEntity
  8
寸法
 62
     0
440
 16777216
370
    -2
100
AcDbLine
 10
45.07689248025938
 20
62.67807639711914
 30
0.0
 11
45.0768924802594
 21
148.6780763971191
 31
0.0
  0
SOLID
  5
2B0ED
330
2B0DD
100
AcDbEntity
  8
寸法
 62
     0
440
 16777216
100
AcDbTrace
 10
44.66022581359271
 20
62.67807639711914
 30
0.0
 11
45.49355914692604
 21
62.67807639711914
 31
0.0
 12
45.07689248025938
 22
60.17807639711914
 32
0.0
 13
45.07689248025938
 23
60.17807639711914
 33
0.0
  0
SOLID
  5
2B0EE
330
2B0DD
100
AcDbEntity
  8
寸法
 62
     0
440
 16777216
100
AcDbTrace
 10
44.66022581359274
 20
148.6780763971191
 30
0.0
 11
45.49355914692607
 21
148.6780763971191
 31
0.0
 12
45.0768924802594
 22
151.1780763971191
 32
0.0
 13
45.0768924802594
 23
151.1780763971191
 33
0.0
  0
MTEXT
  5
2B0EF
330
2B0DD
100
AcDbEntity
  8
寸法
 62
     2
440
 16777216
100
AcDbMText
 10
42.32689248025937
 20
105.6780763971191
 30
0.0
 40
3.5
 41
0.0
 46
0.0
 71
     5
 72
     1
  1
91
  7
寸法
 11
0.0000000000000001
 21
1.0
 31
0.0
 73
     1
 44
1.0
  0
POINT
  5
2B0F0
330
2B0DD
100
AcDbEntity
  8
Defpoints
 62
     0
440
 16777216
100
AcDbPoint
 10
100.8827419750472
 20
60.17807639711913
 30
0.0
  0
POINT
  5
2B0F1
330
2B0DD
100
AcDbEntity
  8
Defpoints
 62
     0
440
 16777216
100
AcDbPoint
 10
80.29972634992214
 20
151.1780763971191
 30
0.0
  0
POINT
  5
2B0F2
330
2B0DD
100
AcDbEntity
  8
Defpoints
 62
     0
440
 16777216
100
AcDbPoint
 10
45.0768924802594
 20
151.1780763971191
 30
0.0
  0
ENDBLK
  5
2B0DF
330
2B0DD
100
AcDbEntity
  8
0
100
AcDbBlockEnd
  0
ENDSEC
  0
SECTION
  2
ENTITIES
  0
TEXT
  5
108D
330
1F
100
AcDbEntity
  8
文字
100
AcDbText
 10
293.0
 20
27.25
 30
0.0
 40
3.0
  1

 41
0.8
 72
     1
 11
293.0
 21
28.75
 31
0.0
100
AcDbText
 73
     2
  0
TEXT
  5
108F
330
1F
100
AcDbEntity
  8
文字
100
AcDbText
 10
333.0
 20
27.5
 30
0.0
 40
3.0
  1

 41
0.8
 72
     1
 11
333.0
 21
29.0
 31
0.0
100
AcDbText
 73
     2
  0
TEXT
  5
1090
330
1F
100
AcDbEntity
  8
文字
100
AcDbText
 10
353.0
 20
27.5
 30
0.0
 40
3.0
  1

 41
0.8
 72
     1
 11
353.0
 21
29.0
 31
0.0
100
AcDbText
 73
     2
  0
MTEXT
  5
1581D
330
1F
100
AcDbEntity
  8
実線
 62
     2
100
AcDbMText
 10
196.5671900572592
 20
248.2436849630891
 30
0.0
 40
2.5
 41
0.0
 46
0.0
 71
     9
 72
     1
  1

  7
寸法
 73
     1
 44
1.0
  0
TEXT
  5
27C66
330
1F
100
AcDbEntity
  8
文字
100
AcDbText
 10
298.1627032852008
 20
123.632907800068
 30
0.0
 40
4.5
  1
表　示　部
 41
0.9
 72
     1
 11
309.7727032852008
 21
125.882907800068
 31
0.0
100
AcDbText
 73
     2
  0
LINE
  5
27C67
330
1F
100
AcDbEntity
  8
文字
100
AcDbLine
 10
296.5886027231083
 20
122.432087342263
 30
0.0
 11
323.5607326132747
 21
122.432087342263
 31
0.0
  0
LINE
  5
29A83
330
1F
100
AcDbEntity
  8
0
100
AcDbLine
 10
215.0
 20
272.0
 30
0.0
 11
215.0
 21
287.0
 31
0.0
  0
LINE
  5
29ABB
330
1F
100
AcDbEntity
  8
0
100
AcDbLine
 10
400.0
 20
148.5
 30
0.0
 11
415.0
 21
148.5
 31
0.0
  0
LINE
  5
29B24
330
1F
100
AcDbEntity
  8
0
100
AcDbLine
 10
215.0
 20
25.0
 30
0.0
 11
215.0
 21
10.0
 31
0.0
  0
LINE
  5
29B27
330
1F
100
AcDbEntity
  8
0
100
AcDbLine
 10
29.99999999999926
 20
148.4999999999989
 30
0.0
 11
15.0
 21
148.4999999999988
 31
0.0
  0
LINE
  5
29B3C
330
1F
100
AcDbEntity
  8
補助線
100
AcDbLine
 10
5.0
 20
297.0
 30
0.0
 11
5.0
 21
0.0
 31
0.0
  0
LINE
  5
29B3D
330
1F
100
AcDbEntity
  8
補助線
100
AcDbLine
 10
425.0
 20
297.0
 30
0.0
 11
5.0
 21
297.0
 31
0.0
  0
LINE
  5
29B3E
330
1F
100
AcDbEntity
  8
補助線
100
AcDbLine
 10
425.0
 20
0.0
 30
0.0
 11
425.0
 21
297.0
 31
0.0
  0
LINE
  5
29B3F
330
1F
100
AcDbEntity
  8
補助線
100
AcDbLine
 10
5.0
 20
0.0
 30
0.0
 11
425.0
 21
0.0
 31
0.0
  0
LINE
  5
29B58
330
1F
100
AcDbEntity
  8
0
100
AcDbLine
 10
24.99999999999926
 20
217.7499999999989
 30
0.0
 11
14.9999999999996
 21
217.7499999999988
 31
0.0
  0
LINE
  5
29B59
330
1F
100
AcDbEntity
  8
0
100
AcDbLine
 10
24.99999999999926
 20
79.24999999999887
 30
0.0
 11
15.00000000000039
 21
79.24999999999883
 31
0.0
  0
LINE
  5
29B5A
330
1F
100
AcDbEntity
  8
0
100
AcDbLine
 10
405.0
 20
217.75
 30
0.0
 11
415.0
 21
217.75
 31
0.0
  0
LINE
  5
29B5B
330
1F
100
AcDbEntity
  8
0
100
AcDbLine
 10
405.0
 20
79.25
 30
0.0
 11
415.0
 21
79.25
 31
0.0
  0
LINE
  5
29B74
330
1F
100
AcDbEntity
  8
0
100
AcDbLine
 10
115.0
 20
277.0
 30
0.0
 11
114.9999999999999
 21
286.9999999999998
 31
0.0
  0
LINE
  5
29B75
330
1F
100
AcDbEntity
  8
0
100
AcDbLine
 10
315.0
 20
277.0
 30
0.0
 11
315.0
 21
287.0000000000002
 31
0.0
  0
LINE
  5
29B76
330
1F
100
AcDbEntity
  8
0
100
AcDbLine
 10
114.9999999999999
 20
20.0
 30
0.0
 11
114.9999999999999
 21
10.0
 31
0.0
  0
LINE
  5
29B77
330
1F
100
AcDbEntity
  8
0
100
AcDbLine
 10
315.0
 20
20.0
 30
0.0
 11
315.0
 21
10.0
 31
0.0
  0
TEXT
  5
29B81
330
1F
100
AcDbEntity
  8
0
100
AcDbText
 10
56.87381033117557
 20
279.47215302696
 30
0.0
 40
5.0
  1
1
 41
0.8
 72
     1
 11
58.4928579502232
 21
281.97215302696
 31
0.0
100
AcDbText
 73
     2
  0
TEXT
  5
29B83
330
1F
100
AcDbEntity
  8
0
100
AcDbText
 10
156.5880960454613
 20
279.4721530269602
 30
0.0
 40
5.0
  1
2
 41
0.8
 72
     1
 11
158.4928579502232
 21
281.9721530269601
 31
0.0
100
AcDbText
 73
     2
  0
TEXT
  5
29B84
330
1F
100
AcDbEntity
  8
0
100
AcDbText
 10
256.5880960454613
 20
279.47215302696
 30
0.0
 40
5.0
  1
3
 41
0.8
 72
     1
 11
258.4928579502232
 21
281.97215302696
 31
0.0
100
AcDbText
 73
     2
  0
TEXT
  5
29B85
330
1F
100
AcDbEntity
  8
0
100
AcDbText
 10
356.4928579502232
 20
279.47215302696
 30
0.0
 40
5.0
  1
4
 41
0.8
 72
     1
 11
358.4928579502232
 21
281.97215302696
 31
0.0
100
AcDbText
 73
     2
  0
TEXT
  5
29B86
330
1F
100
AcDbEntity
  8
0
100
AcDbText
 10
56.87381033117557
 20
12.84246760572546
 30
0.0
 40
5.0
  1
1
 41
0.8
 72
     1
 11
58.4928579502232
 21
15.34246760572546
 31
0.0
100
AcDbText
 73
     2
  0
TEXT
  5
29B87
330
1F
100
AcDbEntity
  8
0
100
AcDbText
 10
156.5880960454613
 20
12.84246760572563
 30
0.0
 40
5.0
  1
2
 41
0.8
 72
     1
 11
158.4928579502232
 21
15.34246760572563
 31
0.0
100
AcDbText
 73
     2
  0
TEXT
  5
29B88
330
1F
100
AcDbEntity
  8
0
100
AcDbText
 10
256.5880960454613
 20
12.84246760572546
 30
0.0
 40
5.0
  1
3
 41
0.8
 72
     1
 11
258.4928579502232
 21
15.34246760572546
 31
0.0
100
AcDbText
 73
     2
  0
TEXT
  5
29B89
330
1F
100
AcDbEntity
  8
0
100
AcDbText
 10
356.4928579502232
 20
12.84246760572546
 30
0.0
 40
5.0
  1
4
 41
0.8
 72
     1
 11
358.4928579502232
 21
15.34246760572546
 31
0.0
100
AcDbText
 73
     2
  0
TEXT
  5
29B8A
330
1F
100
AcDbEntity
  8
0
100
AcDbText
 10
18.58632463146319
 20
250.0319149255158
 30
0.0
 40
5.0
  1
A
 41
0.8
 72
     1
 11
20.30061034574891
 21
252.5319149255158
 31
0.0
100
AcDbText
 73
     2
  0
TEXT
  5
29B8B
330
1F
100
AcDbEntity
  8
0
100
AcDbText
 10
18.2053722505112
 20
180.7819149255158
 30
0.0
 40
5.0
  1
B
 41
0.8
 72
     1
 11
20.3006103457493
 21
183.2819149255158
 31
0.0
100
AcDbText
 73
     2
  0
TEXT
  5
29B8C
330
1F
100
AcDbEntity
  8
0
100
AcDbText
 10
18.30061034574891
 20
111.5319149255158
 30
0.0
 40
5.0
  1
C
 41
0.8
 72
     1
 11
20.30061034574891
 21
114.0319149255158
 31
0.0
100
AcDbText
 73
     2
  0
TEXT
  5
29B8D
330
1F
100
AcDbEntity
  8
0
100
AcDbText
 10
18.20537225051081
 20
42.28191492551693
 30
0.0
 40
5.0
  1
D
 41
0.8
 72
     1
 11
20.30061034574891
 21
44.78191492551693
 31
0.0
100
AcDbText
 73
     2
  0
TEXT
  5
29B8E
330
1F
100
AcDbEntity
  8
0
100
AcDbText
 10
408.0524664877939
 20
250.0319149255158
 30
0.0
 40
5.0
  1
A
 41
0.8
 72
     1
 11
409.7667522020797
 21
252.5319149255158
 31
0.0
100
AcDbText
 73
     2
  0
TEXT
  5
29B8F
330
1F
100
AcDbEntity
  8
0
100
AcDbText
 10
407.671514106842
 20
180.7819149255158
 30
0.0
 40
5.0
  1
B
 41
0.8
 72
     1
 11
409.7667522020801
 21
183.2819149255158
 31
0.0
100
AcDbText
 73
     2
  0
TEXT
  5
29B90
330
1F
100
AcDbEntity
  8
0
100
AcDbText
 10
407.7667522020797
 20
111.5319149255158
 30
0.0
 40
5.0
  1
C
 41
0.8
 72
     1
 11
409.7667522020797
 21
114.0319149255158
 31
0.0
100
AcDbText
 73
     2
  0
TEXT
  5
29B91
330
1F
100
AcDbEntity
  8
0
100
AcDbText
 10
407.6715141068416
 20
42.28191492551693
 30
0.0
 40
5.0
  1
D
 41
0.8
 72
     1
 11
409.7667522020797
 21
44.78191492551693
 31
0.0
100
AcDbText
 73
     2
  0
TEXT
  5
2A158
330
1F
100
AcDbEntity
  8
寸法
100
AcDbText
 10
181.2583571932892
 20
112.4151930239214
 30
0.0
 40
3.5
  1
φ26.4～山14　上水
 41
0.9
  7
寸法
100
AcDbText
  0
SOLID
  5
2A159
330
1F
100
AcDbEntity
  8
寸法
100
AcDbTrace
 10
168.8778288705018
 20
98.34765693417276
 30
0.0
 11
167.7497263499222
 21
96.07807639711907
 31
0.0
 12
169.5529305300555
 22
97.85910581738725
 32
0.0
 13
169.5529305300555
 23
97.85910581738725
 33
0.0
1001
ACAD
1000
DSTYLE
1002
{
1070
   147
1040
1.0
1070
    77
1070
     0
1002
}
  0
LWPOLYLINE
  5
2A15A
330
1F
100
AcDbEntity
  8
寸法
100
AcDbPolyline
 90
        3
 70
     0
 43
0.0
 10
169.2153797002786
 20
98.10338137578
 10
178.644377750594
 20
111.1327901991166
 10
224.4321360158589
 20
111.1327901991166
1001
ACAD
1000
DSTYLE
1002
{
1070
   147
1040
1.0
1070
    77
1070
     0
1002
}
  0
TEXT
  5
2A15B
330
1F
100
AcDbEntity
  8
寸法
100
AcDbText
 10
181.4180294386548
 20
106.672718875446
 30
0.0
 40
3.5
  1
φ25.8～山14　金門
 41
0.9
  7
寸法
100
AcDbText
  0
LINE
  5
2A351
330
1F
100
AcDbEntity
  8
0
100
AcDbLine
 10
280.0
 20
20.0
 30
0.0
 11
280.0
 21
68.0
 31
0.0
  0
LINE
  5
2A352
330
1F
100
AcDbEntity
  8
0
100
AcDbLine
 10
280.0
 20
35.0
 30
0.0
 11
405.0
 21
35.0
 31
0.0
  0
LINE
  5
2A353
330
1F
100
AcDbEntity
  8
0
100
AcDbLine
 10
280.0
 20
58.0
 30
0.0
 11
405.0
 21
58.0
 31
0.0
  0
LINE
  5
2A354
330
1F
100
AcDbEntity
  8
0
100
AcDbLine
 10
280.0
 20
68.0
 30
0.0
 11
405.0
 21
68.0
 31
0.0
  0
LINE
  5
2A355
330
1F
100
AcDbEntity
  8
0
100
AcDbLine
 10
292.5
 20
35.0
 30
0.0
 11
292.5
 21
20.0
 31
0.0
  0
LINE
  5
2A356
330
1F
100
AcDbEntity
  8
0
100
AcDbLine
 10
305.0
 20
35.0
 30
0.0
 11
305.0
 21
20.0
 31
0.0
  0
LINE
  5
2A357
330
1F
100
AcDbEntity
  8
0
100
AcDbLine
 10
317.5
 20
35.0
 30
0.0
 11
317.5
 21
20.0
 31
0.0
  0
LINE
  5
2A358
330
1F
100
AcDbEntity
  8
0
100
AcDbLine
 10
330.0
 20
35.0
 30
0.0
 11
330.0
 21
20.0
 31
0.0
  0
LINE
  5
2A359
330
1F
100
AcDbEntity
  8
0
100
AcDbLine
 10
342.5
 20
58.0
 30
0.0
 11
342.5
 21
20.0
 31
0.0
  0
LINE
  5
2A35A
330
1F
100
AcDbEntity
  8
0
100
AcDbLine
 10
373.7499999999999
 20
46.49999999999999
 30
0.0
 11
373.7499999999999
 21
35.0
 31
0.0
  0
LINE
  5
2A35B
330
1F
100
AcDbEntity
  8
0
100
AcDbLine
 10
301.5
 20
68.0
 30
0.0
 11
301.5
 21
58.0
 31
0.0
  0
LINE
  5
2A35C
330
1F
100
AcDbEntity
  8
0
100
AcDbLine
 10
280.0
 20
31.0
 30
0.0
 11
342.5
 21
31.0
 31
0.0
  0
TEXT
  5
2A35D
330
1F
100
AcDbEntity
  8
0
100
AcDbText
 10
287.96
 20
61.5
 30
0.0
 40
3.0
  1
品名
 41
0.9
 72
     1
 11
290.75
 21
63.0
 31
0.0
100
AcDbText
 73
     2
  0
TEXT
  5
2A35E
330
1F
100
AcDbEntity
  8
0
100
AcDbText
 10
283.37
 20
31.5
 30
0.0
 40
3.0
  1
承認
 41
0.9
 72
     1
 11
286.25
 21
33.0
 31
0.0
100
AcDbText
 73
     2
  0
TEXT
  5
2A35F
330
1F
100
AcDbEntity
  8
0
100
AcDbText
 10
295.96
 20
31.5
 30
0.0
 40
3.0
  1
検図
 41
0.9
 72
     1
 11
298.75
 21
33.0
 31
0.0
100
AcDbText
 73
     2
  0
TEXT
  5
2A360
330
1F
100
AcDbEntity
  8
0
100
AcDbText
 10
308.46
 20
31.5
 30
0.0
 40
3.0
  1
製図
 41
0.9
 72
     1
 11
311.25
 21
33.0
 31
0.0
100
AcDbText
 73
     2
  0
TEXT
  5
2A361
330
1F
100
AcDbEntity
  8
0
100
AcDbText
 10
319.43
 20
31.5
 30
0.0
 40
3.0
  1
年月日
 41
0.9
 72
     1
 11
323.75
 21
33.0
 31
0.0
100
AcDbText
 73
     2
  0
TEXT
  5
2A362
330
1F
100
AcDbEntity
  8
0
100
AcDbText
 10
333.37
 20
31.5
 30
0.0
 40
3.0
  1
尺度
 41
0.9
 72
     1
 11
336.25
 21
33.0
 31
0.0
100
AcDbText
 73
     2
  0
TEXT
  5
2A363
330
1F
100
AcDbEntity
  8
0
100
AcDbText
 10
347.5141191097013
 20
25.47732717604083
 30
0.0
 40
5.0
  1
柏原計器工業株式会社
 41
0.9
 72
     1
 11
373.9141191097012
 21
27.97732717604083
 31
0.0
100
AcDbText
 73
     2
  0
TEXT
  5
2A364
330
1F
100
AcDbEntity
  8
0
100
AcDbText
 10
331.75
 20
23.75
 30
0.0
 40
3.5
  1
free
 41
0.9
 72
     1
 11
336.25
 21
25.5
 31
0.0
100
AcDbText
 73
     2
  0
TEXT
  5
2A365
330
1F
100
AcDbEntity
  8
0
100
AcDbText
 10
306.5860329945233
 20
50.90516497261692
 30
0.0
 40
3.5
  1
外観図
 41
0.9
 72
     1
 11
311.7310329945233
 21
52.65516497261692
 31
0.0
100
AcDbText
 73
     2
  0
TEXT
  5
2A366
330
1F
100
AcDbEntity
  8
0
100
AcDbText
 10
309.2835983023972
 20
61.25
 30
0.0
 40
3.5
  1
接線流羽根車式乾式直読式水道メーター　13mm
 41
0.9
 72
     1
 11
352.3935983023971
 21
63.0
 31
0.0
100
AcDbText
 73
     2
  0
LINE
  5
2A367
330
1F
100
AcDbEntity
  8
0
100
AcDbLine
 10
404.9999999999998
 20
46.49999999999999
 30
0.0
 11
280.0
 21
46.5
 31
0.0
  0
LINE
  5
2A369
330
1F
100
AcDbEntity
  8
0
100
AcDbLine
 10
347.5
 20
57.99999999999999
 30
0.0
 11
347.5
 21
46.5
 31
0.0
  0
TEXT
  5
2A36A
330
1F
100
AcDbEntity
  8
0
100
AcDbText
 10
343.8012444219987
 20
53.78915733104803
 30
0.0
 40
3.0
  1
図
 41
0.9
 72
     1
 11
345.0612444219987
 21
55.28915733104803
 31
0.0
100
AcDbText
 73
     2
  0
TEXT
  5
2A36B
330
1F
100
AcDbEntity
  8
0
100
AcDbText
 10
343.74
 20
48.125
 30
0.0
 40
3.0
  1
番
 41
0.9
 72
     1
 11
345.0
 21
49.62499999999999
 31
0.0
100
AcDbText
 73
     2
  0
LINE
  5
2A36C
330
1F
100
AcDbEntity
  8
0
100
AcDbLine
 10
285.0
 20
46.49999999999999
 30
0.0
 11
285.0
 21
35.0
 31
0.0
  0
TEXT
  5
2A36D
330
1F
100
AcDbEntity
  8
0
100
AcDbText
 10
281.3012444219987
 20
42.28915733104803
 30
0.0
 40
3.0
  1
摘
 41
0.9
 72
     1
 11
282.5612444219987
 21
43.78915733104803
 31
0.0
100
AcDbText
 73
     2
  0
TEXT
  5
2A36E
330
1F
100
AcDbEntity
  8
0
100
AcDbText
 10
281.24
 20
36.625
 30
0.0
 40
3.0
  1
要
 41
0.9
 72
     1
 11
282.5
 21
38.125
 31
0.0
100
AcDbText
 73
     2
  0
LINE
  5
2A36F
330
1F
100
AcDbEntity
  8
0
100
AcDbLine
 10
285.0
 20
57.99999999999999
 30
0.0
 11
285.0
 21
46.5
 31
0.0
  0
TEXT
  5
2A370
330
1F
100
AcDbEntity
  8
0
100
AcDbText
 10
281.3912444219987
 20
53.78915733104803
 30
0.0
 40
3.0
  1
名
 41
0.9
 72
     1
 11
282.5612444219987
 21
55.28915733104803
 31
0.0
100
AcDbText
 73
     2
  0
TEXT
  5
2A371
330
1F
100
AcDbEntity
  8
0
100
AcDbText
 10
281.24
 20
48.125
 30
0.0
 40
3.0
  1
称
 41
0.9
 72
     1
 11
282.5
 21
49.62499999999999
 31
0.0
100
AcDbText
 73
     2
  0
LINE
  5
2A372
330
1F
100
AcDbEntity
  8
0
  6
CENTER
 48
0.2
370
    15
100
AcDbLine
 10
380.3743237194039
 20
40.70717840942182
 30
0.0
 11
402.3661932218493
 21
40.70717840942182
 31
0.0
  0
LINE
  5
2A373
330
1F
100
AcDbEntity
  8
0
  6
CENTER
 48
0.2
370
    15
100
AcDbLine
 10
385.6829979138538
 20
45.02275052681983
 30
0.0
 11
385.6829979138538
 21
36.39160629202382
 31
0.0
  0
CIRCLE
  5
2A374
330
1F
100
AcDbEntity
  8
0
100
AcDbCircle
 10
385.6829979138538
 20
40.70717840942182
 30
0.0
 40
3.616483184024218
  0
CIRCLE
  5
2A375
330
1F
100
AcDbEntity
  8
0
100
AcDbCircle
 10
385.6829979138538
 20
40.70717840942182
 30
0.0
 40
2.153012167676263
  0
LINE
  5
2A376
330
1F
100
AcDbEntity
  8
0
100
AcDbLine
 10
391.435352056124
 20
42.86019057709808
 30
0.0
 11
391.435352056124
 21
38.5377720924151
 31
0.0
  0
LINE
  5
2A377
330
1F
100
AcDbEntity
  8
0
100
AcDbLine
 10
391.435352056124
 20
38.5377720924151
 30
0.0
 11
400.8293035353753
 21
37.0906952253976
 31
0.0
  0
LINE
  5
2A378
330
1F
100
AcDbEntity
  8
0
100
AcDbLine
 10
400.8293035353753
 20
37.0906952253976
 30
0.0
 11
400.8293035353753
 21
44.32366159344604
 31
0.0
  0
LINE
  5
2A379
330
1F
100
AcDbEntity
  8
0
100
AcDbLine
 10
400.8293035353753
 20
44.32366159344604
 30
0.0
 11
391.435352056124
 21
42.86019057709808
 31
0.0
  0
TEXT
  5
2A37A
330
1F
100
AcDbEntity
  8
0
100
AcDbText
 10
343.8012444219987
 20
42.28915733104803
 30
0.0
 40
3.0
  1
材
 41
0.9
 72
     1
 11
345.0612444219987
 21
43.78915733104803
 31
0.0
100
AcDbText
 73
     2
  0
TEXT
  5
2A37B
330
1F
100
AcDbEntity
  8
0
100
AcDbText
 10
343.74
 20
36.625
 30
0.0
 40
3.0
  1
質
 41
0.9
 72
     1
 11
345.0
 21
38.125
 31
0.0
100
AcDbText
 73
     2
  0
LINE
  5
2A37C
330
1F
100
AcDbEntity
  8
0
100
AcDbLine
 10
347.5
 20
46.49999999999999
 30
0.0
 11
347.5
 21
35.0
 31
0.0
  0
TEXT
  5
2A37D
330
1F
100
AcDbEntity
  8
0
100
AcDbText
 10
375.0512444219985
 20
42.72828299788964
 30
0.0
 40
3.0
  1
投
 41
0.9
 72
     1
 11
376.3112444219985
 21
44.22828299788965
 31
0.0
100
AcDbText
 73
     2
  0
TEXT
  5
2A37E
330
1F
100
AcDbEntity
  8
0
100
AcDbText
 10
374.9899999999998
 20
35.74674936600604
 30
0.0
 40
3.0
  1
法
 41
0.9
 72
     1
 11
376.2499999999998
 21
37.24674936600604
 31
0.0
100
AcDbText
 73
     2
  0
LINE
  5
2A37F
330
1F
100
AcDbEntity
  8
0
100
AcDbLine
 10
378.7499999999998
 20
46.49999999999999
 30
0.0
 11
378.7499999999998
 21
35.0
 31
0.0
  0
TEXT
  5
2A380
330
1F
100
AcDbEntity
  8
0
100
AcDbText
 10
375.0512444219985
 20
39.32506030432352
 30
0.0
 40
3.0
  1
影
 41
0.9
 72
     1
 11
376.3112444219985
 21
40.82506030432351
 31
0.0
100
AcDbText
 73
     2
  0
TEXT
  5
2A77A
330
1F
100
AcDbEntity
  8
0
100
AcDbText
 10
317.8166666666667
 20
26.58703627890884
 30
0.0
 40
3.5
  1
2019.
 41
0.8
 72
     1
 11
323.75
 21
28.33703627890884
 31
0.0
100
AcDbText
 73
     2
  0
TEXT
  5
2A77B
330
1F
100
AcDbEntity
  8
0
100
AcDbText
 10
317.55
 20
21.53356531963254
 30
0.0
 40
3.5
  1
11.20
 41
0.8
 72
     1
 11
323.75
 21
23.28356531963255
 31
0.0
100
AcDbText
 73
     2
  0
HATCH
  5
2AC03
330
1F
100
AcDbEntity
  8
細線
100
AcDbHatch
 10
0.0
 20
0.0
 30
0.0
210
0.0
220
0.0
230
1.0
  2
SOLID
 70
     1
 71
     0
 91
        2
 92
        7
 72
     1
 73
     1
 93
       15
 10
317.4987185205732
 20
216.3264668907142
 42
0.0
 10
317.4987185205732
 20
213.7014668907142
 42
0.0
 10
318.1987185205733
 20
213.7014668907142
 42
0.0
 10
318.1987185205733
 20
216.3264668907142
 42
0.7071067811865488
 10
315.3987185205732
 20
217.3164163843753
 42
0.3879073040668111
 10
313.2987185205732
 20
217.636046976085
 42
0.0
 10
313.2987185205732
 20
217.9014668907143
 42
0.0
 10
312.5987185205731
 20
217.9014668907143
 42
0.0
 10
312.5987185205731
 20
213.7014668907142
 42
0.0
 10
313.2987185205732
 20
213.7014668907142
 42
0.0
 10
313.2987185205732
 20
216.3264668907142
 42
-1.0
 10
315.0487185205732
 20
216.3264668907142
 42
0.0
 10
315.0487185205732
 20
213.7014668907142
 42
0.0
 10
315.7487185205732
 20
213.7014668907142
 42
0.0
 10
315.7487185205732
 20
216.3264668907142
 42
-1.0
 97
        0
 92
        7
 72
     0
 73
     1
 93
       53
 10
320.2217689205729
 20
219.9302796907142
 10
319.7118399205729
 20
219.9302796907142
 10
319.2786659205729
 20
219.7900920907142
 10
319.0546421205734
 20
219.6722610907142
 10
318.8302641205728
 20
219.4362672907142
 10
318.7271345205729
 20
219.2193400907141
 10
319.106450520573
 20
219.0390088907142
 10
319.1808129205731
 20
219.1954238907143
 10
319.3113685205733
 20
219.3327386907142
 10
319.442281120573
 20
219.4015962907141
 10
319.778110320573
 20
219.5102796907141
 10
320.1554985205732
 20
219.5102796907141
 10
320.4913277205731
 20
219.4015962907141
 10
320.6222403205729
 20
219.3327386907142
 10
320.7527889205728
 20
219.1954322907142
 10
320.806792520573
 20
219.0818082907141
 10
320.806792520573
 20
218.8903106907143
 10
320.7485511205732
 20
218.7473496907143
 10
320.6395093205733
 20
218.6326518907143
 10
320.368519720573
 20
218.5613988907142
 10
319.478762320573
 20
218.5613988907142
 10
319.478762320573
 20
218.1413988907142
 10
320.343812520573
 20
218.1413988907142
 10
320.6222431205731
 20
217.9949630907142
 10
320.7527889205728
 20
217.8576594907142
 10
320.806792520573
 20
217.7440340907143
 10
320.806792520573
 20
217.5276598907142
 10
320.7527861205731
 20
217.4140316907143
 10
320.6222417205731
 20
217.2767154907143
 10
320.4983711205732
 20
217.2115748907141
 10
320.1635121205734
 20
217.1302964907142
 10
319.7700967205733
 20
217.1302964907142
 10
319.4485587205731
 20
217.2083422907143
 10
319.2319997205732
 20
217.3601946907143
 10
319.068982320573
 20
217.5316498907142
 10
318.7646027205733
 20
217.2422502907142
 10
318.9565217205732
 20
217.0403954907143
 10
319.2723883205729
 20
216.8189070907143
 10
319.7198535205728
 20
216.7102964907143
 10
320.2137553205732
 20
216.7102964907143
 10
320.647899520573
 20
216.8156744907143
 10
320.8789653205729
 20
216.9371860907141
 10
321.1033545205733
 20
217.1732148907143
 10
321.2267925205733
 20
217.4329274907143
 10
321.2267925205733
 20
217.8387664907142
 10
321.1033517205728
 20
218.0984846907141
 10
320.9072635205732
 20
218.3047270907142
 10
321.1075895205731
 20
218.5154424907143
 10
321.2267925205733
 20
218.8080410907143
 10
321.2267925205733
 20
219.1765406907142
 10
321.1033517205728
 20
219.4362588907142
 10
320.8789667205733
 20
219.6722610907142
 10
320.6549429205732
 20
219.7900920907142
 97
        0
 75
     0
 76
     1
 47
0.0539619229675026
 98
        2
 10
316.0380968436673
 20
217.1992547762403
 10
320.2512855398825
 20
219.8433887569589
450
        0
451
        0
460
0.0
461
0.0
452
        1
462
1.0
453
        2
463
0.0
 63
     5
421
      255
463
1.0
 63
     7
421
 16777215
470
LINEAR
1001
ACAD
1010
0.0
1020
0.0
1030
0.0
  0
LINE
  5
2AC04
330
1F
100
AcDbEntity
  8
実線
100
AcDbLine
 10
313.2987185205732
 20
213.7014668907142
 30
0.0
 11
313.2987185205732
 21
216.3264668907142
 31
0.0
  0
LINE
  5
2AC05
330
1F
100
AcDbEntity
  8
実線
100
AcDbLine
 10
313.2987185205732
 20
217.6360464907143
 30
0.0
 11
313.2987185205732
 21
217.9014668907143
 31
0.0
  0
LINE
  5
2AC06
330
1F
100
AcDbEntity
  8
実線
100
AcDbLine
 10
312.5987185205731
 20
213.7014668907142
 30
0.0
 11
312.5987185205731
 21
217.9014668907143
 31
0.0
  0
ARC
  5
2AC07
330
1F
100
AcDbEntity
  8
実線
100
AcDbCircle
 10
314.1737185205732
 20
216.3264668907142
 30
0.0
 40
0.875
100
AcDbArc
 50
0.0
 51
180.0
  0
ARC
  5
2AC08
330
1F
100
AcDbEntity
  8
実線
100
AcDbCircle
 10
314.1737185205732
 20
216.3264668907142
 30
0.0
 40
1.575
100
AcDbArc
 50
38.9424409999989
 51
123.7489890000024
  0
LINE
  5
2AC09
330
1F
100
AcDbEntity
  8
実線
100
AcDbLine
 10
315.0487185205732
 20
213.7014668907142
 30
0.0
 11
315.0487185205732
 21
216.3264668907142
 31
0.0
  0
LINE
  5
2AC0A
330
1F
100
AcDbEntity
  8
実線
100
AcDbLine
 10
315.7487185205732
 20
213.7014668907142
 30
0.0
 11
315.7487185205732
 21
216.3264668907142
 31
0.0
  0
ARC
  5
2AC0B
330
1F
100
AcDbEntity
  8
実線
100
AcDbCircle
 10
316.6237185205732
 20
216.3264668907142
 30
0.0
 40
1.575
100
AcDbArc
 50
0.0
 51
141.0575590000011
  0
ARC
  5
2AC0C
330
1F
100
AcDbEntity
  8
実線
100
AcDbCircle
 10
316.6237185205732
 20
216.3264668907142
 30
0.0
 40
0.875
100
AcDbArc
 50
0.0
 51
180.0
  0
LINE
  5
2AC0D
330
1F
100
AcDbEntity
  8
実線
100
AcDbLine
 10
317.4987185205732
 20
213.7014668907142
 30
0.0
 11
317.4987185205732
 21
216.3264668907142
 31
0.0
  0
LINE
  5
2AC0E
330
1F
100
AcDbEntity
  8
実線
100
AcDbLine
 10
318.1987185205733
 20
213.7014668907142
 30
0.0
 11
318.1987185205733
 21
216.3264668907142
 31
0.0
  0
LINE
  5
2AC0F
330
1F
100
AcDbEntity
  8
実線
100
AcDbLine
 10
312.5987185205731
 20
217.9014668907143
 30
0.0
 11
313.2987185205732
 21
217.9014668907143
 31
0.0
  0
LINE
  5
2AC10
330
1F
100
AcDbEntity
  8
実線
100
AcDbLine
 10
312.5987185205731
 20
213.7014668907142
 30
0.0
 11
313.2987185205732
 21
213.7014668907142
 31
0.0
  0
LINE
  5
2AC11
330
1F
100
AcDbEntity
  8
実線
100
AcDbLine
 10
315.0487185205732
 20
213.7014668907142
 30
0.0
 11
315.7487185205732
 21
213.7014668907142
 31
0.0
  0
LINE
  5
2AC12
330
1F
100
AcDbEntity
  8
実線
100
AcDbLine
 10
317.4987185205732
 20
213.7014668907142
 30
0.0
 11
318.1987185205733
 21
213.7014668907142
 31
0.0
  0
LINE
  5
2AC13
330
1F
100
AcDbEntity
  8
実線
100
AcDbLine
 10
318.9565217205732
 20
217.0403954907143
 30
0.0
 11
318.7646027205733
 21
217.2422502907142
 31
0.0
  0
LINE
  5
2AC14
330
1F
100
AcDbEntity
  8
実線
100
AcDbLine
 10
319.2723883205729
 20
216.8189070907143
 30
0.0
 11
318.9565217205732
 21
217.0403954907143
 31
0.0
  0
LINE
  5
2AC15
330
1F
100
AcDbEntity
  8
実線
100
AcDbLine
 10
319.7198535205728
 20
216.7102964907143
 30
0.0
 11
319.2723883205729
 21
216.8189070907143
 31
0.0
  0
LINE
  5
2AC16
330
1F
100
AcDbEntity
  8
実線
100
AcDbLine
 10
320.2137553205732
 20
216.7102964907143
 30
0.0
 11
319.7198535205728
 21
216.7102964907143
 31
0.0
  0
LINE
  5
2AC17
330
1F
100
AcDbEntity
  8
実線
100
AcDbLine
 10
320.647899520573
 20
216.8156744907143
 30
0.0
 11
320.2137553205732
 21
216.7102964907143
 31
0.0
  0
LINE
  5
2AC18
330
1F
100
AcDbEntity
  8
実線
100
AcDbLine
 10
320.8789653205729
 20
216.9371860907141
 30
0.0
 11
320.647899520573
 21
216.8156744907143
 31
0.0
  0
LINE
  5
2AC19
330
1F
100
AcDbEntity
  8
実線
100
AcDbLine
 10
321.1033545205733
 20
217.1732148907143
 30
0.0
 11
320.8789653205729
 21
216.9371860907141
 31
0.0
  0
LINE
  5
2AC1A
330
1F
100
AcDbEntity
  8
実線
100
AcDbLine
 10
321.2267925205733
 20
217.4329274907143
 30
0.0
 11
321.1033545205733
 21
217.1732148907143
 31
0.0
  0
LINE
  5
2AC1B
330
1F
100
AcDbEntity
  8
実線
100
AcDbLine
 10
321.2267925205733
 20
217.8387664907142
 30
0.0
 11
321.2267925205733
 21
217.4329274907143
 31
0.0
  0
LINE
  5
2AC1C
330
1F
100
AcDbEntity
  8
実線
100
AcDbLine
 10
321.1033517205728
 20
218.0984846907141
 30
0.0
 11
321.2267925205733
 21
217.8387664907142
 31
0.0
  0
LINE
  5
2AC1D
330
1F
100
AcDbEntity
  8
実線
100
AcDbLine
 10
320.9072635205732
 20
218.3047270907142
 30
0.0
 11
321.1033517205728
 21
218.0984846907141
 31
0.0
  0
LINE
  5
2AC1E
330
1F
100
AcDbEntity
  8
実線
100
AcDbLine
 10
318.7271345205729
 20
219.2193400907141
 30
0.0
 11
318.8302641205728
 21
219.4362672907142
 31
0.0
  0
LINE
  5
2AC1F
330
1F
100
AcDbEntity
  8
実線
100
AcDbLine
 10
318.8302641205728
 20
219.4362672907142
 30
0.0
 11
319.0546421205734
 21
219.6722610907142
 31
0.0
  0
LINE
  5
2AC20
330
1F
100
AcDbEntity
  8
実線
100
AcDbLine
 10
319.0546421205734
 20
219.6722610907142
 30
0.0
 11
319.2786659205729
 21
219.7900920907142
 31
0.0
  0
LINE
  5
2AC21
330
1F
100
AcDbEntity
  8
実線
100
AcDbLine
 10
319.2786659205729
 20
219.7900920907142
 30
0.0
 11
319.7118399205729
 21
219.9302796907142
 31
0.0
  0
LINE
  5
2AC22
330
1F
100
AcDbEntity
  8
実線
100
AcDbLine
 10
319.7118399205729
 20
219.9302796907142
 30
0.0
 11
320.2217689205729
 21
219.9302796907142
 31
0.0
  0
LINE
  5
2AC23
330
1F
100
AcDbEntity
  8
実線
100
AcDbLine
 10
320.2217689205729
 20
219.9302796907142
 30
0.0
 11
320.6549429205732
 21
219.7900920907142
 31
0.0
  0
LINE
  5
2AC24
330
1F
100
AcDbEntity
  8
実線
100
AcDbLine
 10
320.6549429205732
 20
219.7900920907142
 30
0.0
 11
320.8789667205733
 21
219.6722610907142
 31
0.0
  0
LINE
  5
2AC25
330
1F
100
AcDbEntity
  8
実線
100
AcDbLine
 10
320.8789667205733
 20
219.6722610907142
 30
0.0
 11
321.1033517205728
 21
219.4362588907142
 31
0.0
  0
LINE
  5
2AC26
330
1F
100
AcDbEntity
  8
実線
100
AcDbLine
 10
321.1033517205728
 20
219.4362588907142
 30
0.0
 11
321.2267925205733
 21
219.1765406907142
 31
0.0
  0
LINE
  5
2AC27
330
1F
100
AcDbEntity
  8
実線
100
AcDbLine
 10
321.2267925205733
 20
219.1765406907142
 30
0.0
 11
321.2267925205733
 21
218.8080410907143
 31
0.0
  0
LINE
  5
2AC28
330
1F
100
AcDbEntity
  8
実線
100
AcDbLine
 10
321.2267925205733
 20
218.8080410907143
 30
0.0
 11
321.1075895205731
 21
218.5154424907143
 31
0.0
  0
LINE
  5
2AC29
330
1F
100
AcDbEntity
  8
実線
100
AcDbLine
 10
321.1075895205731
 20
218.5154424907143
 30
0.0
 11
320.9072635205732
 21
218.3047270907142
 31
0.0
  0
LINE
  5
2AC2A
330
1F
100
AcDbEntity
  8
実線
100
AcDbLine
 10
319.2319997205732
 20
217.3601946907143
 30
0.0
 11
319.068982320573
 21
217.5316498907142
 31
0.0
  0
LINE
  5
2AC2B
330
1F
100
AcDbEntity
  8
実線
100
AcDbLine
 10
319.4485587205731
 20
217.2083422907143
 30
0.0
 11
319.2319997205732
 21
217.3601946907143
 31
0.0
  0
LINE
  5
2AC2C
330
1F
100
AcDbEntity
  8
実線
100
AcDbLine
 10
319.7700967205733
 20
217.1302964907142
 30
0.0
 11
319.4485587205731
 21
217.2083422907143
 31
0.0
  0
LINE
  5
2AC2D
330
1F
100
AcDbEntity
  8
実線
100
AcDbLine
 10
320.1635121205734
 20
217.1302964907142
 30
0.0
 11
319.7700967205733
 21
217.1302964907142
 31
0.0
  0
LINE
  5
2AC2E
330
1F
100
AcDbEntity
  8
実線
100
AcDbLine
 10
320.4983711205732
 20
217.2115748907141
 30
0.0
 11
320.1635121205734
 21
217.1302964907142
 31
0.0
  0
LINE
  5
2AC2F
330
1F
100
AcDbEntity
  8
実線
100
AcDbLine
 10
320.6222417205731
 20
217.2767154907143
 30
0.0
 11
320.4983711205732
 21
217.2115748907141
 31
0.0
  0
LINE
  5
2AC30
330
1F
100
AcDbEntity
  8
実線
100
AcDbLine
 10
320.7527861205731
 20
217.4140316907143
 30
0.0
 11
320.6222417205731
 21
217.2767154907143
 31
0.0
  0
LINE
  5
2AC31
330
1F
100
AcDbEntity
  8
実線
100
AcDbLine
 10
320.806792520573
 20
217.5276598907142
 30
0.0
 11
320.7527861205731
 21
217.4140316907143
 31
0.0
  0
LINE
  5
2AC32
330
1F
100
AcDbEntity
  8
実線
100
AcDbLine
 10
320.806792520573
 20
217.7440340907143
 30
0.0
 11
320.806792520573
 21
217.5276598907142
 31
0.0
  0
LINE
  5
2AC33
330
1F
100
AcDbEntity
  8
実線
100
AcDbLine
 10
320.7527889205728
 20
217.8576594907142
 30
0.0
 11
320.806792520573
 21
217.7440340907143
 31
0.0
  0
LINE
  5
2AC34
330
1F
100
AcDbEntity
  8
実線
100
AcDbLine
 10
320.6222431205731
 20
217.9949630907142
 30
0.0
 11
320.7527889205728
 21
217.8576594907142
 31
0.0
  0
LINE
  5
2AC35
330
1F
100
AcDbEntity
  8
実線
100
AcDbLine
 10
320.343812520573
 20
218.1413988907142
 30
0.0
 11
320.6222431205731
 21
217.9949630907142
 31
0.0
  0
LINE
  5
2AC36
330
1F
100
AcDbEntity
  8
実線
100
AcDbLine
 10
320.343812520573
 20
218.1413988907142
 30
0.0
 11
319.478762320573
 21
218.1413988907142
 31
0.0
  0
LINE
  5
2AC37
330
1F
100
AcDbEntity
  8
実線
100
AcDbLine
 10
320.368519720573
 20
218.5613988907142
 30
0.0
 11
319.478762320573
 21
218.5613988907142
 31
0.0
  0
LINE
  5
2AC38
330
1F
100
AcDbEntity
  8
実線
100
AcDbLine
 10
320.6395093205733
 20
218.6326518907143
 30
0.0
 11
320.368519720573
 21
218.5613988907142
 31
0.0
  0
LINE
  5
2AC39
330
1F
100
AcDbEntity
  8
実線
100
AcDbLine
 10
320.7485511205732
 20
218.7473496907143
 30
0.0
 11
320.6395093205733
 21
218.6326518907143
 31
0.0
  0
LINE
  5
2AC3A
330
1F
100
AcDbEntity
  8
実線
100
AcDbLine
 10
320.806792520573
 20
218.8903106907143
 30
0.0
 11
320.7485511205732
 21
218.7473496907143
 31
0.0
  0
LINE
  5
2AC3B
330
1F
100
AcDbEntity
  8
実線
100
AcDbLine
 10
320.806792520573
 20
219.0818082907141
 30
0.0
 11
320.806792520573
 21
218.8903106907143
 31
0.0
  0
LINE
  5
2AC3C
330
1F
100
AcDbEntity
  8
実線
100
AcDbLine
 10
320.7527889205728
 20
219.1954322907142
 30
0.0
 11
320.806792520573
 21
219.0818082907141
 31
0.0
  0
LINE
  5
2AC3D
330
1F
100
AcDbEntity
  8
実線
100
AcDbLine
 10
320.6222403205729
 20
219.3327386907142
 30
0.0
 11
320.7527889205728
 21
219.1954322907142
 31
0.0
  0
LINE
  5
2AC3E
330
1F
100
AcDbEntity
  8
実線
100
AcDbLine
 10
320.4913277205731
 20
219.4015962907141
 30
0.0
 11
320.6222403205729
 21
219.3327386907142
 31
0.0
  0
LINE
  5
2AC3F
330
1F
100
AcDbEntity
  8
実線
100
AcDbLine
 10
320.1554985205732
 20
219.5102796907141
 30
0.0
 11
320.4913277205731
 21
219.4015962907141
 31
0.0
  0
LINE
  5
2AC40
330
1F
100
AcDbEntity
  8
実線
100
AcDbLine
 10
319.778110320573
 20
219.5102796907141
 30
0.0
 11
320.1554985205732
 21
219.5102796907141
 31
0.0
  0
LINE
  5
2AC41
330
1F
100
AcDbEntity
  8
実線
100
AcDbLine
 10
319.442281120573
 20
219.4015962907141
 30
0.0
 11
319.778110320573
 21
219.5102796907141
 31
0.0
  0
LINE
  5
2AC42
330
1F
100
AcDbEntity
  8
実線
100
AcDbLine
 10
319.3113685205733
 20
219.3327386907142
 30
0.0
 11
319.442281120573
 21
219.4015962907141
 31
0.0
  0
LINE
  5
2AC43
330
1F
100
AcDbEntity
  8
実線
100
AcDbLine
 10
319.1808129205731
 20
219.1954238907143
 30
0.0
 11
319.3113685205733
 21
219.3327386907142
 31
0.0
  0
LINE
  5
2AC44
330
1F
100
AcDbEntity
  8
実線
100
AcDbLine
 10
319.106450520573
 20
219.0390088907142
 30
0.0
 11
319.1808129205731
 21
219.1954238907143
 31
0.0
  0
LINE
  5
2AC45
330
1F
100
AcDbEntity
  8
実線
100
AcDbLine
 10
319.068982320573
 20
217.5316498907142
 30
0.0
 11
318.7646027205733
 21
217.2422502907142
 31
0.0
  0
LINE
  5
2AC46
330
1F
100
AcDbEntity
  8
実線
100
AcDbLine
 10
319.478762320573
 20
218.1413988907142
 30
0.0
 11
319.478762320573
 21
218.5613988907142
 31
0.0
  0
LINE
  5
2AC47
330
1F
100
AcDbEntity
  8
実線
100
AcDbLine
 10
319.106450520573
 20
219.0390088907142
 30
0.0
 11
318.7271345205729
 21
219.2193400907141
 31
0.0
  0
HATCH
  5
2AC48
330
1F
100
AcDbEntity
  8
細線
100
AcDbHatch
 10
0.0
 20
0.0
 30
0.0
210
0.0
220
0.0
230
1.0
  2
SOLID
 70
     1
 71
     1
 91
        1
 92
        7
 72
     0
 73
     1
 93
        3
 10
332.5487185205732
 20
208.4514668907142
 10
327.9287185205731
 20
207.0514668907142
 10
332.5487185205732
 20
205.6514668907142
 97
        3
330
2AC4A
330
2AC4B
330
2AC49
 75
     0
 76
     1
 47
0.0980320577308063
 98
        1
 10
331.8725188698325
 20
206.6506984999827
450
        0
451
        0
460
0.0
461
0.0
452
        1
462
1.0
453
        2
463
0.0
 63
     5
421
      255
463
1.0
 63
     7
421
 16777215
470
LINEAR
1001
ACAD
1010
0.0
1020
0.0
1030
0.0
  0
LINE
  5
2AC49
102
{ACAD_REACTORS
330
2AC48
102
}
330
1F
100
AcDbEntity
  8
実線
100
AcDbLine
 10
332.5487185205732
 20
208.4514668907142
 30
0.0
 11
332.5487185205732
 21
205.6514668907142
 31
0.0
  0
LINE
  5
2AC4A
102
{ACAD_REACTORS
330
2AC48
102
}
330
1F
100
AcDbEntity
  8
実線
100
AcDbLine
 10
327.9287185205731
 20
207.0514668907142
 30
0.0
 11
332.5487185205732
 21
208.4514668907142
 31
0.0
  0
LINE
  5
2AC4B
102
{ACAD_REACTORS
330
2AC48
102
}
330
1F
100
AcDbEntity
  8
実線
100
AcDbLine
 10
327.9287185205731
 20
207.0514668907142
 30
0.0
 11
332.5487185205732
 21
205.6514668907142
 31
0.0
  0
CIRCLE
  5
2AC4C
330
1F
100
AcDbEntity
  8
実線
100
AcDbCircle
 10
321.0687185205729
 20
200.8914668907142
 30
0.0
 40
1.399999999999999
  0
HATCH
  5
2AC4D
330
1F
100
AcDbEntity
  8
細線
 62
     7
100
AcDbHatch
 10
0.0
 20
0.0
 30
0.0
210
0.0
220
0.0
230
1.0
  2
SOLID
 70
     1
 71
     0
 91
        1
 92
        7
 72
     0
 73
     1
 93
        7
 10
308.0487185205732
 20
186.4014668907142
 10
306.9987185205732
 20
186.4014668907142
 10
308.3987185205733
 20
181.5014668907141
 10
309.7987185205732
 20
186.4014668907142
 10
308.7487185205732
 20
186.4014668907142
 10
308.7487185205732
 20
191.3014668907142
 10
308.0487185205732
 20
191.3014668907142
 97
        0
 75
     0
 76
     1
 47
0.0699067823574675
 98
        1
 10
308.324014915212
 20
185.9393261477625
450
        0
451
        0
460
0.0
461
0.0
452
        1
462
1.0
453
        2
463
0.0
 63
     5
421
      255
463
1.0
 63
     7
421
 16777215
470
LINEAR
1001
ACAD
1010
0.0
1020
0.0
1030
0.0
  0
LINE
  5
2AC4E
330
1F
100
AcDbEntity
  8
実線
100
AcDbLine
 10
308.3987185205733
 20
181.5014668907141
 30
0.0
 11
309.7987185205732
 21
186.4014668907142
 31
0.0
  0
LINE
  5
2AC4F
330
1F
100
AcDbEntity
  8
実線
100
AcDbLine
 10
308.7487185205732
 20
186.4014668907142
 30
0.0
 11
309.7987185205732
 21
186.4014668907142
 31
0.0
  0
LINE
  5
2AC50
330
1F
100
AcDbEntity
  8
実線
100
AcDbLine
 10
308.7487185205732
 20
186.4014668907142
 30
0.0
 11
308.7487185205732
 21
191.3014668907142
 31
0.0
  0
LINE
  5
2AC51
330
1F
100
AcDbEntity
  8
実線
100
AcDbLine
 10
308.0487185205732
 20
186.4014668907142
 30
0.0
 11
308.0487185205732
 21
191.3014668907142
 31
0.0
  0
LINE
  5
2AC52
330
1F
100
AcDbEntity
  8
実線
100
AcDbLine
 10
308.7487185205732
 20
191.3014668907142
 30
0.0
 11
308.0487185205732
 21
191.3014668907142
 31
0.0
  0
LINE
  5
2AC53
330
1F
100
AcDbEntity
  8
実線
100
AcDbLine
 10
306.9987185205732
 20
186.4014668907142
 30
0.0
 11
308.0487185205732
 21
186.4014668907142
 31
0.0
  0
LINE
  5
2AC54
330
1F
100
AcDbEntity
  8
実線
100
AcDbLine
 10
306.9987185205732
 20
186.4014668907142
 30
0.0
 11
308.3987185205733
 21
181.5014668907141
 31
0.0
  0
HATCH
  5
2AC55
330
1F
100
AcDbEntity
  8
細線
 62
     7
100
AcDbHatch
 10
0.0
 20
0.0
 30
0.0
210
0.0
220
0.0
230
1.0
  2
SOLID
 70
     1
 71
     0
 91
        1
 92
        7
 72
     0
 73
     1
 93
        3
 10
288.7987185205732
 20
186.6814668907142
 10
288.7987185205732
 20
185.2814668907141
 10
291.5987185205731
 20
185.9814668907141
 97
        0
 75
     0
 76
     1
 47
0.0714716932413627
 98
        1
 10
289.9751721544819
 20
186.0856718764413
450
        0
451
        0
460
0.0
461
0.0
452
        1
462
1.0
453
        2
463
0.0
 63
     5
421
      255
463
1.0
 63
     7
421
 16777215
470
LINEAR
1001
ACAD
1010
0.0
1020
0.0
1030
0.0
  0
LINE
  5
2AC56
330
1F
100
AcDbEntity
  8
実線
100
AcDbLine
 10
288.7987185205732
 20
185.2814668907141
 30
0.0
 11
291.5987185205731
 21
185.9814668907141
 31
0.0
  0
LINE
  5
2AC57
330
1F
100
AcDbEntity
  8
実線
100
AcDbLine
 10
288.7987185205732
 20
185.2814668907141
 30
0.0
 11
288.7987185205732
 21
186.6814668907142
 31
0.0
  0
LINE
  5
2AC58
330
1F
100
AcDbEntity
  8
実線
100
AcDbLine
 10
288.7987185205732
 20
186.6814668907142
 30
0.0
 11
291.5987185205731
 21
185.9814668907141
 31
0.0
  0
HATCH
  5
2AC59
330
1F
100
AcDbEntity
  8
細線
 62
     7
100
AcDbHatch
 10
0.0
 20
0.0
 30
0.0
210
0.0
220
0.0
230
1.0
  2
SOLID
 70
     1
 71
     0
 91
        4
 92
        7
 72
     0
 73
     1
 93
       11
 10
282.8627185205728
 20
192.0188954907142
 10
282.8627185205728
 20
192.8392548907142
 10
279.6707185205733
 20
190.6041926907143
 10
279.6707185205733
 20
191.3294668907143
 10
278.9987185205732
 20
191.3294668907143
 10
278.9987185205732
 20
188.4734668907142
 10
279.6707185205733
 20
188.4734668907142
 10
279.6707185205733
 20
189.1987410907141
 10
282.8627185205728
 20
186.9636788907141
 10
282.8627185205728
 20
187.7840382907142
 10
279.8387185205732
 20
189.9014668907142
 97
        0
 92
        7
 72
     0
 73
     1
 93
       11
 10
283.5347185205728
 20
192.8392548907142
 10
283.5347185205728
 20
192.0188954907142
 10
286.5587185205732
 20
189.9014668907142
 10
283.5347185205728
 20
187.7840382907142
 10
283.5347185205728
 20
186.9636788907141
 10
286.7267185205733
 20
189.1987410907141
 10
286.7267185205733
 20
188.4734668907142
 10
287.3987185205733
 20
188.4734668907142
 10
287.3987185205733
 20
191.3294668907143
 10
286.7267185205733
 20
191.3294668907143
 10
286.7267185205733
 20
190.6041926907143
 97
        0
 92
        7
 72
     1
 73
     1
 93
        4
 10
284.2067185205733
 20
190.5734668907142
 42
1.0
 10
282.1907185205732
 20
190.5734668907142
 42
0.0
 10
282.1907185205732
 20
189.2294668907144
 42
1.0
 10
284.2067185205733
 20
189.2294668907144
 42
0.0
 97
        0
 92
       22
 72
     1
 73
     1
 93
        4
 10
283.7027185205732
 20
189.2294668907142
 42
-1.0
 10
282.6947185205731
 20
189.2294668907142
 42
0.0
 10
282.6947185205731
 20
190.5734668907141
 42
-1.0
 10
283.7027185205732
 20
190.5734668907142
 42
0.0
 97
        0
 75
     0
 76
     1
 47
0.05013249737451
 98
        4
 10
281.2071558775656
 20
191.1803616187258
 10
285.1411212548762
 20
191.3207327440481
 10
284.0171311470731
 20
190.33813576971
 10
284.0171311470731
 20
190.33813576971
450
        0
451
        0
460
0.0
461
0.0
452
        1
462
1.0
453
        2
463
0.0
 63
     5
421
      255
463
1.0
 63
     7
421
 16777215
470
LINEAR
1001
ACAD
1010
0.0
1020
0.0
1030
0.0
  0
LINE
  5
2AC5A
330
1F
100
AcDbEntity
  8
実線
100
AcDbLine
 10
279.6707185205733
 20
191.3294668907143
 30
0.0
 11
279.6707185205733
 21
190.6041926907143
 31
0.0
  0
LINE
  5
2AC5B
330
1F
100
AcDbEntity
  8
実線
100
AcDbLine
 10
283.7027185205729
 20
190.5734668907142
 30
0.0
 11
283.7027185205729
 21
189.2294668907142
 31
0.0
  0
LINE
  5
2AC5C
330
1F
100
AcDbEntity
  8
実線
100
AcDbLine
 10
283.5347185205728
 20
187.7840382907142
 30
0.0
 11
283.5347185205728
 21
186.9636788907141
 31
0.0
  0
LINE
  5
2AC5D
330
1F
100
AcDbEntity
  8
実線
100
AcDbLine
 10
283.5347185205728
 20
192.8392548907142
 30
0.0
 11
283.5347185205728
 21
192.0188954907142
 31
0.0
  0
LINE
  5
2AC5E
330
1F
100
AcDbEntity
  8
実線
100
AcDbLine
 10
282.8627185205728
 20
187.7840382907142
 30
0.0
 11
282.8627185205728
 21
186.9636788907141
 31
0.0
  0
LINE
  5
2AC5F
330
1F
100
AcDbEntity
  8
実線
100
AcDbLine
 10
279.8387185205732
 20
189.9014668907142
 30
0.0
 11
282.8627185205728
 21
187.7840382907142
 31
0.0
  0
LINE
  5
2AC60
330
1F
100
AcDbEntity
  8
実線
100
AcDbLine
 10
286.7267185205733
 20
189.1987410907141
 30
0.0
 11
283.5347185205728
 21
186.9636788907141
 31
0.0
  0
LINE
  5
2AC61
330
1F
100
AcDbEntity
  8
実線
100
AcDbLine
 10
286.5587185205732
 20
189.9014668907142
 30
0.0
 11
283.5347185205728
 21
187.7840382907142
 31
0.0
  0
LINE
  5
2AC62
330
1F
100
AcDbEntity
  8
実線
100
AcDbLine
 10
287.3987185205733
 20
188.4734668907142
 30
0.0
 11
286.7267185205733
 21
188.4734668907142
 31
0.0
  0
LINE
  5
2AC63
330
1F
100
AcDbEntity
  8
実線
100
AcDbLine
 10
286.7267185205733
 20
190.6041926907143
 30
0.0
 11
286.7267185205733
 21
191.3294668907143
 31
0.0
  0
LINE
  5
2AC64
330
1F
100
AcDbEntity
  8
実線
100
AcDbLine
 10
279.6707185205733
 20
189.1987410907141
 30
0.0
 11
279.6707185205733
 21
188.4734668907142
 31
0.0
  0
LINE
  5
2AC65
330
1F
100
AcDbEntity
  8
実線
100
AcDbLine
 10
278.9987185205732
 20
191.3294668907143
 30
0.0
 11
279.6707185205733
 21
191.3294668907143
 31
0.0
  0
LINE
  5
2AC66
330
1F
100
AcDbEntity
  8
実線
100
AcDbLine
 10
286.5587185205732
 20
189.9014668907142
 30
0.0
 11
283.5347185205728
 21
192.0188954907142
 31
0.0
  0
LINE
  5
2AC67
330
1F
100
AcDbEntity
  8
実線
100
AcDbLine
 10
286.7267185205733
 20
190.6041926907143
 30
0.0
 11
283.5347185205728
 21
192.8392548907142
 31
0.0
  0
LINE
  5
2AC68
330
1F
100
AcDbEntity
  8
実線
100
AcDbLine
 10
282.6947185205731
 20
190.5734668907142
 30
0.0
 11
282.6947185205731
 21
189.2294668907142
 31
0.0
  0
LINE
  5
2AC69
330
1F
100
AcDbEntity
  8
実線
100
AcDbLine
 10
286.7267185205733
 20
191.3294668907143
 30
0.0
 11
287.3987185205733
 21
191.3294668907143
 31
0.0
  0
LINE
  5
2AC6A
330
1F
100
AcDbEntity
  8
実線
100
AcDbLine
 10
279.6707185205733
 20
188.4734668907142
 30
0.0
 11
278.9987185205732
 21
188.4734668907142
 31
0.0
  0
LINE
  5
2AC6B
330
1F
100
AcDbEntity
  8
実線
100
AcDbLine
 10
284.2067185205729
 20
190.5734668907142
 30
0.0
 11
284.2067185205729
 21
189.2294668907142
 31
0.0
  0
LINE
  5
2AC6C
330
1F
100
AcDbEntity
  8
実線
100
AcDbLine
 10
279.6707185205733
 20
190.6041926907143
 30
0.0
 11
282.8627185205728
 21
192.8392548907142
 31
0.0
  0
LINE
  5
2AC6D
330
1F
100
AcDbEntity
  8
実線
100
AcDbLine
 10
278.9987185205732
 20
191.3294668907143
 30
0.0
 11
278.9987185205732
 21
188.4734668907142
 31
0.0
  0
LINE
  5
2AC6E
330
1F
100
AcDbEntity
  8
実線
100
AcDbLine
 10
286.7267185205733
 20
188.4734668907142
 30
0.0
 11
286.7267185205733
 21
189.1987410907141
 31
0.0
  0
LINE
  5
2AC6F
330
1F
100
AcDbEntity
  8
実線
100
AcDbLine
 10
279.6707185205733
 20
189.1987410907141
 30
0.0
 11
282.8627185205728
 21
186.9636788907141
 31
0.0
  0
LINE
  5
2AC70
330
1F
100
AcDbEntity
  8
実線
100
AcDbLine
 10
279.8387185205732
 20
189.9014668907142
 30
0.0
 11
282.8627185205728
 21
192.0188954907142
 31
0.0
  0
LINE
  5
2AC71
330
1F
100
AcDbEntity
  8
実線
100
AcDbLine
 10
287.3987185205733
 20
191.3294668907143
 30
0.0
 11
287.3987185205733
 21
188.4734668907142
 31
0.0
  0
LINE
  5
2AC72
330
1F
100
AcDbEntity
  8
実線
100
AcDbLine
 10
282.1907185205727
 20
190.5734668907142
 30
0.0
 11
282.1907185205727
 21
189.2294668907142
 31
0.0
  0
LINE
  5
2AC73
330
1F
100
AcDbEntity
  8
実線
100
AcDbLine
 10
282.8627185205728
 20
192.8392548907142
 30
0.0
 11
282.8627185205728
 21
192.0188954907142
 31
0.0
  0
ARC
  5
2AC74
330
1F
100
AcDbEntity
  8
実線
100
AcDbCircle
 10
283.1987185205733
 20
190.5734668907142
 30
0.0
 40
1.008
100
AcDbArc
 50
0.0
 51
180.0
  0
ARC
  5
2AC75
330
1F
100
AcDbEntity
  8
実線
100
AcDbCircle
 10
283.1987185205733
 20
189.2294668907142
 30
0.0
 40
1.008
100
AcDbArc
 50
180.0
 51
0.0
  0
ARC
  5
2AC76
330
1F
100
AcDbEntity
  8
実線
100
AcDbCircle
 10
283.1987185205733
 20
190.5734668907142
 30
0.0
 40
0.504
100
AcDbArc
 50
0.0
 51
180.0
  0
ARC
  5
2AC77
330
1F
100
AcDbEntity
  8
実線
100
AcDbCircle
 10
283.1987185205733
 20
189.2294668907142
 30
0.0
 40
0.504
100
AcDbArc
 50
180.0
 51
0.0
  0
TEXT
  5
2AC78
330
1F
100
AcDbEntity
  8
実線
100
AcDbText
 10
280.3987185205733
 20
180.1014668907143
 30
0.0
 40
3.5
  1
H
100
AcDbText
  0
TEXT
  5
2AC79
330
1F
100
AcDbEntity
  8
実線
100
AcDbText
 10
286.5744724965114
 20
174.5014668907141
 30
0.0
 40
3.5
  1
     148
 41
0.7
  7
BIGFONT
100
AcDbText
  0
TEXT
  5
2AC7A
330
1F
100
AcDbEntity
  8
実線
100
AcDbText
 10
284.8320523205732
 20
174.5014668907141
 30
0.0
 40
3.5
  1
型承L
 41
0.7
  7
BIGFONT
100
AcDbText
  0
TEXT
  5
2AC7B
330
1F
100
AcDbEntity
  8
実線
100
AcDbText
 10
289.0462279075925
 20
174.5014668907141
 30
0.0
 40
3.5
  1
        号
 41
0.7
  7
BIGFONT
100
AcDbText
  0
TEXT
  5
2AC7C
330
1F
100
AcDbEntity
  8
実線
100
AcDbText
 10
290.4826155480055
 20
174.5014668907141
 30
0.0
 40
3.5
  1
         27
 41
0.7
  7
BIGFONT
100
AcDbText
  0
TEXT
  5
2AC7D
330
1F
100
AcDbEntity
  8
実線
100
AcDbText
 10
289.4987185205732
 20
170.3014668907142
 30
0.0
 40
2.911999999999999
  1
Q3=2.5
 41
0.8
100
AcDbText
  0
TEXT
  5
2AC7E
330
1F
100
AcDbEntity
  8
実線
100
AcDbText
 10
291.738718520573
 20
166.1014668907142
 30
0.0
 40
2.911999999999999
  1
R=100
 41
0.8
100
AcDbText
  0
TEXT
  5
2AC7F
330
1F
100
AcDbEntity
  8
実線
100
AcDbText
 10
314.3356327298688
 20
182.8608636214698
 30
0.0
 40
2.799999999999999
  1
10L
 41
0.8
100
AcDbText
  0
LINE
  5
2AC80
330
1F
100
AcDbEntity
  8
実線
100
AcDbLine
 10
311.7519257205734
 20
177.2879358907142
 30
0.0
 11
312.1633759205733
 21
176.7216232907142
 31
0.0
  0
LINE
  5
2AC81
330
1F
100
AcDbEntity
  8
実線
100
AcDbLine
 10
308.7004479205734
 20
167.8964502907141
 30
0.0
 11
309.3661871205731
 21
168.1127614907142
 31
0.0
  0
LINE
  5
2AC82
330
1F
100
AcDbEntity
  8
実線
100
AcDbLine
 10
311.7519257205734
 20
163.6964502907142
 30
0.0
 11
312.1633759205733
 21
164.2627628907142
 31
0.0
  0
LINE
  5
2AC83
330
1F
100
AcDbEntity
  8
実線
100
AcDbLine
 10
316.6893225205731
 20
162.0921930907142
 30
0.0
 11
316.6893225205731
 21
162.7921930907142
 31
0.0
  0
LINE
  5
2AC84
330
1F
100
AcDbEntity
  8
実線
100
AcDbLine
 10
321.6267193205729
 20
163.6964502907142
 30
0.0
 11
321.2152691205729
 21
164.2627628907142
 31
0.0
  0
LINE
  5
2AC85
330
1F
100
AcDbEntity
  8
実線
100
AcDbLine
 10
324.6781971205728
 20
167.8964502907141
 30
0.0
 11
324.0124579205731
 21
168.1127614907142
 31
0.0
  0
LINE
  5
2AC86
330
1F
100
AcDbEntity
  8
実線
100
AcDbLine
 10
321.6267193205729
 20
177.2879358907142
 30
0.0
 11
321.2152691205729
 21
176.7216232907142
 31
0.0
  0
LINE
  5
2AC87
330
1F
100
AcDbEntity
  8
実線
100
AcDbLine
 10
308.7004479205734
 20
173.0879358907142
 30
0.0
 11
309.3661871205731
 21
172.8716246907141
 31
0.0
  0
LINE
  5
2AC88
330
1F
100
AcDbEntity
  8
実線
100
AcDbLine
 10
324.6781971205728
 20
173.0879358907142
 30
0.0
 11
324.0124579205731
 21
172.8716246907141
 31
0.0
  0
ARC
  5
2AC89
330
1F
100
AcDbEntity
  8
実線
100
AcDbCircle
 10
316.6893225205731
 20
170.4921930907143
 30
0.0
 40
8.399999999999998
100
AcDbArc
 50
91.77334006125551
 51
88.22665993874446
  0
LINE
  5
2AC8A
330
1F
100
AcDbEntity
  8
実線
100
AcDbLine
 10
320.3851139205731
 20
176.6704672907143
 30
0.0
 11
319.6752663205734
 21
175.8149118907141
 31
0.0
  0
LINE
  5
2AC8B
330
1F
100
AcDbEntity
  8
実線
100
AcDbLine
 10
320.3851139205731
 20
173.5904854907143
 30
0.0
 11
320.3851139205731
 21
176.6704672907143
 31
0.0
  0
LINE
  5
2AC8C
330
1F
100
AcDbEntity
  8
実線
100
AcDbLine
 10
323.5983477205732
 20
172.6311172907142
 30
0.0
 11
323.4208795205729
 21
172.4257974907142
 31
0.0
  0
LINE
  5
2AC8D
330
1F
100
AcDbEntity
  8
実線
100
AcDbLine
 10
322.149039720573
 20
173.6920092907141
 30
0.0
 11
322.5039747205731
 21
173.8288900907142
 31
0.0
  0
LINE
  5
2AC8E
330
1F
100
AcDbEntity
  8
実線
100
AcDbLine
 10
321.6758145205731
 20
171.0569054907142
 30
0.0
 11
321.5870699205732
 21
170.7489082907142
 31
0.0
  0
LINE
  5
2AC8F
330
1F
100
AcDbEntity
  8
実線
100
AcDbLine
 10
321.6758145205731
 20
173.2813514907142
 30
0.0
 11
321.8532827205727
 21
173.4866712907143
 31
0.0
  0
LINE
  5
2AC90
330
1F
100
AcDbEntity
  8
実線
100
AcDbLine
 10
322.149039720573
 20
171.7071228907142
 30
0.0
 11
321.8532827205727
 21
171.3649040907142
 31
0.0
  0
LINE
  5
2AC91
330
1F
100
AcDbEntity
  8
実線
100
AcDbLine
 10
323.2434127205731
 20
173.6920092907141
 30
0.0
 11
323.5096241205729
 21
173.4866712907143
 31
0.0
  0
LINE
  5
2AC92
330
1F
100
AcDbEntity
  8
実線
100
AcDbLine
 10
323.4208795205729
 20
172.4257974907142
 30
0.0
 11
322.5039747205731
 21
172.0151200907143
 31
0.0
  0
LINE
  5
2AC93
330
1F
100
AcDbEntity
  8
実線
100
AcDbLine
 10
322.5039747205731
 20
173.8288900907142
 30
0.0
 11
322.8589097205731
 21
173.8288900907142
 31
0.0
  0
LINE
  5
2AC94
330
1F
100
AcDbEntity
  8
実線
100
AcDbLine
 10
321.5870699205732
 20
170.7489082907142
 30
0.0
 11
323.6870699205733
 21
170.7489082907142
 31
0.0
  0
LINE
  5
2AC95
330
1F
100
AcDbEntity
  8
実線
100
AcDbLine
 10
323.6870699205733
 20
172.8706754907142
 30
0.0
 11
323.5983477205732
 21
172.6311172907142
 31
0.0
  0
LINE
  5
2AC96
330
1F
100
AcDbEntity
  8
実線
100
AcDbLine
 10
321.8532827205727
 20
173.4866712907143
 30
0.0
 11
322.149039720573
 21
173.6920092907141
 31
0.0
  0
LINE
  5
2AC97
330
1F
100
AcDbEntity
  8
実線
100
AcDbLine
 10
321.8532827205727
 20
171.3649040907142
 30
0.0
 11
321.6758145205731
 21
171.0569054907142
 31
0.0
  0
LINE
  5
2AC98
330
1F
100
AcDbEntity
  8
実線
100
AcDbLine
 10
323.5096241205729
 20
173.4866712907143
 30
0.0
 11
323.6870699205733
 21
173.1786740907142
 31
0.0
  0
LINE
  5
2AC99
330
1F
100
AcDbEntity
  8
実線
100
AcDbLine
 10
321.5870699205732
 20
173.0760134907142
 30
0.0
 11
321.6758145205731
 21
173.2813514907142
 31
0.0
  0
LINE
  5
2AC9A
330
1F
100
AcDbEntity
  8
実線
100
AcDbLine
 10
323.6870699205733
 20
173.1786740907142
 30
0.0
 11
323.6870699205733
 21
172.8706754907142
 31
0.0
  0
LINE
  5
2AC9B
330
1F
100
AcDbEntity
  8
実線
100
AcDbLine
 10
322.8589097205731
 20
173.8288900907142
 30
0.0
 11
323.2434127205731
 21
173.6920092907141
 31
0.0
  0
LINE
  5
2AC9C
330
1F
100
AcDbEntity
  8
実線
100
AcDbLine
 10
322.5039747205731
 20
172.0151200907143
 30
0.0
 11
322.149039720573
 21
171.7071228907142
 31
0.0
  0
LINE
  5
2AC9D
330
1F
100
AcDbEntity
  8
実線
100
AcDbLine
 10
323.0469913205734
 20
168.1835090907142
 30
0.0
 11
323.4019277205732
 21
167.9781710907142
 31
0.0
  0
LINE
  5
2AC9E
330
1F
100
AcDbEntity
  8
実線
100
AcDbLine
 10
321.6568627205729
 20
169.2444010907142
 30
0.0
 11
321.8343295205732
 21
169.4497208907143
 31
0.0
  0
LINE
  5
2AC9F
330
1F
100
AcDbEntity
  8
実線
100
AcDbLine
 10
323.579394520573
 20
167.0199564907142
 30
0.0
 11
323.4019277205732
 21
166.8146170907142
 31
0.0
  0
LINE
  5
2ACA0
330
1F
100
AcDbEntity
  8
実線
100
AcDbLine
 10
323.4019277205732
 20
168.2861682907143
 30
0.0
 11
323.0469913205734
 21
168.1835090907142
 31
0.0
  0
LINE
  5
2ACA1
330
1F
100
AcDbEntity
  8
実線
100
AcDbLine
 10
322.839957920573
 20
169.6892790907142
 30
0.0
 11
323.224459520573
 21
169.5523996907142
 31
0.0
  0
LINE
  5
2ACA2
330
1F
100
AcDbEntity
  8
実線
100
AcDbLine
 10
323.4019277205732
 20
169.4497208907143
 30
0.0
 11
323.579394520573
 21
169.2444010907142
 31
0.0
  0
LINE
  5
2ACA3
330
1F
100
AcDbEntity
  8
実線
100
AcDbLine
 10
323.6681167205729
 20
167.5675118907143
 30
0.0
 11
323.6681167205729
 21
167.2252944907142
 31
0.0
  0
LINE
  5
2ACA4
330
1F
100
AcDbEntity
  8
実線
100
AcDbLine
 10
323.579394520573
 20
169.2444010907142
 30
0.0
 11
323.6681167205729
 21
169.0390630907142
 31
0.0
  0
LINE
  5
2ACA5
330
1F
100
AcDbEntity
  8
実線
100
AcDbLine
 10
322.0117977205728
 20
166.7119578907142
 30
0.0
 11
321.745584920573
 21
166.9172958907141
 31
0.0
  0
LINE
  5
2ACA6
330
1F
100
AcDbEntity
  8
実線
100
AcDbLine
 10
322.839957920573
 20
166.6092972907143
 30
0.0
 11
322.396299320573
 21
166.6092972907143
 31
0.0
  0
LINE
  5
2ACA7
330
1F
100
AcDbEntity
  8
実線
100
AcDbLine
 10
323.4019277205732
 20
167.9781710907142
 30
0.0
 11
323.579394520573
 21
167.7728498907141
 31
0.0
  0
LINE
  5
2ACA8
330
1F
100
AcDbEntity
  8
実線
100
AcDbLine
 10
323.6681167205729
 20
168.7310644907141
 30
0.0
 11
323.579394520573
 21
168.4915062907142
 31
0.0
  0
LINE
  5
2ACA9
330
1F
100
AcDbEntity
  8
実線
100
AcDbLine
 10
323.4019277205732
 20
166.8146170907142
 30
0.0
 11
323.224459520573
 21
166.7119578907142
 31
0.0
  0
LINE
  5
2ACAA
330
1F
100
AcDbEntity
  8
実線
100
AcDbLine
 10
323.0469913205734
 20
168.1835090907142
 30
0.0
 11
322.130086520573
 21
168.1835090907142
 31
0.0
  0
LINE
  5
2ACAB
330
1F
100
AcDbEntity
  8
実線
100
AcDbLine
 10
323.224459520573
 20
169.5523996907142
 30
0.0
 11
323.4019277205732
 21
169.4497208907143
 31
0.0
  0
LINE
  5
2ACAC
330
1F
100
AcDbEntity
  8
実線
100
AcDbLine
 10
321.568116720573
 20
169.0390630907142
 30
0.0
 11
321.6568627205729
 21
169.2444010907142
 31
0.0
  0
LINE
  5
2ACAD
330
1F
100
AcDbEntity
  8
実線
100
AcDbLine
 10
321.745584920573
 20
166.9172958907141
 30
0.0
 11
321.568116720573
 21
167.1226156907142
 31
0.0
  0
LINE
  5
2ACAE
330
1F
100
AcDbEntity
  8
実線
100
AcDbLine
 10
323.6681167205729
 20
167.2252944907142
 30
0.0
 11
323.579394520573
 21
167.0199564907142
 31
0.0
  0
LINE
  5
2ACAF
330
1F
100
AcDbEntity
  8
実線
100
AcDbLine
 10
323.579394520573
 20
168.4915062907142
 30
0.0
 11
323.4019277205732
 21
168.2861682907143
 31
0.0
  0
LINE
  5
2ACB0
330
1F
100
AcDbEntity
  8
実線
100
AcDbLine
 10
322.396299320573
 20
169.6892790907142
 30
0.0
 11
322.839957920573
 21
169.6892790907142
 31
0.0
  0
LINE
  5
2ACB1
330
1F
100
AcDbEntity
  8
実線
100
AcDbLine
 10
322.396299320573
 20
166.6092972907143
 30
0.0
 11
322.0117977205728
 21
166.7119578907142
 31
0.0
  0
LINE
  5
2ACB2
330
1F
100
AcDbEntity
  8
実線
100
AcDbLine
 10
323.6681167205729
 20
169.0390630907142
 30
0.0
 11
323.6681167205729
 21
168.7310644907141
 31
0.0
  0
LINE
  5
2ACB3
330
1F
100
AcDbEntity
  8
実線
100
AcDbLine
 10
321.8343295205732
 20
169.4497208907143
 30
0.0
 11
322.0117977205728
 21
169.5523996907142
 31
0.0
  0
LINE
  5
2ACB4
330
1F
100
AcDbEntity
  8
実線
100
AcDbLine
 10
322.0117977205728
 20
169.5523996907142
 30
0.0
 11
322.396299320573
 21
169.6892790907142
 31
0.0
  0
LINE
  5
2ACB5
330
1F
100
AcDbEntity
  8
実線
100
AcDbLine
 10
323.579394520573
 20
167.7728498907141
 30
0.0
 11
323.6681167205729
 21
167.5675118907143
 31
0.0
  0
LINE
  5
2ACB6
330
1F
100
AcDbEntity
  8
実線
100
AcDbLine
 10
323.224459520573
 20
166.7119578907142
 30
0.0
 11
322.839957920573
 21
166.6092972907143
 31
0.0
  0
LINE
  5
2ACB7
330
1F
100
AcDbEntity
  8
実線
100
AcDbLine
 10
320.8431099205727
 20
167.2787016907142
 30
0.0
 11
319.0980225205731
 21
164.9173762907143
 31
0.0
  0
LINE
  5
2ACB8
330
1F
100
AcDbEntity
  8
実線
100
AcDbLine
 10
319.0980225205731
 20
164.9173762907143
 30
0.0
 11
321.2867671205729
 21
164.9173762907143
 31
0.0
  0
LINE
  5
2ACB9
330
1F
100
AcDbEntity
  8
実線
100
AcDbLine
 10
320.8431099205727
 20
164.1987016907143
 30
0.0
 11
320.8431099205727
 21
167.2787016907142
 31
0.0
  0
LINE
  5
2ACBA
330
1F
100
AcDbEntity
  8
実線
100
AcDbLine
 10
315.9055129205731
 20
164.9917596907142
 30
0.0
 11
315.6393225205732
 21
164.7864216907143
 31
0.0
  0
LINE
  5
2ACBB
330
1F
100
AcDbEntity
  8
実線
100
AcDbLine
 10
317.7393225205731
 20
164.4784244907142
 30
0.0
 11
317.6505779205732
 21
164.6837624907142
 31
0.0
  0
LINE
  5
2ACBC
330
1F
100
AcDbEntity
  8
実線
100
AcDbLine
 10
316.201292320573
 20
163.3148718907142
 30
0.0
 11
316.4674827205731
 21
163.2122112907142
 31
0.0
  0
LINE
  5
2ACBD
330
1F
100
AcDbEntity
  8
実線
100
AcDbLine
 10
315.6393225205732
 20
164.7864216907143
 30
0.0
 11
315.6393225205732
 21
166.2921930907142
 31
0.0
  0
LINE
  5
2ACBE
330
1F
100
AcDbEntity
  8
実線
100
AcDbLine
 10
316.4674827205731
 20
165.2312996907143
 30
0.0
 11
316.0829797205731
 21
165.0944202907143
 31
0.0
  0
LINE
  5
2ACBF
330
1F
100
AcDbEntity
  8
実線
100
AcDbLine
 10
315.6393225205732
 20
163.7255296907142
 30
0.0
 11
315.816790720573
 21
163.5202098907142
 31
0.0
  0
LINE
  5
2ACC0
330
1F
100
AcDbEntity
  8
実線
100
AcDbLine
 10
317.6505779205732
 20
163.7255296907142
 30
0.0
 11
317.7393225205731
 21
164.0335282907141
 31
0.0
  0
LINE
  5
2ACC1
330
1F
100
AcDbEntity
  8
実線
100
AcDbLine
 10
317.2069193205734
 20
165.0944202907143
 30
0.0
 11
316.8224177205732
 21
165.2312996907143
 31
0.0
  0
LINE
  5
2ACC2
330
1F
100
AcDbEntity
  8
実線
100
AcDbLine
 10
317.2069193205734
 20
163.3148718907142
 30
0.0
 11
317.4731097205729
 21
163.5202098907142
 31
0.0
  0
LINE
  5
2ACC3
330
1F
100
AcDbEntity
  8
実線
100
AcDbLine
 10
317.6505779205732
 20
164.6837624907142
 30
0.0
 11
317.4731097205729
 21
164.8890822907143
 31
0.0
  0
LINE
  5
2ACC4
330
1F
100
AcDbEntity
  8
実線
100
AcDbLine
 10
316.4674827205731
 20
163.2122112907142
 30
0.0
 11
316.8224177205732
 21
163.2122112907142
 31
0.0
  0
LINE
  5
2ACC5
330
1F
100
AcDbEntity
  8
実線
100
AcDbLine
 10
317.7393225205731
 20
164.0335282907141
 30
0.0
 11
317.7393225205731
 21
164.4784244907142
 31
0.0
  0
LINE
  5
2ACC6
330
1F
100
AcDbEntity
  8
実線
100
AcDbLine
 10
315.816790720573
 20
163.5202098907142
 30
0.0
 11
316.201292320573
 21
163.3148718907142
 31
0.0
  0
LINE
  5
2ACC7
330
1F
100
AcDbEntity
  8
実線
100
AcDbLine
 10
316.8224177205732
 20
165.2312996907143
 30
0.0
 11
316.4674827205731
 21
165.2312996907143
 31
0.0
  0
LINE
  5
2ACC8
330
1F
100
AcDbEntity
  8
実線
100
AcDbLine
 10
317.4731097205729
 20
163.5202098907142
 30
0.0
 11
317.6505779205732
 21
163.7255296907142
 31
0.0
  0
LINE
  5
2ACC9
330
1F
100
AcDbEntity
  8
実線
100
AcDbLine
 10
315.6393225205732
 20
166.2921930907142
 30
0.0
 11
317.7393225205731
 21
166.2921930907142
 31
0.0
  0
LINE
  5
2ACCA
330
1F
100
AcDbEntity
  8
実線
100
AcDbLine
 10
317.4731097205729
 20
164.8890822907143
 30
0.0
 11
317.2069193205734
 21
165.0944202907143
 31
0.0
  0
LINE
  5
2ACCB
330
1F
100
AcDbEntity
  8
実線
100
AcDbLine
 10
316.8224177205732
 20
163.2122112907142
 30
0.0
 11
317.2069193205734
 21
163.3148718907142
 31
0.0
  0
LINE
  5
2ACCC
330
1F
100
AcDbEntity
  8
実線
100
AcDbLine
 10
316.0829797205731
 20
165.0944202907143
 30
0.0
 11
315.9055129205731
 21
164.9917596907142
 31
0.0
  0
LINE
  5
2ACCD
330
1F
100
AcDbEntity
  8
実線
100
AcDbLine
 10
313.0326723205728
 20
166.2440372907143
 30
0.0
 11
312.7664819205731
 21
166.1071578907142
 31
0.0
  0
LINE
  5
2ACCE
330
1F
100
AcDbEntity
  8
実線
100
AcDbLine
 10
314.127045320573
 20
164.7382658907142
 30
0.0
 11
314.2157675205729
 21
165.0462644907142
 31
0.0
  0
LINE
  5
2ACCF
330
1F
100
AcDbEntity
  8
実線
100
AcDbLine
 10
312.2932343205734
 20
164.7382658907142
 30
0.0
 11
312.470702520573
 21
164.5329460907143
 31
0.0
  0
LINE
  5
2ACD0
330
1F
100
AcDbEntity
  8
実線
100
AcDbLine
 10
313.1213945205729
 20
167.3049306907143
 30
0.0
 11
312.7664819205731
 21
167.1680316907142
 31
0.0
  0
LINE
  5
2ACD1
330
1F
100
AcDbEntity
  8
実線
100
AcDbLine
 10
313.6833643205732
 20
166.1071578907142
 30
0.0
 11
313.3876073205729
 21
166.2440372907143
 31
0.0
  0
LINE
  5
2ACD2
330
1F
100
AcDbEntity
  8
実線
100
AcDbLine
 10
313.7721089205729
 20
164.3276080907142
 30
0.0
 11
313.9495771205734
 21
164.4302686907142
 31
0.0
  0
LINE
  5
2ACD3
330
1F
100
AcDbEntity
  8
実線
100
AcDbLine
 10
312.115767520573
 20
165.3884832907141
 30
0.0
 11
312.2044897205729
 21
164.9436038907141
 31
0.0
  0
LINE
  5
2ACD4
330
1F
100
AcDbEntity
  8
実線
100
AcDbLine
 10
313.3876073205729
 20
166.2440372907143
 30
0.0
 11
313.0326723205728
 21
166.2440372907143
 31
0.0
  0
LINE
  5
2ACD5
330
1F
100
AcDbEntity
  8
実線
100
AcDbLine
 10
312.2932343205734
 20
165.6964804907142
 30
0.0
 11
312.115767520573
 21
165.3884832907141
 31
0.0
  0
LINE
  5
2ACD6
330
1F
100
AcDbEntity
  8
実線
100
AcDbLine
 10
314.127045320573
 20
165.6964804907142
 30
0.0
 11
313.9495771205734
 21
165.9018184907141
 31
0.0
  0
LINE
  5
2ACD7
330
1F
100
AcDbEntity
  8
実線
100
AcDbLine
 10
313.0326723205728
 20
164.2249474907143
 30
0.0
 11
313.3876073205729
 21
164.2249474907143
 31
0.0
  0
LINE
  5
2ACD8
330
1F
100
AcDbEntity
  8
実線
100
AcDbLine
 10
314.2157675205729
 20
166.6547132907142
 30
0.0
 11
314.0382993205733
 21
166.9627118907142
 31
0.0
  0
LINE
  5
2ACD9
330
1F
100
AcDbEntity
  8
実線
100
AcDbLine
 10
314.0382993205733
 20
166.9627118907142
 30
0.0
 11
313.7721089205729
 21
167.1680316907142
 31
0.0
  0
LINE
  5
2ACDA
330
1F
100
AcDbEntity
  8
実線
100
AcDbLine
 10
312.7664819205731
 20
166.1071578907142
 30
0.0
 11
312.470702520573
 21
165.9018184907141
 31
0.0
  0
LINE
  5
2ACDB
330
1F
100
AcDbEntity
  8
実線
100
AcDbLine
 10
314.2157675205729
 20
165.0462644907142
 30
0.0
 11
314.2157675205729
 21
165.3884832907141
 31
0.0
  0
LINE
  5
2ACDC
330
1F
100
AcDbEntity
  8
実線
100
AcDbLine
 10
312.470702520573
 20
164.5329460907143
 30
0.0
 11
312.7664819205731
 21
164.3276080907142
 31
0.0
  0
LINE
  5
2ACDD
330
1F
100
AcDbEntity
  8
実線
100
AcDbLine
 10
313.7721089205729
 20
167.1680316907142
 30
0.0
 11
313.3876073205729
 21
167.3049306907143
 31
0.0
  0
LINE
  5
2ACDE
330
1F
100
AcDbEntity
  8
実線
100
AcDbLine
 10
313.9495771205734
 20
164.4302686907142
 30
0.0
 11
314.127045320573
 21
164.7382658907142
 31
0.0
  0
LINE
  5
2ACDF
330
1F
100
AcDbEntity
  8
実線
100
AcDbLine
 10
312.2044897205729
 20
164.9436038907141
 30
0.0
 11
312.2932343205734
 21
164.7382658907142
 31
0.0
  0
LINE
  5
2ACE0
330
1F
100
AcDbEntity
  8
実線
100
AcDbLine
 10
313.3876073205729
 20
167.3049306907143
 30
0.0
 11
313.1213945205729
 21
167.3049306907143
 31
0.0
  0
LINE
  5
2ACE1
330
1F
100
AcDbEntity
  8
実線
100
AcDbLine
 10
313.9495771205734
 20
165.9018184907141
 30
0.0
 11
313.6833643205732
 21
166.1071578907142
 31
0.0
  0
LINE
  5
2ACE2
330
1F
100
AcDbEntity
  8
実線
100
AcDbLine
 10
313.3876073205729
 20
164.2249474907143
 30
0.0
 11
313.7721089205729
 21
164.3276080907142
 31
0.0
  0
LINE
  5
2ACE3
330
1F
100
AcDbEntity
  8
実線
100
AcDbLine
 10
312.470702520573
 20
166.9627118907142
 30
0.0
 11
312.2932343205734
 21
166.6547132907142
 31
0.0
  0
LINE
  5
2ACE4
330
1F
100
AcDbEntity
  8
実線
100
AcDbLine
 10
312.470702520573
 20
165.9018184907141
 30
0.0
 11
312.2932343205734
 21
165.6964804907142
 31
0.0
  0
LINE
  5
2ACE5
330
1F
100
AcDbEntity
  8
実線
100
AcDbLine
 10
312.2932343205734
 20
166.6547132907142
 30
0.0
 11
312.115767520573
 21
166.0044972907143
 31
0.0
  0
LINE
  5
2ACE6
330
1F
100
AcDbEntity
  8
実線
100
AcDbLine
 10
312.7664819205731
 20
164.3276080907142
 30
0.0
 11
313.0326723205728
 21
164.2249474907143
 31
0.0
  0
LINE
  5
2ACE7
330
1F
100
AcDbEntity
  8
実線
100
AcDbLine
 10
314.2157675205729
 20
165.3884832907141
 30
0.0
 11
314.127045320573
 21
165.6964804907142
 31
0.0
  0
LINE
  5
2ACE8
330
1F
100
AcDbEntity
  8
実線
100
AcDbLine
 10
312.7664819205731
 20
167.1680316907142
 30
0.0
 11
312.470702520573
 21
166.9627118907142
 31
0.0
  0
LINE
  5
2ACE9
330
1F
100
AcDbEntity
  8
実線
100
AcDbLine
 10
312.115767520573
 20
166.0044972907143
 30
0.0
 11
312.115767520573
 21
165.3884832907141
 31
0.0
  0
LINE
  5
2ACEA
330
1F
100
AcDbEntity
  8
実線
100
AcDbLine
 10
311.830000920573
 20
169.6127284907142
 30
0.0
 11
310.4990055205731
 21
166.5327284907142
 31
0.0
  0
LINE
  5
2ACEB
330
1F
100
AcDbEntity
  8
実線
100
AcDbLine
 10
309.7300009205728
 20
169.6127284907142
 30
0.0
 11
311.830000920573
 21
169.6127284907142
 31
0.0
  0
LINE
  5
2ACEC
330
1F
100
AcDbEntity
  8
実線
100
AcDbLine
 10
311.729045520573
 20
173.2548536907142
 30
0.0
 11
311.640300920573
 21
173.4601916907142
 31
0.0
  0
LINE
  5
2ACED
330
1F
100
AcDbEntity
  8
実線
100
AcDbLine
 10
311.3741105205729
 20
172.2966390907141
 30
0.0
 11
311.078331120573
 21
172.3992982907142
 31
0.0
  0
LINE
  5
2ACEE
330
1F
100
AcDbEntity
  8
実線
100
AcDbLine
 10
310.9896089205731
 20
170.7224090907142
 30
0.0
 11
311.3741105205729
 21
170.8250878907141
 31
0.0
  0
LINE
  5
2ACEF
330
1F
100
AcDbEntity
  8
実線
100
AcDbLine
 10
310.1614263205729
 20
172.2966390907141
 30
0.0
 11
309.8952359205732
 21
172.0912996907142
 31
0.0
  0
LINE
  5
2ACF0
330
1F
100
AcDbEntity
  8
実線
100
AcDbLine
 10
309.8065137205733
 20
172.9468550907141
 30
0.0
 11
309.8952359205732
 21
172.7415170907142
 31
0.0
  0
LINE
  5
2ACF1
330
1F
100
AcDbEntity
  8
実線
100
AcDbLine
 10
311.4628327205728
 20
172.5019588907142
 30
0.0
 11
311.729045520573
 21
172.9468550907141
 31
0.0
  0
LINE
  5
2ACF2
330
1F
100
AcDbEntity
  8
実線
100
AcDbLine
 10
311.8177677205729
 20
171.7833024907142
 30
0.0
 11
311.640300920573
 21
172.0912996907142
 31
0.0
  0
LINE
  5
2ACF3
330
1F
100
AcDbEntity
  8
実線
100
AcDbLine
 10
310.1614263205729
 20
170.8250878907141
 30
0.0
 11
310.545950320573
 21
170.7224090907142
 31
0.0
  0
LINE
  5
2ACF4
330
1F
100
AcDbEntity
  8
実線
100
AcDbLine
 10
310.9896089205731
 20
173.8024090907141
 30
0.0
 11
310.545950320573
 21
173.8024090907141
 31
0.0
  0
LINE
  5
2ACF5
330
1F
100
AcDbEntity
  8
実線
100
AcDbLine
 10
310.457205720573
 20
172.3992982907142
 30
0.0
 11
311.078331120573
 21
172.3992982907142
 31
0.0
  0
LINE
  5
2ACF6
330
1F
100
AcDbEntity
  8
実線
100
AcDbLine
 10
309.8952359205732
 20
173.4601916907142
 30
0.0
 11
309.8065137205733
 21
173.2548536907142
 31
0.0
  0
LINE
  5
2ACF7
330
1F
100
AcDbEntity
  8
実線
100
AcDbLine
 10
311.729045520573
 20
171.1330864907141
 30
0.0
 11
311.8177677205729
 21
171.4410836907142
 31
0.0
  0
LINE
  5
2ACF8
330
1F
100
AcDbEntity
  8
実線
100
AcDbLine
 10
309.8065137205733
 20
171.1330864907141
 30
0.0
 11
309.9839581205731
 21
170.9277470907142
 31
0.0
  0
LINE
  5
2ACF9
330
1F
100
AcDbEntity
  8
実線
100
AcDbLine
 10
311.640300920573
 20
173.4601916907142
 30
0.0
 11
311.4628327205728
 21
173.6655114907143
 31
0.0
  0
LINE
  5
2ACFA
330
1F
100
AcDbEntity
  8
実線
100
AcDbLine
 10
309.8952359205732
 20
172.7415170907142
 30
0.0
 11
310.0727041205728
 21
172.5019588907142
 31
0.0
  0
LINE
  5
2ACFB
330
1F
100
AcDbEntity
  8
実線
100
AcDbLine
 10
309.9839581205731
 20
170.9277470907142
 30
0.0
 11
310.1614263205729
 21
170.8250878907141
 31
0.0
  0
LINE
  5
2ACFC
330
1F
100
AcDbEntity
  8
実線
100
AcDbLine
 10
310.545950320573
 20
173.8024090907141
 30
0.0
 11
310.0727041205728
 21
173.6655114907143
 31
0.0
  0
LINE
  5
2ACFD
330
1F
100
AcDbEntity
  8
実線
100
AcDbLine
 10
311.3741105205729
 20
170.8250878907141
 30
0.0
 11
311.5515773205734
 21
170.9277470907142
 31
0.0
  0
LINE
  5
2ACFE
330
1F
100
AcDbEntity
  8
実線
100
AcDbLine
 10
309.8952359205732
 20
172.0912996907142
 30
0.0
 11
309.717767720573
 21
171.7833024907142
 31
0.0
  0
LINE
  5
2ACFF
330
1F
100
AcDbEntity
  8
実線
100
AcDbLine
 10
311.729045520573
 20
172.9468550907141
 30
0.0
 11
311.729045520573
 21
173.2548536907142
 31
0.0
  0
LINE
  5
2AD00
330
1F
100
AcDbEntity
  8
実線
100
AcDbLine
 10
311.640300920573
 20
172.0912996907142
 30
0.0
 11
311.3741105205729
 21
172.2966390907141
 31
0.0
  0
LINE
  5
2AD01
330
1F
100
AcDbEntity
  8
実線
100
AcDbLine
 10
310.545950320573
 20
170.7224090907142
 30
0.0
 11
310.9896089205731
 21
170.7224090907142
 31
0.0
  0
LINE
  5
2AD02
330
1F
100
AcDbEntity
  8
実線
100
AcDbLine
 10
310.457205720573
 20
172.3992982907142
 30
0.0
 11
310.1614263205729
 21
172.2966390907141
 31
0.0
  0
LINE
  5
2AD03
330
1F
100
AcDbEntity
  8
実線
100
AcDbLine
 10
311.078331120573
 20
172.3992982907142
 30
0.0
 11
311.4628327205728
 21
172.5019588907142
 31
0.0
  0
LINE
  5
2AD04
330
1F
100
AcDbEntity
  8
実線
100
AcDbLine
 10
309.8065137205733
 20
173.2548536907142
 30
0.0
 11
309.8065137205733
 21
172.9468550907141
 31
0.0
  0
LINE
  5
2AD05
330
1F
100
AcDbEntity
  8
実線
100
AcDbLine
 10
311.8177677205729
 20
171.4410836907142
 30
0.0
 11
311.8177677205729
 21
171.7833024907142
 31
0.0
  0
LINE
  5
2AD06
330
1F
100
AcDbEntity
  8
実線
100
AcDbLine
 10
311.4628327205728
 20
173.6655114907143
 30
0.0
 11
310.9896089205731
 21
173.8024090907141
 31
0.0
  0
LINE
  5
2AD07
330
1F
100
AcDbEntity
  8
実線
100
AcDbLine
 10
310.0727041205728
 20
172.5019588907142
 30
0.0
 11
310.457205720573
 21
172.3992982907142
 31
0.0
  0
LINE
  5
2AD08
330
1F
100
AcDbEntity
  8
実線
100
AcDbLine
 10
309.717767720573
 20
171.7833024907142
 30
0.0
 11
309.717767720573
 21
171.4410836907142
 31
0.0
  0
LINE
  5
2AD09
330
1F
100
AcDbEntity
  8
実線
100
AcDbLine
 10
310.0727041205728
 20
173.6655114907143
 30
0.0
 11
309.8952359205732
 21
173.4601916907142
 31
0.0
  0
LINE
  5
2AD0A
330
1F
100
AcDbEntity
  8
実線
100
AcDbLine
 10
311.5515773205734
 20
170.9277470907142
 30
0.0
 11
311.729045520573
 21
171.1330864907141
 31
0.0
  0
LINE
  5
2AD0B
330
1F
100
AcDbEntity
  8
実線
100
AcDbLine
 10
309.717767720573
 20
171.4410836907142
 30
0.0
 11
309.8065137205733
 21
171.1330864907141
 31
0.0
  0
LINE
  5
2AD0C
330
1F
100
AcDbEntity
  8
実線
100
AcDbLine
 10
312.6693051205728
 20
174.7390468907142
 30
0.0
 11
312.3735257205733
 21
174.9443848907142
 31
0.0
  0
LINE
  5
2AD0D
330
1F
100
AcDbEntity
  8
実線
100
AcDbLine
 10
313.852400320573
 20
173.8834914907141
 30
0.0
 11
313.5862099205728
 21
173.6781534907142
 31
0.0
  0
LINE
  5
2AD0E
330
1F
100
AcDbEntity
  8
実線
100
AcDbLine
 10
314.0298671205733
 20
174.1914900907142
 30
0.0
 11
313.852400320573
 21
173.8834914907141
 31
0.0
  0
LINE
  5
2AD0F
330
1F
100
AcDbEntity
  8
実線
100
AcDbLine
 10
314.2073353205731
 20
175.4577032907142
 30
0.0
 11
314.2073353205731
 21
174.8417060907142
 31
0.0
  0
LINE
  5
2AD10
330
1F
100
AcDbEntity
  8
実線
100
AcDbLine
 10
314.1185907205731
 20
175.9025994907142
 30
0.0
 11
314.2073353205731
 21
175.4577032907142
 31
0.0
  0
LINE
  5
2AD11
330
1F
100
AcDbEntity
  8
実線
100
AcDbLine
 10
314.0298671205733
 20
176.1079192907142
 30
0.0
 11
314.1185907205731
 21
175.9025994907142
 31
0.0
  0
LINE
  5
2AD12
330
1F
100
AcDbEntity
  8
実線
100
AcDbLine
 10
313.2904305205732
 20
176.6554760907142
 30
0.0
 11
313.5862099205728
 21
176.5185952907142
 31
0.0
  0
LINE
  5
2AD13
330
1F
100
AcDbEntity
  8
実線
100
AcDbLine
 10
312.5509925205731
 20
176.5185952907142
 30
0.0
 11
312.9354955205731
 21
176.6554760907142
 31
0.0
  0
LINE
  5
2AD14
330
1F
100
AcDbEntity
  8
実線
100
AcDbLine
 10
312.3735257205733
 20
176.4159178907142
 30
0.0
 11
312.5509925205731
 21
176.5185952907142
 31
0.0
  0
LINE
  5
2AD15
330
1F
100
AcDbEntity
  8
実線
100
AcDbLine
 10
312.1960575205731
 20
176.1079192907142
 30
0.0
 11
312.3735257205733
 21
176.4159178907142
 31
0.0
  0
LINE
  5
2AD16
330
1F
100
AcDbEntity
  8
実線
100
AcDbLine
 10
312.1073353205729
 20
175.7999206907142
 30
0.0
 11
312.1960575205731
 21
176.1079192907142
 31
0.0
  0
LINE
  5
2AD17
330
1F
100
AcDbEntity
  8
実線
100
AcDbLine
 10
313.2904305205732
 20
174.6363680907142
 30
0.0
 11
312.9354955205731
 21
174.6363680907142
 31
0.0
  0
LINE
  5
2AD18
330
1F
100
AcDbEntity
  8
実線
100
AcDbLine
 10
313.5862099205728
 20
176.5185952907142
 30
0.0
 11
313.852400320573
 21
176.3132572907142
 31
0.0
  0
LINE
  5
2AD19
330
1F
100
AcDbEntity
  8
実線
100
AcDbLine
 10
312.9354955205731
 20
176.6554760907142
 30
0.0
 11
313.2904305205732
 21
176.6554760907142
 31
0.0
  0
LINE
  5
2AD1A
330
1F
100
AcDbEntity
  8
実線
100
AcDbLine
 10
312.9354955205731
 20
173.5754942907142
 30
0.0
 11
312.5509925205731
 21
173.6781534907142
 31
0.0
  0
LINE
  5
2AD1B
330
1F
100
AcDbEntity
  8
実線
100
AcDbLine
 10
313.852400320573
 20
174.9443848907142
 30
0.0
 11
313.5862099205728
 21
174.7390468907142
 31
0.0
  0
LINE
  5
2AD1C
330
1F
100
AcDbEntity
  8
実線
100
AcDbLine
 10
314.2073353205731
 20
174.8417060907142
 30
0.0
 11
314.0298671205733
 21
174.1914900907142
 31
0.0
  0
LINE
  5
2AD1D
330
1F
100
AcDbEntity
  8
実線
100
AcDbLine
 10
314.2073353205731
 20
175.4577032907142
 30
0.0
 11
314.0298671205733
 21
175.1497046907142
 31
0.0
  0
LINE
  5
2AD1E
330
1F
100
AcDbEntity
  8
実線
100
AcDbLine
 10
313.5862099205728
 20
174.7390468907142
 30
0.0
 11
313.2904305205732
 21
174.6363680907142
 31
0.0
  0
LINE
  5
2AD1F
330
1F
100
AcDbEntity
  8
実線
100
AcDbLine
 10
312.9354955205731
 20
174.6363680907142
 30
0.0
 11
312.6693051205728
 21
174.7390468907142
 31
0.0
  0
LINE
  5
2AD20
330
1F
100
AcDbEntity
  8
実線
100
AcDbLine
 10
313.852400320573
 20
176.3132572907142
 30
0.0
 11
314.0298671205733
 21
176.1079192907142
 31
0.0
  0
LINE
  5
2AD21
330
1F
100
AcDbEntity
  8
実線
100
AcDbLine
 10
313.5862099205728
 20
173.6781534907142
 30
0.0
 11
313.2017069205731
 21
173.5754942907142
 31
0.0
  0
LINE
  5
2AD22
330
1F
100
AcDbEntity
  8
実線
100
AcDbLine
 10
312.5509925205731
 20
173.6781534907142
 30
0.0
 11
312.2848021205728
 21
173.8834914907141
 31
0.0
  0
LINE
  5
2AD23
330
1F
100
AcDbEntity
  8
実線
100
AcDbLine
 10
312.3735257205733
 20
174.9443848907142
 30
0.0
 11
312.1960575205731
 21
175.1497046907142
 31
0.0
  0
LINE
  5
2AD24
330
1F
100
AcDbEntity
  8
実線
100
AcDbLine
 10
312.2848021205728
 20
173.8834914907141
 30
0.0
 11
312.1073353205729
 21
174.1914900907142
 31
0.0
  0
LINE
  5
2AD25
330
1F
100
AcDbEntity
  8
実線
100
AcDbLine
 10
313.2017069205731
 20
173.5754942907142
 30
0.0
 11
312.9354955205731
 21
173.5754942907142
 31
0.0
  0
LINE
  5
2AD26
330
1F
100
AcDbEntity
  8
実線
100
AcDbLine
 10
312.1073353205729
 20
175.4577032907142
 30
0.0
 11
312.1073353205729
 21
175.7999206907142
 31
0.0
  0
LINE
  5
2AD27
330
1F
100
AcDbEntity
  8
実線
100
AcDbLine
 10
312.1960575205731
 20
175.1497046907142
 30
0.0
 11
312.1073353205729
 21
175.4577032907142
 31
0.0
  0
LINE
  5
2AD28
330
1F
100
AcDbEntity
  8
実線
100
AcDbLine
 10
314.0298671205733
 20
175.1497046907142
 30
0.0
 11
313.852400320573
 21
174.9443848907142
 31
0.0
  0
LINE
  5
2AD29
330
1F
100
AcDbEntity
  8
実線
100
AcDbLine
 10
325.0580451205733
 20
192.1523378907142
 30
0.0
 11
325.4694953205733
 21
191.5860252907142
 31
0.0
  0
LINE
  5
2AD2A
330
1F
100
AcDbEntity
  8
実線
100
AcDbLine
 10
322.0065673205734
 20
182.7608522907143
 30
0.0
 11
322.6723065205733
 21
182.9771634907142
 31
0.0
  0
LINE
  5
2AD2B
330
1F
100
AcDbEntity
  8
実線
100
AcDbLine
 10
325.0580451205733
 20
178.5608522907142
 30
0.0
 11
325.4694953205733
 21
179.1271648907142
 31
0.0
  0
LINE
  5
2AD2C
330
1F
100
AcDbEntity
  8
実線
100
AcDbLine
 10
329.9954419205731
 20
176.9565950907142
 30
0.0
 11
329.9954419205731
 21
177.6565950907142
 31
0.0
  0
LINE
  5
2AD2D
330
1F
100
AcDbEntity
  8
実線
100
AcDbLine
 10
334.9328387205728
 20
178.5608522907142
 30
0.0
 11
334.5213885205728
 21
179.1271648907142
 31
0.0
  0
LINE
  5
2AD2E
330
1F
100
AcDbEntity
  8
実線
100
AcDbLine
 10
337.984316520573
 20
182.7608522907143
 30
0.0
 11
337.318577320573
 21
182.9771634907142
 31
0.0
  0
LINE
  5
2AD2F
330
1F
100
AcDbEntity
  8
実線
100
AcDbLine
 10
334.9328387205728
 20
192.1523378907142
 30
0.0
 11
334.5213885205728
 21
191.5860252907142
 31
0.0
  0
LINE
  5
2AD30
330
1F
100
AcDbEntity
  8
実線
100
AcDbLine
 10
322.0065673205734
 20
187.9523378907142
 30
0.0
 11
322.6723065205733
 21
187.7360266907142
 31
0.0
  0
LINE
  5
2AD31
330
1F
100
AcDbEntity
  8
実線
100
AcDbLine
 10
337.984316520573
 20
187.9523378907142
 30
0.0
 11
337.318577320573
 21
187.7360266907142
 31
0.0
  0
ARC
  5
2AD32
330
1F
100
AcDbEntity
  8
実線
100
AcDbCircle
 10
329.9954419205731
 20
185.3565950907142
 30
0.0
 40
8.399999999999998
100
AcDbArc
 50
91.77334006125551
 51
88.22665993874446
  0
LINE
  5
2AD33
330
1F
100
AcDbEntity
  8
実線
100
AcDbLine
 10
333.691233320573
 20
191.5348692907142
 30
0.0
 11
332.9813857205734
 21
190.6793138907143
 31
0.0
  0
LINE
  5
2AD34
330
1F
100
AcDbEntity
  8
実線
100
AcDbLine
 10
333.691233320573
 20
188.4548874907142
 30
0.0
 11
333.691233320573
 21
191.5348692907142
 31
0.0
  0
LINE
  5
2AD35
330
1F
100
AcDbEntity
  8
実線
100
AcDbLine
 10
336.9044671205734
 20
187.4955192907142
 30
0.0
 11
336.7269989205729
 21
187.2901994907142
 31
0.0
  0
LINE
  5
2AD36
330
1F
100
AcDbEntity
  8
実線
100
AcDbLine
 10
335.4551591205729
 20
188.5564112907142
 30
0.0
 11
335.810094120573
 21
188.6932920907142
 31
0.0
  0
LINE
  5
2AD37
330
1F
100
AcDbEntity
  8
実線
100
AcDbLine
 10
334.9819339205731
 20
185.9213074907142
 30
0.0
 11
334.8931893205731
 21
185.6133102907142
 31
0.0
  0
LINE
  5
2AD38
330
1F
100
AcDbEntity
  8
実線
100
AcDbLine
 10
334.9819339205731
 20
188.1457534907142
 30
0.0
 11
335.1594021205731
 21
188.3510732907142
 31
0.0
  0
LINE
  5
2AD39
330
1F
100
AcDbEntity
  8
実線
100
AcDbLine
 10
335.4551591205729
 20
186.5715248907142
 30
0.0
 11
335.1594021205731
 21
186.2293060907142
 31
0.0
  0
LINE
  5
2AD3A
330
1F
100
AcDbEntity
  8
実線
100
AcDbLine
 10
336.5495321205731
 20
188.5564112907142
 30
0.0
 11
336.8157435205728
 21
188.3510732907142
 31
0.0
  0
LINE
  5
2AD3B
330
1F
100
AcDbEntity
  8
実線
100
AcDbLine
 10
336.7269989205729
 20
187.2901994907142
 30
0.0
 11
335.810094120573
 21
186.8795220907142
 31
0.0
  0
LINE
  5
2AD3C
330
1F
100
AcDbEntity
  8
実線
100
AcDbLine
 10
335.810094120573
 20
188.6932920907142
 30
0.0
 11
336.1650291205733
 21
188.6932920907142
 31
0.0
  0
LINE
  5
2AD3D
330
1F
100
AcDbEntity
  8
実線
100
AcDbLine
 10
334.8931893205731
 20
185.6133102907142
 30
0.0
 11
336.9931893205733
 21
185.6133102907142
 31
0.0
  0
LINE
  5
2AD3E
330
1F
100
AcDbEntity
  8
実線
100
AcDbLine
 10
336.9931893205733
 20
187.7350774907141
 30
0.0
 11
336.9044671205734
 21
187.4955192907142
 31
0.0
  0
LINE
  5
2AD3F
330
1F
100
AcDbEntity
  8
実線
100
AcDbLine
 10
335.1594021205731
 20
188.3510732907142
 30
0.0
 11
335.4551591205729
 21
188.5564112907142
 31
0.0
  0
LINE
  5
2AD40
330
1F
100
AcDbEntity
  8
実線
100
AcDbLine
 10
335.1594021205731
 20
186.2293060907142
 30
0.0
 11
334.9819339205731
 21
185.9213074907142
 31
0.0
  0
LINE
  5
2AD41
330
1F
100
AcDbEntity
  8
実線
100
AcDbLine
 10
336.8157435205728
 20
188.3510732907142
 30
0.0
 11
336.9931893205733
 21
188.0430760907142
 31
0.0
  0
LINE
  5
2AD42
330
1F
100
AcDbEntity
  8
実線
100
AcDbLine
 10
334.8931893205731
 20
187.9404154907142
 30
0.0
 11
334.9819339205731
 21
188.1457534907142
 31
0.0
  0
LINE
  5
2AD43
330
1F
100
AcDbEntity
  8
実線
100
AcDbLine
 10
336.9931893205733
 20
188.0430760907142
 30
0.0
 11
336.9931893205733
 21
187.7350774907141
 31
0.0
  0
LINE
  5
2AD44
330
1F
100
AcDbEntity
  8
実線
100
AcDbLine
 10
336.1650291205733
 20
188.6932920907142
 30
0.0
 11
336.5495321205731
 21
188.5564112907142
 31
0.0
  0
LINE
  5
2AD45
330
1F
100
AcDbEntity
  8
実線
100
AcDbLine
 10
335.810094120573
 20
186.8795220907142
 30
0.0
 11
335.4551591205729
 21
186.5715248907142
 31
0.0
  0
LINE
  5
2AD46
330
1F
100
AcDbEntity
  8
実線
100
AcDbLine
 10
336.3531107205734
 20
183.0479110907141
 30
0.0
 11
336.7080471205732
 21
182.8425730907142
 31
0.0
  0
LINE
  5
2AD47
330
1F
100
AcDbEntity
  8
実線
100
AcDbLine
 10
334.9629821205733
 20
184.1088030907142
 30
0.0
 11
335.1404489205731
 21
184.3141228907142
 31
0.0
  0
LINE
  5
2AD48
330
1F
100
AcDbEntity
  8
実線
100
AcDbLine
 10
336.885513920573
 20
181.8843584907142
 30
0.0
 11
336.7080471205732
 21
181.6790190907141
 31
0.0
  0
LINE
  5
2AD49
330
1F
100
AcDbEntity
  8
実線
100
AcDbLine
 10
336.7080471205732
 20
183.1505702907142
 30
0.0
 11
336.3531107205734
 21
183.0479110907141
 31
0.0
  0
LINE
  5
2AD4A
330
1F
100
AcDbEntity
  8
実線
100
AcDbLine
 10
336.1460773205729
 20
184.5536810907142
 30
0.0
 11
336.5305789205729
 21
184.4168016907141
 31
0.0
  0
LINE
  5
2AD4B
330
1F
100
AcDbEntity
  8
実線
100
AcDbLine
 10
336.7080471205732
 20
184.3141228907142
 30
0.0
 11
336.885513920573
 21
184.1088030907142
 31
0.0
  0
LINE
  5
2AD4C
330
1F
100
AcDbEntity
  8
実線
100
AcDbLine
 10
336.9742361205731
 20
182.4319138907142
 30
0.0
 11
336.9742361205731
 21
182.0896964907142
 31
0.0
  0
LINE
  5
2AD4D
330
1F
100
AcDbEntity
  8
実線
100
AcDbLine
 10
336.885513920573
 20
184.1088030907142
 30
0.0
 11
336.9742361205731
 21
183.9034650907141
 31
0.0
  0
LINE
  5
2AD4E
330
1F
100
AcDbEntity
  8
実線
100
AcDbLine
 10
335.3179171205729
 20
181.5763598907143
 30
0.0
 11
335.0517043205732
 21
181.7816978907143
 31
0.0
  0
LINE
  5
2AD4F
330
1F
100
AcDbEntity
  8
実線
100
AcDbLine
 10
336.1460773205729
 20
181.4736992907143
 30
0.0
 11
335.702418720573
 21
181.4736992907143
 31
0.0
  0
LINE
  5
2AD50
330
1F
100
AcDbEntity
  8
実線
100
AcDbLine
 10
336.7080471205732
 20
182.8425730907142
 30
0.0
 11
336.885513920573
 21
182.6372518907143
 31
0.0
  0
LINE
  5
2AD51
330
1F
100
AcDbEntity
  8
実線
100
AcDbLine
 10
336.9742361205731
 20
183.5954664907142
 30
0.0
 11
336.885513920573
 21
183.3559082907141
 31
0.0
  0
LINE
  5
2AD52
330
1F
100
AcDbEntity
  8
実線
100
AcDbLine
 10
336.7080471205732
 20
181.6790190907141
 30
0.0
 11
336.5305789205729
 21
181.5763598907143
 31
0.0
  0
LINE
  5
2AD53
330
1F
100
AcDbEntity
  8
実線
100
AcDbLine
 10
336.3531107205734
 20
183.0479110907141
 30
0.0
 11
335.436205920573
 21
183.0479110907141
 31
0.0
  0
LINE
  5
2AD54
330
1F
100
AcDbEntity
  8
実線
100
AcDbLine
 10
336.5305789205729
 20
184.4168016907141
 30
0.0
 11
336.7080471205732
 21
184.3141228907142
 31
0.0
  0
LINE
  5
2AD55
330
1F
100
AcDbEntity
  8
実線
100
AcDbLine
 10
334.874236120573
 20
183.9034650907141
 30
0.0
 11
334.9629821205733
 21
184.1088030907142
 31
0.0
  0
LINE
  5
2AD56
330
1F
100
AcDbEntity
  8
実線
100
AcDbLine
 10
335.0517043205732
 20
181.7816978907143
 30
0.0
 11
334.874236120573
 21
181.9870176907142
 31
0.0
  0
LINE
  5
2AD57
330
1F
100
AcDbEntity
  8
実線
100
AcDbLine
 10
336.9742361205731
 20
182.0896964907142
 30
0.0
 11
336.885513920573
 21
181.8843584907142
 31
0.0
  0
LINE
  5
2AD58
330
1F
100
AcDbEntity
  8
実線
100
AcDbLine
 10
336.885513920573
 20
183.3559082907141
 30
0.0
 11
336.7080471205732
 21
183.1505702907142
 31
0.0
  0
LINE
  5
2AD59
330
1F
100
AcDbEntity
  8
実線
100
AcDbLine
 10
335.702418720573
 20
184.5536810907142
 30
0.0
 11
336.1460773205729
 21
184.5536810907142
 31
0.0
  0
LINE
  5
2AD5A
330
1F
100
AcDbEntity
  8
実線
100
AcDbLine
 10
335.702418720573
 20
181.4736992907143
 30
0.0
 11
335.3179171205729
 21
181.5763598907143
 31
0.0
  0
LINE
  5
2AD5B
330
1F
100
AcDbEntity
  8
実線
100
AcDbLine
 10
336.9742361205731
 20
183.9034650907141
 30
0.0
 11
336.9742361205731
 21
183.5954664907142
 31
0.0
  0
LINE
  5
2AD5C
330
1F
100
AcDbEntity
  8
実線
100
AcDbLine
 10
335.1404489205731
 20
184.3141228907142
 30
0.0
 11
335.3179171205729
 21
184.4168016907141
 31
0.0
  0
LINE
  5
2AD5D
330
1F
100
AcDbEntity
  8
実線
100
AcDbLine
 10
335.3179171205729
 20
184.4168016907141
 30
0.0
 11
335.702418720573
 21
184.5536810907142
 31
0.0
  0
LINE
  5
2AD5E
330
1F
100
AcDbEntity
  8
実線
100
AcDbLine
 10
336.885513920573
 20
182.6372518907143
 30
0.0
 11
336.9742361205731
 21
182.4319138907142
 31
0.0
  0
LINE
  5
2AD5F
330
1F
100
AcDbEntity
  8
実線
100
AcDbLine
 10
336.5305789205729
 20
181.5763598907143
 30
0.0
 11
336.1460773205729
 21
181.4736992907143
 31
0.0
  0
LINE
  5
2AD60
330
1F
100
AcDbEntity
  8
実線
100
AcDbLine
 10
334.1492293205731
 20
182.1431036907142
 30
0.0
 11
332.404141920573
 21
179.7817782907142
 31
0.0
  0
LINE
  5
2AD61
330
1F
100
AcDbEntity
  8
実線
100
AcDbLine
 10
332.404141920573
 20
179.7817782907142
 30
0.0
 11
334.5928865205729
 21
179.7817782907142
 31
0.0
  0
LINE
  5
2AD62
330
1F
100
AcDbEntity
  8
実線
100
AcDbLine
 10
334.1492293205731
 20
179.0631036907142
 30
0.0
 11
334.1492293205731
 21
182.1431036907142
 31
0.0
  0
LINE
  5
2AD63
330
1F
100
AcDbEntity
  8
実線
100
AcDbLine
 10
329.211632320573
 20
179.8561616907142
 30
0.0
 11
328.9454419205731
 21
179.6508236907142
 31
0.0
  0
LINE
  5
2AD64
330
1F
100
AcDbEntity
  8
実線
100
AcDbLine
 10
331.045441920573
 20
179.3428264907142
 30
0.0
 11
330.9566973205733
 21
179.5481644907141
 31
0.0
  0
LINE
  5
2AD65
330
1F
100
AcDbEntity
  8
実線
100
AcDbLine
 10
329.5074117205729
 20
178.1792738907141
 30
0.0
 11
329.773602120573
 21
178.0766132907141
 31
0.0
  0
LINE
  5
2AD66
330
1F
100
AcDbEntity
  8
実線
100
AcDbLine
 10
328.9454419205731
 20
179.6508236907142
 30
0.0
 11
328.9454419205731
 21
181.1565950907142
 31
0.0
  0
LINE
  5
2AD67
330
1F
100
AcDbEntity
  8
実線
100
AcDbLine
 10
329.773602120573
 20
180.0957016907142
 30
0.0
 11
329.3890991205731
 21
179.9588222907142
 31
0.0
  0
LINE
  5
2AD68
330
1F
100
AcDbEntity
  8
実線
100
AcDbLine
 10
328.9454419205731
 20
178.5899316907142
 30
0.0
 11
329.1229101205731
 21
178.3846118907142
 31
0.0
  0
LINE
  5
2AD69
330
1F
100
AcDbEntity
  8
実線
100
AcDbLine
 10
330.9566973205733
 20
178.5899316907142
 30
0.0
 11
331.045441920573
 21
178.8979302907143
 31
0.0
  0
LINE
  5
2AD6A
330
1F
100
AcDbEntity
  8
実線
100
AcDbLine
 10
330.5130387205734
 20
179.9588222907142
 30
0.0
 11
330.1285371205731
 21
180.0957016907142
 31
0.0
  0
LINE
  5
2AD6B
330
1F
100
AcDbEntity
  8
実線
100
AcDbLine
 10
330.5130387205734
 20
178.1792738907141
 30
0.0
 11
330.7792291205728
 21
178.3846118907142
 31
0.0
  0
LINE
  5
2AD6C
330
1F
100
AcDbEntity
  8
実線
100
AcDbLine
 10
330.9566973205733
 20
179.5481644907141
 30
0.0
 11
330.7792291205728
 21
179.7534842907142
 31
0.0
  0
LINE
  5
2AD6D
330
1F
100
AcDbEntity
  8
実線
100
AcDbLine
 10
329.773602120573
 20
178.0766132907141
 30
0.0
 11
330.1285371205731
 21
178.0766132907141
 31
0.0
  0
LINE
  5
2AD6E
330
1F
100
AcDbEntity
  8
実線
100
AcDbLine
 10
331.045441920573
 20
178.8979302907143
 30
0.0
 11
331.045441920573
 21
179.3428264907142
 31
0.0
  0
LINE
  5
2AD6F
330
1F
100
AcDbEntity
  8
実線
100
AcDbLine
 10
329.1229101205731
 20
178.3846118907142
 30
0.0
 11
329.5074117205729
 21
178.1792738907141
 31
0.0
  0
LINE
  5
2AD70
330
1F
100
AcDbEntity
  8
実線
100
AcDbLine
 10
330.1285371205731
 20
180.0957016907142
 30
0.0
 11
329.773602120573
 21
180.0957016907142
 31
0.0
  0
LINE
  5
2AD71
330
1F
100
AcDbEntity
  8
実線
100
AcDbLine
 10
330.7792291205728
 20
178.3846118907142
 30
0.0
 11
330.9566973205733
 21
178.5899316907142
 31
0.0
  0
LINE
  5
2AD72
330
1F
100
AcDbEntity
  8
実線
100
AcDbLine
 10
328.9454419205731
 20
181.1565950907142
 30
0.0
 11
331.045441920573
 21
181.1565950907142
 31
0.0
  0
LINE
  5
2AD73
330
1F
100
AcDbEntity
  8
実線
100
AcDbLine
 10
330.7792291205728
 20
179.7534842907142
 30
0.0
 11
330.5130387205734
 21
179.9588222907142
 31
0.0
  0
LINE
  5
2AD74
330
1F
100
AcDbEntity
  8
実線
100
AcDbLine
 10
330.1285371205731
 20
178.0766132907141
 30
0.0
 11
330.5130387205734
 21
178.1792738907141
 31
0.0
  0
LINE
  5
2AD75
330
1F
100
AcDbEntity
  8
実線
100
AcDbLine
 10
329.3890991205731
 20
179.9588222907142
 30
0.0
 11
329.211632320573
 21
179.8561616907142
 31
0.0
  0
LINE
  5
2AD76
330
1F
100
AcDbEntity
  8
実線
100
AcDbLine
 10
326.3387917205728
 20
181.1084392907142
 30
0.0
 11
326.0726013205731
 21
180.9715598907142
 31
0.0
  0
LINE
  5
2AD77
330
1F
100
AcDbEntity
  8
実線
100
AcDbLine
 10
327.4331647205729
 20
179.6026678907142
 30
0.0
 11
327.5218869205728
 21
179.9106664907142
 31
0.0
  0
LINE
  5
2AD78
330
1F
100
AcDbEntity
  8
実線
100
AcDbLine
 10
325.5993537205734
 20
179.6026678907142
 30
0.0
 11
325.776821920573
 21
179.3973480907142
 31
0.0
  0
LINE
  5
2AD79
330
1F
100
AcDbEntity
  8
実線
100
AcDbLine
 10
326.4275139205729
 20
182.1693326907142
 30
0.0
 11
326.0726013205731
 21
182.0324336907142
 31
0.0
  0
LINE
  5
2AD7A
330
1F
100
AcDbEntity
  8
実線
100
AcDbLine
 10
326.9894837205732
 20
180.9715598907142
 30
0.0
 11
326.6937267205729
 21
181.1084392907142
 31
0.0
  0
LINE
  5
2AD7B
330
1F
100
AcDbEntity
  8
実線
100
AcDbLine
 10
327.0782283205731
 20
179.1920100907142
 30
0.0
 11
327.2556965205733
 21
179.2946706907143
 31
0.0
  0
LINE
  5
2AD7C
330
1F
100
AcDbEntity
  8
実線
100
AcDbLine
 10
325.4218869205729
 20
180.2528852907142
 30
0.0
 11
325.5106091205728
 21
179.8080058907143
 31
0.0
  0
LINE
  5
2AD7D
330
1F
100
AcDbEntity
  8
実線
100
AcDbLine
 10
326.6937267205729
 20
181.1084392907142
 30
0.0
 11
326.3387917205728
 21
181.1084392907142
 31
0.0
  0
LINE
  5
2AD7E
330
1F
100
AcDbEntity
  8
実線
100
AcDbLine
 10
325.5993537205734
 20
180.5608824907143
 30
0.0
 11
325.4218869205729
 21
180.2528852907142
 31
0.0
  0
LINE
  5
2AD7F
330
1F
100
AcDbEntity
  8
実線
100
AcDbLine
 10
327.4331647205729
 20
180.5608824907143
 30
0.0
 11
327.2556965205733
 21
180.7662204907142
 31
0.0
  0
LINE
  5
2AD80
330
1F
100
AcDbEntity
  8
実線
100
AcDbLine
 10
326.3387917205728
 20
179.0893494907142
 30
0.0
 11
326.6937267205729
 21
179.0893494907142
 31
0.0
  0
LINE
  5
2AD81
330
1F
100
AcDbEntity
  8
実線
100
AcDbLine
 10
327.5218869205728
 20
181.5191152907142
 30
0.0
 11
327.3444187205732
 21
181.8271138907142
 31
0.0
  0
LINE
  5
2AD82
330
1F
100
AcDbEntity
  8
実線
100
AcDbLine
 10
327.3444187205732
 20
181.8271138907142
 30
0.0
 11
327.0782283205731
 21
182.0324336907142
 31
0.0
  0
LINE
  5
2AD83
330
1F
100
AcDbEntity
  8
実線
100
AcDbLine
 10
326.0726013205731
 20
180.9715598907142
 30
0.0
 11
325.776821920573
 21
180.7662204907142
 31
0.0
  0
LINE
  5
2AD84
330
1F
100
AcDbEntity
  8
実線
100
AcDbLine
 10
327.5218869205728
 20
179.9106664907142
 30
0.0
 11
327.5218869205728
 21
180.2528852907142
 31
0.0
  0
LINE
  5
2AD85
330
1F
100
AcDbEntity
  8
実線
100
AcDbLine
 10
325.776821920573
 20
179.3973480907142
 30
0.0
 11
326.0726013205731
 21
179.1920100907142
 31
0.0
  0
LINE
  5
2AD86
330
1F
100
AcDbEntity
  8
実線
100
AcDbLine
 10
327.0782283205731
 20
182.0324336907142
 30
0.0
 11
326.6937267205729
 21
182.1693326907142
 31
0.0
  0
LINE
  5
2AD87
330
1F
100
AcDbEntity
  8
実線
100
AcDbLine
 10
327.2556965205733
 20
179.2946706907143
 30
0.0
 11
327.4331647205729
 21
179.6026678907142
 31
0.0
  0
LINE
  5
2AD88
330
1F
100
AcDbEntity
  8
実線
100
AcDbLine
 10
325.5106091205728
 20
179.8080058907143
 30
0.0
 11
325.5993537205734
 21
179.6026678907142
 31
0.0
  0
LINE
  5
2AD89
330
1F
100
AcDbEntity
  8
実線
100
AcDbLine
 10
326.6937267205729
 20
182.1693326907142
 30
0.0
 11
326.4275139205729
 21
182.1693326907142
 31
0.0
  0
LINE
  5
2AD8A
330
1F
100
AcDbEntity
  8
実線
100
AcDbLine
 10
327.2556965205733
 20
180.7662204907142
 30
0.0
 11
326.9894837205732
 21
180.9715598907142
 31
0.0
  0
LINE
  5
2AD8B
330
1F
100
AcDbEntity
  8
実線
100
AcDbLine
 10
326.6937267205729
 20
179.0893494907142
 30
0.0
 11
327.0782283205731
 21
179.1920100907142
 31
0.0
  0
LINE
  5
2AD8C
330
1F
100
AcDbEntity
  8
実線
100
AcDbLine
 10
325.776821920573
 20
181.8271138907142
 30
0.0
 11
325.5993537205734
 21
181.5191152907142
 31
0.0
  0
LINE
  5
2AD8D
330
1F
100
AcDbEntity
  8
実線
100
AcDbLine
 10
325.776821920573
 20
180.7662204907142
 30
0.0
 11
325.5993537205734
 21
180.5608824907143
 31
0.0
  0
LINE
  5
2AD8E
330
1F
100
AcDbEntity
  8
実線
100
AcDbLine
 10
325.5993537205734
 20
181.5191152907142
 30
0.0
 11
325.4218869205729
 21
180.8688992907142
 31
0.0
  0
LINE
  5
2AD8F
330
1F
100
AcDbEntity
  8
実線
100
AcDbLine
 10
326.0726013205731
 20
179.1920100907142
 30
0.0
 11
326.3387917205728
 21
179.0893494907142
 31
0.0
  0
LINE
  5
2AD90
330
1F
100
AcDbEntity
  8
実線
100
AcDbLine
 10
327.5218869205728
 20
180.2528852907142
 30
0.0
 11
327.4331647205729
 21
180.5608824907143
 31
0.0
  0
LINE
  5
2AD91
330
1F
100
AcDbEntity
  8
実線
100
AcDbLine
 10
326.0726013205731
 20
182.0324336907142
 30
0.0
 11
325.776821920573
 21
181.8271138907142
 31
0.0
  0
LINE
  5
2AD92
330
1F
100
AcDbEntity
  8
実線
100
AcDbLine
 10
325.4218869205729
 20
180.8688992907142
 30
0.0
 11
325.4218869205729
 21
180.2528852907142
 31
0.0
  0
LINE
  5
2AD93
330
1F
100
AcDbEntity
  8
実線
100
AcDbLine
 10
325.1361203205729
 20
184.4771304907143
 30
0.0
 11
323.805124920573
 21
181.3971304907141
 31
0.0
  0
LINE
  5
2AD94
330
1F
100
AcDbEntity
  8
実線
100
AcDbLine
 10
323.036120320573
 20
184.4771304907143
 30
0.0
 11
325.1361203205729
 21
184.4771304907143
 31
0.0
  0
LINE
  5
2AD95
330
1F
100
AcDbEntity
  8
実線
100
AcDbLine
 10
325.0351649205729
 20
188.1192556907142
 30
0.0
 11
324.946420320573
 21
188.3245936907143
 31
0.0
  0
LINE
  5
2AD96
330
1F
100
AcDbEntity
  8
実線
100
AcDbLine
 10
324.6802299205729
 20
187.1610410907142
 30
0.0
 11
324.3844505205729
 21
187.2637002907141
 31
0.0
  0
LINE
  5
2AD97
330
1F
100
AcDbEntity
  8
実線
100
AcDbLine
 10
324.295728320573
 20
185.5868110907141
 30
0.0
 11
324.6802299205729
 21
185.6894898907143
 31
0.0
  0
LINE
  5
2AD98
330
1F
100
AcDbEntity
  8
実線
100
AcDbLine
 10
323.4675457205729
 20
187.1610410907142
 30
0.0
 11
323.2013553205732
 21
186.9557016907141
 31
0.0
  0
LINE
  5
2AD99
330
1F
100
AcDbEntity
  8
実線
100
AcDbLine
 10
323.1126331205733
 20
187.8112570907143
 30
0.0
 11
323.2013553205732
 21
187.6059190907142
 31
0.0
  0
LINE
  5
2AD9A
330
1F
100
AcDbEntity
  8
実線
100
AcDbLine
 10
324.768952120573
 20
187.3663608907142
 30
0.0
 11
325.0351649205729
 21
187.8112570907143
 31
0.0
  0
LINE
  5
2AD9B
330
1F
100
AcDbEntity
  8
実線
100
AcDbLine
 10
325.1238871205728
 20
186.6477044907142
 30
0.0
 11
324.946420320573
 21
186.9557016907141
 31
0.0
  0
LINE
  5
2AD9C
330
1F
100
AcDbEntity
  8
実線
100
AcDbLine
 10
323.4675457205729
 20
185.6894898907143
 30
0.0
 11
323.8520697205729
 21
185.5868110907141
 31
0.0
  0
LINE
  5
2AD9D
330
1F
100
AcDbEntity
  8
実線
100
AcDbLine
 10
324.295728320573
 20
188.6668110907143
 30
0.0
 11
323.8520697205729
 21
188.6668110907143
 31
0.0
  0
LINE
  5
2AD9E
330
1F
100
AcDbEntity
  8
実線
100
AcDbLine
 10
323.763325120573
 20
187.2637002907141
 30
0.0
 11
324.3844505205729
 21
187.2637002907141
 31
0.0
  0
LINE
  5
2AD9F
330
1F
100
AcDbEntity
  8
実線
100
AcDbLine
 10
323.2013553205732
 20
188.3245936907143
 30
0.0
 11
323.1126331205733
 21
188.1192556907142
 31
0.0
  0
LINE
  5
2ADA0
330
1F
100
AcDbEntity
  8
実線
100
AcDbLine
 10
325.0351649205729
 20
185.9974884907143
 30
0.0
 11
325.1238871205728
 21
186.3054856907141
 31
0.0
  0
LINE
  5
2ADA1
330
1F
100
AcDbEntity
  8
実線
100
AcDbLine
 10
323.1126331205733
 20
185.9974884907143
 30
0.0
 11
323.2900775205731
 21
185.7921490907141
 31
0.0
  0
LINE
  5
2ADA2
330
1F
100
AcDbEntity
  8
実線
100
AcDbLine
 10
324.946420320573
 20
188.3245936907143
 30
0.0
 11
324.768952120573
 21
188.5299134907142
 31
0.0
  0
LINE
  5
2ADA3
330
1F
100
AcDbEntity
  8
実線
100
AcDbLine
 10
323.2013553205732
 20
187.6059190907142
 30
0.0
 11
323.378823520573
 21
187.3663608907142
 31
0.0
  0
LINE
  5
2ADA4
330
1F
100
AcDbEntity
  8
実線
100
AcDbLine
 10
323.2900775205731
 20
185.7921490907141
 30
0.0
 11
323.4675457205729
 21
185.6894898907143
 31
0.0
  0
LINE
  5
2ADA5
330
1F
100
AcDbEntity
  8
実線
100
AcDbLine
 10
323.8520697205729
 20
188.6668110907143
 30
0.0
 11
323.378823520573
 21
188.5299134907142
 31
0.0
  0
LINE
  5
2ADA6
330
1F
100
AcDbEntity
  8
実線
100
AcDbLine
 10
324.6802299205729
 20
185.6894898907143
 30
0.0
 11
324.8576967205734
 21
185.7921490907141
 31
0.0
  0
LINE
  5
2ADA7
330
1F
100
AcDbEntity
  8
実線
100
AcDbLine
 10
323.2013553205732
 20
186.9557016907141
 30
0.0
 11
323.0238871205729
 21
186.6477044907142
 31
0.0
  0
LINE
  5
2ADA8
330
1F
100
AcDbEntity
  8
実線
100
AcDbLine
 10
325.0351649205729
 20
187.8112570907143
 30
0.0
 11
325.0351649205729
 21
188.1192556907142
 31
0.0
  0
LINE
  5
2ADA9
330
1F
100
AcDbEntity
  8
実線
100
AcDbLine
 10
324.946420320573
 20
186.9557016907141
 30
0.0
 11
324.6802299205729
 21
187.1610410907142
 31
0.0
  0
LINE
  5
2ADAA
330
1F
100
AcDbEntity
  8
実線
100
AcDbLine
 10
323.8520697205729
 20
185.5868110907141
 30
0.0
 11
324.295728320573
 21
185.5868110907141
 31
0.0
  0
LINE
  5
2ADAB
330
1F
100
AcDbEntity
  8
実線
100
AcDbLine
 10
323.763325120573
 20
187.2637002907141
 30
0.0
 11
323.4675457205729
 21
187.1610410907142
 31
0.0
  0
LINE
  5
2ADAC
330
1F
100
AcDbEntity
  8
実線
100
AcDbLine
 10
324.3844505205729
 20
187.2637002907141
 30
0.0
 11
324.768952120573
 21
187.3663608907142
 31
0.0
  0
LINE
  5
2ADAD
330
1F
100
AcDbEntity
  8
実線
100
AcDbLine
 10
323.1126331205733
 20
188.1192556907142
 30
0.0
 11
323.1126331205733
 21
187.8112570907143
 31
0.0
  0
LINE
  5
2ADAE
330
1F
100
AcDbEntity
  8
実線
100
AcDbLine
 10
325.1238871205728
 20
186.3054856907141
 30
0.0
 11
325.1238871205728
 21
186.6477044907142
 31
0.0
  0
LINE
  5
2ADAF
330
1F
100
AcDbEntity
  8
実線
100
AcDbLine
 10
324.768952120573
 20
188.5299134907142
 30
0.0
 11
324.295728320573
 21
188.6668110907143
 31
0.0
  0
LINE
  5
2ADB0
330
1F
100
AcDbEntity
  8
実線
100
AcDbLine
 10
323.378823520573
 20
187.3663608907142
 30
0.0
 11
323.763325120573
 21
187.2637002907141
 31
0.0
  0
LINE
  5
2ADB1
330
1F
100
AcDbEntity
  8
実線
100
AcDbLine
 10
323.0238871205729
 20
186.6477044907142
 30
0.0
 11
323.0238871205729
 21
186.3054856907141
 31
0.0
  0
LINE
  5
2ADB2
330
1F
100
AcDbEntity
  8
実線
100
AcDbLine
 10
323.378823520573
 20
188.5299134907142
 30
0.0
 11
323.2013553205732
 21
188.3245936907143
 31
0.0
  0
LINE
  5
2ADB3
330
1F
100
AcDbEntity
  8
実線
100
AcDbLine
 10
324.8576967205734
 20
185.7921490907141
 30
0.0
 11
325.0351649205729
 21
185.9974884907143
 31
0.0
  0
LINE
  5
2ADB4
330
1F
100
AcDbEntity
  8
実線
100
AcDbLine
 10
323.0238871205729
 20
186.3054856907141
 30
0.0
 11
323.1126331205733
 21
185.9974884907143
 31
0.0
  0
LINE
  5
2ADB5
330
1F
100
AcDbEntity
  8
実線
100
AcDbLine
 10
325.9754245205727
 20
189.6034488907142
 30
0.0
 11
325.6796451205732
 21
189.8087868907142
 31
0.0
  0
LINE
  5
2ADB6
330
1F
100
AcDbEntity
  8
実線
100
AcDbLine
 10
327.1585197205729
 20
188.7478934907142
 30
0.0
 11
326.8923293205733
 21
188.5425554907142
 31
0.0
  0
LINE
  5
2ADB7
330
1F
100
AcDbEntity
  8
実線
100
AcDbLine
 10
327.3359865205734
 20
189.0558920907142
 30
0.0
 11
327.1585197205729
 21
188.7478934907142
 31
0.0
  0
LINE
  5
2ADB8
330
1F
100
AcDbEntity
  8
実線
100
AcDbLine
 10
327.513454720573
 20
190.3221052907141
 30
0.0
 11
327.513454720573
 21
189.7061080907142
 31
0.0
  0
LINE
  5
2ADB9
330
1F
100
AcDbEntity
  8
実線
100
AcDbLine
 10
327.4247101205731
 20
190.7670014907143
 30
0.0
 11
327.513454720573
 21
190.3221052907141
 31
0.0
  0
LINE
  5
2ADBA
330
1F
100
AcDbEntity
  8
実線
100
AcDbLine
 10
327.3359865205734
 20
190.9723212907142
 30
0.0
 11
327.4247101205731
 21
190.7670014907143
 31
0.0
  0
LINE
  5
2ADBB
330
1F
100
AcDbEntity
  8
実線
100
AcDbLine
 10
326.5965499205731
 20
191.5198780907143
 30
0.0
 11
326.8923293205733
 21
191.3829972907142
 31
0.0
  0
LINE
  5
2ADBC
330
1F
100
AcDbEntity
  8
実線
100
AcDbLine
 10
325.857111920573
 20
191.3829972907142
 30
0.0
 11
326.241614920573
 21
191.5198780907143
 31
0.0
  0
LINE
  5
2ADBD
330
1F
100
AcDbEntity
  8
実線
100
AcDbLine
 10
325.6796451205732
 20
191.2803198907143
 30
0.0
 11
325.857111920573
 21
191.3829972907142
 31
0.0
  0
LINE
  5
2ADBE
330
1F
100
AcDbEntity
  8
実線
100
AcDbLine
 10
325.502176920573
 20
190.9723212907142
 30
0.0
 11
325.6796451205732
 21
191.2803198907143
 31
0.0
  0
LINE
  5
2ADBF
330
1F
100
AcDbEntity
  8
実線
100
AcDbLine
 10
325.4134547205731
 20
190.6643226907143
 30
0.0
 11
325.502176920573
 21
190.9723212907142
 31
0.0
  0
LINE
  5
2ADC0
330
1F
100
AcDbEntity
  8
実線
100
AcDbLine
 10
326.5965499205731
 20
189.5007700907142
 30
0.0
 11
326.241614920573
 21
189.5007700907142
 31
0.0
  0
LINE
  5
2ADC1
330
1F
100
AcDbEntity
  8
実線
100
AcDbLine
 10
326.8923293205733
 20
191.3829972907142
 30
0.0
 11
327.1585197205729
 21
191.1776592907143
 31
0.0
  0
LINE
  5
2ADC2
330
1F
100
AcDbEntity
  8
実線
100
AcDbLine
 10
326.241614920573
 20
191.5198780907143
 30
0.0
 11
326.5965499205731
 21
191.5198780907143
 31
0.0
  0
LINE
  5
2ADC3
330
1F
100
AcDbEntity
  8
実線
100
AcDbLine
 10
326.241614920573
 20
188.4398962907143
 30
0.0
 11
325.857111920573
 21
188.5425554907142
 31
0.0
  0
LINE
  5
2ADC4
330
1F
100
AcDbEntity
  8
実線
100
AcDbLine
 10
327.1585197205729
 20
189.8087868907142
 30
0.0
 11
326.8923293205733
 21
189.6034488907142
 31
0.0
  0
LINE
  5
2ADC5
330
1F
100
AcDbEntity
  8
実線
100
AcDbLine
 10
327.513454720573
 20
189.7061080907142
 30
0.0
 11
327.3359865205734
 21
189.0558920907142
 31
0.0
  0
LINE
  5
2ADC6
330
1F
100
AcDbEntity
  8
実線
100
AcDbLine
 10
327.513454720573
 20
190.3221052907141
 30
0.0
 11
327.3359865205734
 21
190.0141066907142
 31
0.0
  0
LINE
  5
2ADC7
330
1F
100
AcDbEntity
  8
実線
100
AcDbLine
 10
326.8923293205733
 20
189.6034488907142
 30
0.0
 11
326.5965499205731
 21
189.5007700907142
 31
0.0
  0
LINE
  5
2ADC8
330
1F
100
AcDbEntity
  8
実線
100
AcDbLine
 10
326.241614920573
 20
189.5007700907142
 30
0.0
 11
325.9754245205727
 21
189.6034488907142
 31
0.0
  0
LINE
  5
2ADC9
330
1F
100
AcDbEntity
  8
実線
100
AcDbLine
 10
327.1585197205729
 20
191.1776592907143
 30
0.0
 11
327.3359865205734
 21
190.9723212907142
 31
0.0
  0
LINE
  5
2ADCA
330
1F
100
AcDbEntity
  8
実線
100
AcDbLine
 10
326.8923293205733
 20
188.5425554907142
 30
0.0
 11
326.507826320573
 21
188.4398962907143
 31
0.0
  0
LINE
  5
2ADCB
330
1F
100
AcDbEntity
  8
実線
100
AcDbLine
 10
325.857111920573
 20
188.5425554907142
 30
0.0
 11
325.5909215205729
 21
188.7478934907142
 31
0.0
  0
LINE
  5
2ADCC
330
1F
100
AcDbEntity
  8
実線
100
AcDbLine
 10
325.6796451205732
 20
189.8087868907142
 30
0.0
 11
325.502176920573
 21
190.0141066907142
 31
0.0
  0
LINE
  5
2ADCD
330
1F
100
AcDbEntity
  8
実線
100
AcDbLine
 10
325.5909215205729
 20
188.7478934907142
 30
0.0
 11
325.4134547205731
 21
189.0558920907142
 31
0.0
  0
LINE
  5
2ADCE
330
1F
100
AcDbEntity
  8
実線
100
AcDbLine
 10
326.507826320573
 20
188.4398962907143
 30
0.0
 11
326.241614920573
 21
188.4398962907143
 31
0.0
  0
LINE
  5
2ADCF
330
1F
100
AcDbEntity
  8
実線
100
AcDbLine
 10
325.4134547205731
 20
190.3221052907141
 30
0.0
 11
325.4134547205731
 21
190.6643226907143
 31
0.0
  0
LINE
  5
2ADD0
330
1F
100
AcDbEntity
  8
実線
100
AcDbLine
 10
325.502176920573
 20
190.0141066907142
 30
0.0
 11
325.4134547205731
 21
190.3221052907141
 31
0.0
  0
LINE
  5
2ADD1
330
1F
100
AcDbEntity
  8
実線
100
AcDbLine
 10
327.3359865205734
 20
190.0141066907142
 30
0.0
 11
327.1585197205729
 21
189.8087868907142
 31
0.0
  0
LINE
  5
2ADD2
330
1F
100
AcDbEntity
  8
実線
100
AcDbLine
 10
319.1087185205729
 20
202.2914668907142
 30
0.0
 11
319.1087185205729
 21
212.3714668907143
 31
0.0
  0
LINE
  5
2ADD3
330
1F
100
AcDbEntity
  8
実線
100
AcDbLine
 10
322.7487185205732
 20
202.2914668907142
 30
0.0
 11
322.7487185205732
 21
212.3714668907143
 31
0.0
  0
LINE
  5
2ADD4
330
1F
100
AcDbEntity
  8
実線
100
AcDbLine
 10
327.508718520573
 20
212.3714668907143
 30
0.0
 11
327.508718520573
 21
202.2914668907142
 31
0.0
  0
LINE
  5
2ADD5
330
1F
100
AcDbEntity
  8
実線
100
AcDbLine
 10
314.3487185205732
 20
202.2914668907142
 30
0.0
 11
314.3487185205732
 21
212.3714668907143
 31
0.0
  0
LINE
  5
2ADD6
330
1F
100
AcDbEntity
  8
実線
100
AcDbLine
 10
310.708718520573
 20
202.2914668907142
 30
0.0
 11
310.708718520573
 21
212.3714668907143
 31
0.0
  0
LINE
  5
2ADD7
330
1F
100
AcDbEntity
  8
実線
100
AcDbLine
 10
305.9487185205733
 20
202.2914668907142
 30
0.0
 11
305.9487185205733
 21
212.3714668907143
 31
0.0
  0
LINE
  5
2ADD8
330
1F
100
AcDbEntity
  8
実線
100
AcDbLine
 10
302.3087185205729
 20
202.2914668907142
 30
0.0
 11
302.3087185205729
 21
212.3714668907143
 31
0.0
  0
LINE
  5
2ADD9
330
1F
100
AcDbEntity
  8
実線
100
AcDbLine
 10
297.5487185205732
 20
202.2914668907142
 30
0.0
 11
297.5487185205732
 21
212.3714668907143
 31
0.0
  0
LINE
  5
2ADDA
330
1F
100
AcDbEntity
  8
実線
100
AcDbLine
 10
293.9087185205731
 20
202.2914668907142
 30
0.0
 11
293.9087185205731
 21
212.3714668907143
 31
0.0
  0
LINE
  5
2ADDB
330
1F
100
AcDbEntity
  8
実線
100
AcDbLine
 10
289.1487185205733
 20
202.2914668907142
 30
0.0
 11
289.1487185205733
 21
212.3714668907143
 31
0.0
  0
LINE
  5
2ADDC
330
1F
100
AcDbEntity
  8
実線
100
AcDbLine
 10
314.978718520573
 20
209.0814668907142
 30
0.0
 11
314.978718520573
 21
205.5814668907142
 31
0.0
  0
ARC
  5
2ADDD
330
1F
100
AcDbEntity
  8
実線
100
AcDbCircle
 10
316.3787185205729
 20
209.0814668907142
 30
0.0
 40
1.399999999999999
100
AcDbArc
 50
90.0
 51
180.0
  0
LINE
  5
2ADDE
330
1F
100
AcDbEntity
  8
実線
100
AcDbLine
 10
318.478718520573
 20
209.0814668907142
 30
0.0
 11
318.478718520573
 21
205.5814668907142
 31
0.0
  0
ARC
  5
2ADDF
330
1F
100
AcDbEntity
  8
実線
100
AcDbCircle
 10
317.0787185205729
 20
205.5814668907142
 30
0.0
 40
1.399999999999999
100
AcDbArc
 50
270.0
 51
0.0
  0
LINE
  5
2ADE0
330
1F
100
AcDbEntity
  8
実線
100
AcDbLine
 10
317.0787185205729
 20
204.1814668907142
 30
0.0
 11
316.3787185205729
 21
204.1814668907142
 31
0.0
  0
ARC
  5
2ADE1
330
1F
100
AcDbEntity
  8
実線
100
AcDbCircle
 10
316.3787185205729
 20
205.5814668907142
 30
0.0
 40
1.399999999999999
100
AcDbArc
 50
180.0
 51
270.0
  0
LINE
  5
2ADE2
330
1F
100
AcDbEntity
  8
実線
100
AcDbLine
 10
317.0787185205729
 20
210.4814668907141
 30
0.0
 11
316.3787185205729
 21
210.4814668907141
 31
0.0
  0
ARC
  5
2ADE3
330
1F
100
AcDbEntity
  8
実線
100
AcDbCircle
 10
317.0787185205729
 20
209.0814668907142
 30
0.0
 40
1.399999999999999
100
AcDbArc
 50
0.0
 51
90.0
  0
LINE
  5
2ADE4
330
1F
100
AcDbEntity
  8
実線
100
AcDbLine
 10
317.778718520573
 20
209.0814668907142
 30
0.0
 11
317.778718520573
 21
205.5814668907142
 31
0.0
  0
ARC
  5
2ADE5
330
1F
100
AcDbEntity
  8
実線
100
AcDbCircle
 10
317.0787185205729
 20
205.5814668907142
 30
0.0
 40
0.7
100
AcDbArc
 50
270.0
 51
0.0
  0
LINE
  5
2ADE6
330
1F
100
AcDbEntity
  8
実線
100
AcDbLine
 10
317.0787185205729
 20
209.7814668907141
 30
0.0
 11
316.3787185205729
 21
209.7814668907141
 31
0.0
  0
ARC
  5
2ADE7
330
1F
100
AcDbEntity
  8
実線
100
AcDbCircle
 10
317.0787185205729
 20
209.0814668907142
 30
0.0
 40
0.7
100
AcDbArc
 50
0.0
 51
90.0
  0
ARC
  5
2ADE8
330
1F
100
AcDbEntity
  8
実線
100
AcDbCircle
 10
316.3787185205729
 20
209.0814668907142
 30
0.0
 40
0.7
100
AcDbArc
 50
90.0
 51
180.0
  0
LINE
  5
2ADE9
330
1F
100
AcDbEntity
  8
実線
100
AcDbLine
 10
315.6787185205731
 20
209.0814668907142
 30
0.0
 11
315.6787185205731
 21
205.5814668907142
 31
0.0
  0
LINE
  5
2ADEA
330
1F
100
AcDbEntity
  8
実線
100
AcDbLine
 10
317.0787185205729
 20
204.8814668907143
 30
0.0
 11
316.3787185205729
 21
204.8814668907143
 31
0.0
  0
ARC
  5
2ADEB
330
1F
100
AcDbEntity
  8
実線
100
AcDbCircle
 10
316.3787185205729
 20
205.5814668907142
 30
0.0
 40
0.7
100
AcDbArc
 50
180.0
 51
270.0
  0
LINE
  5
2ADEC
330
1F
100
AcDbEntity
  8
実線
100
AcDbLine
 10
306.5787185205729
 20
209.0814668907142
 30
0.0
 11
306.5787185205729
 21
205.5814668907142
 31
0.0
  0
ARC
  5
2ADED
330
1F
100
AcDbEntity
  8
実線
100
AcDbCircle
 10
307.978718520573
 20
209.0814668907142
 30
0.0
 40
1.399999999999999
100
AcDbArc
 50
90.0
 51
180.0
  0
LINE
  5
2ADEE
330
1F
100
AcDbEntity
  8
実線
100
AcDbLine
 10
310.0787185205729
 20
209.0814668907142
 30
0.0
 11
310.0787185205729
 21
205.5814668907142
 31
0.0
  0
ARC
  5
2ADEF
330
1F
100
AcDbEntity
  8
実線
100
AcDbCircle
 10
308.678718520573
 20
205.5814668907142
 30
0.0
 40
1.399999999999999
100
AcDbArc
 50
270.0
 51
0.0
  0
LINE
  5
2ADF0
330
1F
100
AcDbEntity
  8
実線
100
AcDbLine
 10
308.678718520573
 20
204.1814668907142
 30
0.0
 11
307.978718520573
 21
204.1814668907142
 31
0.0
  0
ARC
  5
2ADF1
330
1F
100
AcDbEntity
  8
実線
100
AcDbCircle
 10
307.978718520573
 20
205.5814668907142
 30
0.0
 40
1.399999999999999
100
AcDbArc
 50
180.0
 51
270.0
  0
LINE
  5
2ADF2
330
1F
100
AcDbEntity
  8
実線
100
AcDbLine
 10
308.678718520573
 20
210.4814668907141
 30
0.0
 11
307.978718520573
 21
210.4814668907141
 31
0.0
  0
ARC
  5
2ADF3
330
1F
100
AcDbEntity
  8
実線
100
AcDbCircle
 10
308.678718520573
 20
209.0814668907142
 30
0.0
 40
1.399999999999999
100
AcDbArc
 50
0.0
 51
90.0
  0
LINE
  5
2ADF4
330
1F
100
AcDbEntity
  8
実線
100
AcDbLine
 10
309.3787185205729
 20
209.0814668907142
 30
0.0
 11
309.3787185205729
 21
205.5814668907142
 31
0.0
  0
ARC
  5
2ADF5
330
1F
100
AcDbEntity
  8
実線
100
AcDbCircle
 10
308.678718520573
 20
205.5814668907142
 30
0.0
 40
0.7
100
AcDbArc
 50
270.0
 51
0.0
  0
LINE
  5
2ADF6
330
1F
100
AcDbEntity
  8
実線
100
AcDbLine
 10
308.678718520573
 20
209.7814668907141
 30
0.0
 11
307.978718520573
 21
209.7814668907141
 31
0.0
  0
ARC
  5
2ADF7
330
1F
100
AcDbEntity
  8
実線
100
AcDbCircle
 10
308.678718520573
 20
209.0814668907142
 30
0.0
 40
0.7
100
AcDbArc
 50
0.0
 51
90.0
  0
ARC
  5
2ADF8
330
1F
100
AcDbEntity
  8
実線
100
AcDbCircle
 10
307.978718520573
 20
209.0814668907142
 30
0.0
 40
0.7
100
AcDbArc
 50
90.0
 51
180.0
  0
LINE
  5
2ADF9
330
1F
100
AcDbEntity
  8
実線
100
AcDbLine
 10
307.278718520573
 20
209.0814668907142
 30
0.0
 11
307.278718520573
 21
205.5814668907142
 31
0.0
  0
LINE
  5
2ADFA
330
1F
100
AcDbEntity
  8
実線
100
AcDbLine
 10
308.678718520573
 20
204.8814668907143
 30
0.0
 11
307.978718520573
 21
204.8814668907143
 31
0.0
  0
ARC
  5
2ADFB
330
1F
100
AcDbEntity
  8
実線
100
AcDbCircle
 10
307.978718520573
 20
205.5814668907142
 30
0.0
 40
0.7
100
AcDbArc
 50
180.0
 51
270.0
  0
LINE
  5
2ADFC
330
1F
100
AcDbEntity
  8
実線
100
AcDbLine
 10
298.178718520573
 20
209.0814668907142
 30
0.0
 11
298.178718520573
 21
205.5814668907142
 31
0.0
  0
ARC
  5
2ADFD
330
1F
100
AcDbEntity
  8
実線
100
AcDbCircle
 10
299.5787185205729
 20
209.0814668907142
 30
0.0
 40
1.399999999999999
100
AcDbArc
 50
90.0
 51
180.0
  0
LINE
  5
2ADFE
330
1F
100
AcDbEntity
  8
実線
100
AcDbLine
 10
301.6787185205731
 20
209.0814668907142
 30
0.0
 11
301.6787185205731
 21
205.5814668907142
 31
0.0
  0
ARC
  5
2ADFF
330
1F
100
AcDbEntity
  8
実線
100
AcDbCircle
 10
300.2787185205729
 20
205.5814668907142
 30
0.0
 40
1.399999999999999
100
AcDbArc
 50
270.0
 51
0.0
  0
LINE
  5
2AE00
330
1F
100
AcDbEntity
  8
実線
100
AcDbLine
 10
300.2787185205729
 20
204.1814668907142
 30
0.0
 11
299.5787185205729
 21
204.1814668907142
 31
0.0
  0
ARC
  5
2AE01
330
1F
100
AcDbEntity
  8
実線
100
AcDbCircle
 10
299.5787185205729
 20
205.5814668907142
 30
0.0
 40
1.399999999999999
100
AcDbArc
 50
180.0
 51
270.0
  0
LINE
  5
2AE02
330
1F
100
AcDbEntity
  8
実線
100
AcDbLine
 10
300.2787185205729
 20
210.4814668907141
 30
0.0
 11
299.5787185205729
 21
210.4814668907141
 31
0.0
  0
ARC
  5
2AE03
330
1F
100
AcDbEntity
  8
実線
100
AcDbCircle
 10
300.2787185205729
 20
209.0814668907142
 30
0.0
 40
1.399999999999999
100
AcDbArc
 50
0.0
 51
90.0
  0
LINE
  5
2AE04
330
1F
100
AcDbEntity
  8
実線
100
AcDbLine
 10
300.978718520573
 20
209.0814668907142
 30
0.0
 11
300.978718520573
 21
205.5814668907142
 31
0.0
  0
ARC
  5
2AE05
330
1F
100
AcDbEntity
  8
実線
100
AcDbCircle
 10
300.2787185205729
 20
205.5814668907142
 30
0.0
 40
0.7
100
AcDbArc
 50
270.0
 51
0.0
  0
LINE
  5
2AE06
330
1F
100
AcDbEntity
  8
実線
100
AcDbLine
 10
300.2787185205729
 20
209.7814668907141
 30
0.0
 11
299.5787185205729
 21
209.7814668907141
 31
0.0
  0
ARC
  5
2AE07
330
1F
100
AcDbEntity
  8
実線
100
AcDbCircle
 10
300.2787185205729
 20
209.0814668907142
 30
0.0
 40
0.7
100
AcDbArc
 50
0.0
 51
90.0
  0
ARC
  5
2AE08
330
1F
100
AcDbEntity
  8
実線
100
AcDbCircle
 10
299.5787185205729
 20
209.0814668907142
 30
0.0
 40
0.7
100
AcDbArc
 50
90.0
 51
180.0
  0
LINE
  5
2AE09
330
1F
100
AcDbEntity
  8
実線
100
AcDbLine
 10
298.8787185205729
 20
209.0814668907142
 30
0.0
 11
298.8787185205729
 21
205.5814668907142
 31
0.0
  0
LINE
  5
2AE0A
330
1F
100
AcDbEntity
  8
実線
100
AcDbLine
 10
300.2787185205729
 20
204.8814668907143
 30
0.0
 11
299.5787185205729
 21
204.8814668907143
 31
0.0
  0
ARC
  5
2AE0B
330
1F
100
AcDbEntity
  8
実線
100
AcDbCircle
 10
299.5787185205729
 20
205.5814668907142
 30
0.0
 40
0.7
100
AcDbArc
 50
180.0
 51
270.0
  0
LINE
  5
2AE0C
330
1F
100
AcDbEntity
  8
実線
100
AcDbLine
 10
289.7787185205729
 20
209.0814668907142
 30
0.0
 11
289.7787185205729
 21
205.5814668907142
 31
0.0
  0
ARC
  5
2AE0D
330
1F
100
AcDbEntity
  8
実線
100
AcDbCircle
 10
291.1787185205731
 20
209.0814668907142
 30
0.0
 40
1.399999999999999
100
AcDbArc
 50
90.0
 51
180.0
  0
LINE
  5
2AE0E
330
1F
100
AcDbEntity
  8
実線
100
AcDbLine
 10
293.278718520573
 20
209.0814668907142
 30
0.0
 11
293.278718520573
 21
205.5814668907142
 31
0.0
  0
ARC
  5
2AE0F
330
1F
100
AcDbEntity
  8
実線
100
AcDbCircle
 10
291.8787185205729
 20
205.5814668907142
 30
0.0
 40
1.399999999999999
100
AcDbArc
 50
270.0
 51
0.0
  0
LINE
  5
2AE10
330
1F
100
AcDbEntity
  8
実線
100
AcDbLine
 10
291.8787185205729
 20
204.1814668907142
 30
0.0
 11
291.1787185205731
 21
204.1814668907142
 31
0.0
  0
ARC
  5
2AE11
330
1F
100
AcDbEntity
  8
実線
100
AcDbCircle
 10
291.1787185205731
 20
205.5814668907142
 30
0.0
 40
1.399999999999999
100
AcDbArc
 50
180.0
 51
270.0
  0
LINE
  5
2AE12
330
1F
100
AcDbEntity
  8
実線
100
AcDbLine
 10
291.8787185205729
 20
210.4814668907141
 30
0.0
 11
291.1787185205731
 21
210.4814668907141
 31
0.0
  0
ARC
  5
2AE13
330
1F
100
AcDbEntity
  8
実線
100
AcDbCircle
 10
291.8787185205729
 20
209.0814668907142
 30
0.0
 40
1.399999999999999
100
AcDbArc
 50
0.0
 51
90.0
  0
LINE
  5
2AE14
330
1F
100
AcDbEntity
  8
実線
100
AcDbLine
 10
292.5787185205729
 20
209.0814668907142
 30
0.0
 11
292.5787185205729
 21
205.5814668907142
 31
0.0
  0
ARC
  5
2AE15
330
1F
100
AcDbEntity
  8
実線
100
AcDbCircle
 10
291.8787185205729
 20
205.5814668907142
 30
0.0
 40
0.7
100
AcDbArc
 50
270.0
 51
0.0
  0
LINE
  5
2AE16
330
1F
100
AcDbEntity
  8
実線
100
AcDbLine
 10
291.8787185205729
 20
209.7814668907141
 30
0.0
 11
291.1787185205731
 21
209.7814668907141
 31
0.0
  0
ARC
  5
2AE17
330
1F
100
AcDbEntity
  8
実線
100
AcDbCircle
 10
291.8787185205729
 20
209.0814668907142
 30
0.0
 40
0.7
100
AcDbArc
 50
0.0
 51
90.0
  0
ARC
  5
2AE18
330
1F
100
AcDbEntity
  8
実線
100
AcDbCircle
 10
291.1787185205731
 20
209.0814668907142
 30
0.0
 40
0.7
100
AcDbArc
 50
90.0
 51
180.0
  0
LINE
  5
2AE19
330
1F
100
AcDbEntity
  8
実線
100
AcDbLine
 10
290.478718520573
 20
209.0814668907142
 30
0.0
 11
290.478718520573
 21
205.5814668907142
 31
0.0
  0
LINE
  5
2AE1A
330
1F
100
AcDbEntity
  8
実線
100
AcDbLine
 10
291.8787185205729
 20
204.8814668907143
 30
0.0
 11
291.1787185205731
 21
204.8814668907143
 31
0.0
  0
ARC
  5
2AE1B
330
1F
100
AcDbEntity
  8
実線
100
AcDbCircle
 10
291.1787185205731
 20
205.5814668907142
 30
0.0
 40
0.7
100
AcDbArc
 50
180.0
 51
270.0
  0
LINE
  5
2AE1C
330
1F
100
AcDbEntity
  8
実線
100
AcDbLine
 10
295.028718520573
 20
202.2914668907142
 30
0.0
 11
295.028718520573
 21
212.3714668907143
 31
0.0
  0
LINE
  5
2AE1D
330
1F
100
AcDbEntity
  8
実線
100
AcDbLine
 10
303.4287185205731
 20
202.2914668907142
 30
0.0
 11
303.4287185205731
 21
212.3714668907143
 31
0.0
  0
LINE
  5
2AE1E
330
1F
100
AcDbEntity
  8
実線
100
AcDbLine
 10
311.8287185205729
 20
202.2914668907142
 30
0.0
 11
311.8287185205729
 21
212.3714668907143
 31
0.0
  0
LINE
  5
2AE1F
330
1F
100
AcDbEntity
  8
実線
100
AcDbLine
 10
312.1087185205729
 20
202.2914668907142
 30
0.0
 11
312.1087185205729
 21
212.3714668907143
 31
0.0
  0
LINE
  5
2AE20
330
1F
100
AcDbEntity
  8
実線
100
AcDbLine
 10
303.708718520573
 20
202.2914668907142
 30
0.0
 11
303.708718520573
 21
212.3714668907143
 31
0.0
  0
LINE
  5
2AE21
330
1F
100
AcDbEntity
  8
実線
100
AcDbLine
 10
295.3087185205732
 20
202.2914668907142
 30
0.0
 11
295.3087185205732
 21
212.3714668907143
 31
0.0
  0
CIRCLE
  5
2AE22
330
1F
100
AcDbEntity
  8
実線
100
AcDbCircle
 10
298.8622615205729
 20
185.9814668907141
 30
0.0
 40
1.679999999999999
  0
LINE
  5
2AE23
330
1F
100
AcDbEntity
  8
実線
100
AcDbLine
 10
297.3773375205728
 20
184.4965428907143
 30
0.0
 11
298.8622615205729
 21
183.8814668907142
 31
0.0
  0
LINE
  5
2AE24
330
1F
100
AcDbEntity
  8
実線
100
AcDbLine
 10
296.762261520573
 20
185.9814668907141
 30
0.0
 11
297.3773375205728
 21
184.4965428907143
 31
0.0
  0
LINE
  5
2AE25
330
1F
100
AcDbEntity
  8
実線
100
AcDbLine
 10
297.3773375205728
 20
187.4663908907142
 30
0.0
 11
296.762261520573
 21
185.9814668907141
 31
0.0
  0
LINE
  5
2AE26
330
1F
100
AcDbEntity
  8
実線
100
AcDbLine
 10
298.8622615205729
 20
188.0814668907142
 30
0.0
 11
297.3773375205728
 21
187.4663908907142
 31
0.0
  0
LINE
  5
2AE27
330
1F
100
AcDbEntity
  8
実線
100
AcDbLine
 10
300.347185520573
 20
187.4663908907142
 30
0.0
 11
298.8622615205729
 21
188.0814668907142
 31
0.0
  0
LINE
  5
2AE28
330
1F
100
AcDbEntity
  8
実線
100
AcDbLine
 10
300.9622615205731
 20
185.9814668907141
 30
0.0
 11
300.347185520573
 21
187.4663908907142
 31
0.0
  0
LINE
  5
2AE29
330
1F
100
AcDbEntity
  8
実線
100
AcDbLine
 10
300.347185520573
 20
184.4965428907143
 30
0.0
 11
300.9622615205731
 21
185.9814668907141
 31
0.0
  0
LINE
  5
2AE2A
330
1F
100
AcDbEntity
  8
実線
100
AcDbLine
 10
298.8622615205729
 20
183.8814668907142
 30
0.0
 11
300.347185520573
 21
184.4965428907143
 31
0.0
  0
LINE
  5
2AE2B
330
1F
100
AcDbEntity
  8
実線
100
AcDbLine
 10
300.347185520573
 20
184.4965428907143
 30
0.0
 11
302.327085120573
 21
182.5166432907141
 31
0.0
  0
LINE
  5
2AE2C
330
1F
100
AcDbEntity
  8
実線
100
AcDbLine
 10
300.9622615205731
 20
185.9814668907141
 30
0.0
 11
303.762261520573
 21
185.9814668907141
 31
0.0
  0
LINE
  5
2AE2D
330
1F
100
AcDbEntity
  8
実線
100
AcDbLine
 10
300.347185520573
 20
187.4663908907142
 30
0.0
 11
302.327085120573
 21
189.4462904907142
 31
0.0
  0
LINE
  5
2AE2E
330
1F
100
AcDbEntity
  8
実線
100
AcDbLine
 10
297.3773375205728
 20
187.4663908907142
 30
0.0
 11
295.3974379205729
 21
189.4462904907142
 31
0.0
  0
LINE
  5
2AE2F
330
1F
100
AcDbEntity
  8
実線
100
AcDbLine
 10
293.9622615205731
 20
185.9814668907141
 30
0.0
 11
296.762261520573
 21
185.9814668907141
 31
0.0
  0
LINE
  5
2AE30
330
1F
100
AcDbEntity
  8
実線
100
AcDbLine
 10
297.3773375205728
 20
184.4965428907143
 30
0.0
 11
295.3974379205729
 21
182.5166432907141
 31
0.0
  0
CIRCLE
  5
2AE31
330
1F
100
AcDbEntity
  8
実線
100
AcDbCircle
 10
298.8622615205729
 20
185.9814668907141
 30
0.0
 40
4.899999999999999
  0
LINE
  5
2AE32
330
1F
100
AcDbEntity
  8
実線
100
AcDbLine
 10
296.0782033205731
 20
181.9492190907141
 30
0.0
 11
295.416430320573
 21
181.5671436907143
 31
0.0
  0
ARC
  5
2AE33
330
1F
100
AcDbEntity
  8
実線
100
AcDbCircle
 10
298.8622615205729
 20
185.9814668907141
 30
0.0
 40
5.599999999999999
100
AcDbArc
 50
187.9756869999992
 51
232.0243130000015
  0
LINE
  5
2AE34
330
1F
100
AcDbEntity
  8
実線
100
AcDbLine
 10
293.9782033205729
 20
185.5865254907143
 30
0.0
 11
293.3164303205731
 21
185.2044500907142
 31
0.0
  0
LINE
  5
2AE35
330
1F
100
AcDbEntity
  8
実線
100
AcDbLine
 10
296.762261520573
 20
190.4086560907142
 30
0.0
 11
296.762261520573
 21
191.1728054907142
 31
0.0
  0
ARC
  5
2AE36
330
1F
100
AcDbEntity
  8
実線
100
AcDbCircle
 10
298.8622615205729
 20
185.9814668907141
 30
0.0
 40
5.599999999999999
100
AcDbArc
 50
67.97568699999835
 51
112.0243130000016
  0
LINE
  5
2AE37
330
1F
100
AcDbEntity
  8
実線
100
AcDbLine
 10
300.9622615205731
 20
190.4086560907142
 30
0.0
 11
300.9622615205731
 21
191.1728054907142
 31
0.0
  0
LINE
  5
2AE38
330
1F
100
AcDbEntity
  8
実線
100
AcDbLine
 10
303.746319720573
 20
185.5865254907143
 30
0.0
 11
304.4080927205728
 21
185.2044500907142
 31
0.0
  0
ARC
  5
2AE39
330
1F
100
AcDbEntity
  8
実線
100
AcDbCircle
 10
298.8622615205729
 20
185.9814668907141
 30
0.0
 40
5.599999999999999
100
AcDbArc
 50
307.9756869999984
 51
352.0243130000008
  0
LINE
  5
2AE3A
330
1F
100
AcDbEntity
  8
実線
100
AcDbLine
 10
301.6463197205731
 20
181.9492190907141
 30
0.0
 11
302.3080927205729
 21
181.5671436907143
 31
0.0
  0
LINE
  5
2AE3B
330
1F
100
AcDbEntity
  8
実線
100
AcDbLine
 10
298.8622615205729
 20
188.0814668907142
 30
0.0
 11
298.8622615205729
 21
190.8814668907142
 31
0.0
  0
LINE
  5
2AE3C
330
1F
100
AcDbEntity
  8
実線
100
AcDbLine
 10
298.8622615205729
 20
183.8814668907142
 30
0.0
 11
298.8622615205729
 21
181.0814668907141
 31
0.0
  0
ARC
  5
2AE3D
330
1F
100
AcDbEntity
  8
実線
100
AcDbCircle
 10
316.6893225205731
 20
170.4921930907143
 30
0.0
 40
3.5
100
AcDbArc
 50
276.8921029999975
 51
263.1078969999959
  0
LINE
  5
2AE3E
330
1F
100
AcDbEntity
  8
実線
100
AcDbLine
 10
316.5493225205732
 20
179.5921930907142
 30
0.0
 11
316.829322520573
 21
179.5921930907142
 31
0.0
  0
ARC
  5
2AE3F
330
1F
100
AcDbEntity
  8
実線
100
AcDbCircle
 10
334.1371249205731
 20
182.1786888907142
 30
0.0
 40
17.5
100
AcDbArc
 50
188.4994389999972
 51
213.8140780000014
  0
ARC
  5
2AE40
330
1F
100
AcDbEntity
  8
実線
100
AcDbCircle
 10
299.2415201205731
 20
182.1786888907142
 30
0.0
 40
17.5
100
AcDbArc
 50
326.1859219999985
 51
351.5005609999994
  0
ARC
  5
2AE41
330
1F
100
AcDbEntity
  8
実線
100
AcDbCircle
 10
316.6893225205731
 20
170.4921930907143
 30
0.0
 40
2.321899999999999
100
AcDbArc
 50
280.4213909999959
 51
259.5786089999974
  0
LINE
  5
2AE42
330
1F
100
AcDbEntity
  8
実線
100
AcDbLine
 10
317.109322520573
 20
167.0174840907142
 30
0.0
 11
317.109322520573
 21
169.6849138907142
 31
0.0
  0
LINE
  5
2AE43
330
1F
100
AcDbEntity
  8
実線
100
AcDbLine
 10
316.2693225205728
 20
167.0174840907142
 30
0.0
 11
316.2693225205728
 21
169.6849138907142
 31
0.0
  0
ARC
  5
2AE44
330
1F
100
AcDbEntity
  8
実線
100
AcDbCircle
 10
316.6893225205731
 20
170.4921930907143
 30
0.0
 40
0.9099999999999999
100
AcDbArc
 50
242.5135739999948
 51
297.4864259999979
  0
ARC
  5
2AE45
330
1F
100
AcDbEntity
  8
実線
100
AcDbCircle
 10
329.9954419205731
 20
185.3565950907142
 30
0.0
 40
3.5
100
AcDbArc
 50
276.8921029999975
 51
263.1078969999959
  0
LINE
  5
2AE46
330
1F
100
AcDbEntity
  8
実線
100
AcDbLine
 10
329.8554419205732
 20
194.4565950907142
 30
0.0
 11
330.135441920573
 21
194.4565950907142
 31
0.0
  0
ARC
  5
2AE47
330
1F
100
AcDbEntity
  8
実線
100
AcDbCircle
 10
347.443244320573
 20
197.0430908907143
 30
0.0
 40
17.5
100
AcDbArc
 50
188.4994389999972
 51
213.8140780000014
  0
ARC
  5
2AE48
330
1F
100
AcDbEntity
  8
実線
100
AcDbCircle
 10
312.5476395205731
 20
197.0430908907143
 30
0.0
 40
17.5
100
AcDbArc
 50
326.1859219999985
 51
351.5005609999994
  0
ARC
  5
2AE49
330
1F
100
AcDbEntity
  8
実線
100
AcDbCircle
 10
329.9954419205731
 20
185.3565950907142
 30
0.0
 40
2.321899999999999
100
AcDbArc
 50
280.4213909999959
 51
259.5786089999974
  0
LINE
  5
2AE4A
330
1F
100
AcDbEntity
  8
実線
100
AcDbLine
 10
330.4154419205729
 20
181.8818860907141
 30
0.0
 11
330.4154419205729
 21
184.5493158907143
 31
0.0
  0
LINE
  5
2AE4B
330
1F
100
AcDbEntity
  8
実線
100
AcDbLine
 10
329.5754419205727
 20
181.8818860907141
 30
0.0
 11
329.5754419205727
 21
184.5493158907143
 31
0.0
  0
ARC
  5
2AE4C
330
1F
100
AcDbEntity
  8
実線
100
AcDbCircle
 10
329.9954419205731
 20
185.3565950907142
 30
0.0
 40
0.9099999999999999
100
AcDbArc
 50
242.5135739999948
 51
297.4864259999979
  0
CIRCLE
  5
2AE4D
330
1F
100
AcDbEntity
  8
実線
100
AcDbCircle
 10
308.3987185205733
 20
191.3014668907142
 30
0.0
 40
34.3
  0
ARC
  5
2AE4E
330
1F
100
AcDbEntity
  8
実線
100
AcDbCircle
 10
308.3987185205733
 20
191.3014668907142
 30
0.0
 40
34.0117148
100
AcDbArc
 50
10.91465099999879
 51
169.0853490000012
  0
LINE
  5
2AE4F
330
1F
100
AcDbEntity
  8
実線
100
AcDbLine
 10
275.7226681205732
 20
196.8683246907143
 30
0.0
 11
275.0022645205727
 21
197.7414668907142
 31
0.0
  0
ARC
  5
2AE50
330
1F
100
AcDbEntity
  8
実線
100
AcDbCircle
 10
308.3987185205733
 20
191.3014668907142
 30
0.0
 40
33.1468578
100
AcDbArc
 50
170.3316259999997
 51
9.668374000000108
  0
LINE
  5
2AE51
330
1F
100
AcDbEntity
  8
実線
100
AcDbLine
 10
341.0747689205732
 20
196.8683246907143
 30
0.0
 11
341.795172520573
 21
197.7414668907142
 31
0.0
  0
CIRCLE
  5
2AE52
330
1F
100
AcDbEntity
  8
実線
100
AcDbCircle
 10
308.3987185205733
 20
191.3014668907142
 30
0.0
 40
35.0
  0
LINE
  5
2AE53
330
1F
100
AcDbEntity
  8
実線
100
AcDbLine
 10
275.0022645205727
 20
197.7414668907142
 30
0.0
 11
341.795172520573
 21
197.7414668907142
 31
0.0
  0
LINE
  5
2AE54
330
1F
100
AcDbEntity
  8
実線
100
AcDbLine
 10
275.7226681205732
 20
196.8683246907143
 30
0.0
 11
341.0747689205732
 21
196.8683246907143
 31
0.0
  0
LINE
  5
2AE55
330
1F
100
AcDbEntity
  8
実線
100
AcDbLine
 10
322.3287185205729
 20
212.3714668907143
 30
0.0
 11
327.9287185205731
 21
212.3714668907143
 31
0.0
  0
LINE
  5
2AE56
330
1F
100
AcDbEntity
  8
実線
100
AcDbLine
 10
319.8087185205729
 20
212.3714668907143
 30
0.0
 11
288.4487185205733
 21
212.3714668907143
 31
0.0
  0
LINE
  5
2AE57
330
1F
100
AcDbEntity
  8
実線
100
AcDbLine
 10
288.4487185205733
 20
212.3714668907143
 30
0.0
 11
288.4487185205733
 21
202.2914668907142
 31
0.0
  0
LINE
  5
2AE58
330
1F
100
AcDbEntity
  8
実線
100
AcDbLine
 10
327.9287185205731
 20
202.2914668907142
 30
0.0
 11
322.3287185205729
 21
202.2914668907142
 31
0.0
  0
LINE
  5
2AE59
330
1F
100
AcDbEntity
  8
実線
100
AcDbLine
 10
327.9287185205731
 20
212.3714668907143
 30
0.0
 11
327.9287185205731
 21
202.2914668907142
 31
0.0
  0
LINE
  5
2AE5A
330
1F
100
AcDbEntity
  8
実線
100
AcDbLine
 10
319.8087185205729
 20
202.2914668907142
 30
0.0
 11
319.8087185205729
 21
212.3714668907143
 31
0.0
  0
LINE
  5
2AE5B
330
1F
100
AcDbEntity
  8
実線
100
AcDbLine
 10
288.4487185205733
 20
202.2914668907142
 30
0.0
 11
319.8087185205729
 21
202.2914668907142
 31
0.0
  0
LINE
  5
2AE5C
330
1F
100
AcDbEntity
  8
実線
100
AcDbLine
 10
322.3287185205729
 20
202.2914668907142
 30
0.0
 11
322.3287185205729
 21
212.3714668907143
 31
0.0
  0
LINE
  5
2AE5D
330
1F
100
AcDbEntity
  8
実線
100
AcDbLine
 10
275.9316951205731
 20
196.6214668907142
 30
0.0
 11
275.7226681205732
 21
196.8683246907143
 31
0.0
  0
ARC
  5
2AE5E
330
1F
100
AcDbEntity
  8
実線
100
AcDbCircle
 10
308.3987185205733
 20
191.3014668907142
 30
0.0
 40
32.9
100
AcDbArc
 50
170.694291999998
 51
9.305707999998688
  0
LINE
  5
2AE5F
330
1F
100
AcDbEntity
  8
実線
100
AcDbLine
 10
340.8657419205731
 20
196.6214668907142
 30
0.0
 11
341.0747689205732
 21
196.8683246907143
 31
0.0
  0
LINE
  5
2AE60
330
1F
100
AcDbEntity
  8
実線
100
AcDbLine
 10
275.9316951205731
 20
196.6214668907142
 30
0.0
 11
340.8657419205731
 21
196.6214668907142
 31
0.0
  0
CIRCLE
  5
2AE61
330
1F
100
AcDbEntity
  8
実線
100
AcDbCircle
 10
308.3987185205733
 20
191.3014668907142
 30
0.0
 40
36.4
  0
CIRCLE
  5
2AE62
330
1F
100
AcDbEntity
  8
実線
100
AcDbCircle
 10
316.6893225205731
 20
170.4921930907143
 30
0.0
 40
2.799999999999999
  0
CIRCLE
  5
2AE63
330
1F
100
AcDbEntity
  8
実線
100
AcDbCircle
 10
329.9954419205731
 20
185.3565950907142
 30
0.0
 40
2.799999999999999
  0
TEXT
  5
2AE64
330
1F
100
AcDbEntity
  8
実線
100
AcDbText
 10
305.2671527795439
 20
161.8633789466638
 30
0.0
 40
2.799999999999999
  1
1L
 41
0.8
100
AcDbText
  0
CIRCLE
  5
2AE71
330
1F
100
AcDbEntity
  8
実線
100
AcDbCircle
 10
308.3987185205722
 20
191.3014668907135
 30
0.0
 40
49.0
  0
CIRCLE
  5
2AE72
330
1F
100
AcDbEntity
  8
実線
100
AcDbCircle
 10
308.3987185205722
 20
191.3014668907135
 30
0.0
 40
37.09999999999999
  0
CIRCLE
  5
2AE73
330
1F
100
AcDbEntity
  8
実線
100
AcDbCircle
 10
308.3987185205722
 20
191.3014668907135
 30
0.0
 40
40.59999999999999
  0
CIRCLE
  5
2AE74
330
1F
100
AcDbEntity
  8
実線
100
AcDbCircle
 10
308.3987185205722
 20
191.3014668907135
 30
0.0
 40
42.0
  0
HATCH
  5
2AE7D
330
1F
100
AcDbEntity
  8
細線
100
AcDbHatch
 10
0.0
 20
0.0
 30
0.0
210
0.0
220
0.0
230
1.0
  2
ANSI31
 70
     0
 71
     0
 91
        7
 92
       16
 93
        1
 72
     2
 10
321.0687185079024
 20
200.8914671248819
 40
1.399999999999999
 50
0.0
 51
360.0
 73
     1
 97
        0
 92
        1
 93
        2
 72
     1
 10
275.0022645079022
 20
197.7414671248819
 11
341.7951725079025
 21
197.7414671248819
 72
     2
 10
308.3987185079028
 20
191.3014671248819
 40
34.0117148
 50
10.91465099999818
 51
169.0853490000018
 73
     1
 97
        0
 92
       16
 93
        4
 72
     1
 10
322.3287185079024
 20
202.2914671248819
 11
322.3287185079024
 21
212.371467124882
 72
     1
 10
322.3287185079024
 20
212.371467124882
 11
327.9287185079025
 21
212.371467124882
 72
     1
 10
327.9287185079025
 20
212.371467124882
 11
327.9287185079025
 21
202.2914671248819
 72
     1
 10
327.9287185079025
 20
202.2914671248819
 11
322.3287185079024
 21
202.2914671248819
 97
        0
 92
       16
 93
        4
 72
     1
 10
288.4487185079028
 20
202.2914671248819
 11
319.8087185079024
 21
202.2914671248819
 72
     1
 10
319.8087185079024
 20
202.2914671248819
 11
319.8087185079024
 21
212.371467124882
 72
     1
 10
319.8087185079024
 20
212.371467124882
 11
288.4487185079028
 21
212.371467124882
 72
     1
 10
288.4487185079028
 20
212.371467124882
 11
288.4487185079028
 21
202.2914671248819
 97
        0
 92
       16
 93
        3
 72
     1
 10
327.9287185079025
 20
207.0514671248819
 11
332.5487185079027
 21
205.651467124882
 72
     1
 10
332.5487185079027
 20
205.651467124882
 11
332.5487185079027
 21
208.4514671248819
 72
     1
 10
332.5487185079027
 20
208.4514671248819
 11
327.9287185079025
 21
207.0514671248819
 97
        0
 92
       16
 93
       15
 72
     1
 10
317.4987185079027
 20
213.7014671248819
 11
318.1987185079028
 21
213.7014671248819
 72
     1
 10
318.1987185079028
 20
213.7014671248819
 11
318.1987185079028
 21
216.3264671248819
 72
     2
 10
316.6237185079027
 20
216.3264671248819
 40
1.575
 50
0.0
 51
141.0575590000011
 73
     1
 72
     2
 10
314.1737185079027
 20
216.3264671248819
 40
1.575
 50
38.94244099999883
 51
123.7489890000025
 73
     1
 72
     1
 10
313.2987185079027
 20
217.636046724882
 11
313.2987185079027
 21
217.901467124882
 72
     1
 10
313.2987185079027
 20
217.901467124882
 11
312.5987185079026
 21
217.901467124882
 72
     1
 10
312.5987185079026
 20
217.901467124882
 11
312.5987185079026
 21
213.7014671248819
 72
     1
 10
312.5987185079026
 20
213.7014671248819
 11
313.2987185079027
 21
213.7014671248819
 72
     1
 10
313.2987185079027
 20
213.7014671248819
 11
313.2987185079027
 21
216.3264671248819
 72
     2
 10
314.1737185079027
 20
216.3264671248819
 40
0.875
 50
180.0
 51
360.0
 73
     0
 72
     1
 10
315.0487185079027
 20
216.3264671248819
 11
315.0487185079027
 21
213.7014671248819
 72
     1
 10
315.0487185079027
 20
213.7014671248819
 11
315.7487185079027
 21
213.7014671248819
 72
     1
 10
315.7487185079027
 20
213.7014671248819
 11
315.7487185079027
 21
216.3264671248819
 72
     2
 10
316.6237185079027
 20
216.3264671248819
 40
0.875
 50
180.0
 51
360.0
 73
     0
 72
     1
 10
317.4987185079027
 20
216.3264671248819
 11
317.4987185079027
 21
213.7014671248819
 97
        0
 92
       16
 93
       53
 72
     1
 10
319.1064505079024
 20
219.0390091248819
 11
318.7271345079024
 21
219.2193403248818
 72
     1
 10
318.7271345079024
 20
219.2193403248818
 11
318.8302641079023
 21
219.4362675248819
 72
     1
 10
318.8302641079023
 20
219.4362675248819
 11
319.0546421079028
 21
219.6722613248819
 72
     1
 10
319.0546421079028
 20
219.6722613248819
 11
319.2786659079023
 21
219.7900923248819
 72
     1
 10
319.2786659079023
 20
219.7900923248819
 11
319.7118399079024
 21
219.9302799248819
 72
     1
 10
319.7118399079024
 20
219.9302799248819
 11
320.2217689079024
 21
219.9302799248819
 72
     1
 10
320.2217689079024
 20
219.9302799248819
 11
320.6549429079026
 21
219.7900923248819
 72
     1
 10
320.6549429079026
 20
219.7900923248819
 11
320.8789667079028
 21
219.6722613248819
 72
     1
 10
320.8789667079028
 20
219.6722613248819
 11
321.1033517079024
 21
219.4362591248819
 72
     1
 10
321.1033517079024
 20
219.4362591248819
 11
321.2267925079028
 21
219.1765409248819
 72
     1
 10
321.2267925079028
 20
219.1765409248819
 11
321.2267925079028
 21
218.808041324882
 72
     1
 10
321.2267925079028
 20
218.808041324882
 11
321.1075895079026
 21
218.515442724882
 72
     1
 10
321.1075895079026
 20
218.515442724882
 11
320.9072635079027
 21
218.3047273248819
 72
     1
 10
320.9072635079027
 20
218.3047273248819
 11
321.1033517079024
 21
218.0984849248819
 72
     1
 10
321.1033517079024
 20
218.0984849248819
 11
321.2267925079028
 21
217.8387667248819
 72
     1
 10
321.2267925079028
 20
217.8387667248819
 11
321.2267925079028
 21
217.432927724882
 72
     1
 10
321.2267925079028
 20
217.432927724882
 11
321.1033545079027
 21
217.1732151248821
 72
     1
 10
321.1033545079027
 20
217.1732151248821
 11
320.8789653079024
 21
216.9371863248819
 72
     1
 10
320.8789653079024
 20
216.9371863248819
 11
320.6478995079025
 21
216.815674724882
 72
     1
 10
320.6478995079025
 20
216.815674724882
 11
320.2137553079027
 21
216.710296724882
 72
     1
 10
320.2137553079027
 20
216.710296724882
 11
319.7198535079023
 21
216.710296724882
 72
     1
 10
319.7198535079023
 20
216.710296724882
 11
319.2723883079024
 21
216.8189073248821
 72
     1
 10
319.2723883079024
 20
216.8189073248821
 11
318.9565217079027
 21
217.040395724882
 72
     1
 10
318.9565217079027
 20
217.040395724882
 11
318.7646027079028
 21
217.2422505248819
 72
     1
 10
318.7646027079028
 20
217.2422505248819
 11
319.0689823079025
 21
217.5316501248819
 72
     1
 10
319.0689823079025
 20
217.5316501248819
 11
319.2319997079027
 21
217.360194924882
 72
     1
 10
319.2319997079027
 20
217.360194924882
 11
319.4485587079026
 21
217.208342524882
 72
     1
 10
319.4485587079026
 20
217.208342524882
 11
319.7700967079028
 21
217.1302967248819
 72
     1
 10
319.7700967079028
 20
217.1302967248819
 11
320.1635121079029
 21
217.1302967248819
 72
     1
 10
320.1635121079029
 20
217.1302967248819
 11
320.4983711079027
 21
217.2115751248818
 72
     1
 10
320.4983711079027
 20
217.2115751248818
 11
320.6222417079026
 21
217.276715724882
 72
     1
 10
320.6222417079026
 20
217.276715724882
 11
320.7527861079026
 21
217.414031924882
 72
     1
 10
320.7527861079026
 20
217.414031924882
 11
320.8067925079025
 21
217.5276601248819
 72
     1
 10
320.8067925079025
 20
217.5276601248819
 11
320.8067925079025
 21
217.744034324882
 72
     1
 10
320.8067925079025
 20
217.744034324882
 11
320.7527889079023
 21
217.857659724882
 72
     1
 10
320.7527889079023
 20
217.857659724882
 11
320.6222431079026
 21
217.994963324882
 72
     1
 10
320.6222431079026
 20
217.994963324882
 11
320.3438125079025
 21
218.1413991248819
 72
     1
 10
320.3438125079025
 20
218.1413991248819
 11
319.4787623079025
 21
218.1413991248819
 72
     1
 10
319.4787623079025
 20
218.1413991248819
 11
319.4787623079025
 21
218.561399124882
 72
     1
 10
319.4787623079025
 20
218.561399124882
 11
320.3685197079025
 21
218.561399124882
 72
     1
 10
320.3685197079025
 20
218.561399124882
 11
320.6395093079028
 21
218.632652124882
 72
     1
 10
320.6395093079028
 20
218.632652124882
 11
320.7485511079027
 21
218.747349924882
 72
     1
 10
320.7485511079027
 20
218.747349924882
 11
320.8067925079025
 21
218.890310924882
 72
     1
 10
320.8067925079025
 20
218.890310924882
 11
320.8067925079025
 21
219.0818085248818
 72
     1
 10
320.8067925079025
 20
219.0818085248818
 11
320.7527889079023
 21
219.1954325248819
 72
     1
 10
320.7527889079023
 20
219.1954325248819
 11
320.6222403079024
 21
219.3327389248819
 72
     1
 10
320.6222403079024
 20
219.3327389248819
 11
320.4913277079025
 21
219.4015965248818
 72
     1
 10
320.4913277079025
 20
219.4015965248818
 11
320.1554985079027
 21
219.5102799248819
 72
     1
 10
320.1554985079027
 20
219.5102799248819
 11
319.7781103079025
 21
219.5102799248819
 72
     1
 10
319.7781103079025
 20
219.5102799248819
 11
319.4422811079024
 21
219.4015965248818
 72
     1
 10
319.4422811079024
 20
219.4015965248818
 11
319.3113685079028
 21
219.3327389248819
 72
     1
 10
319.3113685079028
 20
219.3327389248819
 11
319.1808129079026
 21
219.195424124882
 72
     1
 10
319.1808129079026
 20
219.195424124882
 11
319.1064505079024
 21
219.0390091248819
 97
        0
 75
     0
 76
     1
 52
0.0
 41
0.4200000000000001
 77
     0
 78
     1
 53
45.0
 43
-134.1094581058213
 44
-118.0091443070024
 45
-0.9429268927122608
 46
0.942926892712261
 79
     0
 98
        1
 10
-353.1867082318199
 20
-84.98674321008024
1001
ACAD
1010
0.0
1020
0.0
1030
0.0
  0
LINE
  5
2AE7E
330
1F
100
AcDbEntity
  8
一点鎖線
100
AcDbLine
 10
182.9838008255729
 20
217.1219586868857
 30
0.0
 11
65.01565187427127
 21
217.1219586868857
 31
0.0
  0
LINE
  5
2AE7F
330
1F
100
AcDbEntity
  8
一点鎖線
100
AcDbLine
 10
123.9997263499222
 20
170.1573305670684
 30
0.0
 11
123.9997263499222
 21
264.0865868067029
 31
0.0
  0
LINE
  5
2AE80
330
1F
100
AcDbEntity
  8
実線
100
AcDbLine
 10
120.999726349922
 20
256.9214561711504
 30
0.0
 11
120.999726349922
 21
260.6219586868856
 31
0.0
  0
LINE
  5
2AE81
330
1F
100
AcDbEntity
  8
実線
100
AcDbLine
 10
121.999726349922
 20
261.6219586868857
 30
0.0
 11
125.9997263499219
 21
261.6219586868857
 31
0.0
  0
LINE
  5
2AE82
330
1F
100
AcDbEntity
  8
実線
100
AcDbLine
 10
126.9997263499219
 20
260.6219586868856
 30
0.0
 11
126.9997263499222
 21
256.9214561711504
 31
0.0
  0
LINE
  5
2AE83
330
1F
100
AcDbEntity
  8
実線
100
AcDbLine
 10
120.999726349922
 20
177.3224612026207
 30
0.0
 11
120.999726349922
 21
173.6219586868856
 31
0.0
  0
LINE
  5
2AE84
102
{ACAD_REACTORS
330
2B076
102
}
330
1F
100
AcDbEntity
  8
実線
100
AcDbLine
 10
121.999726349922
 20
172.6219586868856
 30
0.0
 11
125.9997263499222
 21
172.6219586868857
 31
0.0
  0
LINE
  5
2AE85
330
1F
100
AcDbEntity
  8
実線
100
AcDbLine
 10
126.9997263499222
 20
173.6219586868857
 30
0.0
 11
126.9997263499222
 21
177.3224612026207
 31
0.0
  0
ARC
  5
2AE86
330
1F
100
AcDbEntity
  8
実線
100
AcDbCircle
 10
121.999726349922
 20
260.6219586868856
 30
0.0
 40
1.0
100
AcDbArc
 50
90.0
 51
180.0
  0
ARC
  5
2AE87
102
{ACAD_REACTORS
330
2B076
102
}
330
1F
100
AcDbEntity
  8
実線
100
AcDbCircle
 10
125.9997263499219
 20
260.6219586868856
 30
0.0
 40
1.0
100
AcDbArc
 50
0.0
 51
90.0
  0
ARC
  5
2AE88
330
1F
100
AcDbEntity
  8
実線
100
AcDbCircle
 10
121.999726349922
 20
173.6219586868856
 30
0.0
 40
1.0
100
AcDbArc
 50
180.0
 51
270.0
  0
ARC
  5
2AE89
330
1F
100
AcDbEntity
  8
実線
100
AcDbCircle
 10
125.9997263499222
 20
173.6219586868857
 30
0.0
 40
1.0
100
AcDbArc
 50
270.0
 51
0.0
  0
ARC
  5
2AE8A
330
1F
100
AcDbEntity
  8
実線
100
AcDbCircle
 10
127.9997263499222
 20
177.3224612026207
 30
0.0
 40
1.0
100
AcDbArc
 50
95.73917047726808
 51
180.0
  0
ARC
  5
2AE8B
330
1F
100
AcDbEntity
  8
実線
100
AcDbCircle
 10
127.9997263499222
 20
256.9214561711504
 30
0.0
 40
1.0
100
AcDbArc
 50
180.0
 51
264.2608295227319
  0
ARC
  5
2AE8C
330
1F
100
AcDbEntity
  8
実線
100
AcDbCircle
 10
119.999726349922
 20
256.9214561711504
 30
0.0
 40
1.0
100
AcDbArc
 50
275.7391704772681
 51
0.0
  0
ARC
  5
2AE8D
330
1F
100
AcDbEntity
  8
実線
100
AcDbCircle
 10
119.999726349922
 20
177.3224612026207
 30
0.0
 40
1.0
100
AcDbArc
 50
0.0
 51
84.26082952273191
  0
LINE
  5
2AE8E
330
1F
100
AcDbEntity
  8
実線
100
AcDbLine
 10
75.49972634992207
 20
225.6819586868857
 30
0.0
 11
79.52533018884105
 21
225.6819586868857
 31
0.0
  0
LINE
  5
2AE8F
330
1F
100
AcDbEntity
  8
実線
100
AcDbLine
 10
75.49972634992207
 20
199.8819586868857
 30
0.0
 11
85.05260825271307
 21
199.8819586868857
 31
0.0
  0
LINE
  5
2AE90
330
1F
100
AcDbEntity
  8
実線
100
AcDbLine
 10
74.69972634992211
 20
224.8819586868857
 30
0.0
 11
79.49972634992207
 21
224.8819586868857
 31
0.0
  0
LINE
  5
2AE92
330
1F
100
AcDbEntity
  8
実線
100
AcDbLine
 10
73.99972634992207
 20
224.1819586868857
 30
0.0
 11
73.99972634992207
 21
201.3819586868857
 31
0.0
  0
LINE
  5
2AE93
330
1F
100
AcDbEntity
  8
実線
100
AcDbLine
 10
73.99972634992207
 20
201.3819586868857
 30
0.0
 11
75.49972634992207
 21
199.8819586868857
 31
0.0
  0
LINE
  5
2AE94
330
1F
100
AcDbEntity
  8
実線
100
AcDbLine
 10
73.99972634992207
 20
224.1819586868857
 30
0.0
 11
75.49972634992207
 21
225.6819586868857
 31
0.0
  0
ARC
  5
2AE95
330
1F
100
AcDbEntity
  8
実線
100
AcDbCircle
 10
86.99972634992207
 20
199.4250876815447
 30
0.0
 40
2.0
100
AcDbArc
 50
74.00000000000521
 51
166.7950192656073
  0
LINE
  5
2AE97
330
1F
100
AcDbEntity
  8
実線
100
AcDbLine
 10
162.9997263499222
 20
207.1219586868857
 30
0.0
 11
162.9997263499222
 21
199.8819586868856
 31
0.0
  0
LINE
  5
2AE98
330
1F
100
AcDbEntity
  8
実線
100
AcDbLine
 10
173.9997263499222
 20
224.1819586868857
 30
0.0
 11
173.9997263499222
 21
201.3819586868857
 31
0.0
  0
LINE
  5
2AE99
330
1F
100
AcDbEntity
  8
実線
100
AcDbLine
 10
172.4997263499222
 20
199.8819586868856
 30
0.0
 11
162.9997263499222
 21
199.8819586868856
 31
0.0
  0
LINE
  5
2AE9B
330
1F
100
AcDbEntity
  8
実線
100
AcDbLine
 10
173.9997263499222
 20
201.3819586868856
 30
0.0
 11
172.4997263499222
 21
199.8819586868856
 31
0.0
  0
LINE
  5
2AE9C
330
1F
100
AcDbEntity
  8
実線
100
AcDbLine
 10
172.4997263499222
 20
225.6819586868857
 30
0.0
 11
165.6287594878656
 21
225.6819586868857
 31
0.0
  0
LINE
  5
2AE9E
330
1F
100
AcDbEntity
  8
実線
100
AcDbLine
 10
173.9997263499222
 20
224.1819586868857
 30
0.0
 11
172.4997263499222
 21
225.6819586868857
 31
0.0
  0
LINE
  5
2AE9F
330
1F
100
AcDbEntity
  8
実線
100
AcDbLine
 10
87.55100106155612
 20
201.3476110734214
 30
0.0
 11
88.44696779913181
 21
201.0906967456282
 31
0.0
  0
ARC
  5
2AEA1
330
1F
100
AcDbEntity
  8
実線
100
AcDbCircle
 10
123.9997263499222
 20
217.1219586868857
 30
0.0
 40
42.5
100
AcDbArc
 50
347.2543431517065
 51
12.74565684829354
  0
LINE
  5
2AEA2
330
1F
100
AcDbEntity
  8
実線
100
AcDbLine
 10
160.7454744032683
 20
227.1219586868857
 30
0.0
 11
164.6721986131126
 21
227.1219586868857
 31
0.0
  0
LINE
  5
2AEA3
330
1F
100
AcDbEntity
  8
実線
100
AcDbLine
 10
160.1418070869244
 20
207.1219586868857
 30
0.0
 11
164.6721986131126
 21
207.1219586868857
 31
0.0
  0
LINE
  5
2AEA4
330
1F
100
AcDbEntity
  8
実線
100
AcDbLine
 10
79.49972634992218
 20
221.4219586868857
 30
0.0
 11
79.49972634992218
 21
223.8219586868857
 31
0.0
  0
LINE
  5
2AEA5
330
1F
100
AcDbEntity
  8
実線
100
AcDbLine
 10
86.44975963888487
 20
224.6219586868857
 30
0.0
 11
80.29972634992214
 21
224.6219586868857
 31
0.0
  0
LINE
  5
2AEA6
330
1F
100
AcDbEntity
  8
実線
100
AcDbLine
 10
86.44975963888487
 20
209.6219586868857
 30
0.0
 11
80.29972634992214
 21
209.6219586868857
 31
0.0
  0
ARC
  5
2AEA7
330
1F
100
AcDbEntity
  8
実線
100
AcDbCircle
 10
160.7454744032683
 20
227.9219586868856
 30
0.0
 40
0.8
100
AcDbArc
 50
196.3786717381377
 51
270.0
  0
ARC
  5
2AEA8
330
1F
100
AcDbEntity
  8
実線
100
AcDbCircle
 10
164.6721986131126
 20
226.3219586868856
 30
0.0
 40
0.8
100
AcDbArc
 50
12.74565684829354
 51
90.0
  0
ARC
  5
2AEA9
330
1F
100
AcDbEntity
  8
実線
100
AcDbCircle
 10
164.6721986131126
 20
207.9219586868857
 30
0.0
 40
0.8
100
AcDbArc
 50
270.0
 51
347.2543431517065
  0
ARC
  5
2AEAC
330
1F
100
AcDbEntity
  8
実線
100
AcDbCircle
 10
123.9997263499222
 20
217.1219586868857
 30
0.0
 40
37.5
100
AcDbArc
 50
192.7548044907976
 51
344.53399004658
  0
ARC
  5
2AEAD
330
1F
100
AcDbEntity
  8
実線
100
AcDbCircle
 10
86.44975963888487
 20
208.6219586868856
 30
0.0
 40
1.0
100
AcDbArc
 50
12.75480449079763
 51
90.0
  0
ARC
  5
2AEAE
330
1F
100
AcDbEntity
  8
実線
100
AcDbCircle
 10
86.44975963888487
 20
225.6219586868857
 30
0.0
 40
1.0
100
AcDbArc
 50
270.0
 51
347.2451955092024
  0
LINE
  5
2AEAF
330
1F
100
AcDbEntity
  8
実線
100
AcDbLine
 10
86.49972634992208
 20
224.6219586868857
 30
0.0
 11
86.44975963888487
 21
224.6219586868857
 31
0.0
  0
LINE
  5
2AEB0
330
1F
100
AcDbEntity
  8
実線
100
AcDbLine
 10
86.48847023407586
 20
209.6219586868857
 30
0.0
 11
86.44975963888487
 21
209.6219586868857
 31
0.0
  0
ARC
  5
2AEB1
330
1F
100
AcDbEntity
  8
実線
100
AcDbCircle
 10
80.29972634992214
 20
210.4219586868857
 30
0.0
 40
0.8
100
AcDbArc
 50
180.0
 51
270.0
  0
ARC
  5
2AEB2
330
1F
100
AcDbEntity
  8
実線
100
AcDbCircle
 10
80.29972634992214
 20
223.8219586868857
 30
0.0
 40
0.8
100
AcDbArc
 50
90.0
 51
180.0
  0
LINE
  5
2AEB3
330
1F
100
AcDbEntity
  8
実線
100
AcDbLine
 10
79.49972634992218
 20
210.4219586868857
 30
0.0
 11
79.49972634992218
 21
212.8219586868856
 31
0.0
  0
LINE
  5
2AEB4
330
1F
100
AcDbEntity
  8
実線
100
AcDbLine
 10
86.49147186496817
 20
213.6219586868857
 30
0.0
 11
80.29972634992214
 21
213.6219586868857
 31
0.0
  0
LINE
  5
2AEB5
330
1F
100
AcDbEntity
  8
実線
100
AcDbLine
 10
86.49672471902977
 20
220.6219586868857
 30
0.0
 11
80.29972634992214
 21
220.6219586868857
 31
0.0
  0
ARC
  5
2AEB6
330
1F
100
AcDbEntity
  8
実線
100
AcDbCircle
 10
80.29972634992214
 20
221.4219586868857
 30
0.0
 40
0.8
100
AcDbArc
 50
180.0
 51
270.0
  0
ARC
  5
2AEB7
330
1F
100
AcDbEntity
  8
実線
100
AcDbCircle
 10
80.29972634992214
 20
212.8219586868856
 30
0.0
 40
0.8
100
AcDbArc
 50
90.0
 51
180.0
  0
LINE
  5
2AEB8
330
1F
100
AcDbEntity
  8
実線
100
AcDbLine
 10
79.49972634992218
 20
221.4219586868857
 30
0.0
 11
79.49972634992218
 21
212.8219586868856
 31
0.0
  0
ARC
  5
2AEB9
330
1F
100
AcDbEntity
  8
実線
100
AcDbCircle
 10
123.9997263499222
 20
217.1219586868857
 30
0.0
 40
37.5
100
AcDbArc
 50
16.37867173813777
 51
167.2451955092024
  0
ARC
  5
2AEBA
330
1F
100
AcDbEntity
  8
実線
100
AcDbCircle
 10
123.9997263499222
 20
217.1219586868857
 30
0.0
 40
34.00000000000001
100
AcDbArc
 50
78.11884397899359
 51
281.881156021013
  0
ARC
  5
2AEBB
330
1F
100
AcDbEntity
  8
実線
100
AcDbCircle
 10
123.9997263499222
 20
217.1219586868857
 30
0.0
 40
34.00000000000001
100
AcDbArc
 50
300.0
 51
59.99999999999997
  0
LINE
  5
2AEBC
330
1F
100
AcDbEntity
  8
破線
100
AcDbLine
 10
86.48846967163468
 20
209.6212091726822
 30
0.0
 11
86.49972634992208
 21
224.6219586868857
 31
0.0
  0
ARC
  5
2AEBD
330
1F
100
AcDbEntity
  8
実線
100
AcDbCircle
 10
82.99972634992219
 20
209.6219586868857
 30
0.0
 40
2.0
100
AcDbArc
 50
180.0
 51
0.0
  0
LINE
  5
2AEBE
330
1F
100
AcDbEntity
  8
実線
100
AcDbLine
 10
80.99972634992207
 20
209.6219586868857
 30
0.0
 11
84.99972634992207
 21
209.6219586868857
 31
0.0
  0
ARC
  5
2AEBF
330
1F
100
AcDbEntity
  8
実線
100
AcDbCircle
 10
82.99972634992219
 20
224.6219586868857
 30
0.0
 40
2.0
100
AcDbArc
 50
0.0
 51
180.0
  0
LINE
  5
2AEC4
330
1F
100
AcDbEntity
  8
一点鎖線
100
AcDbLine
 10
167.6662731247182
 20
217.1219586868857
 30
0.0
 11
80.33317957512588
 21
217.1219586868857
 31
0.0
  0
ARC
  5
2AEC6
330
1F
100
AcDbEntity
  8
実線
100
AcDbCircle
 10
123.9997263499222
 20
217.1219586868857
 30
0.0
 40
39.00000000000004
100
AcDbArc
 50
14.85716554492181
 51
168.9125107890303
  0
ARC
  5
2AEC7
330
1F
100
AcDbEntity
  8
実線
100
AcDbCircle
 10
123.9997263499222
 20
217.1219586868857
 30
0.0
 40
39.00000000000004
100
AcDbArc
 50
191.0874892109696
 51
345.1428344550782
  0
LINE
  5
2AECE
330
1F
100
AcDbEntity
  8
実線
100
AcDbLine
 10
166.393711772385
 20
220.1219586868856
 30
0.0
 11
167.4997263499222
 21
220.1219586868856
 31
0.0
  0
LINE
  5
2AECF
330
1F
100
AcDbEntity
  8
実線
100
AcDbLine
 10
168.4997263499222
 20
219.1219586868856
 30
0.0
 11
168.4997263499222
 21
215.1219586868856
 31
0.0
  0
LINE
  5
2AED0
330
1F
100
AcDbEntity
  8
実線
100
AcDbLine
 10
167.4997263499222
 20
214.1219586868857
 30
0.0
 11
166.393711772385
 21
214.1219586868857
 31
0.0
  0
ARC
  5
2AED1
330
1F
100
AcDbEntity
  8
実線
100
AcDbCircle
 10
167.4997263499222
 20
219.1219586868856
 30
0.0
 40
1.0
100
AcDbArc
 50
0.0
 51
90.0
  0
ARC
  5
2AED2
330
1F
100
AcDbEntity
  8
実線
100
AcDbCircle
 10
167.4997263499222
 20
215.1219586868856
 30
0.0
 40
1.0
100
AcDbArc
 50
270.0
 51
0.0
  0
LINE
  5
2AED3
330
1F
100
AcDbEntity
  8
一点鎖線
100
AcDbLine
 10
123.9997263499222
 20
153.7012576402772
 30
0.0
 11
123.9997263499222
 21
56.57535673015473
 31
0.0
  0
LINE
  5
2AED4
330
1F
100
AcDbEntity
  8
実線
100
AcDbLine
 10
87.99972634992219
 20
74.67807639711913
 30
0.0
 11
90.11671072479703
 21
74.67807639711913
 31
0.0
  0
LINE
  5
2AED5
330
1F
100
AcDbEntity
  8
実線
100
AcDbLine
 10
87.99972634992219
 20
91.67807639711909
 30
0.0
 11
88.99972634992218
 21
91.67807639711909
 31
0.0
  0
LINE
  5
2AED6
330
1F
100
AcDbEntity
  8
実線
100
AcDbLine
 10
73.99972634992218
 20
94.5780763971191
 30
0.0
 11
75.49972634992219
 21
96.07807639711911
 31
0.0
  0
LINE
  5
2AED7
330
1F
100
AcDbEntity
  8
実線
100
AcDbLine
 10
73.99972634992218
 20
71.77807639711909
 30
0.0
 11
75.49972634992219
 21
70.27807639711909
 31
0.0
  0
LINE
  5
2AEDA
102
{ACAD_REACTORS
330
2B0C3
102
}
330
1F
100
AcDbEntity
  8
実線
100
AcDbLine
 10
73.99972634992218
 20
94.5780763971191
 30
0.0
 11
73.99972634992218
 21
71.77807639711909
 31
0.0
  0
ARC
  5
2AEDB
330
1F
100
AcDbEntity
  8
実線
100
AcDbCircle
 10
87.99972634992219
 20
71.67807639711913
 30
0.0
 40
3.0
100
AcDbArc
 50
90.0
 51
180.0
  0
LINE
  5
2AEDC
330
1F
100
AcDbEntity
  8
実線
100
AcDbLine
 10
75.49972634992219
 20
70.27807639711909
 30
0.0
 11
84.99972634992207
 21
70.27807639711909
 31
0.0
  0
LINE
  5
2AEDD
330
1F
100
AcDbEntity
  8
実線
100
AcDbLine
 10
84.99972634992207
 20
70.27807639711909
 30
0.0
 11
84.99972634992207
 21
71.67807639711913
 31
0.0
  0
LINE
  5
2AEDE
330
1F
100
AcDbEntity
  8
実線
100
AcDbLine
 10
84.99972634992207
 20
96.07807639711911
 30
0.0
 11
84.99972634992207
 21
94.67807639711912
 31
0.0
  0
ARC
  5
2AEDF
330
1F
100
AcDbEntity
  8
実線
100
AcDbCircle
 10
87.99972634992219
 20
94.67807639711912
 30
0.0
 40
3.0
100
AcDbArc
 50
180.0
 51
270.0
  0
LINE
  5
2AEE0
330
1F
100
AcDbEntity
  8
実線
100
AcDbLine
 10
75.49972634992219
 20
96.07807639711911
 30
0.0
 11
84.99972634992207
 21
96.07807639711911
 31
0.0
  0
LINE
  5
2AEE1
330
1F
100
AcDbEntity
  8
実線
100
AcDbLine
 10
130.883784559848
 20
63.37642599341532
 30
0.0
 11
125.4997263499222
 21
60.57671572425391
 31
0.0
  0
LINE
  5
2AEE2
330
1F
100
AcDbEntity
  8
実線
100
AcDbLine
 10
117.1156681399962
 20
63.37642599341532
 30
0.0
 11
122.4997263499222
 21
60.57671572425377
 31
0.0
  0
ARC
  5
2AEE3
330
1F
100
AcDbEntity
  8
実線
100
AcDbCircle
 10
147.116710724797
 20
63.17807639711912
 30
0.0
 40
3.0
100
AcDbArc
 50
270.0
 51
334.23067237566
  0
ARC
  5
2AEE4
102
{ACAD_REACTORS
330
2B0F3
102
}
330
1F
100
AcDbEntity
  8
実線
100
AcDbCircle
 10
100.8827419750472
 20
63.17807639711912
 30
0.0
 40
3.0
100
AcDbArc
 50
205.7693276243401
 51
270.0
  0
LINE
  5
2AEE5
330
1F
100
AcDbEntity
  8
実線
100
AcDbLine
 10
147.116710724797
 20
60.1780763971191
 30
0.0
 11
123.9997263499222
 21
60.1780763971191
 31
0.0
  0
LINE
  5
2AEE6
102
{ACAD_REACTORS
330
2B0DB
102
}
330
1F
100
AcDbEntity
  8
実線
100
AcDbLine
 10
100.8827419750472
 20
60.1780763971191
 30
0.0
 11
123.9997263499222
 21
60.1780763971191
 31
0.0
  0
LINE
  5
2AEE7
330
1F
100
AcDbEntity
  8
実線
100
AcDbLine
 10
153.4106060200477
 20
72.6780763971191
 30
0.0
 11
123.9997263499222
 21
72.6780763971191
 31
0.0
  0
LINE
  5
2AEE8
330
1F
100
AcDbEntity
  8
実線
100
AcDbLine
 10
91.99972634992219
 20
112.1780763971191
 30
0.0
 11
91.99972634992219
 21
94.6780763971191
 31
0.0
  0
LINE
  5
2AEE9
330
1F
100
AcDbEntity
  8
実線
100
AcDbLine
 10
94.58884667979669
 20
72.6780763971191
 30
0.0
 11
123.9997263499222
 21
72.6780763971191
 31
0.0
  0
ARC
  5
2AEEA
330
1F
100
AcDbEntity
  8
実線
100
AcDbCircle
 10
90.11671072479703
 20
71.67807639711913
 30
0.0
 40
3.0
100
AcDbArc
 50
25.76932762434005
 51
90.0
  0
LINE
  5
2AEEB
330
1F
100
AcDbEntity
  8
実線
100
AcDbLine
 10
98.18108706595342
 20
61.87382919962556
 30
0.0
 11
92.81836563389083
 21
72.98232359461266
 31
0.0
  0
ARC
  5
2AEEC
330
1F
100
AcDbEntity
  8
実線
100
AcDbCircle
 10
94.58884667979669
 20
75.6780763971191
 30
0.0
 40
3.0
100
AcDbArc
 50
221.8103148957838
 51
270.0
  0
ARC
  5
2AEED
330
1F
100
AcDbEntity
  8
実線
100
AcDbCircle
 10
88.99972634992218
 20
94.6780763971191
 30
0.0
 40
3.0
100
AcDbArc
 50
270.0
 51
0.0
  0
ARC
  5
2AEEE
330
1F
100
AcDbEntity
  8
実線
100
AcDbCircle
 10
110.4997263499222
 20
67.6780763971191
 30
0.0
 40
5.0
100
AcDbArc
 50
0.0
 51
90.0
  0
ARC
  5
2AEEF
330
1F
100
AcDbEntity
  8
実線
100
AcDbCircle
 10
118.4997263499222
 20
66.03807639711911
 30
0.0
 40
3.0
100
AcDbArc
 50
180.0
 51
242.525568373724
  0
LINE
  5
2AEF0
330
1F
100
AcDbEntity
  8
実線
100
AcDbLine
 10
115.4997263499222
 20
67.6780763971191
 30
0.0
 11
115.4997263499222
 21
66.03807639711914
 31
0.0
  0
ARC
  5
2AEF1
330
1F
100
AcDbEntity
  8
実線
100
AcDbCircle
 10
137.4997263499222
 20
67.6780763971191
 30
0.0
 40
5.0
100
AcDbArc
 50
90.0
 51
180.0
  0
ARC
  5
2AEF2
330
1F
100
AcDbEntity
  8
実線
100
AcDbCircle
 10
129.4997263499222
 20
66.03807639711911
 30
0.0
 40
3.0
100
AcDbArc
 50
297.4744316262759
 51
0.0
  0
LINE
  5
2AEF3
330
1F
100
AcDbEntity
  8
実線
100
AcDbLine
 10
132.4997263499222
 20
67.6780763971191
 30
0.0
 11
132.4997263499222
 21
66.03807639711911
 31
0.0
  0
ARC
  5
2AEF4
330
1F
100
AcDbEntity
  8
実線
100
AcDbCircle
 10
88.99972634992218
 20
112.1780763971191
 30
0.0
 40
3.0
100
AcDbArc
 50
0.0
 51
90.0
  0
LINE
  5
2AEF5
330
1F
100
AcDbEntity
  8
実線
100
AcDbLine
 10
87.99972634992219
 20
115.1780763971191
 30
0.0
 11
88.99972634992218
 21
115.1780763971191
 31
0.0
  0
LINE
  5
2AEF6
330
1F
100
AcDbEntity
  8
実線
100
AcDbLine
 10
155.9997263499222
 20
112.1780763971191
 30
0.0
 11
155.9997263499222
 21
94.6780763971191
 31
0.0
  0
LINE
  5
2AEF7
330
1F
100
AcDbEntity
  8
実線
100
AcDbLine
 10
159.9997263499222
 20
91.67807639711909
 30
0.0
 11
158.9997263499222
 21
91.67807639711909
 31
0.0
  0
LINE
  5
2AEF8
330
1F
100
AcDbEntity
  8
実線
100
AcDbLine
 10
159.9997263499222
 20
74.67807639711913
 30
0.0
 11
157.8827419750472
 21
74.67807639711913
 31
0.0
  0
ARC
  5
2AEF9
330
1F
100
AcDbEntity
  8
実線
100
AcDbCircle
 10
157.8827419750472
 20
71.67807639711913
 30
0.0
 40
3.0
100
AcDbArc
 50
90.0
 51
154.2306723756599
  0
LINE
  5
2AEFA
330
1F
100
AcDbEntity
  8
実線
100
AcDbLine
 10
149.8183656338907
 20
61.87382919962556
 30
0.0
 11
155.1810870659534
 21
72.98232359461266
 31
0.0
  0
ARC
  5
2AEFB
330
1F
100
AcDbEntity
  8
実線
100
AcDbCircle
 10
153.4106060200477
 20
75.6780763971191
 30
0.0
 40
3.0
100
AcDbArc
 50
270.0
 51
318.1896851042162
  0
ARC
  5
2AEFC
330
1F
100
AcDbEntity
  8
実線
100
AcDbCircle
 10
158.9997263499222
 20
94.6780763971191
 30
0.0
 40
3.0
100
AcDbArc
 50
180.0
 51
270.0
  0
LINE
  5
2AEFD
330
1F
100
AcDbEntity
  8
実線
100
AcDbLine
 10
173.9997263499222
 20
94.57807639711907
 30
0.0
 11
173.9997263499221
 21
71.77807639711904
 31
0.0
  0
ARC
  5
2AEFE
330
1F
100
AcDbEntity
  8
実線
100
AcDbCircle
 10
159.9997263499222
 20
71.67807639711913
 30
0.0
 40
3.0
100
AcDbArc
 50
0.0
 51
90.0
  0
LINE
  5
2AEFF
330
1F
100
AcDbEntity
  8
実線
100
AcDbLine
 10
172.4997263499222
 20
70.27807639711906
 30
0.0
 11
162.9997263499222
 21
70.27807639711906
 31
0.0
  0
LINE
  5
2AF01
330
1F
100
AcDbEntity
  8
実線
100
AcDbLine
 10
162.9997263499222
 20
70.27807639711906
 30
0.0
 11
162.9997263499222
 21
71.67807639711913
 31
0.0
  0
LINE
  5
2AF02
102
{ACAD_REACTORS
330
2B0C3
102
}
330
1F
100
AcDbEntity
  8
実線
100
AcDbLine
 10
173.9997263499222
 20
71.77807639711907
 30
0.0
 11
172.4997263499222
 21
70.27807639711906
 31
0.0
  0
LINE
  5
2AF03
330
1F
100
AcDbEntity
  8
実線
100
AcDbLine
 10
162.9997263499222
 20
96.07807639711907
 30
0.0
 11
162.9997263499222
 21
94.67807639711912
 31
0.0
  0
LINE
  5
2AF04
330
1F
100
AcDbEntity
  8
実線
100
AcDbLine
 10
173.9997263499222
 20
94.57807639711907
 30
0.0
 11
172.4997263499222
 21
96.07807639711907
 31
0.0
  0
ARC
  5
2AF06
330
1F
100
AcDbEntity
  8
実線
100
AcDbCircle
 10
159.9997263499222
 20
94.67807639711912
 30
0.0
 40
3.0
100
AcDbArc
 50
270.0
 51
0.0
  0
LINE
  5
2AF07
330
1F
100
AcDbEntity
  8
実線
100
AcDbLine
 10
172.4997263499222
 20
96.07807639711907
 30
0.0
 11
162.9997263499222
 21
96.07807639711907
 31
0.0
  0
ARC
  5
2AF08
330
1F
100
AcDbEntity
  8
実線
100
AcDbCircle
 10
158.9997263499222
 20
112.1780763971191
 30
0.0
 40
3.0
100
AcDbArc
 50
90.0
 51
180.0
  0
LINE
  5
2AF09
330
1F
100
AcDbEntity
  8
実線
100
AcDbLine
 10
159.9997263499222
 20
115.1780763971191
 30
0.0
 11
158.9997263499222
 21
115.1780763971191
 31
0.0
  0
LINE
  5
2AF0A
330
1F
100
AcDbEntity
  8
実線
100
AcDbLine
 10
87.99972634992219
 20
118.6780763971191
 30
0.0
 11
87.99972634992219
 21
115.1780763971191
 31
0.0
  0
LINE
  5
2AF0B
330
1F
100
AcDbEntity
  8
実線
100
AcDbLine
 10
159.9997263499223
 20
118.6780763971191
 30
0.0
 11
159.9997263499222
 21
115.1780763971191
 31
0.0
  0
LINE
  5
2AF0C
102
{ACAD_REACTORS
330
2B0DB
102
}
330
1F
100
AcDbEntity
  8
一点鎖線
100
AcDbLine
 10
180.1326646631219
 20
83.17807639711906
 30
0.0
 11
67.86678803672248
 21
83.17807639711915
 31
0.0
  0
LINE
  5
2AF13
330
1F
100
AcDbEntity
  8
実線
100
AcDbLine
 10
160.4484516382881
 20
201.3476110734214
 30
0.0
 11
159.5524849007124
 21
201.0906967456282
 31
0.0
  0
ARC
  5
2AF14
330
1F
100
AcDbEntity
  8
実線
100
AcDbCircle
 10
160.9997263499222
 20
199.4250876815447
 30
0.0
 40
2.0
100
AcDbArc
 50
13.20498073439271
 51
105.9999999999948
  0
LINE
  5
2AF15
330
1F
100
AcDbEntity
  8
実線
100
AcDbLine
 10
75.49972634992207
 20
225.6819586868857
 30
0.0
 11
81.30373106690967
 21
225.6819586868857
 31
0.0
  0
LINE
  5
2AF16
330
1F
100
AcDbEntity
  8
実線
100
AcDbLine
 10
84.69572163293458
 20
225.6819586868857
 30
0.0
 11
85.05260825271307
 21
225.6819586868857
 31
0.0
  0
LINE
  5
2AF18
330
1F
100
AcDbEntity
  8
細線
100
AcDbLine
 10
84.98275433762172
 20
224.8819586868857
 30
0.0
 11
85.44400295679157
 21
224.8819586868857
 31
0.0
  0
ARC
  5
2AF19
330
1F
100
AcDbEntity
  8
実線
100
AcDbCircle
 10
86.99972634992207
 20
226.1388296922266
 30
0.0
 40
2.0
100
AcDbArc
 50
193.2049807343927
 51
229.3264687099861
  0
TEXT
  5
2AF1A
330
1F
100
AcDbEntity
  8
文字
100
AcDbText
 10
151.499726349922
 20
203.6219586868857
 30
0.0
 40
9.0
  1
13
 50
90.0
 41
1.002604166666666
  7
ｽﾀｲﾙ2
 72
     5
 11
151.499726349922
 21
215.6219586868857
 31
0.0
100
AcDbText
  0
TEXT
  5
2AF1B
330
1F
100
AcDbEntity
  8
文字
100
AcDbText
 10
151.499726349922
 20
218.6219586868857
 30
0.0
 40
8.0
  1
mm
 50
90.0
 41
0.8135565669700909
  7
ｽﾀｲﾙ2
 72
     5
 11
151.499726349922
 21
231.6219586868857
 31
0.0
100
AcDbText
  0
LINE
  5
2AF1C
330
1F
100
AcDbEntity
  8
実線
100
AcDbLine
 10
130.9997263499222
 20
183.8503491676573
 30
0.0
 11
130.9997263499222
 21
250.393568206114
 31
0.0
  0
LINE
  5
2AF1D
330
1F
100
AcDbEntity
  8
実線
100
AcDbLine
 10
140.9997263499222
 20
246.5668224155566
 30
0.0
 11
140.9997263499222
 21
187.6770949582147
 31
0.0
  0
TEXT
  5
2AF1E
330
1F
100
AcDbEntity
  8
文字
100
AcDbText
 10
120.2336772285592
 20
196.7465917356829
 30
0.0
 40
9.0
  1
K
 50
171.04726287007
  7
ｽﾀｲﾙ2
 72
     1
 11
116.3063058602318
 21
192.8098063167632
 31
0.0
100
AcDbText
 73
     2
  0
TEXT
  5
2AF1F
330
1F
100
AcDbEntity
  8
文字
100
AcDbText
 10
114.2164031482123
 20
198.8000075718566
 30
0.0
 40
9.0
  1
A
 50
152.3076798394186
  7
ｽﾀｲﾙ2
 72
     1
 11
109.2272922539408
 21
196.3363687415256
 31
0.0
100
AcDbText
 73
     2
  0
TEXT
  5
2AF20
330
1F
100
AcDbEntity
  8
文字
100
AcDbText
 10
109.0484494341646
 20
202.5504061062568
 30
0.0
 40
9.0
  1
S
 50
132.4166227373244
  7
ｽﾀｲﾙ2
 72
     1
 11
103.5148300184266
 21
201.9355184953781
 31
0.0
100
AcDbText
 73
     2
  0
TEXT
  5
2AF21
330
1F
100
AcDbEntity
  8
文字
100
AcDbText
 10
105.2923456309251
 20
207.4234295211418
 30
0.0
 40
9.0
  1
H
 50
111.512425231516
  7
ｽﾀｲﾙ2
 72
     1
 11
99.79319431348461
 21
209.1034534641407
 31
0.0
100
AcDbText
 73
     2
  0
TEXT
  5
2AF22
330
1F
100
AcDbEntity
  8
文字
100
AcDbText
 10
102.9997263499225
 20
215.5177379076649
 30
0.0
 40
9.0
  1
I
 50
89.99999999999962
  7
ｽﾀｲﾙ2
 72
     1
 11
98.49972634992253
 21
217.1219586868857
 31
0.0
100
AcDbText
 73
     2
  0
TEXT
  5
2AF23
330
1F
100
AcDbEntity
  8
文字
100
AcDbText
 10
102.6670855919208
 20
220.1601130604548
 30
0.0
 40
9.0
  1
H
 50
68.48757476848479
  7
ｽﾀｲﾙ2
 72
     1
 11
99.79319431348461
 21
225.1404639096305
 31
0.0
100
AcDbText
 73
     2
  0
TEXT
  5
2AF24
330
1F
100
AcDbEntity
  8
文字
100
AcDbText
 10
104.629489702216
 20
226.8569515851518
 30
0.0
 40
9.0
  1
A
 50
47.58337726267553
  7
ｽﾀｲﾙ2
 72
     1
 11
103.5148300184265
 21
232.3083988783931
 31
0.0
100
AcDbText
 73
     2
  0
TEXT
  5
2AF25
330
1F
100
AcDbEntity
  8
文字
100
AcDbText
 10
108.2602746273418
 20
232.317890753059
 30
0.0
 40
9.0
  1
R
 50
27.69232016058144
  7
ｽﾀｲﾙ2
 72
     1
 11
109.2272922539408
 21
237.9075486322459
 31
0.0
100
AcDbText
 73
     2
  0
TEXT
  5
2AF26
330
1F
100
AcDbEntity
  8
文字
100
AcDbText
 10
113.7737386102415
 20
236.4796335945577
 30
0.0
 40
9.0
  1
A
 50
8.952737129929943
  7
ｽﾀｲﾙ2
 72
     1
 11
116.3063058602321
 21
241.4341110570081
 31
0.0
100
AcDbText
 73
     2
  0
INSERT
  5
2AF27
330
1F
100
AcDbEntity
  8
実線
100
AcDbBlockReference
  2
mark
 10
113.593457685896
 20
207.3867544804212
 30
0.0
 41
0.3799999999999954
 42
0.3799999999999954
 43
0.3799999999999954
 50
90.0
  0
LINE
  5
2AF28
330
1F
100
AcDbEntity
  8
細線
 62
     7
100
AcDbLine
 10
172.4997263499222
 20
225.6819586868857
 30
0.0
 11
172.4997263499222
 21
199.8819586868856
 31
0.0
  0
LINE
  5
2AF29
330
1F
100
AcDbEntity
  8
細線
 62
     7
100
AcDbLine
 10
75.49972634992207
 20
225.6819586868857
 30
0.0
 11
75.49972634992207
 21
199.8819586868856
 31
0.0
  0
MTEXT
  5
2AF2C
330
1F
100
AcDbEntity
  8
文字
370
     9
100
AcDbMText
 10
122.0755399483089
 20
177.9726154274887
 30
0.0
 40
5.0
 41
19.85484558976438
 46
0.0
 71
     1
 72
     5
  1
{\fMS PMincho|b0|i0|c128|p18;\W1.05;E}
  7
寸法
 73
     1
 44
1.0
  0
LINE
  5
2AF2D
330
1F
100
AcDbEntity
  8
実線
100
AcDbLine
 10
79.49972634992218
 20
150.3780763971191
 30
0.0
 11
79.49972634992218
 21
138.6780763971191
 31
0.0
  0
LINE
  5
2AF2E
330
1F
100
AcDbEntity
  8
実線
100
AcDbLine
 10
166.4997263499222
 20
148.3780763971191
 30
0.0
 11
166.4997263499222
 21
147.1780763971192
 31
0.0
  0
LINE
  5
2AF2F
330
1F
100
AcDbEntity
  8
実線
100
AcDbLine
 10
86.49972634992218
 20
143.1780763971191
 30
0.0
 11
161.4997263499222
 21
143.1780763971191
 31
0.0
  0
LINE
  5
2AF30
330
1F
100
AcDbEntity
  8
実線
100
AcDbLine
 10
87.29972634992213
 20
149.1780763971191
 30
0.0
 11
89.19972634992223
 21
149.1780763971191
 31
0.0
  0
LINE
  5
2AF31
330
1F
100
AcDbEntity
  8
実線
100
AcDbLine
 10
87.99972634992219
 20
145.1780763971191
 30
0.0
 11
159.9997263499222
 21
145.1780763971191
 31
0.0
  0
LINE
  5
2AF32
330
1F
100
AcDbEntity
  8
実線
100
AcDbLine
 10
87.99972634992219
 20
143.1780763971191
 30
0.0
 11
87.99972634992219
 21
145.1780763971191
 31
0.0
  0
LINE
  5
2AF33
330
1F
100
AcDbEntity
  8
実線
100
AcDbLine
 10
159.9997263499222
 20
145.1780763971191
 30
0.0
 11
159.9997263499222
 21
143.1780763971191
 31
0.0
  0
LINE
  5
2AF34
330
1F
100
AcDbEntity
  8
実線
100
AcDbLine
 10
89.99972634992218
 20
148.1780763971191
 30
0.0
 11
126.9997263499222
 21
148.1780763971191
 31
0.0
  0
LINE
  5
2AF35
330
1F
100
AcDbEntity
  8
実線
100
AcDbLine
 10
161.4997263499222
 20
148.3780763971191
 30
0.0
 11
161.4997263499222
 21
143.1780763971191
 31
0.0
  0
LINE
  5
2AF36
330
1F
100
AcDbEntity
  8
実線
100
AcDbLine
 10
86.49972634992218
 20
148.3780763971191
 30
0.0
 11
86.49972634992218
 21
138.6780763971191
 31
0.0
  0
LINE
  5
2AF37
330
1F
100
AcDbEntity
  8
実線
100
AcDbLine
 10
161.4997263499222
 20
147.1780763971191
 30
0.0
 11
166.4997263499222
 21
147.1780763971192
 31
0.0
  0
ARC
  5
2AF38
330
1F
100
AcDbEntity
  8
実線
100
AcDbCircle
 10
165.6997263499221
 20
148.3780763971191
 30
0.0
 40
0.8
100
AcDbArc
 50
0.0
 51
90.0
  0
ARC
  5
2AF39
330
1F
100
AcDbEntity
  8
実線
100
AcDbCircle
 10
160.6997263499222
 20
148.3780763971191
 30
0.0
 40
0.8
100
AcDbArc
 50
0.0
 51
90.0
  0
LINE
  5
2AF3A
330
1F
100
AcDbEntity
  8
実線
100
AcDbLine
 10
165.6997263499221
 20
149.1780763971191
 30
0.0
 11
160.6997263499222
 21
149.1780763971191
 31
0.0
  0
LINE
  5
2AF3B
330
1F
100
AcDbEntity
  8
実線
100
AcDbLine
 10
126.9997263499222
 20
149.1780763971191
 30
0.0
 11
126.9997263499222
 21
148.1780763971191
 31
0.0
  0
LINE
  5
2AF3C
330
1F
100
AcDbEntity
  8
実線
100
AcDbLine
 10
136.9997263499222
 20
149.1780763971191
 30
0.0
 11
136.9997263499222
 21
148.1780763971191
 31
0.0
  0
LINE
  5
2AF3D
330
1F
100
AcDbEntity
  8
実線
100
AcDbLine
 10
87.29972634992213
 20
149.1780763971191
 30
0.0
 11
79.49972634992218
 21
149.1780763971191
 31
0.0
  0
LINE
  5
2AF3E
330
1F
100
AcDbEntity
  8
実線
100
AcDbLine
 10
89.19972634992223
 20
151.1780763971191
 30
0.0
 11
80.29972634992214
 21
151.1780763971191
 31
0.0
  0
LINE
  5
2AF3F
330
1F
100
AcDbEntity
  8
実線
100
AcDbLine
 10
86.49972634992218
 20
145.1780763971191
 30
0.0
 11
79.49972634992218
 21
145.1780763971191
 31
0.0
  0
ARC
  5
2AF40
102
{ACAD_REACTORS
330
2B0F3
102
}
330
1F
100
AcDbEntity
  8
実線
100
AcDbCircle
 10
80.29972634992214
 20
150.3780763971191
 30
0.0
 40
0.8
100
AcDbArc
 50
90.0
 51
180.0
  0
LINE
  5
2AF41
330
1F
100
AcDbEntity
  8
実線
100
AcDbLine
 10
157.9997263499222
 20
148.3780763971191
 30
0.0
 11
157.9997263499222
 21
148.1780763971191
 31
0.0
  0
LINE
  5
2AF42
330
1F
100
AcDbEntity
  8
実線
100
AcDbLine
 10
89.99972634992218
 20
148.3780763971191
 30
0.0
 11
89.99972634992218
 21
148.1780763971191
 31
0.0
  0
ARC
  5
2AF43
330
1F
100
AcDbEntity
  8
実線
100
AcDbCircle
 10
89.19972634992223
 20
150.3780763971191
 30
0.0
 40
0.8
100
AcDbArc
 50
0.0
 51
90.0
  0
ARC
  5
2AF44
330
1F
100
AcDbEntity
  8
実線
100
AcDbCircle
 10
82.99972634992219
 20
138.6780763971191
 30
0.0
 40
3.5
100
AcDbArc
 50
180.0
 51
0.0
  0
CIRCLE
  5
2AF45
330
1F
100
AcDbEntity
  8
実線
100
AcDbCircle
 10
82.99972634992219
 20
138.6780763971191
 30
0.0
 40
1.35
  0
ARC
  5
2AF46
330
1F
100
AcDbEntity
  8
実線
100
AcDbCircle
 10
87.29972634992213
 20
148.3780763971191
 30
0.0
 40
0.8
100
AcDbArc
 50
90.0
 51
180.0
  0
ARC
  5
2AF47
330
1F
100
AcDbEntity
  8
実線
100
AcDbCircle
 10
89.19972634992223
 20
148.3780763971191
 30
0.0
 40
0.8
100
AcDbArc
 50
0.0
 51
90.0
  0
LINE
  5
2AF48
330
1F
100
AcDbEntity
  8
実線
100
AcDbLine
 10
89.99972634992218
 20
150.3780763971191
 30
0.0
 11
89.99972634992218
 21
148.3780763971191
 31
0.0
  0
LINE
  5
2AF49
330
1F
100
AcDbEntity
  8
実線
100
AcDbLine
 10
158.7997263499221
 20
149.1780763971191
 30
0.0
 11
160.6997263499222
 21
149.1780763971191
 31
0.0
  0
ARC
  5
2AF4A
330
1F
100
AcDbEntity
  8
実線
100
AcDbCircle
 10
158.7997263499221
 20
148.3780763971191
 30
0.0
 40
0.8
100
AcDbArc
 50
90.0
 51
180.0
  0
LINE
  5
2AF4B
330
1F
100
AcDbEntity
  8
実線
100
AcDbLine
 10
89.19972634992223
 20
149.178076397119
 30
0.0
 11
158.7997263499221
 21
149.1780763971191
 31
0.0
  0
LINE
  5
2AF4C
330
1F
100
AcDbEntity
  8
実線
100
AcDbLine
 10
143.4997263499222
 20
149.1780763971191
 30
0.0
 11
143.4997263499222
 21
148.1780763971191
 31
0.0
  0
LINE
  5
2AF4D
330
1F
100
AcDbEntity
  8
実線
100
AcDbLine
 10
149.4997263499222
 20
149.1780763971191
 30
0.0
 11
149.4997263499222
 21
148.1780763971191
 31
0.0
  0
LINE
  5
2AF4E
330
1F
100
AcDbEntity
  8
実線
100
AcDbLine
 10
123.9997263499222
 20
149.1780763971191
 30
0.0
 11
123.9997263499222
 21
148.1780763971191
 31
0.0
  0
LINE
  5
2AF4F
330
1F
100
AcDbEntity
  8
実線
100
AcDbLine
 10
111.9997263499222
 20
149.1780763971191
 30
0.0
 11
111.9997263499222
 21
148.1780763971191
 31
0.0
  0
LINE
  5
2AF50
330
1F
100
AcDbEntity
  8
実線
100
AcDbLine
 10
102.9997263499222
 20
149.1780763971191
 30
0.0
 11
102.9997263499222
 21
148.1780763971191
 31
0.0
  0
LINE
  5
2AF51
330
1F
100
AcDbEntity
  8
実線
100
AcDbLine
 10
94.99972634992218
 20
149.1780763971191
 30
0.0
 11
94.99972634992218
 21
148.1780763971191
 31
0.0
  0
LINE
  5
2AF52
330
1F
100
AcDbEntity
  8
実線
100
AcDbLine
 10
136.9997263499222
 20
148.1780763971191
 30
0.0
 11
157.9997263499222
 21
148.1780763971191
 31
0.0
  0
LINE
  5
2AF53
330
1F
100
AcDbEntity
  8
実線
100
AcDbLine
 10
168.4997263499222
 20
138.6780763971191
 30
0.0
 11
168.4997263499222
 21
121.6780763971191
 31
0.0
  0
LINE
  5
2AF54
330
1F
100
AcDbEntity
  8
実線
100
AcDbLine
 10
79.49972634992218
 20
138.6780763971191
 30
0.0
 11
79.49972634992218
 21
121.6780763971191
 31
0.0
  0
LINE
  5
2AF55
330
1F
100
AcDbEntity
  8
実線
100
AcDbLine
 10
88.49972634992218
 20
143.6780763971191
 30
0.0
 11
159.4997263499221
 21
143.6780763971191
 31
0.0
  0
LINE
  5
2AF56
330
1F
100
AcDbEntity
  8
実線
100
AcDbLine
 10
86.49972634992218
 20
118.6780763971191
 30
0.0
 11
161.4997263499222
 21
118.6780763971191
 31
0.0
  0
LINE
  5
2AF57
330
1F
100
AcDbEntity
  8
実線
100
AcDbLine
 10
82.99972634992219
 20
142.1780763971191
 30
0.0
 11
123.9997263499222
 21
142.1780763971191
 31
0.0
  0
LINE
  5
2AF58
330
1F
100
AcDbEntity
  8
実線
100
AcDbLine
 10
80.49972634992219
 20
120.6780763971191
 30
0.0
 11
84.49972634992219
 21
120.6780763971191
 31
0.0
  0
LINE
  5
2AF59
330
1F
100
AcDbEntity
  8
実線
100
AcDbLine
 10
86.49972634992218
 20
134.6780763971191
 30
0.0
 11
160.9997263499221
 21
134.6780763971191
 31
0.0
  0
LINE
  5
2AF5A
330
1F
100
AcDbEntity
  8
実線
100
AcDbLine
 10
88.49972634992218
 20
143.6780763971191
 30
0.0
 11
88.49972634992218
 21
142.1780763971191
 31
0.0
  0
LINE
  5
2AF5B
330
1F
100
AcDbEntity
  8
実線
100
AcDbLine
 10
159.4997263499221
 20
143.6780763971191
 30
0.0
 11
159.4997263499221
 21
142.1780763971191
 31
0.0
  0
LINE
  5
2AF5C
330
1F
100
AcDbEntity
  8
実線
100
AcDbLine
 10
123.9997263499222
 20
142.1780763971191
 30
0.0
 11
164.9997263499222
 21
142.1780763971191
 31
0.0
  0
LINE
  5
2AF5D
330
1F
100
AcDbEntity
  8
実線
100
AcDbLine
 10
163.4997263499221
 20
120.6780763971191
 30
0.0
 11
167.4997263499222
 21
120.6780763971191
 31
0.0
  0
LINE
  5
2AF5E
330
1F
100
AcDbEntity
  8
実線
100
AcDbLine
 10
160.9997263499222
 20
142.1780763971191
 30
0.0
 11
160.9997263499222
 21
134.6780763971191
 31
0.0
  0
LINE
  5
2AF5F
330
1F
100
AcDbEntity
  8
実線
100
AcDbLine
 10
86.99972634992219
 20
138.4280763971191
 30
0.0
 11
86.99972634992219
 21
134.6780763971191
 31
0.0
  0
LINE
  5
2AF60
330
1F
100
AcDbEntity
  8
実線
100
AcDbLine
 10
160.9997263499222
 20
134.6780763971191
 30
0.0
 11
161.4997263499222
 21
134.6780763971191
 31
0.0
  0
LINE
  5
2AF61
330
1F
100
AcDbEntity
  8
実線
100
AcDbLine
 10
162.4997263499222
 20
119.8780763971192
 30
0.0
 11
162.4997263499222
 21
119.6780763971191
 31
0.0
  0
ARC
  5
2AF62
330
1F
100
AcDbEntity
  8
実線
100
AcDbCircle
 10
82.99972634992219
 20
138.6780763971191
 30
0.0
 40
3.5
100
AcDbArc
 50
90.0
 51
180.0
  0
ARC
  5
2AF63
330
1F
100
AcDbEntity
  8
実線
100
AcDbCircle
 10
164.9997263499222
 20
138.6780763971191
 30
0.0
 40
3.5
100
AcDbArc
 50
0.0
 51
90.0
  0
LINE
  5
2AF64
330
1F
100
AcDbEntity
  8
実線
100
AcDbLine
 10
85.49972634992219
 20
119.6780763971191
 30
0.0
 11
85.49972634992219
 21
119.6780763971191
 31
0.0
  0
LINE
  5
2AF65
330
1F
100
AcDbEntity
  8
実線
100
AcDbLine
 10
120.9997263499221
 20
132.6780763971191
 30
0.0
 11
123.9997263499222
 21
132.6780763971191
 31
0.0
  0
LINE
  5
2AF66
330
1F
100
AcDbEntity
  8
実線
100
AcDbLine
 10
162.4997263499222
 20
119.6780763971191
 30
0.0
 11
162.4997263499222
 21
119.6780763971191
 31
0.0
  0
ARC
  5
2AF67
330
1F
100
AcDbEntity
  8
実線
100
AcDbCircle
 10
86.49972634992218
 20
133.6780763971191
 30
0.0
 40
1.0
100
AcDbArc
 50
90.0
 51
180.0
  0
ARC
  5
2AF68
330
1F
100
AcDbEntity
  8
実線
100
AcDbCircle
 10
57.72129764208
 20
144.9682302485054
 30
0.0
 40
30.0
100
AcDbArc
 50
316.5477361277677
 51
354.6634862983415
  0
LINE
  5
2AF69
330
1F
100
AcDbEntity
  8
実線
100
AcDbLine
 10
120.9997263499221
 20
120.6780763971191
 30
0.0
 11
123.9997263499222
 21
120.6780763971191
 31
0.0
  0
ARC
  5
2AF6D
330
1F
100
AcDbEntity
  8
実線
100
AcDbCircle
 10
161.4997263499222
 20
133.6780763971191
 30
0.0
 40
1.0
100
AcDbArc
 50
0.0
 51
90.0
  0
ARC
  5
2AF6E
330
1F
100
AcDbEntity
  8
実線
100
AcDbCircle
 10
161.4997263499222
 20
119.6780763971191
 30
0.0
 40
1.0
100
AcDbArc
 50
270.0
 51
0.0
  0
ARC
  5
2AF6F
330
1F
100
AcDbEntity
  8
実線
100
AcDbCircle
 10
163.4997263499221
 20
119.6780763971191
 30
0.0
 40
1.0
100
AcDbArc
 50
90.0
 51
180.0
  0
LINE
  5
2AF70
330
1F
100
AcDbEntity
  8
実線
100
AcDbLine
 10
162.4997263499222
 20
119.6780763971191
 30
0.0
 11
162.4997263499222
 21
133.6780763971191
 31
0.0
  0
ARC
  5
2AF71
330
1F
100
AcDbEntity
  8
実線
100
AcDbCircle
 10
167.4997263499222
 20
121.6780763971191
 30
0.0
 40
1.0
100
AcDbArc
 50
270.0
 51
0.0
  0
ARC
  5
2AF72
330
1F
100
AcDbEntity
  8
実線
100
AcDbCircle
 10
86.49972634992218
 20
119.6780763971191
 30
0.0
 40
1.0
100
AcDbArc
 50
180.0
 51
270.0
  0
ARC
  5
2AF73
330
1F
100
AcDbEntity
  8
実線
100
AcDbCircle
 10
84.49972634992219
 20
119.6780763971191
 30
0.0
 40
1.0
100
AcDbArc
 50
0.0
 51
90.0
  0
LINE
  5
2AF74
330
1F
100
AcDbEntity
  8
実線
100
AcDbLine
 10
85.49972634992219
 20
133.6780763971191
 30
0.0
 11
85.49972634992219
 21
119.6780763971191
 31
0.0
  0
ARC
  5
2AF75
330
1F
100
AcDbEntity
  8
実線
100
AcDbCircle
 10
80.49972634992219
 20
121.6780763971191
 30
0.0
 40
1.0
100
AcDbArc
 50
180.0
 51
270.0
  0
LINE
  5
2AF76
330
1F
100
AcDbEntity
  8
実線
100
AcDbLine
 10
120.9997263499221
 20
132.6780763971191
 30
0.0
 11
120.9997263499221
 21
120.6780763971191
 31
0.0
  0
LINE
  5
2AF77
330
1F
100
AcDbEntity
  8
実線
100
AcDbLine
 10
126.9997263499222
 20
132.6780763971191
 30
0.0
 11
123.9997263499222
 21
132.6780763971191
 31
0.0
  0
LINE
  5
2AF78
330
1F
100
AcDbEntity
  8
実線
100
AcDbLine
 10
126.9997263499222
 20
120.6780763971191
 30
0.0
 11
123.9997263499222
 21
120.6780763971191
 31
0.0
  0
LINE
  5
2AF79
330
1F
100
AcDbEntity
  8
実線
100
AcDbLine
 10
126.9997263499222
 20
132.6780763971191
 30
0.0
 11
126.9997263499222
 21
120.6780763971191
 31
0.0
  0
LINE
  5
2AF7A
330
1F
100
AcDbEntity
  8
実線
100
AcDbLine
 10
122.4997263499222
 20
71.67807639711909
 30
0.0
 11
122.4997263499222
 21
60.57671572425383
 31
0.0
  0
LINE
  5
2AF7B
330
1F
100
AcDbEntity
  8
実線
100
AcDbLine
 10
125.4997263499222
 20
71.67807639711909
 30
0.0
 11
125.4997263499222
 21
60.57671572425386
 31
0.0
  0
ARC
  5
2AF7C
330
1F
100
AcDbEntity
  8
実線
100
AcDbCircle
 10
121.4997263499222
 20
71.67807639711909
 30
0.0
 40
1.0
100
AcDbArc
 50
0.0
 51
90.0
  0
ARC
  5
2AF7D
330
1F
100
AcDbEntity
  8
実線
100
AcDbCircle
 10
126.4997263499222
 20
71.67807639711909
 30
0.0
 40
1.0
100
AcDbArc
 50
90.0
 51
180.0
  0
TEXT
  5
2AF7E
330
1F
100
AcDbEntity
  8
文字
100
AcDbText
 10
100.6724536226494
 20
63.29806635861661
 30
0.0
 40
7.0
  1
1
  7
ﾛｺﾞ
 72
     1
 11
102.9997263499222
 21
66.79806635861661
 31
0.0
100
AcDbText
 73
     2
  0
TEXT
  5
2AF7F
330
1F
100
AcDbEntity
  8
文字
100
AcDbText
 10
106.6724536226494
 20
63.29806635861661
 30
0.0
 40
7.0
  1
9
  7
ﾛｺﾞ
 72
     1
 11
108.9997263499222
 21
66.79806635861661
 31
0.0
100
AcDbText
 73
     2
  0
TEXT
  5
2AF80
330
1F
100
AcDbEntity
  8
文字
 48
0.5
370
     5
100
AcDbText
 10
108.3503757005715
 20
94.85282506433197
 30
0.0
 40
10.0
  1
13
  7
ｽﾀｲﾙ2
 72
     1
 11
114.9997263499222
 21
99.85282506433197
 31
0.0
100
AcDbText
 73
     2
  0
TEXT
  5
2AF81
330
1F
100
AcDbEntity
  8
文字
100
AcDbText
 10
125.7042718044677
 20
94.91860167831038
 30
0.0
 40
7.0
  1
m
  7
ﾛｺﾞ
 72
     1
 11
129.1997263499222
 21
98.41860167831038
 31
0.0
100
AcDbText
 73
     2
  0
TEXT
  5
2AF82
330
1F
100
AcDbEntity
  8
文字
100
AcDbText
 10
135.1042718044676
 20
94.91860167831038
 30
0.0
 40
7.0
  1
m
  7
ﾛｺﾞ
 72
     1
 11
138.5997263499222
 21
98.41860167831038
 31
0.0
100
AcDbText
 73
     2
  0
LINE
  5
2AF83
330
1F
100
AcDbEntity
  8
実線
100
AcDbLine
 10
133.399726349922
 20
86.17807639711918
 30
0.0
 11
140.3997263499221
 21
83.17807639711915
 31
0.0
  0
LINE
  5
2AF84
330
1F
100
AcDbEntity
  8
実線
100
AcDbLine
 10
133.399726349922
 20
80.17807639711913
 30
0.0
 11
140.3997263499221
 21
83.17807639711915
 31
0.0
  0
LINE
  5
2AF85
330
1F
100
AcDbEntity
  8
実線
100
AcDbLine
 10
106.3997263499221
 20
80.17807639711918
 30
0.0
 11
108.399726349922
 21
82.17807639711919
 31
0.0
  0
LINE
  5
2AF86
330
1F
100
AcDbEntity
  8
実線
100
AcDbLine
 10
124.3997263499221
 20
80.17807639711916
 30
0.0
 11
126.3997263499221
 21
82.17807639711915
 31
0.0
  0
LINE
  5
2AF87
330
1F
100
AcDbEntity
  8
実線
100
AcDbLine
 10
133.3997263499221
 20
82.17807639711915
 30
0.0
 11
133.399726349922
 21
80.17807639711913
 31
0.0
  0
LINE
  5
2AF88
330
1F
100
AcDbEntity
  8
実線
100
AcDbLine
 10
106.3997263499222
 20
86.17807639711918
 30
0.0
 11
124.3997263499221
 21
86.17807639711916
 31
0.0
  0
LINE
  5
2AF89
330
1F
100
AcDbEntity
  8
実線
100
AcDbLine
 10
106.3997263499221
 20
84.17807639711915
 30
0.0
 11
133.3997263499221
 21
84.17807639711915
 31
0.0
  0
LINE
  5
2AF8A
330
1F
100
AcDbEntity
  8
実線
100
AcDbLine
 10
106.3997263499222
 20
82.17807639711919
 30
0.0
 11
133.3997263499221
 21
82.17807639711915
 31
0.0
  0
LINE
  5
2AF8B
330
1F
100
AcDbEntity
  8
実線
100
AcDbLine
 10
133.3997263499221
 20
84.17807639711915
 30
0.0
 11
133.399726349922
 21
86.17807639711918
 31
0.0
  0
LINE
  5
2AF8C
330
1F
100
AcDbEntity
  8
実線
100
AcDbLine
 10
124.3997263499221
 20
86.17807639711916
 30
0.0
 11
126.3997263499221
 21
84.17807639711915
 31
0.0
  0
LINE
  5
2AF8D
330
1F
100
AcDbEntity
  8
実線
100
AcDbLine
 10
106.3997263499222
 20
86.17807639711918
 30
0.0
 11
108.399726349922
 21
84.17807639711918
 31
0.0
  0
LINE
  5
2AF8E
330
1F
100
AcDbEntity
  8
実線
100
AcDbLine
 10
106.3997263499222
 20
82.17807639711919
 30
0.0
 11
106.3997263499221
 21
84.17807639711915
 31
0.0
  0
LINE
  5
2AF8F
330
1F
100
AcDbEntity
  8
実線
100
AcDbLine
 10
106.3997263499221
 20
80.17807639711918
 30
0.0
 11
124.3997263499221
 21
80.17807639711916
 31
0.0
  0
TEXT
  5
2AF90
330
1F
100
AcDbEntity
  8
文字
100
AcDbText
 10
138.1599041685753
 20
63.29806635861661
 30
0.0
 40
7.0
  1
E
  7
ﾛｺﾞ
 72
     1
 11
140.4644496231208
 21
66.79806635861661
 31
0.0
100
AcDbText
 73
     2
  0
LINE
  5
2AF91
330
1F
100
AcDbEntity
  8
実線
100
AcDbLine
 10
75.49972634992219
 20
96.07807639711911
 30
0.0
 11
75.49972634992219
 21
70.27807639711909
 31
0.0
  0
LINE
  5
2AF92
330
1F
100
AcDbEntity
  8
実線
100
AcDbLine
 10
172.4997263499221
 20
96.07807639711907
 30
0.0
 11
172.4997263499221
 21
70.27807639711906
 31
0.0
  0
HATCH
  5
2AFF2
330
1F
100
AcDbEntity
  8
細線
100
AcDbHatch
 10
0.0
 20
0.0
 30
0.0
210
0.0
220
0.0
230
1.0
  2
SOLID
 70
     1
 71
     0
 91
        4
 92
        7
 72
     1
 73
     1
 93
       10
 10
308.3987185205733
 20
212.3714668907141
 42
0.0
 10
305.9487185205733
 20
212.3714668907141
 42
0.0
 10
305.9487185205733
 20
202.2914668907143
 42
0.0
 10
308.3987185205733
 20
202.2914668907143
 42
0.0
 10
308.3987185205733
 20
204.1814668907142
 42
0.0
 10
307.978718520573
 20
204.1814668907142
 42
-0.4142135623730951
 10
306.5787185205731
 20
205.5814668907142
 42
0.0
 10
306.5787185205731
 20
209.0814668907142
 42
-0.4142135623730951
 10
307.978718520573
 20
210.4814668907141
 42
0.0
 10
308.3987185205733
 20
210.4814668907141
 42
0.0
 97
        0
 92
        7
 72
     1
 73
     1
 93
       10
 10
310.708718520573
 20
212.3714668907141
 42
0.0
 10
308.3987185205733
 20
212.3714668907141
 42
0.0
 10
308.3987185205733
 20
210.4814668907141
 42
0.0
 10
308.678718520573
 20
210.4814668907141
 42
-0.4142135623730951
 10
310.078718520573
 20
209.0814668907142
 42
0.0
 10
310.078718520573
 20
205.5814668907142
 42
-0.4142135623730951
 10
308.678718520573
 20
204.1814668907142
 42
0.0
 10
308.3987185205733
 20
204.1814668907142
 42
0.0
 10
308.3987185205733
 20
202.2914668907143
 42
0.0
 10
310.708718520573
 20
202.2914668907143
 42
0.0
 97
        0
 92
       23
 72
     1
 73
     1
 93
        6
 10
308.3987185205733
 20
209.7814668907141
 42
0.0
 10
307.978718520573
 20
209.7814668907141
 42
0.4142135623730951
 10
307.278718520573
 20
209.0814668907142
 42
0.0
 10
307.278718520573
 20
205.5814668907142
 42
0.4142135623730951
 10
307.978718520573
 20
204.8814668907141
 42
0.0
 10
308.3987185205733
 20
204.8814668907141
 42
0.0
 97
        0
 92
       23
 72
     1
 73
     1
 93
        6
 10
309.3787185205731
 20
209.0814668907142
 42
0.4142135623730951
 10
308.678718520573
 20
209.7814668907141
 42
0.0
 10
308.3987185205733
 20
209.7814668907141
 42
0.0
 10
308.3987185205733
 20
204.8814668907141
 42
0.0
 10
308.678718520573
 20
204.8814668907141
 42
0.4142135623730951
 10
309.3787185205731
 20
205.5814668907142
 42
0.0
 97
        0
 75
     0
 76
     1
 47
0.0699458268595824
 98
        4
 10
306.6864254100576
 20
211.0526405571306
 10
309.823094480513
 20
211.1505647089605
 10
308.2547611562918
 20
207.6252952430906
 10
309.2349691811785
 20
207.5273710912608
450
        0
451
        0
460
0.0
461
0.0
452
        1
462
1.0
453
        2
463
0.0
 63
     5
421
      255
463
1.0
 63
     7
421
 16777215
470
LINEAR
1001
ACAD
1010
0.0
1020
0.0
1030
0.0
  0
HATCH
  5
2AFF3
330
1F
100
AcDbEntity
  8
細線
100
AcDbHatch
 10
0.0
 20
0.0
 30
0.0
210
0.0
220
0.0
230
1.0
  2
SOLID
 70
     1
 71
     0
 91
        3
 92
        7
 72
     0
 73
     1
 93
        4
 10
319.1087185205731
 20
212.3714668907141
 10
314.3487185205734
 20
212.3714668907141
 10
314.3487185205734
 20
202.2914668907143
 10
319.1087185205731
 20
202.2914668907143
 97
        0
 92
       22
 72
     1
 73
     1
 93
        8
 10
316.3787185205731
 20
210.4814668907141
 42
0.0
 10
317.078718520573
 20
210.4814668907141
 42
-0.4142135623730951
 10
318.478718520573
 20
209.0814668907142
 42
0.0
 10
318.478718520573
 20
205.5814668907142
 42
-0.4142135623730951
 10
317.078718520573
 20
204.1814668907142
 42
0.0
 10
316.3787185205731
 20
204.1814668907142
 42
-0.4142135623730951
 10
314.978718520573
 20
205.5814668907142
 42
0.0
 10
314.978718520573
 20
209.0814668907142
 42
-0.4142135623730951
 97
        0
 92
        6
 72
     1
 73
     1
 93
        8
 10
316.3787185205731
 20
209.7814668907141
 42
0.0
 10
317.078718520573
 20
209.7814668907141
 42
-0.4142135623730951
 10
317.778718520573
 20
209.0814668907142
 42
0.0
 10
317.778718520573
 20
205.5814668907142
 42
-0.4142135623730951
 10
317.078718520573
 20
204.8814668907141
 42
0.0
 10
316.3787185205731
 20
204.8814668907141
 42
-0.4142135623730951
 10
315.6787185205731
 20
205.5814668907142
 42
0.0
 10
315.6787185205731
 20
209.0814668907142
 42
-0.4142135623730951
 97
        0
 75
     0
 76
     1
 47
0.0699458268595824
 98
        3
 10
315.7043498958722
 20
210.8567922534712
 10
315.7043498958722
 20
210.8567922534712
 10
315.7043498958722
 20
210.8567922534712
450
        0
451
        0
460
0.0
461
0.0
452
        1
462
1.0
453
        2
463
0.0
 63
     5
421
      255
463
1.0
 63
     7
421
 16777215
470
LINEAR
1001
ACAD
1010
0.0
1020
0.0
1030
0.0
  0
HATCH
  5
2AFF4
330
1F
100
AcDbEntity
  8
細線
100
AcDbHatch
 10
0.0
 20
0.0
 30
0.0
210
0.0
220
0.0
230
1.0
  2
SOLID
 70
     1
 71
     0
 91
        3
 92
        7
 72
     0
 73
     1
 93
        4
 10
302.3087185205732
 20
212.3714668907141
 10
297.5487185205733
 20
212.3714668907141
 10
297.5487185205733
 20
202.2914668907143
 10
302.3087185205732
 20
202.2914668907143
 97
        0
 92
       22
 72
     1
 73
     1
 93
        8
 10
301.6787185205731
 20
209.0814668907142
 42
0.0
 10
301.6787185205731
 20
205.5814668907142
 42
-0.4142135623730951
 10
300.2787185205729
 20
204.1814668907142
 42
0.0
 10
299.578718520573
 20
204.1814668907142
 42
-0.4142135623730951
 10
298.178718520573
 20
205.5814668907142
 42
0.0
 10
298.178718520573
 20
209.0814668907142
 42
-0.4142135623730951
 10
299.578718520573
 20
210.4814668907141
 42
0.0
 10
300.2787185205729
 20
210.4814668907141
 42
-0.4142135623730951
 97
        0
 92
        6
 72
     1
 73
     1
 93
        8
 10
300.978718520573
 20
209.0814668907142
 42
0.0
 10
300.978718520573
 20
205.5814668907142
 42
-0.4142135623730951
 10
300.2787185205729
 20
204.8814668907141
 42
0.0
 10
299.578718520573
 20
204.8814668907141
 42
-0.4142135623730951
 10
298.8787185205731
 20
205.5814668907142
 42
0.0
 10
298.8787185205731
 20
209.0814668907142
 42
-0.4142135623730951
 10
299.578718520573
 20
209.7814668907141
 42
0.0
 10
300.2787185205729
 20
209.7814668907141
 42
-0.4142135623730953
 97
        0
 75
     0
 76
     1
 47
0.0699458268595824
 98
        3
 10
301.2952764291548
 20
211.0526405571306
 10
301.2952764291548
 20
211.0526405571306
 10
301.2952764291548
 20
211.0526405571306
450
        0
451
        0
460
0.0
461
0.0
452
        1
462
1.0
453
        2
463
0.0
 63
     5
421
      255
463
1.0
 63
     7
421
 16777215
470
LINEAR
1001
ACAD
1010
0.0
1020
0.0
1030
0.0
  0
HATCH
  5
2AFF5
330
1F
100
AcDbEntity
  8
細線
100
AcDbHatch
 10
0.0
 20
0.0
 30
0.0
210
0.0
220
0.0
230
1.0
  2
SOLID
 70
     1
 71
     0
 91
        3
 92
        7
 72
     0
 73
     1
 93
        4
 10
293.9087185205731
 20
212.3714668907141
 10
289.1487185205733
 20
212.3714668907141
 10
289.1487185205733
 20
202.2914668907143
 10
293.9087185205731
 20
202.2914668907143
 97
        0
 92
       22
 72
     1
 73
     1
 93
        8
 10
293.278718520573
 20
209.0814668907142
 42
0.0
 10
293.278718520573
 20
205.5814668907142
 42
-0.4142135623730951
 10
291.8787185205731
 20
204.1814668907142
 42
0.0
 10
291.1787185205731
 20
204.1814668907142
 42
-0.4142135623730951
 10
289.7787185205729
 20
205.5814668907142
 42
0.0
 10
289.7787185205729
 20
209.0814668907142
 42
-0.4142135623730951
 10
291.1787185205731
 20
210.4814668907141
 42
0.0
 10
291.8787185205731
 20
210.4814668907141
 42
-0.4142135623730951
 97
        0
 92
        6
 72
     1
 73
     1
 93
        8
 10
291.8787185205731
 20
209.7814668907141
 42
-0.4142135623730951
 10
292.578718520573
 20
209.0814668907142
 42
0.0
 10
292.578718520573
 20
205.5814668907142
 42
-0.4142135623730951
 10
291.8787185205731
 20
204.8814668907141
 42
0.0
 10
291.1787185205731
 20
204.8814668907141
 42
-0.4142135623730951
 10
290.478718520573
 20
205.5814668907142
 42
0.0
 10
290.478718520573
 20
209.0814668907142
 42
-0.4142135623730951
 10
291.1787185205731
 20
209.7814668907141
 42
0.0
 97
        0
 75
     0
 76
     1
 47
0.0699458268595824
 98
        3
 10
291.9832880826659
 20
211.3464130126198
 10
291.9832880826659
 20
211.3464130126198
 10
291.9832880826659
 20
211.3464130126198
450
        0
451
        0
460
0.0
461
0.0
452
        1
462
1.0
453
        2
463
0.0
 63
     5
421
      255
463
1.0
 63
     7
421
 16777215
470
LINEAR
1001
ACAD
1010
0.0
1020
0.0
1030
0.0
  0
HATCH
  5
2AFF6
330
1F
100
AcDbEntity
  8
細線
100
AcDbHatch
 10
0.0
 20
0.0
 30
0.0
210
0.0
220
0.0
230
1.0
  2
SOLID
 70
     1
 71
     0
 91
        1
 92
        7
 72
     0
 73
     1
 93
        6
 10
324.778718520573
 20
204.1814668907142
 10
325.478718520573
 20
204.1814668907142
 10
325.478718520573
 20
210.4814668907141
 10
324.778718520573
 20
210.4814668907141
 10
323.4031492379433
 20
209.1219057826406
 10
324.778718520573
 20
209.7814668907141
 97
        0
 75
     0
 76
     1
 47
0.0305864353530903
 98
        1
 10
325.0025690986289
 20
207.8156156415372
450
        0
451
        0
460
0.0
461
0.0
452
        1
462
1.0
453
        2
463
0.0
 63
     5
421
      255
463
1.0
 63
     7
421
 16777215
470
LINEAR
1001
ACAD
1010
0.0
1020
0.0
1030
0.0
  0
LINE
  5
2AFF7
330
1F
100
AcDbEntity
  8
実線
100
AcDbLine
 10
325.478718520573
 20
204.1814668907142
 30
0.0
 11
324.778718520573
 21
204.1814668907142
 31
0.0
  0
LINE
  5
2AFF8
330
1F
100
AcDbEntity
  8
実線
100
AcDbLine
 10
325.478718520573
 20
210.4814668907141
 30
0.0
 11
324.778718520573
 21
210.4814668907141
 31
0.0
  0
LINE
  5
2AFF9
330
1F
100
AcDbEntity
  8
実線
100
AcDbLine
 10
325.478718520573
 20
204.1814668907142
 30
0.0
 11
325.478718520573
 21
210.4814668907141
 31
0.0
  0
LINE
  5
2AFFA
330
1F
100
AcDbEntity
  8
実線
100
AcDbLine
 10
324.778718520573
 20
204.1814668907142
 30
0.0
 11
324.778718520573
 21
209.7814668907141
 31
0.0
  0
LINE
  5
2AFFB
330
1F
100
AcDbEntity
  8
実線
100
AcDbLine
 10
324.778718520573
 20
210.4814668907141
 30
0.0
 11
323.4031492379433
 21
209.1219057826406
 31
0.0
  0
LINE
  5
2AFFC
330
1F
100
AcDbEntity
  8
実線
100
AcDbLine
 10
323.4031492379433
 20
209.1219057826406
 30
0.0
 11
324.778718520573
 21
209.7814668907141
 31
0.0
  0
DIMENSION
  5
2B05F
102
{ACAD_XDICTIONARY
360
2B06C
102
}
102
{ACAD_REACTORS
330
2B076
102
}
330
1F
100
AcDbEntity
  8
寸法
100
AcDbDimension
280
     0
  2
*D7
 10
191.9561305693569
 20
172.6219586868857
 30
0.0
 11
189.2061305693568
 21
217.1219586868857
 31
0.0
 70
    32
 71
     5
 42
88.99999999999991
 73
     0
 74
     0
 75
     0
  3
ｺﾋﾟｰ - ISO-25
100
AcDbAlignedDimension
 13
125.9997263499219
 23
261.6219586868857
 33
0.0
 14
125.9997263499245
 24
172.6219586868857
 34
0.0
 50
90.0
100
AcDbRotatedDimension
  0
DIMENSION
  5
2B0AC
102
{ACAD_XDICTIONARY
360
2B0B9
102
}
102
{ACAD_REACTORS
330
2B0C3
102
}
330
1F
100
AcDbEntity
  8
寸法
100
AcDbDimension
280
     0
  2
*D8
 10
173.9997263499222
 20
40.01573156019873
 30
0.0
 11
123.9997263499222
 21
42.76573156019873
 31
0.0
 70
    32
 71
     5
 42
100.0
 73
     0
 74
     0
 75
     0
  3
ｺﾋﾟｰ - ISO-25
100
AcDbAlignedDimension
 13
73.99972634992218
 23
71.77807639711909
 33
0.0
 14
173.9997263499222
 24
71.77807639711907
 34
0.0
100
AcDbRotatedDimension
  0
DIMENSION
  5
2B0C4
102
{ACAD_XDICTIONARY
360
2B0D1
102
}
102
{ACAD_REACTORS
330
2B0DB
102
}
330
1F
100
AcDbEntity
  8
寸法
100
AcDbDimension
280
     0
  2
*D9
 10
55.48182027273174
 20
83.17807639711915
 30
0.0
 11
52.73182027273173
 21
71.67807639711914
 31
0.0
 70
    32
 71
     5
 42
23.00000000000005
 73
     0
 74
     0
 75
     0
  3
ｺﾋﾟｰ - ISO-25
100
AcDbAlignedDimension
 13
100.8827419750472
 23
60.1780763971191
 33
0.0
 14
67.86678803672248
 24
83.17807639711915
 34
0.0
 50
90.0
100
AcDbRotatedDimension
  0
DIMENSION
  5
2B0DC
102
{ACAD_XDICTIONARY
360
2B0E9
102
}
102
{ACAD_REACTORS
330
2B0F3
102
}
330
1F
100
AcDbEntity
  8
寸法
100
AcDbDimension
280
     0
  2
*D10
 10
45.0768924802594
 20
151.1780763971191
 30
0.0
 11
42.32689248025937
 21
105.6780763971191
 31
0.0
 70
    32
 71
     5
 42
91.0
 73
     0
 74
     0
 75
     0
  3
ｺﾋﾟｰ - ISO-25
100
AcDbAlignedDimension
 13
100.8827419750472
 23
60.17807639711913
 33
0.0
 14
80.29972634992214
 24
151.1780763971191
 34
0.0
 50
90.0
100
AcDbRotatedDimension
  0
TEXT
  5
2B123
330
1F
100
AcDbEntity
  8
0
100
AcDbText
 10
303.5560329945233
 20
39.40516497261692
 30
0.0
 40
3.5
  1
PD-13
 41
0.9
 72
     1
 11
311.7310329945233
 21
41.15516497261692
 31
0.0
100
AcDbText
 73
     2
  0
TEXT
  5
2B15A
330
1F
100
AcDbEntity
  8
0
100
AcDbText
 10
362.0810329945233
 20
50.90516497261692
 30
0.0
 40
3.5
  1
A-220090
 41
0.9
 72
     1
 11
374.2310329945233
 21
52.65516497261693
 31
0.0
100
AcDbText
 73
     2
  0
LINE
  5
2B173
330
1F
100
AcDbEntity
  8
0
100
AcDbLine
 10
25.0
 20
277.0
 30
0.0
 11
25.0
 21
20.0
 31
0.0
  0
LINE
  5
2B174
330
1F
100
AcDbEntity
  8
0
100
AcDbLine
 10
405.0
 20
277.0
 30
0.0
 11
25.0
 21
277.0
 31
0.0
  0
LINE
  5
2B175
330
1F
100
AcDbEntity
  8
0
100
AcDbLine
 10
405.0
 20
20.0
 30
0.0
 11
405.0
 21
277.0
 31
0.0
  0
LINE
  5
2B176
330
1F
100
AcDbEntity
  8
0
100
AcDbLine
 10
25.0
 20
20.0
 30
0.0
 11
405.0
 21
20.0
 31
0.0
  0
VIEWPORT
  5
6B
330
50
100
AcDbEntity
 67
     1
  8
0
100
AcDbViewport
 10
433.5371052199574
 20
123.3251464112375
 30
0.0
 40
833.2744282326544
 41
415.0001327249074
 68
     1
 69
     1
 12
433.5371052199574
 22
123.3251464112375
 13
0.0
 23
0.0
 14
10.0
 24
10.0
 15
10.0
 25
10.0
 16
0.0
 26
0.0
 36
1.0
 17
0.0
 27
0.0
 37
0.0
 42
50.0
 43
0.0
 44
0.0
 45
415.0001327249074
 50
0.0
 51
0.0
 72
   100
 90
    32800
  1

281
     0
 71
     1
 74
     0
110
0.0
120
0.0
130
0.0
111
1.0
121
0.0
131
0.0
112
0.0
122
1.0
132
0.0
 79
     0
146
0.0
170
     0
 61
     5
348
276B
292
     1
282
     1
141
0.0
142
0.0
 63
   250
421
  3355443
  0
VIEWPORT
  5
6D
330
50
100
AcDbEntity
 67
     1
  8
0
100
AcDbViewport
 10
194.6747247325147
 20
118.9168694143202
 30
0.0
 40
506.9942499588641
 41
411.2802053937703
 68
     2
 69
     2
 12
200.9197229890301
 22
122.5631282670758
 13
0.0
 23
0.0
 14
10.0
 24
10.0
 15
10.0
 25
10.0
 16
0.0
 26
0.0
 36
1.0
 17
0.0
 27
0.0
 37
0.0
 42
50.0
 43
0.0
 44
0.0
 45
411.2802071812528
 50
0.0
 51
0.0
 72
   100
 90
    32864
  1

281
     0
 71
     1
 74
     0
110
0.0
120
0.0
130
0.0
111
1.0
121
0.0
131
0.0
112
0.0
122
1.0
132
0.0
 79
     0
146
0.0
170
     0
 61
     5
348
276B
292
     1
282
     1
141
0.0
142
0.0
 63
   250
421
  3355443
  0
ENDSEC
  0
SECTION
  2
OBJECTS
  0
DICTIONARY
  5
C
330
0
100
AcDbDictionary
281
     1
  3
ACAD_CIP_PREVIOUS_PRODUCT_INFO
350
2B234
  3
ACAD_COLOR
350
2776
  3
ACAD_DETAILVIEWSTYLE
350
2B224
  3
ACAD_GROUP
350
D
  3
ACAD_LAYOUT
350
1A
  3
ACAD_MATERIAL
350
2761
  3
ACAD_MLEADERSTYLE
350
247F1
  3
ACAD_MLINESTYLE
350
17
  3
ACAD_PLOTSETTINGS
350
19
  3
ACAD_PLOTSTYLENAME
350
E
  3
ACAD_SCALELIST
350
247DF
  3
ACAD_SECTIONVIEWSTYLE
350
2B222
  3
ACAD_TABLESTYLE
350
2777
  3
ACAD_VISUALSTYLE
350
2765
  3
ACDB_RECOMPOSE_DATA
350
2B24F
  3
AcDbVariableDictionary
350
5E
  0
DICTIONARY
  5
279F
330
2
100
AcDbDictionary
280
     1
281
     1
  3
ACAD_LAYERFILTERS
360
2DF9
  3
ACAD_LAYERSTATES
360
2E2E
  3
ACLYDICTIONARY
360
2DF8
  0
DICTIONARY
  5
24E13
330
10
100
AcDbDictionary
280
     1
281
     1
  3
ADSK_XREC_LAYER_RECONCILED
360
24E14
  0
DICTIONARY
  5
24E15
330
A7
100
AcDbDictionary
280
     1
281
     1
  3
ADSK_XREC_LAYER_RECONCILED
360
24E16
  0
DICTIONARY
  5
24E17
330
A8
100
AcDbDictionary
280
     1
281
     1
  3
ADSK_XREC_LAYER_RECONCILED
360
24E18
  0
DICTIONARY
  5
24E19
330
A9
100
AcDbDictionary
280
     1
281
     1
  3
ADSK_XREC_LAYER_RECONCILED
360
24E1A
  0
DICTIONARY
  5
24E1B
330
AA
100
AcDbDictionary
280
     1
281
     1
  3
ADSK_XREC_LAYER_RECONCILED
360
24E1C
  0
DICTIONARY
  5
24E1D
330
AB
100
AcDbDictionary
280
     1
281
     1
  3
ADSK_XREC_LAYER_RECONCILED
360
24E1E
  0
DICTIONARY
  5
24E1F
330
AC
100
AcDbDictionary
280
     1
281
     1
  3
ADSK_XREC_LAYER_RECONCILED
360
24E20
  0
DICTIONARY
  5
24E21
330
58C
100
AcDbDictionary
280
     1
281
     1
  3
ADSK_XREC_LAYER_RECONCILED
360
24E22
  0
DICTIONARY
  5
24E23
330
1023
100
AcDbDictionary
280
     1
281
     1
  3
ADSK_XREC_LAYER_RECONCILED
360
24E24
  0
DICTIONARY
  5
24E25
330
2366
100
AcDbDictionary
280
     1
281
     1
  3
ADSK_XREC_LAYER_RECONCILED
360
24E26
  0
DICTIONARY
  5
2D98
330
1F
100
AcDbDictionary
280
     1
281
     1
  3
ACAD_SORTENTS
360
2D99
  0
DICTIONARY
  5
29CF
330
341
100
AcDbDictionary
280
     1
281
     1
  3
ACAD_SORTENTS
360
29D1
  0
DICTIONARY
  5
2B06C
330
2B05F
100
AcDbDictionary
280
     1
281
     1
  3
ACAD_DIMASSOC
360
2B076
  0
DICTIONARY
  5
2B0B9
330
2B0AC
100
AcDbDictionary
280
     1
281
     1
  3
ACAD_DIMASSOC
360
2B0C3
  0
DICTIONARY
  5
2B0D1
330
2B0C4
100
AcDbDictionary
280
     1
281
     1
  3
ACAD_DIMASSOC
360
2B0DB
  0
DICTIONARY
  5
2B0E9
330
2B0DC
100
AcDbDictionary
280
     1
281
     1
  3
ACAD_DIMASSOC
360
2B0F3
  0
XRECORD
  5
2B234
102
{ACAD_REACTORS
330
C
102
}
330
C
100
AcDbXrecord
280
     1
300
ACDLT
300
2014
300
ACDLT_F_S
  0
DICTIONARY
  5
2776
102
{ACAD_REACTORS
330
C
102
}
330
C
100
AcDbDictionary
281
     1
  0
DICTIONARY
  5
2B224
102
{ACAD_REACTORS
330
C
102
}
330
C
100
AcDbDictionary
281
     1
  3
Metric50
350
2B225
  0
DICTIONARY
  5
D
102
{ACAD_REACTORS
330
C
102
}
330
C
100
AcDbDictionary
281
     1
  3
*A1
350
29F6
  0
DICTIONARY
  5
1A
102
{ACAD_REACTORS
330
C
102
}
330
C
100
AcDbDictionary
281
     1
  3
Model
350
22
  3
ﾚｲｱｳﾄ1
350
51
  3
ﾚｲｱｳﾄ2
350
56
  0
DICTIONARY
  5
2761
102
{ACAD_REACTORS
330
C
102
}
330
C
100
AcDbDictionary
281
     1
  3
ByBlock
350
2763
  3
ByLayer
350
2762
  3
Global
350
2764
  0
DICTIONARY
  5
247F1
102
{ACAD_REACTORS
330
C
102
}
330
C
100
AcDbDictionary
281
     1
  3
Standard
350
247F2
  0
DICTIONARY
  5
17
102
{ACAD_REACTORS
330
C
102
}
330
C
100
AcDbDictionary
281
     1
  3
Standard
350
18
  0
DICTIONARY
  5
19
102
{ACAD_REACTORS
330
C
102
}
330
C
100
AcDbDictionary
281
     1
  3
印刷
350
E74
  0
ACDBDICTIONARYWDFLT
  5
E
102
{ACAD_REACTORS
330
C
102
}
330
C
100
AcDbDictionary
281
     1
  3
Normal
350
F
100
AcDbDictionaryWithDefault
340
F
  0
DICTIONARY
  5
247DF
102
{ACAD_REACTORS
330
C
102
}
330
C
100
AcDbDictionary
281
     1
  3
A0
350
247E0
  3
A1
350
247E1
  3
A2
350
247E2
  3
A3
350
247E3
  3
A4
350
247E4
  3
A5
350
247E5
  3
A6
350
247E6
  3
A7
350
247E7
  3
A8
350
247E8
  3
A9
350
247E9
  3
B0
350
247EA
  3
B1
350
247EB
  3
B2
350
247EC
  3
B3
350
247ED
  3
B4
350
247EE
  3
B5
350
247EF
  3
B6
350
247F0
  0
DICTIONARY
  5
2B222
102
{ACAD_REACTORS
330
C
102
}
330
C
100
AcDbDictionary
281
     1
  3
Metric50
350
2B223
  0
DICTIONARY
  5
2777
102
{ACAD_REACTORS
330
C
102
}
330
C
100
AcDbDictionary
281
     1
  3
Standard
350
2778
  3
コピー - Standard
350
2688B
  0
DICTIONARY
  5
2765
102
{ACAD_REACTORS
330
C
102
}
330
C
100
AcDbDictionary
281
     1
  3
2dWireframe
350
276B
  3
3D Hidden
350
276D
  3
3dWireframe
350
276C
  3
Basic
350
276A
  3
Brighten
350
2771
  3
ColorChange
350
2775
  3
Conceptual
350
276E
  3
Dim
350
2770
  3
EdgeColorOff
350
247DE
  3
Facepattern
350
2774
  3
Flat
350
2766
  3
FlatWithEdges
350
2767
  3
Gouraud
350
2768
  3
GouraudWithEdges
350
2769
  3
Hidden
350
2B21C
  3
JitterOff
350
247DC
  3
Linepattern
350
2773
  3
OverhangOff
350
247DD
  3
Realistic
350
276F
  3
Shaded
350
2B221
  3
Shaded with edges
350
2B220
  3
Shades of Gray
350
2B21D
  3
Sketchy
350
2B21E
  3
Thicken
350
2772
  3
Wireframe
350
2B21B
  3
X-Ray
350
2B21F
  0
XRECORD
  5
2B24F
102
{ACAD_REACTORS
330
C
102
}
330
C
100
AcDbXrecord
280
     1
 90
        1
330
2778
330
2688B
330
2B223
330
2B225
  0
DICTIONARY
  5
5E
102
{ACAD_REACTORS
330
C
102
}
330
C
100
AcDbDictionary
281
     1
  3
CANNOSCALE
350
24E32
  3
CMLEADERSTYLE
350
24E30
  3
CTABLESTYLE
350
2792
  3
CVIEWDETAILSTYLE
350
2B245
  3
CVIEWSECTIONSTYLE
350
2B246
  3
DIMASSOC
350
5F
  3
HIDETEXT
350
63
  3
LAYEREVAL
350
24E34
  3
LAYERNOTIFY
350
24E35
  3
LIGHTINGUNITS
350
24E33
  3
MSLTSCALE
350
24E31
  0
DICTIONARY
  5
2DF9
102
{ACAD_REACTORS
330
279F
102
}
330
279F
100
AcDbDictionary
281
     1
  0
DICTIONARY
  5
2E2E
102
{ACAD_REACTORS
330
279F
102
}
330
279F
100
AcDbDictionary
281
     1
  0
DICTIONARY
  5
2DF8
102
{ACAD_REACTORS
330
279F
102
}
330
279F
100
AcDbDictionary
281
     1
1001
ACAD
1000
<All
  0
XRECORD
  5
24E14
102
{ACAD_REACTORS
330
24E13
102
}
330
24E13
100
AcDbXrecord
280
     1
290
     1
  0
XRECORD
  5
24E16
102
{ACAD_REACTORS
330
24E15
102
}
330
24E15
100
AcDbXrecord
280
     1
290
     1
  0
XRECORD
  5
24E18
102
{ACAD_REACTORS
330
24E17
102
}
330
24E17
100
AcDbXrecord
280
     1
290
     1
  0
XRECORD
  5
24E1A
102
{ACAD_REACTORS
330
24E19
102
}
330
24E19
100
AcDbXrecord
280
     1
290
     1
  0
XRECORD
  5
24E1C
102
{ACAD_REACTORS
330
24E1B
102
}
330
24E1B
100
AcDbXrecord
280
     1
290
     1
  0
XRECORD
  5
24E1E
102
{ACAD_REACTORS
330
24E1D
102
}
330
24E1D
100
AcDbXrecord
280
     1
290
     1
  0
XRECORD
  5
24E20
102
{ACAD_REACTORS
330
24E1F
102
}
330
24E1F
100
AcDbXrecord
280
     1
290
     1
  0
XRECORD
  5
24E22
102
{ACAD_REACTORS
330
24E21
102
}
330
24E21
100
AcDbXrecord
280
     1
290
     1
  0
XRECORD
  5
24E24
102
{ACAD_REACTORS
330
24E23
102
}
330
24E23
100
AcDbXrecord
280
     1
290
     1
  0
XRECORD
  5
24E26
102
{ACAD_REACTORS
330
24E25
102
}
330
24E25
100
AcDbXrecord
280
     1
290
     1
  0
SORTENTSTABLE
  5
2D99
102
{ACAD_REACTORS
330
2D98
102
}
330
2D98
100
AcDbSortentsTable
330
1F
331
2AC21
  5
2AC25
331
2A37A
  5
2A3F5
331
2AEC6
  5
2AED0
331
2AF3C
  5
2AF44
331
2A15B
  5
2A361
331
29B24
  5
29B75
331
2AC48
  5
2AC4C
331
2ADF1
  5
2ADF5
331
2AD7B
  5
2AD7F
331
2AD3C
  5
2AD40
331
2ACC6
  5
2ACCA
331
2AC8F
  5
2AC93
331
2AC50
  5
2AC54
331
2AD05
  5
2AD09
331
2ADB2
  5
2ADB6
331
2ADF9
  5
2ADFD
331
2AD83
  5
2AD87
331
2AD44
  5
2AD48
331
2AD0D
  5
2AD11
331
2ACCE
  5
2ACD2
331
2AC58
  5
2AC5C
331
2AC97
  5
2AC9B
331
2ADBA
  5
2ADBE
331
2ADC2
  5
2ADC6
331
2AD8B
  5
2AD8F
331
2AD15
  5
2AD19
331
2ACD6
  5
2ACDA
331
2AC60
  5
2AC64
331
2AC9F
  5
2ACA3
331
2AD4C
  5
2AD50
331
2AE01
  5
2AE05
331
2ADCA
  5
2ADCE
331
2ACDE
  5
2ACE2
331
2AD54
  5
2AD58
331
2AE48
  5
2AE4C
331
2AE09
  5
2AE0D
331
2AECE
  5
2AED2
331
2AE8F
  5
2AE94
331
2AE11
  5
2AE15
331
2AE50
  5
2AE54
331
2AF44
  5
2AF4C
331
2AF7B
  5
2AF83
331
2A77A
  5
2AC05
331
2AE97
  5
2AE9C
331
2AE58
  5
2AE5C
331
2AE19
  5
2AE1D
331
2AED6
  5
2AEDC
331
2AF4C
  5
2AF54
331
2AF83
  5
2AF8B
331
29B3C
  5
24DBE
331
2AEDE
  5
2AEE2
331
2AE60
  5
2AE64
331
2AE21
  5
2AE25
331
2AE9F
  5
2AEA4
331
2AF15
  5
2AF1E
331
2AF54
  5
2AF5C
331
2AF8B
  5
2AFF2
331
2A353
  5
2A364
331
2AEE6
  5
2AEEA
331
2AEA7
  5
2AEAD
331
2AF1D
  5
2AF25
331
2AF5C
  5
2AF64
331
29B74
  5
29B59
331
2A35B
  5
2A36C
331
2AC0A
  5
2AC0E
331
29B84
  5
29B88
331
2A363
  5
2A374
331
2AC68
  5
2AC6C
331
2AC29
  5
2AC2D
331
2ADD2
  5
2ADD6
331
2AD5C
  5
2AD60
331
2AD1D
  5
2AD21
331
2ACA7
  5
2ACAB
331
2AC70
  5
2AC74
331
2AC31
  5
2AC35
331
2ACE6
  5
2ACEA
331
2AD93
  5
2AD97
331
2ADDA
  5
2ADDE
331
2AD64
  5
2AD68
331
2AD25
  5
2AD29
331
2ACEE
  5
2ACF2
331
2ACAF
  5
2ACB3
331
2AC39
  5
2AC3D
331
2AC78
  5
2AC7C
331
2AD9B
  5
2AD9F
331
2ADA3
  5
2ADA7
331
2AD6C
  5
2AD70
331
2ACF6
  5
2ACFA
331
2ACB7
  5
2ACBB
331
2AC41
  5
2AC45
331
2AC80
  5
2AC84
331
2AD2D
  5
2AD31
331
2ADE2
  5
2ADE6
331
2ADAB
  5
2ADAF
331
2AD74
  5
2AD78
331
2ACFE
  5
2AD02
331
2ACBF
  5
2ACC3
331
2AD35
  5
2AD39
331
2ADEA
  5
2ADEE
331
2AE29
  5
2AE2D
331
2AEAF
  5
2AEB3
331
2AE31
  5
2AE35
331
2AEEE
  5
2AEF2
331
2AF25
  5
2AF2F
331
2AF64
  5
2AF6F
331
2AFF3
  5
2AFFB
331
2A36B
  5
2A37C
331
2AEB7
  5
2AEBB
331
2AE80
  5
2AE84
331
2AE39
  5
2AE3D
331
2AEF6
  5
2AEFA
331
2AF2D
  5
2AF35
331
2AFFB
  5
2B173
331
29B8C
  5
29B90
331
2AC12
  5
2AC16
331
2AC1A
  5
2AC1E
331
2AEFE
  5
2AF03
331
2AE41
  5
2AE45
331
2AEBF
  5
2AECE
331
2AF35
  5
2AF3D
331
2AF74
  5
2AF7C
331
2A373
  5
2A3EE
331
2AC22
  5
2AC26
331
2AEC7
  5
2AED1
331
2AF3D
  5
2AF45
331
2A37B
  5
2A3F6
331
2AC88
  5
2AC8C
331
2AC49
  5
2AC4D
331
2ADF2
  5
2ADF6
331
2AD7C
  5
2AD80
331
2AD3D
  5
2AD41
331
2AD06
  5
2AD0A
331
2AC90
  5
2AC94
331
2AC51
  5
2AC55
331
2ACC7
  5
2ACCB
331
2ADB3
  5
2ADB7
331
2ADFA
  5
2ADFE
331
2ADBB
  5
2ADBF
331
2AD45
  5
2AD49
331
2AD0E
  5
2AD12
331
2ACCF
  5
2ACD3
331
2AC98
  5
2AC9C
331
2AC59
  5
2AC5D
331
2AD84
  5
2AD88
331
2ADC3
  5
2ADC7
331
2AD8C
  5
2AD90
331
2AD4D
  5
2AD51
331
2ACD7
  5
2ACDB
331
2AC61
  5
2AC65
331
2AD16
  5
2AD1A
331
2AE02
  5
2AE06
331
2ACDF
  5
2ACE3
331
2AD55
  5
2AD59
331
2ADCB
  5
2ADCF
331
2AE49
  5
2AE4D
331
2AE0A
  5
2AE0E
331
2AE88
  5
2AE8C
331
2AECF
  5
2AED3
331
2AE90
  5
2AE95
331
2AE51
  5
2AE55
331
2AE12
  5
2AE16
331
2AF06
  5
2AF0A
331
2AF45
  5
2AF4D
331
2AF7C
  5
2AF84
331
2AE98
  5
2AE9E
331
2AE59
  5
2AE5D
331
2AE1A
  5
2AE1E
331
2AED7
  5
2AEDD
331
2AF4D
  5
2AF55
331
2AF84
  5
2AF8C
331
29B3D
  5
24DB4
331
2A77B
  5
2AC06
331
2AF16
  5
2AF1F
331
2AE61
  5
2AE71
331
2AE22
  5
2AE26
331
2AEDF
  5
2AEE3
331
2AF55
  5
2AF5D
331
2AF8C
  5
2AFF3
331
2A354
  5
2A365
331
2AC03
  5
2AC07
331
29B75
  5
29B58
331
2AEE7
  5
2AEEB
331
2AF1E
  5
2AF26
331
2AF5D
  5
2AF65
331
27C66
  5
29B3E
331
2A35C
  5
2A36D
331
2AC0B
  5
2AC0F
331
2A364
  5
2A376
331
29B85
  5
29B89
331
2ACA0
  5
2ACA4
331
2AC69
  5
2AC6D
331
2B15A
  5
2B1BA
331
2AC2A
  5
2AC2E
331
2ADD3
  5
2ADD7
331
2AD5D
  5
2AD61
331
2AD1E
  5
2AD22
331
2ACE7
  5
2ACEB
331
2AC71
  5
2AC75
331
2AC32
  5
2AC36
331
2ACA8
  5
2ACAC
331
2AD94
  5
2AD98
331
2ADDB
  5
2ADDF
331
2AD9C
  5
2ADA0
331
2AD26
  5
2AD2A
331
2ACEF
  5
2ACF3
331
2ACB0
  5
2ACB4
331
2AC79
  5
2AC7D
331
2AC3A
  5
2AC3E
331
2AD65
  5
2AD69
331
2ADA4
  5
2ADA8
331
2AD6D
  5
2AD71
331
2AD2E
  5
2AD32
331
2ACB8
  5
2ACBC
331
2AC81
  5
2AC85
331
2AC42
  5
2AC46
331
2ACF7
  5
2ACFB
331
2ADE3
  5
2ADE7
331
2ADEB
  5
2ADEF
331
2AD75
  5
2AD79
331
2AD36
  5
2AD3A
331
2ACFF
  5
2AD03
331
2ADAC
  5
2ADB0
331
2AEA8
  5
2AEAE
331
2AE2A
  5
2AE2E
331
2AE71
  5
2AE7D
331
2AEB0
  5
2AEB4
331
2AE32
  5
2AE36
331
2AEEF
  5
2AEF3
331
2AF26
  5
2AF30
331
2AF65
  5
2AF70
331
2AFF4
  5
2AFFC
331
2AC13
  5
2AC17
331
2AEF7
  5
2AEFB
331
2AE81
  5
2AE85
331
2AE3A
  5
2AE3E
331
2AEB8
  5
2AEBC
331
2AF2E
  5
2AF36
331
2AF6D
  5
2AF75
331
2AFFC
  5
2B174
331
29B8D
  5
29B91
331
2A36C
  5
2A37D
331
2AC1B
  5
2AC1F
331
2AEFF
  5
2AF04
331
2AE42
  5
2AE46
331
2AF36
  5
2AF3E
331
2AF75
  5
2AF7D
331
2A374
  5
2A3EF
331
2AF3E
  5
2AF46
331
2A37C
  5
2A3F7
331
2AC23
  5
2AC27
331
2ACC0
  5
2ACC4
331
2AC89
  5
2AC8D
331
2AC4A
  5
2AC4E
331
2ADF3
  5
2ADF7
331
2AD7D
  5
2AD81
331
2AD3E
  5
2AD42
331
2AD07
  5
2AD0B
331
2ACC8
  5
2ACCC
331
2AC52
  5
2AC56
331
2AC91
  5
2AC95
331
2ADB4
  5
2ADB8
331
2ADBC
  5
2ADC0
331
2AD85
  5
2AD89
331
2AD0F
  5
2AD13
331
2ACD0
  5
2ACD4
331
2AC99
  5
2AC9D
331
2AC5A
  5
2AC5E
331
2AD46
  5
2AD4A
331
2ADFB
  5
2ADFF
331
2AE03
  5
2AE07
331
2ADC4
  5
2ADC8
331
2AD4E
  5
2AD52
331
2ACD8
  5
2ACDC
331
2AC62
  5
2AC66
331
2AD17
  5
2AD1B
331
2AD8D
  5
2AD91
331
2AD56
  5
2AD5A
331
2ADCC
  5
2ADD0
331
2AE89
  5
2AE8D
331
2AE0B
  5
2AE0F
331
2AE4A
  5
2AE4E
331
2AED0
  5
2AED4
331
2AE52
  5
2AE56
331
2AE13
  5
2AE17
331
2AF07
  5
2AF0B
331
2AF46
  5
2AF4E
331
2AF7D
  5
2AF85
331
2AE5A
  5
2AE5E
331
2AE1B
  5
2AE1F
331
2AE99
  5
2AE9F
331
2AF4E
  5
2AF56
331
2AF85
  5
2AF8D
331
29B3E
  5
24DC2
331
2AF56
  5
2AF5E
331
2AE62
  5
2AE72
331
2AE23
  5
2AE27
331
2AEA1
  5
2AEA5
331
2AEE0
  5
2AEE4
331
2AF8D
  5
2AFF4
331
2B0AC
  5
2B176
331
2A355
  5
2A366
331
2AC04
  5
2AC08
331
2A35D
  5
2A36E
331
2AF1F
  5
2AF27
331
2AF5E
  5
2AF66
331
27C67
  5
29B3F
331
29B76
  5
29B81
331
2B123
  5
2B1B9
331
2A365
  5
2A377
331
29B86
  5
29B8A
331
2AC0C
  5
2AC10
331
2ACA1
  5
2ACA5
331
2AC6A
  5
2AC6E
331
2AC2B
  5
2AC2F
331
2ACE0
  5
2ACE4
331
2ADD4
  5
2ADD8
331
2AD5E
  5
2AD62
331
2AD1F
  5
2AD23
331
2ACE8
  5
2ACEC
331
2ACA9
  5
2ACAD
331
2AC33
  5
2AC37
331
2AC72
  5
2AC76
331
2AD95
  5
2AD99
331
2ADDC
  5
2ADE0
331
2AD9D
  5
2ADA1
331
2AD66
  5
2AD6A
331
2ACF0
  5
2ACF4
331
2ACB1
  5
2ACB5
331
2AC7A
  5
2AC7E
331
2AC3B
  5
2AC3F
331
2AD27
  5
2AD2B
331
2ADE4
  5
2ADE8
331
2AD6E
  5
2AD72
331
2ACF8
  5
2ACFC
331
2ACB9
  5
2ACBD
331
2AC82
  5
2AC86
331
2AC43
  5
2AC47
331
2AD2F
  5
2AD33
331
2ADA5
  5
2ADA9
331
2ADEC
  5
2ADF0
331
2AD76
  5
2AD7A
331
2AD37
  5
2AD3B
331
2ADAD
  5
2ADB1
331
2AEE8
  5
2AEEC
331
2AEA9
  5
2AEAF
331
2AE72
  5
2AE7E
331
2AE2B
  5
2AE2F
331
2AF66
  5
2AF71
331
2AEB1
  5
2AEB5
331
2AE33
  5
2AE37
331
2AEF0
  5
2AEF4
331
2AF27
  5
2AF31
331
2AFF5
  5
2B05F
331
2B0C4
  5
2B197
331
2AC14
  5
2AC18
331
2AEF8
  5
2AEFC
331
2AEB9
  5
2AEBD
331
2AE3B
  5
2AE3F
331
2AE82
  5
2AE86
331
2AF2F
  5
2AF37
331
2AF6E
  5
2AF76
331
29B8E
  5
2A16A
331
2A36D
  5
2A37E
331
2B173
  5
24DBD
331
2AC1C
  5
2AC20
331
2AE43
  5
2AE47
331
2AF37
  5
2AF3F
331
2AF76
  5
2AF7E
331
2B0DC
  5
2B198
331
2A375
  5
2A3F0
331
2AF3F
  5
2AF47
331
2A37D
  5
2A77A
331
2AC24
  5
2AC28
331
29B27
  5
29B83
331
2AD00
  5
2AD04
331
2AC8A
  5
2AC8E
331
2AC4B
  5
2AC4F
331
2ACC1
  5
2ACC5
331
2ADF4
  5
2ADF8
331
2ADB5
  5
2ADB9
331
2AD3F
  5
2AD43
331
2AD08
  5
2AD0C
331
2ACC9
  5
2ACCD
331
2AC92
  5
2AC96
331
2AC53
  5
2AC57
331
2AD7E
  5
2AD82
331
2ADBD
  5
2ADC1
331
2AD86
  5
2AD8A
331
2AD47
  5
2AD4B
331
2ACD1
  5
2ACD5
331
2AC9A
  5
2AC9E
331
2AC5B
  5
2AC5F
331
2AD10
  5
2AD14
331
2ADFC
  5
2AE00
331
2AE04
  5
2AE08
331
2ADC5
  5
2ADC9
331
2ACD9
  5
2ACDD
331
2AC63
  5
2AC67
331
2AD4F
  5
2AD53
331
2AD8E
  5
2AD92
331
2AD57
  5
2AD5B
331
2ADCD
  5
2ADD1
331
2AE8A
  5
2AE8E
331
2AE4B
  5
2AE4F
331
2AE0C
  5
2AE10
331
2AF08
  5
2AF0C
331
2AE92
  5
2AE96
331
2AE53
  5
2AE57
331
2AE14
  5
2AE18
331
2AED1
  5
2AED5
331
2AF47
  5
2AF4F
331
2AF7E
  5
2AF86
331
2AE5B
  5
2AE5F
331
2AE1C
  5
2AE20
331
2AF4F
  5
2AF57
331
2AF86
  5
2AF8E
331
29B3F
  5
24DBB
331
2AEA2
  5
2AEA6
331
2AE24
  5
2AE28
331
2AE63
  5
2AE73
331
2AEE1
  5
2AEE5
331
2AF18
  5
2AF20
331
2AF57
  5
2AF5F
331
2AF8E
  5
2AFF5
331
2A356
  5
2A367
331
2A35E
  5
2A36F
331
2AF5F
  5
2AF67
331
29B77
  5
29B76
331
2AC05
  5
2AC09
331
2AC0D
  5
2AC11
331
29B87
  5
29B8B
331
2A366
  5
2A378
331
2AD18
  5
2AD1C
331
2ACE1
  5
2ACE5
331
2AC6B
  5
2AC6F
331
2AC2C
  5
2AC30
331
2ACA2
  5
2ACA6
331
2ADD5
  5
2ADD9
331
2AD96
  5
2AD9A
331
2AD20
  5
2AD24
331
2ACE9
  5
2ACED
331
2ACAA
  5
2ACAE
331
2AC34
  5
2AC38
331
2AC73
  5
2AC77
331
2AD5F
  5
2AD63
331
2AD9E
  5
2ADA2
331
2AD67
  5
2AD6B
331
2ACF1
  5
2ACF5
331
2ACB2
  5
2ACB6
331
2AC7B
  5
2AC7F
331
2AC3C
  5
2AC40
331
2AD28
  5
2AD2C
331
2ADDD
  5
2ADE1
331
2ADE5
  5
2ADE9
331
2AD6F
  5
2AD73
331
2AD30
  5
2AD34
331
2ACBA
  5
2ACBE
331
2AC83
  5
2AC87
331
2AC44
  5
2AC48
331
2ACF9
  5
2ACFD
331
2ADA6
  5
2ADAA
331
2ADED
  5
2ADF1
331
2AD77
  5
2AD7B
331
2ADAE
  5
2ADB2
331
2AEE9
  5
2AEED
331
2AE73
  5
2AE7F
331
2AE2C
  5
2AE30
331
2AF20
  5
2AF28
331
2AF28
  5
2AF32
331
2AEB2
  5
2AEB6
331
2AE34
  5
2AE38
331
2AEF1
  5
2AEF5
331
2AF67
  5
2AF72
331
2AFF6
  5
2B0AC
331
2AC15
  5
2AC19
331
2AEF9
  5
2AEFD
331
2AEBA
  5
2AEBE
331
2AE3C
  5
2AE40
331
2AE83
  5
2AE87
331
2AF30
  5
2AF38
331
2AF6F
  5
2AF77
331
29B8F
  5
2A16B
331
2A36E
  5
2A37F
331
2B174
  5
108F
331
2AC1D
  5
2AC21
331
2AE44
  5
2AE48
331
2AF38
  5
2AF40
331
2AF77
  5
2AF7F
331
2A376
  5
2A3F1
331
2AC25
  5
2AC29
331
2A37E
  5
2A77B
331
2AD38
  5
2AD3C
331
2AD01
  5
2AD05
331
2ACC2
  5
2ACC6
331
2AC4C
  5
2AC50
331
2AC8B
  5
2AC8F
331
2ADF5
  5
2ADF9
331
2ADB6
  5
2ADBA
331
2AD7F
  5
2AD83
331
2AD09
  5
2AD0D
331
2ACCA
  5
2ACCE
331
2AC93
  5
2AC97
331
2AC54
  5
2AC58
331
2AD40
  5
2AD44
331
2ADFD
  5
2AE01
331
2AD87
  5
2AD8B
331
2AD48
  5
2AD4C
331
2ACD2
  5
2ACD6
331
2AC9B
  5
2AC9F
331
2AC5C
  5
2AC60
331
2AD11
  5
2AD15
331
2ADBE
  5
2ADC2
331
2AE05
  5
2AE09
331
2ADC6
  5
2ADCA
331
2AD50
  5
2AD54
331
2AC64
  5
2AC68
331
2ACDA
  5
2ACDE
331
2AD8F
  5
2AD93
331
2ADCE
  5
2ADD2
331
2AE8B
  5
2AE8F
331
2AE4C
  5
2AE50
331
2AE0D
  5
2AE11
331
2AF01
  5
2AF06
331
2AF40
  5
2AF48
331
2AF09
  5
2AF13
331
2AE93
  5
2AE97
331
2AE54
  5
2AE58
331
2AE15
  5
2AE19
331
2AED2
  5
2AED6
331
2AF48
  5
2AF50
331
2AF7F
  5
2AF87
331
1581D
  5
29B3D
331
2AE9B
  5
2AEA1
331
2AE1D
  5
2AE21
331
2AE5C
  5
2AE60
331
2AEDA
  5
2AEDE
331
2AF50
  5
2AF58
331
2AF87
  5
2AF8F
331
29B58
  5
29B85
331
2AEA3
  5
2AEA7
331
2AE64
  5
2AE74
331
2AE25
  5
2AE29
331
2AEE2
  5
2AEE6
331
2AF19
  5
2AF21
331
2AF58
  5
2AF60
331
2AF8F
  5
2AFF6
331
2A357
  5
2A368
331
2AC06
  5
2AC0A
331
2A35F
  5
2A370
331
2AC0E
  5
2AC12
331
2A367
  5
2A379
331
2AD58
  5
2AD5C
331
2AD19
  5
2AD1D
331
2ACE2
  5
2ACE6
331
2ACA3
  5
2ACA7
331
2AC2D
  5
2AC31
331
2AC6C
  5
2AC70
331
2ADD6
  5
2ADDA
331
2AD97
  5
2AD9B
331
2AD60
  5
2AD64
331
2ACEA
  5
2ACEE
331
2ACAB
  5
2ACAF
331
2AC74
  5
2AC78
331
2AC35
  5
2AC39
331
2AD21
  5
2AD25
331
2ADDE
  5
2ADE2
331
2AD68
  5
2AD6C
331
2AD29
  5
2AD2D
331
2ACB3
  5
2ACB7
331
2AC7C
  5
2AC80
331
2AC3D
  5
2AC41
331
2ACF2
  5
2ACF6
331
2AD9F
  5
2ADA3
331
2ADE6
  5
2ADEA
331
2AD70
  5
2AD74
331
2AD31
  5
2AD35
331
2ACFA
  5
2ACFE
331
2AC84
  5
2AC88
331
2AC45
  5
2AC49
331
2ACBB
  5
2ACBF
331
2ADA7
  5
2ADAB
331
2ADEE
  5
2ADF2
331
2ADAF
  5
2ADB3
331
2AE74
  5
2AE80
331
2AE2D
  5
2AE31
331
2AEEA
  5
2AEEE
331
2AF21
  5
2AF29
331
2AF60
  5
2AF68
331
108D
  5
29563
331
2AF29
  5
2AF33
331
2AEF2
  5
2AEF6
331
2AE35
  5
2AE39
331
2AEB3
  5
2AEB7
331
2AF68
  5
2AF73
331
2AFF7
  5
2B0C4
331
29B88
  5
29B8C
331
2AC16
  5
2AC1A
331
2AEBB
  5
2AEBF
331
2AE84
  5
2AE88
331
2AE3D
  5
2AE41
331
2AEFA
  5
2AEFE
331
2AF31
  5
2AF39
331
2AF70
  5
2AF78
331
29B90
  5
2A16C
331
2A36F
  5
2A380
331
2B175
  5
24DC1
331
2A377
  5
2A3F2
331
2AE45
  5
2AE49
331
2AF39
  5
2AF41
331
2B05F
  5
2B175
331
2A158
  5
2A35E
331
2AC1E
  5
2AC22
331
2AC26
  5
2AC2A
331
2A37F
  5
2AC03
331
2AD39
  5
2AD3D
331
2AD02
  5
2AD06
331
2ACC3
  5
2ACC7
331
2AC4D
  5
2AC51
331
2AC8C
  5
2AC90
331
2AD78
  5
2AD7C
331
2ADB7
  5
2ADBB
331
2AD80
  5
2AD84
331
2AD0A
  5
2AD0E
331
2ACCB
  5
2ACCF
331
2AC94
  5
2AC98
331
2AC55
  5
2AC59
331
2AD41
  5
2AD45
331
2ADF6
  5
2ADFA
331
2ADFE
  5
2AE02
331
2ADBF
  5
2ADC3
331
2AD49
  5
2AD4D
331
2AD12
  5
2AD16
331
2ACD3
  5
2ACD7
331
2AC5D
  5
2AC61
331
2AC9C
  5
2ACA0
331
2AD88
  5
2AD8C
331
2AE06
  5
2AE0A
331
2ADC7
  5
2ADCB
331
2AD51
  5
2AD55
331
2AC65
  5
2AC69
331
2ACDB
  5
2ACDF
331
2ADCF
  5
2ADD3
331
2AE8C
  5
2AE90
331
2AE4D
  5
2AE51
331
2AE0E
  5
2AE12
331
2AF02
  5
2AF07
331
2AF41
  5
2AF49
331
2AF78
  5
2AF80
331
2AF0A
  5
2AF14
331
2AED3
  5
2AED7
331
2AE55
  5
2AE59
331
2AE16
  5
2AE1A
331
2AE94
  5
2AE98
331
2AF49
  5
2AF51
331
2AF80
  5
2AF88
331
2AE9C
  5
2AEA2
331
2AE5D
  5
2AE61
331
2AE1E
  5
2AE22
331
2AEDB
  5
2AEDF
331
2AF51
  5
2AF59
331
2AF88
  5
2AF90
331
29B59
  5
29B84
331
2AEA4
  5
2AEA8
331
2AE26
  5
2AE2A
331
2AEE3
  5
2AEE7
331
2AF1A
  5
2AF22
331
2AF59
  5
2AF61
331
2AF90
  5
2AFF7
331
2A358
  5
2A369
331
2AC07
  5
2AC0B
331
29B81
  5
29B86
331
2A360
  5
2A371
331
2AC0F
  5
2AC13
331
2AD90
  5
2AD94
331
2AD1A
  5
2AD1E
331
2ACE3
  5
2ACE7
331
2ACA4
  5
2ACA8
331
2AC2E
  5
2AC32
331
2AC6D
  5
2AC71
331
2AD59
  5
2AD5D
331
2AD98
  5
2AD9C
331
2AD61
  5
2AD65
331
2ACEB
  5
2ACEF
331
2ACAC
  5
2ACB0
331
2AC75
  5
2AC79
331
2AC36
  5
2AC3A
331
2AD22
  5
2AD26
331
2ADD7
  5
2ADDB
331
2ADDF
  5
2ADE3
331
2AD69
  5
2AD6D
331
2AD2A
  5
2AD2E
331
2ACF3
  5
2ACF7
331
2AC7D
  5
2AC81
331
2AC3E
  5
2AC42
331
2ACB4
  5
2ACB8
331
2ADA0
  5
2ADA4
331
2ADE7
  5
2ADEB
331
2AD71
  5
2AD75
331
2AD32
  5
2AD36
331
2ACFB
  5
2ACFF
331
2ACBC
  5
2ACC0
331
2AC46
  5
2AC4A
331
2AC85
  5
2AC89
331
2ADA8
  5
2ADAC
331
2ADEF
  5
2ADF3
331
2AEAC
  5
2AEB0
331
2AE2E
  5
2AE32
331
2AEEB
  5
2AEEF
331
2AF22
  5
2AF2C
331
2AF61
  5
2AF69
331
29B89
  5
29B8D
331
2AEF3
  5
2AEF7
331
2AEB4
  5
2AEB8
331
2AE36
  5
2AE3A
331
2AE7D
  5
2AE81
331
2AF69
  5
2AF74
331
2AFF8
  5
2B0DC
331
2AC17
  5
2AC1B
331
2A370
  5
2A3C7
331
2AEBC
  5
2AEC4
331
2AE85
  5
2AE89
331
2AE3E
  5
2AE42
331
2AEFB
  5
2AEFF
331
2AF32
  5
2AF3A
331
2AF71
  5
2AF79
331
29B91
  5
2A16D
331
2B176
  5
24DB9
331
2AC1F
  5
2AC23
331
2AE46
  5
2AE4A
331
2AEC4
  5
2AECF
331
2AF3A
  5
2AF42
331
2A159
  5
2A35F
331
2A378
  5
2A3F3
331
2AC27
  5
2AC2B
331
2A380
  5
2AC04
331
2ADB0
  5
2ADB4
331
2AD79
  5
2AD7D
331
2AD03
  5
2AD07
331
2ACC4
  5
2ACC8
331
2AC8D
  5
2AC91
331
2AC4E
  5
2AC52
331
2AD3A
  5
2AD3E
331
2ADF7
  5
2ADFB
331
2AD81
  5
2AD85
331
2AD42
  5
2AD46
331
2ACCC
  5
2ACD0
331
2AC95
  5
2AC99
331
2AC56
  5
2AC5A
331
2AD0B
  5
2AD0F
331
2ADB8
  5
2ADBC
331
2ADFF
  5
2AE03
331
2ADC0
  5
2ADC4
331
2AD4A
  5
2AD4E
331
2AD13
  5
2AD17
331
2ACD4
  5
2ACD8
331
2AC5E
  5
2AC62
331
2AC9D
  5
2ACA1
331
2AD89
  5
2AD8D
331
2AD52
  5
2AD56
331
2AC66
  5
2AC6A
331
2ACDC
  5
2ACE0
331
2ADC8
  5
2ADCC
331
2AE07
  5
2AE0B
331
2AE8D
  5
2AE92
331
2AE4E
  5
2AE52
331
2AE0F
  5
2AE13
331
2AF03
  5
2AF08
331
2AF42
  5
2AF4A
331
2AF79
  5
2AF81
331
2AF0B
  5
2AF15
331
2AED4
  5
2AEDA
331
2AE95
  5
2AE99
331
2AE17
  5
2AE1B
331
2AE56
  5
2AE5A
331
2AF4A
  5
2AF52
331
2AF81
  5
2AF89
331
2A351
  5
2A362
331
2AE5E
  5
2AE62
331
2AE1F
  5
2AE23
331
2AEDC
  5
2AEE0
331
2AF13
  5
2AF1C
331
2AF52
  5
2AF5A
331
2AF89
  5
2AF91
331
29B5A
  5
29B74
331
2AEA5
  5
2AEA9
331
2AE27
  5
2AE2B
331
2AEE4
  5
2AEE8
331
2AF1B
  5
2AF23
331
2AF5A
  5
2AF62
331
2AF91
  5
2AFF8
331
2A359
  5
2A36A
331
2AC08
  5
2AC0C
331
2A361
  5
2A372
331
2ADD0
  5
2ADD4
331
2AD91
  5
2AD95
331
2AD1B
  5
2AD1F
331
2ACE4
  5
2ACE8
331
2ACA5
  5
2ACA9
331
2AC6E
  5
2AC72
331
2AC2F
  5
2AC33
331
2AD5A
  5
2AD5E
331
2ADD8
  5
2ADDC
331
2AD62
  5
2AD66
331
2AD23
  5
2AD27
331
2ACAD
  5
2ACB1
331
2AC76
  5
2AC7A
331
2AC37
  5
2AC3B
331
2ACEC
  5
2ACF0
331
2AD99
  5
2AD9D
331
2ADE0
  5
2ADE4
331
2AD6A
  5
2AD6E
331
2AD2B
  5
2AD2F
331
2ACF4
  5
2ACF8
331
2ACB5
  5
2ACB9
331
2AC3F
  5
2AC43
331
2AC7E
  5
2AC82
331
2ADA1
  5
2ADA5
331
2ADE8
  5
2ADEC
331
2ADA9
  5
2ADAD
331
2AD33
  5
2AD37
331
2ACFC
  5
2AD00
331
2ACBD
  5
2ACC1
331
2AC47
  5
2AC4B
331
2AC86
  5
2AC8A
331
2AD72
  5
2AD76
331
2AEEC
  5
2AEF0
331
2AE2F
  5
2AE33
331
2AEAD
  5
2AEB1
331
2AF23
  5
2AF2D
331
2AF62
  5
2AF6D
331
108F
  5
29564
331
2AC10
  5
2AC14
331
2AEB5
  5
2AEB9
331
2AE7E
  5
2AE82
331
2AE37
  5
2AE3B
331
2AEF4
  5
2AEF8
331
2AFF9
  5
2B123
331
29B8A
  5
29B8E
331
2A369
  5
2A37A
331
2A371
  5
2A3EC
331
2AEBD
  5
2AEC6
331
2AE86
  5
2AE8A
331
2AE3F
  5
2AE43
331
2AEFC
  5
2AF01
331
2AF33
  5
2AF3B
331
2AF72
  5
2AF7A
331
29A83
  5
29B40
331
2AC18
  5
2AC1C
331
2AC20
  5
2AC24
331
2A379
  5
2A3F4
331
2A15A
  5
2A360
331
2AE47
  5
2AE4B
331
2AF3B
  5
2AF43
331
29ABB
  5
29B5A
331
2ADB1
  5
2ADB5
331
2AD7A
  5
2AD7E
331
2AD04
  5
2AD08
331
2ACC5
  5
2ACC9
331
2AC8E
  5
2AC92
331
2AC4F
  5
2AC53
331
2AD3B
  5
2AD3F
331
2ADF0
  5
2ADF4
331
2ADF8
  5
2ADFC
331
2AD82
  5
2AD86
331
2AD43
  5
2AD47
331
2AD0C
  5
2AD10
331
2AC96
  5
2AC9A
331
2AC57
  5
2AC5B
331
2ACCD
  5
2ACD1
331
2ADB9
  5
2ADBD
331
2AE00
  5
2AE04
331
2ADC1
  5
2ADC5
331
2AD4B
  5
2AD4F
331
2AD14
  5
2AD18
331
2ACD5
  5
2ACD9
331
2AC9E
  5
2ACA2
331
2AC5F
  5
2AC63
331
2AD8A
  5
2AD8E
331
2ADC9
  5
2ADCD
331
2ACDD
  5
2ACE1
331
2AC67
  5
2AC6B
331
2AD53
  5
2AD57
331
2AE08
  5
2AE0C
331
2AF04
  5
2AF09
331
2AE4F
  5
2AE53
331
2AE10
  5
2AE14
331
2AE8E
  5
2AE93
331
2AF43
  5
2AF4B
331
2AF7A
  5
2AF82
331
2AED5
  5
2AEDB
331
2AE57
  5
2AE5B
331
2AE18
  5
2AE1C
331
2AF0C
  5
2AF16
331
2AF4B
  5
2AF53
331
2AF82
  5
2AF8A
331
2A352
  5
2A363
331
2AE9E
  5
2AEA3
331
2AE5F
  5
2AE63
331
2AE20
  5
2AE24
331
2AEDD
  5
2AEE1
331
2AF14
  5
2AF1D
331
2AF53
  5
2AF5B
331
2AF8A
  5
2AF92
331
29B5B
  5
29B5C
331
2AEA6
  5
2AEAC
331
2AEE5
  5
2AEE9
331
2AF1C
  5
2AF24
331
2AF5B
  5
2AF63
331
2AF92
  5
2AFF9
331
2A35A
  5
2A36B
331
2AC09
  5
2AC0D
331
29B83
  5
29B87
331
2A362
  5
2A373
331
2AC28
  5
2AC2C
331
2AD92
  5
2AD96
331
2AD5B
  5
2AD5F
331
2ACE5
  5
2ACE9
331
2ACA6
  5
2ACAA
331
2AC6F
  5
2AC73
331
2AC30
  5
2AC34
331
2AD1C
  5
2AD20
331
2ADD1
  5
2ADD5
331
2ADD9
  5
2ADDD
331
2AD63
  5
2AD67
331
2AD24
  5
2AD28
331
2ACED
  5
2ACF1
331
2AC77
  5
2AC7B
331
2AC38
  5
2AC3C
331
2ACAE
  5
2ACB2
331
2AD9A
  5
2AD9E
331
2ADE1
  5
2ADE5
331
2ADA2
  5
2ADA6
331
2AD2C
  5
2AD30
331
2ACF5
  5
2ACF9
331
2ACB6
  5
2ACBA
331
2AC40
  5
2AC44
331
2AC7F
  5
2AC83
331
2AD6B
  5
2AD6F
331
2ADE9
  5
2ADED
331
2ADAA
  5
2ADAE
331
2AD34
  5
2AD38
331
2ACFD
  5
2AD01
331
2ACBE
  5
2ACC2
331
2AC87
  5
2AC8B
331
2AD73
  5
2AD77
331
2AE28
  5
2AE2C
331
2AEED
  5
2AEF1
331
2AE30
  5
2AE34
331
2AEAE
  5
2AEB2
331
2AF24
  5
2AF2E
331
2AF63
  5
2AF6E
331
2AFF2
  5
2AFFA
331
1090
  5
29B3C
331
2AC11
  5
2AC15
331
2A36A
  5
2A37B
331
2AEB6
  5
2AEBA
331
2AE7F
  5
2AE83
331
2AE38
  5
2AE3C
331
2AEF5
  5
2AEF9
331
2AF2C
  5
2AF34
331
2AFFA
  5
2B15A
331
29B8B
  5
29B8F
331
2AC19
  5
2AC1D
331
2AEFD
  5
2AF02
331
2AE87
  5
2AE8B
331
2AE40
  5
2AE44
331
2AEBE
  5
2AEC7
331
2AF34
  5
2AF3C
331
2AF73
  5
2AF7B
331
2A372
  5
2A3ED
  0
SORTENTSTABLE
  5
29D1
102
{ACAD_REACTORS
330
29CF
102
}
330
29CF
100
AcDbSortentsTable
330
341
  0
DIMASSOC
  5
2B076
102
{ACAD_REACTORS
330
2B06C
102
}
330
2B06C
100
AcDbDimAssoc
330
2B05F
 90
        3
 70
     0
 71
     0
  1
AcDbOsnapPointRef
 72
     1
331
2AE87
 73
     2
 91
        0
 40
1.570796326794896
 10
0.0
 20
0.0
 30
2.000000000000000E+50
 75
     0
  1
AcDbOsnapPointRef
 72
     8
331
2AE84
 73
     2
 91
        0
 40
1.0
 10
0.0
 20
0.0
 30
0.0
 75
     1
  1
AcDbOsnapPointRef
 72
     1
331
2AE87
 73
     2
 91
        0
 40
1.570796326794896
 10
0.0
 20
0.0
 30
2.000000000000000E+50
 75
     0
  0
DIMASSOC
  5
2B0C3
102
{ACAD_REACTORS
330
2B0B9
102
}
330
2B0B9
100
AcDbDimAssoc
330
2B0AC
 90
        3
 70
     0
 71
     0
  1
AcDbOsnapPointRef
 72
     1
331
2AEDA
 73
     2
 91
        0
 40
1.0
 10
0.0
 20
0.0
 30
2.000000000000000E+50
 75
     0
  1
AcDbOsnapPointRef
 72
    13
331
2AF02
 73
     2
 91
        0
 40
0.0
 10
0.0
 20
0.0
 30
2.000000000000000E+50
 75
     0
  0
DIMASSOC
  5
2B0DB
102
{ACAD_REACTORS
330
2B0D1
102
}
330
2B0D1
100
AcDbDimAssoc
330
2B0C4
 90
        3
 70
     0
 71
     0
  1
AcDbOsnapPointRef
 72
    13
331
2AEE6
 73
     2
 91
        0
 40
0.0
 10
0.0
 20
0.0
 30
2.000000000000000E+50
 75
     0
  1
AcDbOsnapPointRef
 72
     1
331
2AF0C
 73
     2
 91
        0
 40
1.0
 10
0.0
 20
0.0
 30
2.000000000000000E+50
 75
     0
  0
DIMASSOC
  5
2B0F3
102
{ACAD_REACTORS
330
2B0E9
102
}
330
2B0E9
100
AcDbDimAssoc
330
2B0DC
 90
        3
 70
     0
 71
     0
  1
AcDbOsnapPointRef
 72
     1
331
2AEE4
 73
     2
 91
        0
 40
4.712388980384689
 10
0.0
 20
0.0
 30
2.000000000000000E+50
 75
     0
  1
AcDbOsnapPointRef
 72
    13
331
2AF40
 73
     2
 91
        0
 40
1.570796326794896
 10
0.0
 20
0.0
 30
2.000000000000000E+50
 75
     0
  0
ACDBDETAILVIEWSTYLE
  5
2B225
102
{ACAD_XDICTIONARY
360
2B24D
102
}
102
{ACAD_REACTORS
330
2B224
102
}
330
2B224
100
AcDbModelDocViewStyle
 70
     0
  3
Metric50
290
     0
100
AcDbDetailViewStyle
 70
     0
 71
     0
 90
        3
 71
     1
340
11
 62
   256
 40
5.0
340
0
 62
   256
 40
5.0
300

 40
0.0
280
     1
 71
     2
340
16
 90
       25
 62
   256
 71
     3
340
11
 62
   256
 40
5.0
 90
        0
 40
15.0
 90
        1
300
%<\AcVar ViewDetailId>% (%<\AcVar ViewScale \f "%sn">%)
 71
     4
340
16
 90
       25
 62
   256
340
16
 90
       25
 62
   256
280
     0
  0
GROUP
  5
29F6
102
{ACAD_REACTORS
330
D
102
}
330
D
100
AcDbGroup
300

 70
     1
 71
     1
340
29CE
340
29CD
340
29CC
340
29CB
340
29CA
340
29C9
340
29C8
340
29C7
340
29C6
340
29C5
340
29C4
340
29C3
340
29C2
340
29C1
340
29C0
340
29BF
340
29BE
340
29BD
340
29BC
340
29BB
340
29BA
340
29B9
340
29B8
340
29B7
  0
LAYOUT
  5
22
102
{ACAD_XDICTIONARY
360
24E2E
102
}
102
{ACAD_REACTORS
330
1A
102
}
330
1A
100
AcDbPlotSettings
  1

  2
Canon TS8130 series
  4
A4
  6

 40
4.180416584014892
 41
5.831417560577392
 42
4.180404663085937
 43
3.757080078125
 44
209.9733276367187
 45
296.9683227539062
 46
-0.0062006872036022
 47
1.756521382387688
 48
4.0
 49
2.0
140
82.0
141
57.4
142
1.0
143
1.374
 70
  3748
 72
     1
 73
     1
 74
     1
  7
monochrome.ctb
 75
     0
147
0.7277572728131227
 76
     1
 77
     2
 78
   300
148
-19.98230080583869
149
-9.983689057621745
100
AcDbLayout
  1
Model
 70
     1
 71
     0
 10
0.0
 20
0.0
 11
12.0
 21
9.0
 12
0.0
 22
0.0
 32
0.0
 14
0.0
 24
0.0
 34
0.0
 15
0.0
 25
0.0
 35
0.0
146
0.0
 13
0.0
 23
0.0
 33
0.0
 16
1.0
 26
0.0
 36
0.0
 17
0.0
 27
1.0
 37
0.0
 76
     0
330
1F
331
275F
1001
ACAD_PSEXT
1000
Canon TS8130 series
1000
Canon TS8130 series
1000
USB001
1000

1070
     0
  0
LAYOUT
  5
51
102
{ACAD_XDICTIONARY
360
2E30
102
}
102
{ACAD_REACTORS
330
1A
102
}
330
1A
100
AcDbPlotSettings
  1

  2
\\KASHIKEI2\EPSON PX-1001
  4
A3
  6

 40
3.757083415985107
 41
3.757076740264892
 42
3.757080078125
 43
3.757080078125
 44
296.9683227539062
 45
420.0172119140624
 46
0.0
 47
0.0
 48
0.0
 49
0.0
140
0.0
141
0.0
142
1.0
143
1.0
 70
   672
 72
     1
 73
     1
 74
     5
  7
monochrome.ctb
 75
    16
147
1.0
 76
     1
 77
     2
 78
   300
148
0.0
149
0.0
100
AcDbLayout
  1
ﾚｲｱｳﾄ1
 70
     1
 71
     1
 10
-3.757080078125
 20
-3.757083415985107
 11
416.2601318359374
 21
293.2112393379211
 12
0.0
 22
0.0
 32
0.0
 14
-58.82240024691737
 24
-86.72323328256494
 34
0.0
 15
448.1718497119468
 25
324.5569721112054
 35
0.0
146
0.0
 13
0.0
 23
0.0
 33
0.0
 16
1.0
 26
0.0
 36
0.0
 17
0.0
 27
1.0
 37
0.0
 76
     0
330
50
331
6B
1001
ACAD_PSEXT
1000
\\KASHIKEI2\EPSON PX-1001
1000
EPSON PX-1001
1000
\\KASHIKEI2
1000

1070
     0
  0
LAYOUT
  5
56
102
{ACAD_REACTORS
330
1A
102
}
330
1A
100
AcDbPlotSettings
  1

  2
none_device
  4
Letter_(8.50_x_11.00_Inches)
  6

 40
6.349999904632567
 41
6.349999904632567
 42
6.350006103515625
 43
6.350006103515625
 44
215.8999938964843
 45
279.3999938964843
 46
0.0
 47
0.0
 48
0.0
 49
0.0
140
0.0
141
0.0
142
1.0
143
1.0
 70
   688
 72
     1
 73
     1
 74
     5
  7
monochrome.ctb
 75
    16
147
1.0
 76
     0
 77
     2
 78
   300
148
0.0
149
0.0
100
AcDbLayout
  1
ﾚｲｱｳﾄ2
 70
     1
 71
     2
 10
-6.350006103515625
 20
-6.349999904632567
 11
273.0499877929687
 21
209.5499939918517
 12
0.0
 22
0.0
 32
0.0
 14
26.66076962115562
 24
20.31135699206657
 34
-0.0015258207003583
 15
240.039213369355
 25
182.8886381005154
 35
0.0000000349246037
146
0.0
 13
0.0
 23
0.0
 33
0.0
 16
1.0
 26
0.0
 36
0.0
 17
0.0
 27
1.0
 37
0.0
 76
     0
330
55
331
71
  0
MATERIAL
  5
2763
102
{ACAD_REACTORS
330
2761
102
}
330
2761
100
AcDbMaterial
  1
ByBlock
 73
     1
 78
     1
172
     1
176
     1
270
     1
274
     1
 94
       63
  0
MATERIAL
  5
2762
102
{ACAD_REACTORS
330
2761
102
}
330
2761
100
AcDbMaterial
  1
ByLayer
 73
     1
 78
     1
172
     1
176
     1
270
     1
274
     1
 94
       63
  0
MATERIAL
  5
2764
102
{ACAD_REACTORS
330
2761
102
}
330
2761
100
AcDbMaterial
  1
Global
 73
     1
 78
     1
172
     1
176
     1
270
     1
274
     1
 94
       63
  0
MLEADERSTYLE
  5
247F2
102
{ACAD_REACTORS
330
247F1
102
}
330
247F1
100
AcDbMLeaderStyle
179
     2
170
     2
171
     1
172
     0
 90
        2
 40
0.0
 41
0.0
173
     1
 91
-1056964608
340
14
 92
       -2
290
     1
 42
2.0
291
     1
 43
0.36
  3
Standard
 44
4.0
300

342
11
174
     1
178
     6
175
     1
176
     0
 93
-1056964608
 45
4.0
292
     0
297
     0
 46
4.0
 94
-1056964608
 47
1.0
 49
1.0
140
1.0
293
     1
141
0.0
294
     1
177
     0
142
1.0
295
     1
296
     0
143
0.125
271
     0
272
     9
273
     9
298
     0
  0
MLINESTYLE
  5
18
102
{ACAD_REACTORS
330
17
102
}
330
17
100
AcDbMlineStyle
  2
STANDARD
 70
     0
  3

 62
   256
 51
90.0
 52
90.0
 71
     2
 49
0.5
 62
   256
  6
BYLAYER
 49
-0.5
 62
   256
  6
BYLAYER
  0
PLOTSETTINGS
  5
E74
102
{ACAD_REACTORS
330
19
102
}
330
19
100
AcDbPlotSettings
  1
印刷
  2
EPSON PM-930C.pc3
  4
A4
  6

 40
3.757083177566528
 41
14.7637300491333
 42
3.757080078125
 43
3.757080078125
 44
209.9733276367186
 45
296.9683227539062
 46
-3.77
 47
-9.279999999999999
 48
0.0
 49
0.0
140
0.0
141
0.0
142
1.0
143
1.0
 70
  1716
 72
     1
 73
     0
 74
     2
  7
黒.ctb
 75
    16
147
1.0
 76
     0
 77
     2
 78
   300
148
0.0
149
0.0
  0
ACDBPLACEHOLDER
  5
F
102
{ACAD_REACTORS
330
E
102
}
330
E
  0
SCALE
  5
247E0
102
{ACAD_REACTORS
330
247DF
102
}
330
247DF
100
AcDbScale
 70
     0
300
1:1
140
1.0
141
1.0
290
     1
  0
SCALE
  5
247E1
102
{ACAD_REACTORS
330
247DF
102
}
330
247DF
100
AcDbScale
 70
     0
300
1:2
140
1.0
141
2.0
290
     0
  0
SCALE
  5
247E2
102
{ACAD_REACTORS
330
247DF
102
}
330
247DF
100
AcDbScale
 70
     0
300
1:4
140
1.0
141
4.0
290
     0
  0
SCALE
  5
247E3
102
{ACAD_REACTORS
330
247DF
102
}
330
247DF
100
AcDbScale
 70
     0
300
1:5
140
1.0
141
5.0
290
     0
  0
SCALE
  5
247E4
102
{ACAD_REACTORS
330
247DF
102
}
330
247DF
100
AcDbScale
 70
     0
300
1:8
140
1.0
141
8.0
290
     0
  0
SCALE
  5
247E5
102
{ACAD_REACTORS
330
247DF
102
}
330
247DF
100
AcDbScale
 70
     0
300
1:10
140
1.0
141
10.0
290
     0
  0
SCALE
  5
247E6
102
{ACAD_REACTORS
330
247DF
102
}
330
247DF
100
AcDbScale
 70
     0
300
1:16
140
1.0
141
16.0
290
     0
  0
SCALE
  5
247E7
102
{ACAD_REACTORS
330
247DF
102
}
330
247DF
100
AcDbScale
 70
     0
300
1:20
140
1.0
141
20.0
290
     0
  0
SCALE
  5
247E8
102
{ACAD_REACTORS
330
247DF
102
}
330
247DF
100
AcDbScale
 70
     0
300
1:30
140
1.0
141
30.0
290
     0
  0
SCALE
  5
247E9
102
{ACAD_REACTORS
330
247DF
102
}
330
247DF
100
AcDbScale
 70
     0
300
1:40
140
1.0
141
40.0
290
     0
  0
SCALE
  5
247EA
102
{ACAD_REACTORS
330
247DF
102
}
330
247DF
100
AcDbScale
 70
     0
300
1:50
140
1.0
141
50.0
290
     0
  0
SCALE
  5
247EB
102
{ACAD_REACTORS
330
247DF
102
}
330
247DF
100
AcDbScale
 70
     0
300
1:100
140
1.0
141
100.0
290
     0
  0
SCALE
  5
247EC
102
{ACAD_REACTORS
330
247DF
102
}
330
247DF
100
AcDbScale
 70
     0
300
2:1
140
2.0
141
1.0
290
     0
  0
SCALE
  5
247ED
102
{ACAD_REACTORS
330
247DF
102
}
330
247DF
100
AcDbScale
 70
     0
300
4:1
140
4.0
141
1.0
290
     0
  0
SCALE
  5
247EE
102
{ACAD_REACTORS
330
247DF
102
}
330
247DF
100
AcDbScale
 70
     0
300
8:1
140
8.0
141
1.0
290
     0
  0
SCALE
  5
247EF
102
{ACAD_REACTORS
330
247DF
102
}
330
247DF
100
AcDbScale
 70
     0
300
10:1
140
10.0
141
1.0
290
     0
  0
SCALE
  5
247F0
102
{ACAD_REACTORS
330
247DF
102
}
330
247DF
100
AcDbScale
 70
     0
300
100:1
140
100.0
141
1.0
290
     0
  0
ACDBSECTIONVIEWSTYLE
  5
2B223
102
{ACAD_XDICTIONARY
360
2B24B
102
}
102
{ACAD_REACTORS
330
2B222
102
}
330
2B222
100
AcDbModelDocViewStyle
 70
     0
  3
Metric50
290
     0
100
AcDbSectionViewStyle
 70
     0
 71
     0
 90
      102
 71
     1
340
11
 62
   256
 40
5.0
340
0
340
0
 62
   256
 40
5.0
300
I, O, Q, S, X, Z
 40
10.0
 90
        0
 40
2.5
 90
        0
 71
     2
340
16
 90
       25
 62
   256
340
16
 90
       50
 62
   256
 40
5.0
 40
2.5
 40
5.0
 71
     3
340
11
 62
   256
 40
5.0
 90
        0
 40
15.0
 90
        1
300
%<\AcVar ViewSectionStartId>%-%<\AcVar ViewSectionEndId>% (%<\AcVar ViewScale \f "%sn">%)
 71
     4
 62
   256
 62
   257
300
ANSI31
 40
1.0
 90
        0
290
     0
290
     0
 90
        6
 40
0.0
 40
1.570796326794896
 40
0.2617993877991494
 40
1.308996938995747
 40
-0.2617993877991494
 40
1.832595714594046
  0
TABLESTYLE
  5
2778
102
{ACAD_XDICTIONARY
360
2B247
102
}
102
{ACAD_REACTORS
330
2777
102
}
330
2777
100
AcDbTableStyle
280
     0
  3
Standard
 70
     0
 71
     0
 40
1.5
 41
1.5
280
     0
281
     0
  7
Standard
140
4.5
170
     2
 62
     0
 63
     7
283
     0
 90
      512
 91
        0
  1

274
    -2
284
     1
 64
     0
275
    -2
285
     1
 65
     0
276
    -2
286
     1
 66
     0
277
    -2
287
     1
 67
     0
278
    -2
288
     1
 68
     0
279
    -2
289
     1
 69
     0
  7
Standard
140
6.0
170
     5
 62
     0
 63
     7
283
     0
 90
      512
 91
        0
  1

274
    -2
284
     1
 64
     0
275
    -2
285
     1
 65
     0
276
    -2
286
     1
 66
     0
277
    -2
287
     1
 67
     0
278
    -2
288
     1
 68
     0
279
    -2
289
     1
 69
     0
  7
Standard
140
4.5
170
     5
 62
     0
 63
     7
283
     0
 90
      512
 91
        0
  1

274
    -2
284
     1
 64
     0
275
    -2
285
     1
 65
     0
276
    -2
286
     1
 66
     0
277
    -2
287
     1
 67
     0
278
    -2
288
     1
 68
     0
279
    -2
289
     1
 69
     0
  0
TABLESTYLE
  5
2688B
102
{ACAD_XDICTIONARY
360
2B249
102
}
102
{ACAD_REACTORS
330
2777
102
}
330
2777
100
AcDbTableStyle
280
     0
  3
Standard
 70
     0
 71
     0
 40
1.5
 41
1.5
280
     0
281
     0
  7
ｽﾀｲﾙ1
140
4.5
170
     2
 62
     2
 63
     7
283
     0
 90
      512
 91
        0
  1

274
    -2
284
     1
 64
     0
275
    -2
285
     1
 65
     0
276
    -2
286
     1
 66
     0
277
    -2
287
     1
 67
     0
278
    -2
288
     1
 68
     0
279
    -2
289
     1
 69
     0
  7
Standard
140
6.0
170
     5
 62
     0
 63
     7
283
     0
 90
      512
 91
        0
  1

274
    -2
284
     1
 64
     0
275
    -2
285
     1
 65
     0
276
    -2
286
     1
 66
     0
277
    -2
287
     1
 67
     0
278
    -2
288
     1
 68
     0
279
    -2
289
     1
 69
     0
  7
ｽﾀｲﾙ1
140
4.5
170
     5
 62
     2
 63
     7
283
     0
 90
      512
 91
        0
  1

274
    -2
284
     1
 64
     0
275
    -2
285
     1
 65
     0
276
    -2
286
     1
 66
     0
277
    -2
287
     1
 67
     0
278
    -2
288
     1
 68
     0
279
    -2
289
     1
 69
     0
  0
VISUALSTYLE
  5
276B
102
{ACAD_REACTORS
330
2765
102
}
330
2765
100
AcDbVisualStyle
  2
2dWireframe
 70
     4
177
     3
291
     0
 70
    58
 90
        0
176
     1
 90
        2
176
     1
 90
        0
176
     1
 90
        0
176
     1
 40
0.6
176
     1
 40
30.0
176
     1
 62
     7
420
 16777215
176
     1
 90
        1
176
     1
 90
        4
176
     1
 62
     7
176
     1
 62
   257
176
     1
 90
        1
176
     1
 90
        1
176
     1
 40
1.0
176
     1
 90
        0
176
     1
 62
   257
176
     1
 40
1.0
176
     1
 90
        1
176
     1
 90
        6
176
     1
 90
        2
176
     1
 62
     7
176
     1
 90
        5
176
     1
 90
        0
176
     1
 90
        0
176
     1
290
     0
176
     1
 90
        1
176
     1
 40
0.0
176
     1
 90
        0
176
     1
290
     1
176
     1
290
     1
176
     1
290
     0
176
     1
290
     0
176
     1
290
     0
176
     1
290
     0
176
     1
290
     0
176
     1
290
     0
176
     1
290
     0
176
     1
 90
       50
176
     1
 40
0.0
176
     1
 40
1.0
176
     1
 90
        0
176
     1
 62
    18
420
        0
176
     1
 90
       50
176
     1
 90
        3
176
     1
 62
     5
420
      255
176
     1
290
     0
176
     1
 90
       50
176
     1
 90
       50
176
     1
 90
       50
176
     1
290
     0
176
     1
 90
       50
176
     1
 62
   256
176
     0
 40
1.0
176
     0
 90
        2
176
     1
  1
strokes_ogs.tif
176
     1
290
     0
176
     1
 40
1.0
176
     1
 40
1.0
176
     1
  0
VISUALSTYLE
  5
276D
102
{ACAD_REACTORS
330
2765
102
}
330
2765
100
AcDbVisualStyle
  2
3D Hidden
 70
     6
177
     3
291
     0
 70
    58
 90
        1
176
     1
 90
        2
176
     1
 90
        2
176
     1
 90
        0
176
     1
 40
0.6
176
     1
 40
30.0
176
     1
 62
     7
420
 16777215
176
     1
 90
        2
176
     1
 90
        2
176
     1
 62
     7
176
     1
 62
   257
176
     1
 90
        2
176
     1
 90
        1
176
     1
 40
40.0
176
     1
 90
        0
176
     1
 62
   257
176
     1
 40
1.0
176
     1
 90
        1
176
     1
 90
        6
176
     1
 90
        2
176
     1
 62
     7
176
     1
 90
        3
176
     1
 90
        0
176
     1
 90
        0
176
     1
290
     0
176
     1
 90
        1
176
     1
 40
0.0
176
     1
 90
        0
176
     1
290
     0
176
     1
290
     1
176
     1
290
     1
176
     1
290
     0
176
     1
290
     0
176
     1
290
     0
176
     1
290
     0
176
     1
290
     0
176
     1
290
     0
176
     1
 90
       50
176
     1
 40
0.0
176
     1
 40
1.0
176
     1
 90
        0
176
     1
 62
    18
420
        0
176
     1
 90
       50
176
     1
 90
        3
176
     1
 62
     5
420
      255
176
     1
290
     0
176
     1
 90
       50
176
     1
 90
       50
176
     1
 90
       50
176
     1
290
     0
176
     1
 90
       50
176
     1
 62
   256
176
     0
 40
1.0
176
     0
 90
        2
176
     1
  1
strokes_ogs.tif
176
     1
290
     0
176
     1
 40
1.0
176
     1
 40
1.0
176
     1
  0
VISUALSTYLE
  5
276C
102
{ACAD_REACTORS
330
2765
102
}
330
2765
100
AcDbVisualStyle
  2
3dWireframe
 70
     5
177
     3
291
     0
 70
    58
 90
        0
176
     1
 90
        2
176
     1
 90
        0
176
     1
 90
        0
176
     1
 40
0.6
176
     1
 40
30.0
176
     1
 62
     7
420
 16777215
176
     1
 90
        1
176
     1
 90
        4
176
     1
 62
     7
176
     1
 62
   257
176
     1
 90
        1
176
     1
 90
        1
176
     1
 40
1.0
176
     1
 90
        0
176
     1
 62
   257
176
     1
 40
1.0
176
     1
 90
        1
176
     1
 90
        6
176
     1
 90
        2
176
     1
 62
     7
176
     1
 90
        5
176
     1
 90
        0
176
     1
 90
        0
176
     1
290
     0
176
     1
 90
        1
176
     1
 40
0.0
176
     1
 90
        0
176
     1
290
     0
176
     1
290
     1
176
     1
290
     1
176
     1
290
     0
176
     1
290
     0
176
     1
290
     0
176
     1
290
     0
176
     1
290
     0
176
     1
290
     0
176
     1
 90
       50
176
     1
 40
0.0
176
     1
 40
1.0
176
     1
 90
        0
176
     1
 62
    18
420
        0
176
     1
 90
       50
176
     1
 90
        3
176
     1
 62
     5
420
      255
176
     1
290
     0
176
     1
 90
       50
176
     1
 90
       50
176
     1
 90
       50
176
     1
290
     0
176
     1
 90
       50
176
     1
 62
   256
176
     0
 40
1.0
176
     0
 90
        2
176
     1
  1
strokes_ogs.tif
176
     1
290
     0
176
     1
 40
1.0
176
     1
 40
1.0
176
     1
  0
VISUALSTYLE
  5
276A
102
{ACAD_REACTORS
330
2765
102
}
330
2765
100
AcDbVisualStyle
  2
Basic
 70
     7
177
     3
291
     1
 70
    58
 90
        1
176
     1
 90
        0
176
     1
 90
        1
176
     1
 90
        0
176
     1
 40
0.6
176
     1
 40
30.0
176
     1
 62
     7
420
 16777215
176
     1
 90
        0
176
     1
 90
        4
176
     1
 62
     7
176
     1
 62
   257
176
     1
 90
        1
176
     1
 90
        1
176
     1
 40
1.0
176
     1
 90
        8
176
     1
 62
     7
176
     1
 40
1.0
176
     1
 90
        1
176
     1
 90
        6
176
     1
 90
        2
176
     1
 62
     7
176
     1
 90
        5
176
     1
 90
        0
176
     1
 90
        0
176
     1
290
     0
176
     1
 90
        1
176
     1
 40
0.0
176
     1
 90
        0
176
     1
290
     0
176
     1
290
     1
176
     1
290
     1
176
     1
290
     0
176
     1
290
     0
176
     1
290
     0
176
     1
290
     0
176
     1
290
     0
176
     1
290
     0
176
     1
 90
       50
176
     1
 40
0.0
176
     1
 40
1.0
176
     1
 90
        0
176
     1
 62
    18
420
        0
176
     1
 90
       50
176
     1
 90
        3
176
     1
 62
     5
420
      255
176
     1
290
     0
176
     1
 90
       50
176
     1
 90
       50
176
     1
 90
       50
176
     1
290
     0
176
     1
 90
       50
176
     1
 62
   256
176
     0
 40
1.0
176
     0
 90
        2
176
     1
  1
strokes_ogs.tif
176
     1
290
     0
176
     1
 40
1.0
176
     1
 40
1.0
176
     1
  0
VISUALSTYLE
  5
2771
102
{ACAD_REACTORS
330
2765
102
}
330
2765
100
AcDbVisualStyle
  2
Brighten
 70
    12
177
     3
291
     1
 70
    58
 90
        2
176
     1
 90
        2
176
     1
 90
        0
176
     1
 90
        0
176
     1
 40
0.6
176
     1
 40
30.0
176
     1
 62
     7
420
 16777215
176
     1
 90
        1
176
     1
 90
        4
176
     1
 62
     7
176
     1
 62
   257
176
     1
 90
        1
176
     1
 90
        1
176
     1
 40
1.0
176
     1
 90
        8
176
     1
 62
     7
176
     1
 40
1.0
176
     1
 90
        1
176
     1
 90
        6
176
     1
 90
        2
176
     1
 62
     7
176
     1
 90
        5
176
     1
 90
        0
176
     1
 90
        0
176
     1
290
     0
176
     1
 90
        1
176
     1
 40
50.0
176
     1
 90
        0
176
     1
290
     0
176
     1
290
     1
176
     1
290
     1
176
     1
290
     0
176
     1
290
     0
176
     1
290
     0
176
     1
290
     0
176
     1
290
     0
176
     1
290
     0
176
     1
 90
       50
176
     1
 40
0.0
176
     1
 40
1.0
176
     1
 90
        0
176
     1
 62
    18
420
        0
176
     1
 90
       50
176
     1
 90
        3
176
     1
 62
     5
420
      255
176
     1
290
     0
176
     1
 90
       50
176
     1
 90
       50
176
     1
 90
       50
176
     1
290
     0
176
     1
 90
       50
176
     1
 62
   256
176
     0
 40
1.0
176
     0
 90
        2
176
     1
  1
strokes_ogs.tif
176
     1
290
     0
176
     1
 40
1.0
176
     1
 40
1.0
176
     1
  0
VISUALSTYLE
  5
2775
102
{ACAD_REACTORS
330
2765
102
}
330
2765
100
AcDbVisualStyle
  2
ColorChange
 70
    16
177
     3
291
     1
 70
    58
 90
        2
176
     1
 90
        2
176
     1
 90
        3
176
     1
 90
        0
176
     1
 40
0.6
176
     1
 40
30.0
176
     1
 62
     8
420
  8421504
176
     1
 90
        1
176
     1
 90
        4
176
     1
 62
     7
176
     1
 62
   257
176
     1
 90
        1
176
     1
 90
        1
176
     1
 40
1.0
176
     1
 90
        8
176
     1
 62
     8
420
  8421504
176
     1
 40
1.0
176
     1
 90
        1
176
     1
 90
        6
176
     1
 90
        2
176
     1
 62
     7
176
     1
 90
        5
176
     1
 90
        0
176
     1
 90
        0
176
     1
290
     0
176
     1
 90
        1
176
     1
 40
0.0
176
     1
 90
        0
176
     1
290
     0
176
     1
290
     1
176
     1
290
     1
176
     1
290
     0
176
     1
290
     0
176
     1
290
     0
176
     1
290
     0
176
     1
290
     0
176
     1
290
     0
176
     1
 90
       50
176
     1
 40
0.0
176
     1
 40
1.0
176
     1
 90
        0
176
     1
 62
    18
420
        0
176
     1
 90
       50
176
     1
 90
        3
176
     1
 62
     5
420
      255
176
     1
290
     0
176
     1
 90
       50
176
     1
 90
       50
176
     1
 90
       50
176
     1
290
     0
176
     1
 90
       50
176
     1
 62
   256
176
     0
 40
1.0
176
     0
 90
        2
176
     1
  1
strokes_ogs.tif
176
     1
290
     0
176
     1
 40
1.0
176
     1
 40
1.0
176
     1
  0
VISUALSTYLE
  5
276E
102
{ACAD_REACTORS
330
2765
102
}
330
2765
100
AcDbVisualStyle
  2
Conceptual
 70
     9
177
     3
291
     0
 70
    58
 90
        3
176
     1
 90
        2
176
     1
 90
        0
176
     1
 90
        0
176
     1
 40
0.6
176
     1
 40
30.0
176
     1
 62
     7
420
 16777215
176
     1
 90
        2
176
     1
 90
        2
176
     1
 62
     7
176
     1
 62
   257
176
     1
 90
        1
176
     1
 90
        1
176
     1
 40
40.0
176
     1
 90
        8
176
     1
 62
     7
176
     1
 40
1.0
176
     1
 90
        1
176
     1
 90
        6
176
     1
 90
        2
176
     1
 62
     7
176
     1
 90
        3
176
     1
 90
        0
176
     1
 90
        0
176
     1
290
     0
176
     1
 90
        1
176
     1
 40
0.0
176
     1
 90
        0
176
     1
290
     0
176
     1
290
     1
176
     1
290
     1
176
     1
290
     0
176
     1
290
     0
176
     1
290
     0
176
     1
290
     0
176
     1
290
     0
176
     1
290
     0
176
     1
 90
       50
176
     1
 40
0.0
176
     1
 40
1.0
176
     1
 90
        0
176
     1
 62
    18
420
        0
176
     1
 90
       50
176
     1
 90
        3
176
     1
 62
     5
420
      255
176
     1
290
     0
176
     1
 90
       50
176
     1
 90
       50
176
     1
 90
       50
176
     1
290
     0
176
     1
 90
       50
176
     1
 62
   256
176
     0
 40
1.0
176
     0
 90
        2
176
     1
  1
strokes_ogs.tif
176
     1
290
     0
176
     1
 40
1.0
176
     1
 40
1.0
176
     1
  0
VISUALSTYLE
  5
2770
102
{ACAD_REACTORS
330
2765
102
}
330
2765
100
AcDbVisualStyle
  2
Dim
 70
    11
177
     3
291
     1
 70
    58
 90
        2
176
     1
 90
        2
176
     1
 90
        0
176
     1
 90
        0
176
     1
 40
0.6
176
     1
 40
30.0
176
     1
 62
     7
420
 16777215
176
     1
 90
        1
176
     1
 90
        4
176
     1
 62
     7
176
     1
 62
   257
176
     1
 90
        1
176
     1
 90
        1
176
     1
 40
1.0
176
     1
 90
        8
176
     1
 62
     7
176
     1
 40
1.0
176
     1
 90
        1
176
     1
 90
        6
176
     1
 90
        2
176
     1
 62
     7
176
     1
 90
        5
176
     1
 90
        0
176
     1
 90
        0
176
     1
290
     0
176
     1
 90
        1
176
     1
 40
-50.0
176
     1
 90
        0
176
     1
290
     0
176
     1
290
     1
176
     1
290
     1
176
     1
290
     0
176
     1
290
     0
176
     1
290
     0
176
     1
290
     0
176
     1
290
     0
176
     1
290
     0
176
     1
 90
       50
176
     1
 40
0.0
176
     1
 40
1.0
176
     1
 90
        0
176
     1
 62
    18
420
        0
176
     1
 90
       50
176
     1
 90
        3
176
     1
 62
     5
420
      255
176
     1
290
     0
176
     1
 90
       50
176
     1
 90
       50
176
     1
 90
       50
176
     1
290
     0
176
     1
 90
       50
176
     1
 62
   256
176
     0
 40
1.0
176
     0
 90
        2
176
     1
  1
strokes_ogs.tif
176
     1
290
     0
176
     1
 40
1.0
176
     1
 40
1.0
176
     1
  0
VISUALSTYLE
  5
247DE
102
{ACAD_REACTORS
330
2765
102
}
330
2765
100
AcDbVisualStyle
  2
EdgeColorOff
 70
    22
177
     3
291
     1
 70
    58
 90
        2
176
     0
 90
        2
176
     0
 90
        0
176
     0
 90
        0
176
     0
 40
0.6
176
     0
 40
30.0
176
     0
 62
     7
420
 16777215
176
     0
 90
        1
176
     0
 90
        4
176
     0
 62
     7
176
     0
 62
   257
176
     0
 90
        1
176
     0
 90
        1
176
     0
 40
1.0
176
     0
 90
        8
176
     2
 62
     7
176
     0
 40
1.0
176
     0
 90
        1
176
     0
 90
        6
176
     0
 90
        2
176
     0
 62
     7
176
     0
 90
        5
176
     0
 90
        0
176
     0
 90
        0
176
     0
290
     0
176
     0
 90
        1
176
     0
 40
0.0
176
     0
 90
        0
176
     0
290
     0
176
     1
290
     1
176
     1
290
     1
176
     1
290
     0
176
     1
290
     0
176
     1
290
     0
176
     1
290
     0
176
     1
290
     0
176
     1
290
     0
176
     1
 90
       50
176
     1
 40
0.0
176
     1
 40
1.0
176
     1
 90
        0
176
     1
 62
    18
420
        0
176
     1
 90
       50
176
     1
 90
        3
176
     1
 62
     5
420
      255
176
     1
290
     0
176
     1
 90
       50
176
     1
 90
       50
176
     1
 90
       50
176
     1
290
     0
176
     1
 90
       50
176
     1
 62
   256
176
     0
 40
1.0
176
     0
 90
        2
176
     1
  1
strokes_ogs.tif
176
     1
290
     0
176
     1
 40
1.0
176
     1
 40
1.0
176
     1
  0
VISUALSTYLE
  5
2774
102
{ACAD_REACTORS
330
2765
102
}
330
2765
100
AcDbVisualStyle
  2
Facepattern
 70
    15
177
     3
291
     1
 70
    58
 90
        2
176
     1
 90
        2
176
     1
 90
        0
176
     1
 90
        0
176
     1
 40
0.6
176
     1
 40
30.0
176
     1
 62
     7
420
 16777215
176
     1
 90
        1
176
     1
 90
        4
176
     1
 62
     7
176
     1
 62
   257
176
     1
 90
        1
176
     1
 90
        1
176
     1
 40
1.0
176
     1
 90
        8
176
     1
 62
     7
176
     1
 40
1.0
176
     1
 90
        1
176
     1
 90
        6
176
     1
 90
        2
176
     1
 62
     7
176
     1
 90
        5
176
     1
 90
        0
176
     1
 90
        0
176
     1
290
     0
176
     1
 90
        1
176
     1
 40
0.0
176
     1
 90
        0
176
     1
290
     0
176
     1
290
     1
176
     1
290
     1
176
     1
290
     0
176
     1
290
     0
176
     1
290
     0
176
     1
290
     0
176
     1
290
     0
176
     1
290
     0
176
     1
 90
       50
176
     1
 40
0.0
176
     1
 40
1.0
176
     1
 90
        0
176
     1
 62
    18
420
        0
176
     1
 90
       50
176
     1
 90
        3
176
     1
 62
     5
420
      255
176
     1
290
     0
176
     1
 90
       50
176
     1
 90
       50
176
     1
 90
       50
176
     1
290
     0
176
     1
 90
       50
176
     1
 62
   256
176
     0
 40
1.0
176
     0
 90
        2
176
     1
  1
strokes_ogs.tif
176
     1
290
     0
176
     1
 40
1.0
176
     1
 40
1.0
176
     1
  0
VISUALSTYLE
  5
2766
102
{ACAD_REACTORS
330
2765
102
}
330
2765
100
AcDbVisualStyle
  2
Flat
 70
     0
177
     3
291
     1
 70
    58
 90
        2
176
     1
 90
        1
176
     1
 90
        1
176
     1
 90
        2
176
     1
 40
0.6
176
     1
 40
30.0
176
     1
 62
     7
420
 16777215
176
     1
 90
        0
176
     1
 90
        4
176
     1
 62
     7
176
     1
 62
   257
176
     1
 90
        1
176
     1
 90
        1
176
     1
 40
1.0
176
     1
 90
        8
176
     1
 62
     7
176
     1
 40
1.0
176
     1
 90
        1
176
     1
 90
        6
176
     1
 90
        2
176
     1
 62
     7
176
     1
 90
        5
176
     1
 90
        0
176
     1
 90
        0
176
     1
290
     0
176
     1
 90
       13
176
     1
 40
0.0
176
     1
 90
        0
176
     1
290
     0
176
     1
290
     1
176
     1
290
     1
176
     1
290
     0
176
     1
290
     0
176
     1
290
     0
176
     1
290
     0
176
     1
290
     0
176
     1
290
     0
176
     1
 90
       50
176
     1
 40
0.0
176
     1
 40
1.0
176
     1
 90
        0
176
     1
 62
    18
420
        0
176
     1
 90
       50
176
     1
 90
        3
176
     1
 62
     5
420
      255
176
     1
290
     0
176
     1
 90
       50
176
     1
 90
       50
176
     1
 90
       50
176
     1
290
     0
176
     1
 90
       50
176
     1
 62
   256
176
     0
 40
1.0
176
     0
 90
        2
176
     1
  1
strokes_ogs.tif
176
     1
290
     0
176
     1
 40
1.0
176
     1
 40
1.0
176
     1
  0
VISUALSTYLE
  5
2767
102
{ACAD_REACTORS
330
2765
102
}
330
2765
100
AcDbVisualStyle
  2
FlatWithEdges
 70
     1
177
     3
291
     1
 70
    58
 90
        2
176
     1
 90
        1
176
     1
 90
        1
176
     1
 90
        2
176
     1
 40
0.6
176
     1
 40
30.0
176
     1
 62
     7
420
 16777215
176
     1
 90
        1
176
     1
 90
        4
176
     1
 62
     7
176
     1
 62
   257
176
     1
 90
        1
176
     1
 90
        1
176
     1
 40
1.0
176
     1
 90
        0
176
     1
 62
   257
176
     1
 40
1.0
176
     1
 90
        1
176
     1
 90
        6
176
     1
 90
        2
176
     1
 62
     7
176
     1
 90
        5
176
     1
 90
        0
176
     1
 90
        0
176
     1
290
     0
176
     1
 90
       13
176
     1
 40
0.0
176
     1
 90
        0
176
     1
290
     0
176
     1
290
     1
176
     1
290
     1
176
     1
290
     0
176
     1
290
     0
176
     1
290
     0
176
     1
290
     0
176
     1
290
     0
176
     1
290
     0
176
     1
 90
       50
176
     1
 40
0.0
176
     1
 40
1.0
176
     1
 90
        0
176
     1
 62
    18
420
        0
176
     1
 90
       50
176
     1
 90
        3
176
     1
 62
     5
420
      255
176
     1
290
     0
176
     1
 90
       50
176
     1
 90
       50
176
     1
 90
       50
176
     1
290
     0
176
     1
 90
       50
176
     1
 62
   256
176
     0
 40
1.0
176
     0
 90
        2
176
     1
  1
strokes_ogs.tif
176
     1
290
     0
176
     1
 40
1.0
176
     1
 40
1.0
176
     1
  0
VISUALSTYLE
  5
2768
102
{ACAD_REACTORS
330
2765
102
}
330
2765
100
AcDbVisualStyle
  2
Gouraud
 70
     2
177
     3
291
     1
 70
    58
 90
        2
176
     1
 90
        2
176
     1
 90
        1
176
     1
 90
        2
176
     1
 40
0.6
176
     1
 40
30.0
176
     1
 62
     7
420
 16777215
176
     1
 90
        0
176
     1
 90
        4
176
     1
 62
     7
176
     1
 62
   257
176
     1
 90
        1
176
     1
 90
        1
176
     1
 40
1.0
176
     1
 90
        0
176
     1
 62
     7
176
     1
 40
1.0
176
     1
 90
        1
176
     1
 90
        6
176
     1
 90
        2
176
     1
 62
     7
176
     1
 90
        5
176
     1
 90
        0
176
     1
 90
        0
176
     1
290
     0
176
     1
 90
       13
176
     1
 40
0.0
176
     1
 90
        0
176
     1
290
     0
176
     1
290
     1
176
     1
290
     1
176
     1
290
     0
176
     1
290
     0
176
     1
290
     0
176
     1
290
     0
176
     1
290
     0
176
     1
290
     0
176
     1
 90
       50
176
     1
 40
0.0
176
     1
 40
1.0
176
     1
 90
        0
176
     1
 62
    18
420
        0
176
     1
 90
       50
176
     1
 90
        3
176
     1
 62
     5
420
      255
176
     1
290
     0
176
     1
 90
       50
176
     1
 90
       50
176
     1
 90
       50
176
     1
290
     0
176
     1
 90
       50
176
     1
 62
   256
176
     0
 40
1.0
176
     0
 90
        2
176
     1
  1
strokes_ogs.tif
176
     1
290
     0
176
     1
 40
1.0
176
     1
 40
1.0
176
     1
  0
VISUALSTYLE
  5
2769
102
{ACAD_REACTORS
330
2765
102
}
330
2765
100
AcDbVisualStyle
  2
GouraudWithEdges
 70
     3
177
     3
291
     1
 70
    58
 90
        2
176
     1
 90
        2
176
     1
 90
        1
176
     1
 90
        2
176
     1
 40
0.6
176
     1
 40
30.0
176
     1
 62
     7
420
 16777215
176
     1
 90
        1
176
     1
 90
        4
176
     1
 62
     7
176
     1
 62
   257
176
     1
 90
        1
176
     1
 90
        1
176
     1
 40
1.0
176
     1
 90
        0
176
     1
 62
   257
176
     1
 40
1.0
176
     1
 90
        1
176
     1
 90
        6
176
     1
 90
        2
176
     1
 62
     7
176
     1
 90
        5
176
     1
 90
        0
176
     1
 90
        0
176
     1
290
     0
176
     1
 90
       13
176
     1
 40
0.0
176
     1
 90
        0
176
     1
290
     0
176
     1
290
     1
176
     1
290
     1
176
     1
290
     0
176
     1
290
     0
176
     1
290
     0
176
     1
290
     0
176
     1
290
     0
176
     1
290
     0
176
     1
 90
       50
176
     1
 40
0.0
176
     1
 40
1.0
176
     1
 90
        0
176
     1
 62
    18
420
        0
176
     1
 90
       50
176
     1
 90
        3
176
     1
 62
     5
420
      255
176
     1
290
     0
176
     1
 90
       50
176
     1
 90
       50
176
     1
 90
       50
176
     1
290
     0
176
     1
 90
       50
176
     1
 62
   256
176
     0
 40
1.0
176
     0
 90
        2
176
     1
  1
strokes_ogs.tif
176
     1
290
     0
176
     1
 40
1.0
176
     1
 40
1.0
176
     1
  0
VISUALSTYLE
  5
2B21C
102
{ACAD_REACTORS
330
2765
102
}
330
2765
100
AcDbVisualStyle
  2
Hidden
 70
     6
177
     3
291
     0
 70
    58
 90
        1
176
     1
 90
        2
176
     1
 90
        2
176
     1
 90
        0
176
     1
 40
0.6
176
     1
 40
30.0
176
     1
 62
     7
420
 16777215
176
     1
 90
        2
176
     1
 90
        2
176
     1
 62
     7
176
     1
 62
   257
176
     1
 90
        2
176
     1
 90
        1
176
     1
 40
40.0
176
     1
 90
        0
176
     1
 62
   257
176
     1
 40
1.0
176
     1
 90
        1
176
     1
 90
        6
176
     1
 90
        2
176
     1
 62
     7
176
     1
 90
        3
176
     1
 90
        0
176
     1
 90
        0
176
     1
290
     0
176
     1
 90
        1
176
     1
 40
0.0
176
     1
 90
        0
176
     1
290
     0
176
     1
290
     1
176
     1
290
     1
176
     1
290
     0
176
     1
290
     0
176
     1
290
     0
176
     1
290
     0
176
     1
290
     0
176
     1
290
     0
176
     1
 90
       50
176
     1
 40
0.0
176
     1
 40
1.0
176
     1
 90
        0
176
     1
 62
    18
420
        0
176
     1
 90
       50
176
     1
 90
        3
176
     1
 62
     5
420
      255
176
     1
290
     0
176
     1
 90
       50
176
     1
 90
       50
176
     1
 90
       50
176
     1
290
     0
176
     1
 90
       50
176
     1
 62
   256
176
     0
 40
1.0
176
     0
 90
        2
176
     1
  1
strokes_ogs.tif
176
     1
290
     0
176
     1
 40
1.0
176
     1
 40
1.0
176
     1
  0
VISUALSTYLE
  5
247DC
102
{ACAD_REACTORS
330
2765
102
}
330
2765
100
AcDbVisualStyle
  2
JitterOff
 70
    20
177
     3
291
     1
 70
    58
 90
        2
176
     0
 90
        2
176
     0
 90
        0
176
     0
 90
        0
176
     0
 40
0.6
176
     0
 40
30.0
176
     0
 62
     7
420
 16777215
176
     0
 90
        1
176
     0
 90
        4
176
     0
 62
     7
176
     0
 62
   257
176
     0
 90
        1
176
     0
 90
        1
176
     0
 40
1.0
176
     0
 90
       10
176
     2
 62
     7
176
     0
 40
1.0
176
     0
 90
        1
176
     0
 90
        6
176
     0
 90
        2
176
     0
 62
     7
176
     0
 90
        5
176
     0
 90
        0
176
     0
 90
        0
176
     0
290
     0
176
     0
 90
        1
176
     0
 40
0.0
176
     0
 90
        0
176
     0
290
     0
176
     1
290
     1
176
     1
290
     1
176
     1
290
     0
176
     1
290
     0
176
     1
290
     0
176
     1
290
     0
176
     1
290
     0
176
     1
290
     0
176
     1
 90
       50
176
     1
 40
0.0
176
     1
 40
1.0
176
     1
 90
        0
176
     1
 62
    18
420
        0
176
     1
 90
       50
176
     1
 90
        3
176
     1
 62
     5
420
      255
176
     1
290
     0
176
     1
 90
       50
176
     1
 90
       50
176
     1
 90
       50
176
     1
290
     0
176
     1
 90
       50
176
     1
 62
   256
176
     0
 40
1.0
176
     0
 90
        2
176
     1
  1
strokes_ogs.tif
176
     1
290
     0
176
     1
 40
1.0
176
     1
 40
1.0
176
     1
  0
VISUALSTYLE
  5
2773
102
{ACAD_REACTORS
330
2765
102
}
330
2765
100
AcDbVisualStyle
  2
Linepattern
 70
    14
177
     3
291
     1
 70
    58
 90
        2
176
     1
 90
        2
176
     1
 90
        0
176
     1
 90
        0
176
     1
 40
0.6
176
     1
 40
30.0
176
     1
 62
     7
420
 16777215
176
     1
 90
        1
176
     1
 90
        4
176
     1
 62
     7
176
     1
 62
   257
176
     1
 90
        7
176
     1
 90
        7
176
     1
 40
1.0
176
     1
 90
        8
176
     1
 62
     7
176
     1
 40
1.0
176
     1
 90
        1
176
     1
 90
        6
176
     1
 90
        2
176
     1
 62
     7
176
     1
 90
        5
176
     1
 90
        0
176
     1
 90
        0
176
     1
290
     0
176
     1
 90
        1
176
     1
 40
0.0
176
     1
 90
        0
176
     1
290
     0
176
     1
290
     1
176
     1
290
     1
176
     1
290
     0
176
     1
290
     0
176
     1
290
     0
176
     1
290
     0
176
     1
290
     0
176
     1
290
     0
176
     1
 90
       50
176
     1
 40
0.0
176
     1
 40
1.0
176
     1
 90
        0
176
     1
 62
    18
420
        0
176
     1
 90
       50
176
     1
 90
        3
176
     1
 62
     5
420
      255
176
     1
290
     0
176
     1
 90
       50
176
     1
 90
       50
176
     1
 90
       50
176
     1
290
     0
176
     1
 90
       50
176
     1
 62
   256
176
     0
 40
1.0
176
     0
 90
        2
176
     1
  1
strokes_ogs.tif
176
     1
290
     0
176
     1
 40
1.0
176
     1
 40
1.0
176
     1
  0
VISUALSTYLE
  5
247DD
102
{ACAD_REACTORS
330
2765
102
}
330
2765
100
AcDbVisualStyle
  2
OverhangOff
 70
    21
177
     3
291
     1
 70
    58
 90
        2
176
     0
 90
        2
176
     0
 90
        0
176
     0
 90
        0
176
     0
 40
0.6
176
     0
 40
30.0
176
     0
 62
     7
420
 16777215
176
     0
 90
        1
176
     0
 90
        4
176
     0
 62
     7
176
     0
 62
   257
176
     0
 90
        1
176
     0
 90
        1
176
     0
 40
1.0
176
     0
 90
        9
176
     2
 62
     7
176
     0
 40
1.0
176
     0
 90
        1
176
     0
 90
        6
176
     0
 90
        2
176
     0
 62
     7
176
     0
 90
        5
176
     0
 90
        0
176
     0
 90
        0
176
     0
290
     0
176
     0
 90
        1
176
     0
 40
0.0
176
     0
 90
        0
176
     0
290
     0
176
     1
290
     1
176
     1
290
     1
176
     1
290
     0
176
     1
290
     0
176
     1
290
     0
176
     1
290
     0
176
     1
290
     0
176
     1
290
     0
176
     1
 90
       50
176
     1
 40
0.0
176
     1
 40
1.0
176
     1
 90
        0
176
     1
 62
    18
420
        0
176
     1
 90
       50
176
     1
 90
        3
176
     1
 62
     5
420
      255
176
     1
290
     0
176
     1
 90
       50
176
     1
 90
       50
176
     1
 90
       50
176
     1
290
     0
176
     1
 90
       50
176
     1
 62
   256
176
     0
 40
1.0
176
     0
 90
        2
176
     1
  1
strokes_ogs.tif
176
     1
290
     0
176
     1
 40
1.0
176
     1
 40
1.0
176
     1
  0
VISUALSTYLE
  5
276F
102
{ACAD_REACTORS
330
2765
102
}
330
2765
100
AcDbVisualStyle
  2
Realistic
 70
     8
177
     3
291
     0
 70
    58
 90
        2
176
     1
 90
        2
176
     1
 90
        0
176
     1
 90
        0
176
     1
 40
0.6
176
     1
 40
30.0
176
     1
 62
     7
420
 16777215
176
     1
 90
        1
176
     1
 90
        0
176
     1
 62
     7
176
     1
 62
   257
176
     1
 90
        1
176
     1
 90
        1
176
     1
 40
1.0
176
     1
 90
        8
176
     1
 62
     8
420
  7895160
176
     1
 40
1.0
176
     1
 90
        1
176
     1
 90
        6
176
     1
 90
        2
176
     1
 62
     7
176
     1
 90
        5
176
     1
 90
        0
176
     1
 90
        0
176
     1
290
     0
176
     1
 90
       13
176
     1
 40
0.0
176
     1
 90
        0
176
     1
290
     0
176
     1
290
     1
176
     1
290
     1
176
     1
290
     0
176
     1
290
     0
176
     1
290
     0
176
     1
290
     0
176
     1
290
     0
176
     1
290
     0
176
     1
 90
       50
176
     1
 40
0.0
176
     1
 40
1.0
176
     1
 90
        0
176
     1
 62
    18
420
        0
176
     1
 90
       50
176
     1
 90
        3
176
     1
 62
     5
420
      255
176
     1
290
     0
176
     1
 90
       50
176
     1
 90
       50
176
     1
 90
       50
176
     1
290
     0
176
     1
 90
       50
176
     1
 62
   256
176
     0
 40
1.0
176
     0
 90
        2
176
     1
  1
strokes_ogs.tif
176
     1
290
     0
176
     1
 40
1.0
176
     1
 40
1.0
176
     1
  0
VISUALSTYLE
  5
2B221
102
{ACAD_REACTORS
330
2765
102
}
330
2765
100
AcDbVisualStyle
  2
Shaded
 70
    27
177
     3
291
     0
 70
    58
 90
        2
176
     1
 90
        2
176
     1
 90
        1
176
     1
 90
        2
176
     1
 40
0.6
176
     1
 40
30.0
176
     1
 62
     7
420
 16777215
176
     1
 90
        0
176
     1
 90
        4
176
     1
 62
     7
176
     1
 62
   257
176
     1
 90
        1
176
     1
 90
        1
176
     1
 40
1.0
176
     1
 90
        8
176
     1
 62
   257
176
     1
 40
1.0
176
     1
 90
        1
176
     1
 90
        6
176
     1
 90
        2
176
     1
 62
     8
420
  7895160
176
     1
 90
        3
176
     1
 90
        0
176
     1
 90
        0
176
     1
290
     0
176
     1
 90
        5
176
     1
 40
0.0
176
     1
 90
        0
176
     1
290
     0
176
     1
290
     1
176
     1
290
     1
176
     1
290
     0
176
     1
290
     0
176
     1
290
     0
176
     1
290
     0
176
     1
290
     0
176
     1
290
     0
176
     1
 90
       50
176
     1
 40
0.0
176
     1
 40
1.0
176
     1
 90
        0
176
     1
 62
    18
420
        0
176
     1
 90
       50
176
     1
 90
        3
176
     1
 62
     5
420
      255
176
     1
290
     0
176
     1
 90
       50
176
     1
 90
       50
176
     1
 90
       50
176
     1
290
     0
176
     1
 90
       50
176
     1
 62
   256
176
     0
 40
1.0
176
     0
 90
        2
176
     1
  1
strokes_ogs.tif
176
     1
290
     0
176
     1
 40
1.0
176
     1
 40
1.0
176
     1
  0
VISUALSTYLE
  5
2B220
102
{ACAD_REACTORS
330
2765
102
}
330
2765
100
AcDbVisualStyle
  2
Shaded with edges
 70
    26
177
     3
291
     0
 70
    58
 90
        2
176
     1
 90
        2
176
     1
 90
        1
176
     1
 90
        2
176
     1
 40
0.6
176
     1
 40
30.0
176
     1
 62
     7
420
 16777215
176
     1
 90
        1
176
     1
 90
       10
176
     1
 62
     7
176
     1
 62
   257
176
     1
 90
        2
176
     1
 90
        1
176
     1
 40
1.0
176
     1
 90
        8
176
     1
 62
   257
176
     1
 40
1.0
176
     1
 90
        1
176
     1
 90
        6
176
     1
 90
        2
176
     1
 62
     7
176
     1
 90
        3
176
     1
 90
        0
176
     1
 90
        0
176
     1
290
     0
176
     1
 90
        5
176
     1
 40
0.0
176
     1
 90
        0
176
     1
290
     0
176
     1
290
     1
176
     1
290
     1
176
     1
290
     0
176
     1
290
     0
176
     1
290
     0
176
     1
290
     0
176
     1
290
     0
176
     1
290
     0
176
     1
 90
       50
176
     1
 40
0.0
176
     1
 40
1.0
176
     1
 90
        0
176
     1
 62
    18
420
        0
176
     1
 90
       50
176
     1
 90
        3
176
     1
 62
     5
420
      255
176
     1
290
     0
176
     1
 90
       50
176
     1
 90
       50
176
     1
 90
       50
176
     1
290
     0
176
     1
 90
       50
176
     1
 62
   256
176
     0
 40
1.0
176
     0
 90
        2
176
     1
  1
strokes_ogs.tif
176
     1
290
     0
176
     1
 40
1.0
176
     1
 40
1.0
176
     1
  0
VISUALSTYLE
  5
2B21D
102
{ACAD_REACTORS
330
2765
102
}
330
2765
100
AcDbVisualStyle
  2
Shades of Gray
 70
    23
177
     3
291
     0
 70
    58
 90
        2
176
     1
 90
        2
176
     1
 90
        3
176
     1
 90
        0
176
     1
 40
0.6
176
     1
 40
30.0
176
     1
 62
     7
420
 16777215
176
     1
 90
        2
176
     1
 90
        2
176
     1
 62
     7
176
     1
 62
     7
176
     1
 90
        1
176
     1
 90
        1
176
     1
 40
40.0
176
     1
 90
        8
176
     1
 62
     7
176
     1
 40
1.0
176
     1
 90
        1
176
     1
 90
        6
176
     1
 90
        2
176
     1
 62
     7
176
     1
 90
        3
176
     1
 90
        0
176
     1
 90
        0
176
     1
290
     0
176
     1
 90
        1
176
     1
 40
0.0
176
     1
 90
        0
176
     1
290
     0
176
     1
290
     1
176
     1
290
     1
176
     1
290
     0
176
     1
290
     0
176
     1
290
     0
176
     1
290
     0
176
     1
290
     0
176
     1
290
     0
176
     1
 90
       50
176
     1
 40
0.0
176
     1
 40
1.0
176
     1
 90
        0
176
     1
 62
    18
420
        0
176
     1
 90
       50
176
     1
 90
        3
176
     1
 62
     5
420
      255
176
     1
290
     0
176
     1
 90
       50
176
     1
 90
       50
176
     1
 90
       50
176
     1
290
     0
176
     1
 90
       50
176
     1
 62
   256
176
     0
 40
1.0
176
     0
 90
        2
176
     1
  1
strokes_ogs.tif
176
     1
290
     0
176
     1
 40
1.0
176
     1
 40
1.0
176
     1
  0
VISUALSTYLE
  5
2B21E
102
{ACAD_REACTORS
330
2765
102
}
330
2765
100
AcDbVisualStyle
  2
Sketchy
 70
    24
177
     3
291
     0
 70
    58
 90
        1
176
     1
 90
        2
176
     1
 90
        2
176
     1
 90
        0
176
     1
 40
0.6
176
     1
 40
30.0
176
     1
 62
     7
420
 16777215
176
     1
 90
        2
176
     1
 90
        2
176
     1
 62
     7
176
     1
 62
     7
176
     1
 90
        1
176
     1
 90
        1
176
     1
 40
40.0
176
     1
 90
       11
176
     1
 62
     7
176
     1
 40
1.0
176
     1
 90
        1
176
     1
 90
        6
176
     1
 90
        2
176
     1
 62
     7
176
     1
 90
        6
176
     1
 90
        0
176
     1
 90
        0
176
     1
290
     0
176
     1
 90
        1
176
     1
 40
0.0
176
     1
 90
        0
176
     1
290
     0
176
     1
290
     1
176
     1
290
     1
176
     1
290
     0
176
     1
290
     0
176
     1
290
     0
176
     1
290
     0
176
     1
290
     0
176
     1
290
     0
176
     1
 90
       50
176
     1
 40
0.0
176
     1
 40
1.0
176
     1
 90
        0
176
     1
 62
    18
420
        0
176
     1
 90
       50
176
     1
 90
        3
176
     1
 62
     5
420
      255
176
     1
290
     0
176
     1
 90
       50
176
     1
 90
       50
176
     1
 90
       50
176
     1
290
     0
176
     1
 90
       50
176
     1
 62
   256
176
     0
 40
1.0
176
     0
 90
        2
176
     1
  1
strokes_ogs.tif
176
     1
290
     0
176
     1
 40
1.0
176
     1
 40
1.0
176
     1
  0
VISUALSTYLE
  5
2772
102
{ACAD_REACTORS
330
2765
102
}
330
2765
100
AcDbVisualStyle
  2
Thicken
 70
    13
177
     3
291
     1
 70
    58
 90
        2
176
     1
 90
        2
176
     1
 90
        0
176
     1
 90
        0
176
     1
 40
0.6
176
     1
 40
30.0
176
     1
 62
     7
420
 16777215
176
     1
 90
        1
176
     1
 90
        4
176
     1
 62
     7
176
     1
 62
   257
176
     1
 90
        1
176
     1
 90
        1
176
     1
 40
1.0
176
     1
 90
       12
176
     1
 62
     7
176
     1
 40
1.0
176
     1
 90
        1
176
     1
 90
        6
176
     1
 90
        2
176
     1
 62
     7
176
     1
 90
        5
176
     1
 90
        0
176
     1
 90
        0
176
     1
290
     0
176
     1
 90
        1
176
     1
 40
0.0
176
     1
 90
        0
176
     1
290
     0
176
     1
290
     1
176
     1
290
     1
176
     1
290
     0
176
     1
290
     0
176
     1
290
     0
176
     1
290
     0
176
     1
290
     0
176
     1
290
     0
176
     1
 90
       50
176
     1
 40
0.0
176
     1
 40
1.0
176
     1
 90
        0
176
     1
 62
    18
420
        0
176
     1
 90
       50
176
     1
 90
        3
176
     1
 62
     5
420
      255
176
     1
290
     0
176
     1
 90
       50
176
     1
 90
       50
176
     1
 90
       50
176
     1
290
     0
176
     1
 90
       50
176
     1
 62
   256
176
     0
 40
1.0
176
     0
 90
        2
176
     1
  1
strokes_ogs.tif
176
     1
290
     0
176
     1
 40
1.0
176
     1
 40
1.0
176
     1
  0
VISUALSTYLE
  5
2B21B
102
{ACAD_REACTORS
330
2765
102
}
330
2765
100
AcDbVisualStyle
  2
Wireframe
 70
     5
177
     3
291
     0
 70
    58
 90
        0
176
     1
 90
        2
176
     1
 90
        0
176
     1
 90
        0
176
     1
 40
0.6
176
     1
 40
30.0
176
     1
 62
     7
420
 16777215
176
     1
 90
        1
176
     1
 90
        4
176
     1
 62
     7
176
     1
 62
   257
176
     1
 90
        1
176
     1
 90
        1
176
     1
 40
1.0
176
     1
 90
        0
176
     1
 62
   257
176
     1
 40
1.0
176
     1
 90
        1
176
     1
 90
        6
176
     1
 90
        2
176
     1
 62
     7
176
     1
 90
        3
176
     1
 90
        0
176
     1
 90
        0
176
     1
290
     0
176
     1
 90
        1
176
     1
 40
0.0
176
     1
 90
        0
176
     1
290
     0
176
     1
290
     1
176
     1
290
     1
176
     1
290
     0
176
     1
290
     0
176
     1
290
     0
176
     1
290
     0
176
     1
290
     0
176
     1
290
     0
176
     1
 90
       50
176
     1
 40
0.0
176
     1
 40
1.0
176
     1
 90
        0
176
     1
 62
    18
420
        0
176
     1
 90
       50
176
     1
 90
        3
176
     1
 62
     5
420
      255
176
     1
290
     0
176
     1
 90
       50
176
     1
 90
       50
176
     1
 90
       50
176
     1
290
     0
176
     1
 90
       50
176
     1
 62
   256
176
     0
 40
1.0
176
     0
 90
        2
176
     1
  1
strokes_ogs.tif
176
     1
290
     0
176
     1
 40
1.0
176
     1
 40
1.0
176
     1
  0
VISUALSTYLE
  5
2B21F
102
{ACAD_REACTORS
330
2765
102
}
330
2765
100
AcDbVisualStyle
  2
X-Ray
 70
    25
177
     3
291
     0
 70
    58
 90
        2
176
     1
 90
        2
176
     1
 90
        1
176
     1
 90
        1
176
     1
 40
0.5
176
     1
 40
30.0
176
     1
 62
     7
420
 16777215
176
     1
 90
        1
176
     1
 90
        0
176
     1
 62
     7
176
     1
 62
   257
176
     1
 90
        1
176
     1
 90
        1
176
     1
 40
1.0
176
     1
 90
        8
176
     1
 62
     7
176
     1
 40
1.0
176
     1
 90
        1
176
     1
 90
        6
176
     1
 90
        2
176
     1
 62
     7
176
     1
 90
        3
176
     1
 90
        0
176
     1
 90
        0
176
     1
290
     0
176
     1
 90
       13
176
     1
 40
0.0
176
     1
 90
        0
176
     1
290
     0
176
     1
290
     1
176
     1
290
     1
176
     1
290
     0
176
     1
290
     0
176
     1
290
     0
176
     1
290
     0
176
     1
290
     0
176
     1
290
     0
176
     1
 90
       50
176
     1
 40
0.0
176
     1
 40
1.0
176
     1
 90
        0
176
     1
 62
    18
420
        0
176
     1
 90
       50
176
     1
 90
        3
176
     1
 62
     5
420
      255
176
     1
290
     0
176
     1
 90
       50
176
     1
 90
       50
176
     1
 90
       50
176
     1
290
     0
176
     1
 90
       50
176
     1
 62
   256
176
     0
 40
1.0
176
     0
 90
        2
176
     1
  1
strokes_ogs.tif
176
     1
290
     0
176
     1
 40
1.0
176
     1
 40
1.0
176
     1
  0
DICTIONARYVAR
  5
24E32
102
{ACAD_REACTORS
330
5E
102
}
330
5E
100
DictionaryVariables
280
     0
  1
1:1
  0
DICTIONARYVAR
  5
24E30
102
{ACAD_REACTORS
330
5E
102
}
330
5E
100
DictionaryVariables
280
     0
  1
STANDARD
  0
DICTIONARYVAR
  5
2792
102
{ACAD_REACTORS
330
5E
102
}
330
5E
100
DictionaryVariables
280
     0
  1
STANDARD
  0
DICTIONARYVAR
  5
2B245
102
{ACAD_REACTORS
330
5E
102
}
330
5E
100
DictionaryVariables
280
     0
  1
Metric50
  0
DICTIONARYVAR
  5
2B246
102
{ACAD_REACTORS
330
5E
102
}
330
5E
100
DictionaryVariables
280
     0
  1
Metric50
  0
DICTIONARYVAR
  5
5F
102
{ACAD_REACTORS
330
5E
102
}
330
5E
100
DictionaryVariables
280
     0
  1
2
  0
DICTIONARYVAR
  5
63
102
{ACAD_REACTORS
330
5E
102
}
330
5E
100
DictionaryVariables
280
     0
  1
1
  0
DICTIONARYVAR
  5
24E34
102
{ACAD_REACTORS
330
5E
102
}
330
5E
100
DictionaryVariables
280
     0
  1
1
  0
DICTIONARYVAR
  5
24E35
102
{ACAD_REACTORS
330
5E
102
}
330
5E
100
DictionaryVariables
280
     0
  1
15
  0
DICTIONARYVAR
  5
24E33
102
{ACAD_REACTORS
330
5E
102
}
330
5E
100
DictionaryVariables
280
     0
  1
0
  0
DICTIONARYVAR
  5
24E31
102
{ACAD_REACTORS
330
5E
102
}
330
5E
100
DictionaryVariables
280
     0
  1
0
  0
DICTIONARY
  5
2B24D
330
2B225
100
AcDbDictionary
280
     1
281
     1
  3
ACAD_XREC_ROUNDTRIP
360
2B24E
  0
DICTIONARY
  5
24E2E
330
22
100
AcDbDictionary
280
     1
281
     1
  0
DICTIONARY
  5
2E30
330
51
100
AcDbDictionary
280
     1
281
     1
  0
DICTIONARY
  5
2B24B
330
2B223
100
AcDbDictionary
280
     1
281
     1
  3
ACAD_XREC_ROUNDTRIP
360
2B24C
  0
DICTIONARY
  5
2B247
330
2778
100
AcDbDictionary
280
     1
281
     1
  3
ACAD_ROUNDTRIP_2008_TABLESTYLE_CELLSTYLEMAP
360
2B248
  0
DICTIONARY
  5
2B249
330
2688B
100
AcDbDictionary
280
     1
281
     1
  3
ACAD_ROUNDTRIP_2008_TABLESTYLE_CELLSTYLEMAP
360
2B24A
  0
XRECORD
  5
2B24E
102
{ACAD_REACTORS
330
2B24D
102
}
330
2B24D
100
AcDbXrecord
280
     1
102
DISPLAYNAME
  1
Metric50
102
FLAGS
 90
        0
  0
XRECORD
  5
2B24C
102
{ACAD_REACTORS
330
2B24B
102
}
330
2B24B
100
AcDbXrecord
280
     1
102
DISPLAYNAME
  1
Metric50
102
FLAGS
 90
        0
  0
CELLSTYLEMAP
  5
2B248
102
{ACAD_REACTORS
330
2B247
102
}
330
2B247
100
AcDbCellStyleMap
 90
        3
300
CELLSTYLE
  1
TABLEFORMAT_BEGIN
 90
        5
170
     1
 91
        0
 92
    32768
 62
   257
 93
        1
300
CONTENTFORMAT
  1
CONTENTFORMAT_BEGIN
 90
        0
 91
        0
 92
      512
 93
        0
300

 40
0.0
140
1.0
 94
        5
 62
     0
340
11
144
6.0
309
CONTENTFORMAT_END
171
     1
301
MARGIN
  1
CELLMARGIN_BEGIN
 40
1.5
 40
1.5
 40
1.5
 40
1.5
 40
0.18
 40
0.18
309
CELLMARGIN_END
 94
        6
 95
        1
302
GRIDFORMAT
  1
GRIDFORMAT_BEGIN
 90
        0
 91
        1
 62
     0
 92
       -2
340
0
 93
        0
 40
0.045
309
GRIDFORMAT_END
 95
        2
302
GRIDFORMAT
  1
GRIDFORMAT_BEGIN
 90
        0
 91
        1
 62
     0
 92
       -2
340
0
 93
        0
 40
0.045
309
GRIDFORMAT_END
 95
        4
302
GRIDFORMAT
  1
GRIDFORMAT_BEGIN
 90
        0
 91
        1
 62
     0
 92
       -2
340
0
 93
        0
 40
0.045
309
GRIDFORMAT_END
 95
        8
302
GRIDFORMAT
  1
GRIDFORMAT_BEGIN
 90
        0
 91
        1
 62
     0
 92
       -2
340
0
 93
        0
 40
0.045
309
GRIDFORMAT_END
 95
       16
302
GRIDFORMAT
  1
GRIDFORMAT_BEGIN
 90
        0
 91
        1
 62
     0
 92
       -2
340
0
 93
        0
 40
0.045
309
GRIDFORMAT_END
 95
       32
302
GRIDFORMAT
  1
GRIDFORMAT_BEGIN
 90
        0
 91
        1
 62
     0
 92
       -2
340
0
 93
        0
 40
0.045
309
GRIDFORMAT_END
309
TABLEFORMAT_END
  1
CELLSTYLE_BEGIN
 90
        1
 91
        1
300
_TITLE
309
CELLSTYLE_END
300
CELLSTYLE
  1
TABLEFORMAT_BEGIN
 90
        5
170
     1
 91
        0
 92
        0
 62
   257
 93
        1
300
CONTENTFORMAT
  1
CONTENTFORMAT_BEGIN
 90
        0
 91
        0
 92
      512
 93
        0
300

 40
0.0
140
1.0
 94
        5
 62
     0
340
11
144
4.5
309
CONTENTFORMAT_END
171
     1
301
MARGIN
  1
CELLMARGIN_BEGIN
 40
1.5
 40
1.5
 40
1.5
 40
1.5
 40
0.18
 40
0.18
309
CELLMARGIN_END
 94
        6
 95
        1
302
GRIDFORMAT
  1
GRIDFORMAT_BEGIN
 90
        0
 91
        1
 62
     0
 92
       -2
340
0
 93
        0
 40
0.045
309
GRIDFORMAT_END
 95
        2
302
GRIDFORMAT
  1
GRIDFORMAT_BEGIN
 90
        0
 91
        1
 62
     0
 92
       -2
340
0
 93
        0
 40
0.045
309
GRIDFORMAT_END
 95
        4
302
GRIDFORMAT
  1
GRIDFORMAT_BEGIN
 90
        0
 91
        1
 62
     0
 92
       -2
340
0
 93
        0
 40
0.045
309
GRIDFORMAT_END
 95
        8
302
GRIDFORMAT
  1
GRIDFORMAT_BEGIN
 90
        0
 91
        1
 62
     0
 92
       -2
340
0
 93
        0
 40
0.045
309
GRIDFORMAT_END
 95
       16
302
GRIDFORMAT
  1
GRIDFORMAT_BEGIN
 90
        0
 91
        1
 62
     0
 92
       -2
340
0
 93
        0
 40
0.045
309
GRIDFORMAT_END
 95
       32
302
GRIDFORMAT
  1
GRIDFORMAT_BEGIN
 90
        0
 91
        1
 62
     0
 92
       -2
340
0
 93
        0
 40
0.045
309
GRIDFORMAT_END
309
TABLEFORMAT_END
  1
CELLSTYLE_BEGIN
 90
        2
 91
        1
300
_HEADER
309
CELLSTYLE_END
300
CELLSTYLE
  1
TABLEFORMAT_BEGIN
 90
        5
170
     1
 91
        0
 92
        0
 62
   257
 93
        1
300
CONTENTFORMAT
  1
CONTENTFORMAT_BEGIN
 90
        0
 91
        0
 92
      512
 93
        0
300

 40
0.0
140
1.0
 94
        2
 62
     0
340
11
144
4.5
309
CONTENTFORMAT_END
171
     1
301
MARGIN
  1
CELLMARGIN_BEGIN
 40
1.5
 40
1.5
 40
1.5
 40
1.5
 40
0.18
 40
0.18
309
CELLMARGIN_END
 94
        6
 95
        1
302
GRIDFORMAT
  1
GRIDFORMAT_BEGIN
 90
        0
 91
        1
 62
     0
 92
       -2
340
0
 93
        0
 40
0.045
309
GRIDFORMAT_END
 95
        2
302
GRIDFORMAT
  1
GRIDFORMAT_BEGIN
 90
        0
 91
        1
 62
     0
 92
       -2
340
0
 93
        0
 40
0.045
309
GRIDFORMAT_END
 95
        4
302
GRIDFORMAT
  1
GRIDFORMAT_BEGIN
 90
        0
 91
        1
 62
     0
 92
       -2
340
0
 93
        0
 40
0.045
309
GRIDFORMAT_END
 95
        8
302
GRIDFORMAT
  1
GRIDFORMAT_BEGIN
 90
        0
 91
        1
 62
     0
 92
       -2
340
0
 93
        0
 40
0.045
309
GRIDFORMAT_END
 95
       16
302
GRIDFORMAT
  1
GRIDFORMAT_BEGIN
 90
        0
 91
        1
 62
     0
 92
       -2
340
0
 93
        0
 40
0.045
309
GRIDFORMAT_END
 95
       32
302
GRIDFORMAT
  1
GRIDFORMAT_BEGIN
 90
        0
 91
        1
 62
     0
 92
       -2
340
0
 93
        0
 40
0.045
309
GRIDFORMAT_END
309
TABLEFORMAT_END
  1
CELLSTYLE_BEGIN
 90
        3
 91
        2
300
_DATA
309
CELLSTYLE_END
  0
CELLSTYLEMAP
  5
2B24A
102
{ACAD_REACTORS
330
2B249
102
}
330
2B249
100
AcDbCellStyleMap
 90
        3
300
CELLSTYLE
  1
TABLEFORMAT_BEGIN
 90
        5
170
     1
 91
        0
 92
    32768
 62
   257
 93
        1
300
CONTENTFORMAT
  1
CONTENTFORMAT_BEGIN
 90
        0
 91
        0
 92
      512
 93
        0
300

 40
0.0
140
1.0
 94
        5
 62
     0
340
11
144
6.0
309
CONTENTFORMAT_END
171
     1
301
MARGIN
  1
CELLMARGIN_BEGIN
 40
1.5
 40
1.5
 40
1.5
 40
1.5
 40
0.18
 40
0.18
309
CELLMARGIN_END
 94
        6
 95
        1
302
GRIDFORMAT
  1
GRIDFORMAT_BEGIN
 90
        0
 91
        1
 62
     0
 92
       -2
340
0
 93
        0
 40
0.045
309
GRIDFORMAT_END
 95
        2
302
GRIDFORMAT
  1
GRIDFORMAT_BEGIN
 90
        0
 91
        1
 62
     0
 92
       -2
340
0
 93
        0
 40
0.045
309
GRIDFORMAT_END
 95
        4
302
GRIDFORMAT
  1
GRIDFORMAT_BEGIN
 90
        0
 91
        1
 62
     0
 92
       -2
340
0
 93
        0
 40
0.045
309
GRIDFORMAT_END
 95
        8
302
GRIDFORMAT
  1
GRIDFORMAT_BEGIN
 90
        0
 91
        1
 62
     0
 92
       -2
340
0
 93
        0
 40
0.045
309
GRIDFORMAT_END
 95
       16
302
GRIDFORMAT
  1
GRIDFORMAT_BEGIN
 90
        0
 91
        1
 62
     0
 92
       -2
340
0
 93
        0
 40
0.045
309
GRIDFORMAT_END
 95
       32
302
GRIDFORMAT
  1
GRIDFORMAT_BEGIN
 90
        0
 91
        1
 62
     0
 92
       -2
340
0
 93
        0
 40
0.045
309
GRIDFORMAT_END
309
TABLEFORMAT_END
  1
CELLSTYLE_BEGIN
 90
        1
 91
        1
300
_TITLE
309
CELLSTYLE_END
300
CELLSTYLE
  1
TABLEFORMAT_BEGIN
 90
        5
170
     1
 91
        0
 92
        0
 62
   257
 93
        1
300
CONTENTFORMAT
  1
CONTENTFORMAT_BEGIN
 90
        0
 91
        0
 92
      512
 93
        0
300

 40
0.0
140
1.0
 94
        5
 62
     2
340
10EC
144
4.5
309
CONTENTFORMAT_END
171
     1
301
MARGIN
  1
CELLMARGIN_BEGIN
 40
1.5
 40
1.5
 40
1.5
 40
1.5
 40
0.18
 40
0.18
309
CELLMARGIN_END
 94
        6
 95
        1
302
GRIDFORMAT
  1
GRIDFORMAT_BEGIN
 90
        0
 91
        1
 62
     0
 92
       -2
340
0
 93
        0
 40
0.045
309
GRIDFORMAT_END
 95
        2
302
GRIDFORMAT
  1
GRIDFORMAT_BEGIN
 90
        0
 91
        1
 62
     0
 92
       -2
340
0
 93
        0
 40
0.045
309
GRIDFORMAT_END
 95
        4
302
GRIDFORMAT
  1
GRIDFORMAT_BEGIN
 90
        0
 91
        1
 62
     0
 92
       -2
340
0
 93
        0
 40
0.045
309
GRIDFORMAT_END
 95
        8
302
GRIDFORMAT
  1
GRIDFORMAT_BEGIN
 90
        0
 91
        1
 62
     0
 92
       -2
340
0
 93
        0
 40
0.045
309
GRIDFORMAT_END
 95
       16
302
GRIDFORMAT
  1
GRIDFORMAT_BEGIN
 90
        0
 91
        1
 62
     0
 92
       -2
340
0
 93
        0
 40
0.045
309
GRIDFORMAT_END
 95
       32
302
GRIDFORMAT
  1
GRIDFORMAT_BEGIN
 90
        0
 91
        1
 62
     0
 92
       -2
340
0
 93
        0
 40
0.045
309
GRIDFORMAT_END
309
TABLEFORMAT_END
  1
CELLSTYLE_BEGIN
 90
        2
 91
        1
300
_HEADER
309
CELLSTYLE_END
300
CELLSTYLE
  1
TABLEFORMAT_BEGIN
 90
        5
170
     1
 91
        0
 92
        0
 62
   257
 93
        1
300
CONTENTFORMAT
  1
CONTENTFORMAT_BEGIN
 90
        0
 91
        0
 92
      512
 93
        0
300

 40
0.0
140
1.0
 94
        2
 62
     2
340
10EC
144
4.5
309
CONTENTFORMAT_END
171
     1
301
MARGIN
  1
CELLMARGIN_BEGIN
 40
1.5
 40
1.5
 40
1.5
 40
1.5
 40
0.18
 40
0.18
309
CELLMARGIN_END
 94
        6
 95
        1
302
GRIDFORMAT
  1
GRIDFORMAT_BEGIN
 90
        0
 91
        1
 62
     0
 92
       -2
340
0
 93
        0
 40
0.045
309
GRIDFORMAT_END
 95
        2
302
GRIDFORMAT
  1
GRIDFORMAT_BEGIN
 90
        0
 91
        1
 62
     0
 92
       -2
340
0
 93
        0
 40
0.045
309
GRIDFORMAT_END
 95
        4
302
GRIDFORMAT
  1
GRIDFORMAT_BEGIN
 90
        0
 91
        1
 62
     0
 92
       -2
340
0
 93
        0
 40
0.045
309
GRIDFORMAT_END
 95
        8
302
GRIDFORMAT
  1
GRIDFORMAT_BEGIN
 90
        0
 91
        1
 62
     0
 92
       -2
340
0
 93
        0
 40
0.045
309
GRIDFORMAT_END
 95
       16
302
GRIDFORMAT
  1
GRIDFORMAT_BEGIN
 90
        0
 91
        1
 62
     0
 92
       -2
340
0
 93
        0
 40
0.045
309
GRIDFORMAT_END
 95
       32
302
GRIDFORMAT
  1
GRIDFORMAT_BEGIN
 90
        0
 91
        1
 62
     0
 92
       -2
340
0
 93
        0
 40
0.045
309
GRIDFORMAT_END
309
TABLEFORMAT_END
  1
CELLSTYLE_BEGIN
 90
        3
 91
        2
300
_DATA
309
CELLSTYLE_END
  0
ENDSEC
  0
SECTION
  2
ACDSDATA
 70
     2
 71
     6
  0
ACDSSCHEMA
 90
        0
  1
AcDb_Thumbnail_Schema
  2
AcDbDs::ID
280
    10
 91
        8
  2
Thumbnail_Data
280
    15
 91
        0
101
ACDSRECORD
 95
        0
 90
        1
  2
AcDbDs::TreatedAsObjectData
280
     1
291
     1
101
ACDSRECORD
 95
        0
 90
        2
  2
AcDbDs::Legacy
280
     1
291
     1
101
ACDSRECORD
  1
AcDbDs::ID
 90
        3
  2
AcDs:Indexable
280
     1
291
     1
101
ACDSRECORD
  1
AcDbDs::ID
 90
        4
  2
AcDbDs::HandleAttribute
280
     7
282
     1
  0
ACDSSCHEMA
 90
        1
  1
AcDbDs::TreatedAsObjectDataSchema
  2
AcDbDs::TreatedAsObjectData
280
     1
 91
        0
  0
ACDSSCHEMA
 90
        2
  1
AcDbDs::LegacySchema
  2
AcDbDs::Legacy
280
     1
 91
        0
  0
ACDSSCHEMA
 90
        3
  1
AcDbDs::IndexedPropertySchema
  2
AcDs:Indexable
280
     1
 91
        0
  0
ACDSSCHEMA
 90
        4
  1
AcDbDs::HandleAttributeSchema
  2
AcDbDs::HandleAttribute
280
     7
 91
        1
284
     1
  0
ACDSRECORD
 90
        0
  2
AcDbDs::ID
280
    10
320
22
  2
Thumbnail_Data
280
    15
 94
     2130
310
89504E470D0A1A0A0000000D49484452000001000000006C0803000000B2ED9CC100000300504C5445212830000000C8C8C80000000000000000000000000000000000000000000000000000330000660000990000CC0000FF0033000033330033660033990033CC0033FF0066000066330066660066990066CC0066FF0099
310
000099330099660099990099CC0099FF00CC0000CC3300CC6600CC9900CCCC00CCFF00FF0000FF3300FF6600FF9900FFCC00FFFF3300003300333300663300993300CC3300FF3333003333333333663333993333CC3333FF3366003366333366663366993366CC3366FF3399003399333399663399993399CC3399FF33CC00
310
33CC3333CC6633CC9933CCCC33CCFF33FF0033FF3333FF6633FF9933FFCC33FFFF6600006600336600666600996600CC6600FF6633006633336633666633996633CC6633FF6666006666336666666666996666CC6666FF6699006699336699666699996699CC6699FF66CC0066CC3366CC6666CC9966CCCC66CCFF66FF0066
310
FF3366FF6666FF9966FFCC66FFFF9900009900339900669900999900CC9900FF9933009933339933669933999933CC9933FF9966009966339966669966999966CC9966FF9999009999339999669999999999CC9999FF99CC0099CC3399CC6699CC9999CCCC99CCFF99FF0099FF3399FF6699FF9999FFCC99FFFFCC0000CC00
310
33CC0066CC0099CC00CCCC00FFCC3300CC3333CC3366CC3399CC33CCCC33FFCC6600CC6633CC6666CC6699CC66CCCC66FFCC9900CC9933CC9966CC9999CC99CCCC99FFCCCC00CCCC33CCCC66CCCC99CCCCCCCCCCFFCCFF00CCFF33CCFF66CCFF99CCFFCCCCFFFFFF0000FF0033FF0066FF0099FF00CCFF00FFFF3300FF3333
310
FF3366FF3399FF33CCFF33FFFF6600FF6633FF6666FF6699FF66CCFF66FFFF9900FF9933FF9966FF9999FF99CCFF99FFFFCC00FFCC33FFCC66FFCC99FFCCCCFFCCFFFFFF00FFFF33FFFF66FFFF99FFFFCCFFFFFF0000000D0D0D1A1A1A2828283535354343435050505D5D5D6B6B6B787878868686939393A1A1A1AEAEAEBB
310
BBBBC9C9C9D6D6D6E4E4E4F1F1F1FFFFFF000000000000000000000000000000000000000000000000000000000000B21171F60000050D4944415478DAED9D4DB6AB200C80B303B7C1E4ED7F01DD864BB8D3CC9F0A4280886045029673FA73AD7ACD671242082D405EFB63B722646EC6DC3D31FF94A517FB5DFBB31728B93D
310
01E0DED36295B3FD00F403007E00860530BD1C00A24AB5170098127BAAE135C0EB95470280390098C8E43100581B0062CE55A0DD933FA022006C0DC0DEFA495F0C7B44350046051AFA00DC6FC2DA0D22B9292F7182DAECE7A55900C81C332C002B3E01000C815101ACF2CF730880B1025564D778D2A98A01B0DAFF6C093800
310
310155203DFB5E2A009C5D2300A26B57B9E267A68B640020FABF5800500021015520BE6F026904AD01100FE000E83F7D022AD79EADE88E010A05B07A7B24F2C700B008800DA288061816F200E80BFCE7E4D791A007C0EC950B60977F797C4CD308D24AD80CC0BAD902D0E160048074062A4F7E2ABE468036B8120760D50013
310
037E0F60DFDB13DF6841CA11D406C0C623D3342DD2DAB6F47FC66697EDEB675B97B835D43B82711217E4878F19F16222686A6F02CE69B9FDA906E400D8CE1089BF3EA508B43681431F301799009A337E98061FC7B6231F7001C02E3F7DD1EFD9E1557300DB25DB2820EC0667D83BF20C0046013E1100CBE490404B00EB3309
310
8320060005009C01C41A20188047C00380C5003807802E1C9006C0F87D2E14E606F52AD703F0ED50059A0F878F46836136FD1CC0A74F00C0E7038A12229851842114C04680C90895A5C4CC016C36D9F625882201783A30D1211D9403708900174E9ADB2F17804E0B4649D1A2B4B80F40EBBBE7499B02384D4CE28E6007C01E
310
92E30308079318A02F87DD516B00766A845C2F5C034052618890E704B1FDDCA0BD7F139D27BB00C0CDAE62184C340490571FF0DDF478A0FC4E012801599120D79283FE2C00C074FFFB637800088785A0FD00B85C244532C881073C917F943239AB02F6D507807D00F8A285C301DA198ACC095600E08D07A218A0555AFC2900
310
8E0019FD50F98707406686A28E1004CE0C55231046C052E7066FEE053C02626787C38E3D8A7BA71B7440727D4010CB142CE8C92620AF42845E893ACFE40503B86202A53542EEDF3EA20150AA0197EC406E955839806B08C4D6092A3E1571E804F1891EF40740B4090C0E20142FD2081C5E03820DD30FC03D00D6D49A7ECC7D
310
99C07D00E6570320F3CD735F2670BA612C1F9033A90F03007072A8B3A1CB74F0E19614D7A9F1EDF556000FCE0DAAC40D8801D052793A3B70F33AEA1E00545D4A5E7FE9AC158575C9190054A4019D3AC114005B21125F99DA5500EAF8801E000CDB0D460068F4828FC82F1E406DF9DB01F0A76C79004F0443AD00207A299F03
310
0070BEF2B36B004E3A0640502E3F2680A04D6CA4F60600DEBCC8D8004C3CA7D7C7D9464780DE8A3ABDDF501AA0521AC00C827BD7002AD13900886702AA03787A6E50BDDB09CE330510EAFBC40CD44705A010CE96BA9840488D0AC0DABC593D6CB2C26892D9B65460B4D1A00A62821DC09A9A0901940E87A47FAB2C0BC0AE97
310
D100D04C67908458D9DD74B693B6AEB0D779AC46E810006C31108C0D806FF41B04F462DAC26F4F89D28828D307D0C68AC5C6BC03F9806B62150208233C3AB406BAB246A206DC08201855A0BF90F285005CD124A9A07E06C0B75F115ADB07345A38C989C54FE75FF401D127FE1F6E916DF5EF146D0220ACB4E500D8A5B66D7C
310
001F0F7C370FEA03C00480AE7F60E12E13F02B118701F0829FD84885B5DE9A61C829B6798B06C05931EE201A609FE9E24160D696F70C004B01A0BF92EAAD005AFA80B7FFD052D60DECE9A7B6FE038A7F57AC247562990000000049454E44AE426082
  0
ACDSRECORD
 90
        0
  2
AcDbDs::ID
280
    10
320
51
  2
Thumbnail_Data
280
    15
 94
     4181
310
89504E470D0A1A0A0000000D4948445200000100000000B5080300000087DCD12600000300504C5445000000000000FFFFFF0000000000000000000000000000000000000000000000000000330000660000990000CC0000FF0033000033330033660033990033CC0033FF0066000066330066660066990066CC0066FF0099
310
000099330099660099990099CC0099FF00CC0000CC3300CC6600CC9900CCCC00CCFF00FF0000FF3300FF6600FF9900FFCC00FFFF3300003300333300663300993300CC3300FF3333003333333333663333993333CC3333FF3366003366333366663366993366CC3366FF3399003399333399663399993399CC3399FF33CC00
310
33CC3333CC6633CC9933CCCC33CCFF33FF0033FF3333FF6633FF9933FFCC33FFFF6600006600336600666600996600CC6600FF6633006633336633666633996633CC6633FF6666006666336666666666996666CC6666FF6699006699336699666699996699CC6699FF66CC0066CC3366CC6666CC9966CCCC66CCFF66FF0066
310
FF3366FF6666FF9966FFCC66FFFF9900009900339900669900999900CC9900FF9933009933339933669933999933CC9933FF9966009966339966669966999966CC9966FF9999009999339999669999999999CC9999FF99CC0099CC3399CC6699CC9999CCCC99CCFF99FF0099FF3399FF6699FF9999FFCC99FFFFCC0000CC00
310
33CC0066CC0099CC00CCCC00FFCC3300CC3333CC3366CC3399CC33CCCC33FFCC6600CC6633CC6666CC6699CC66CCCC66FFCC9900CC9933CC9966CC9999CC99CCCC99FFCCCC00CCCC33CCCC66CCCC99CCCCCCCCCCFFCCFF00CCFF33CCFF66CCFF99CCFFCCCCFFFFFF0000FF0033FF0066FF0099FF00CCFF00FFFF3300FF3333
310
FF3366FF3399FF33CCFF33FFFF6600FF6633FF6666FF6699FF66CCFF66FFFF9900FF9933FF9966FF9999FF99CCFF99FFFFCC00FFCC33FFCC66FFCC99FFCCCCFFCCFFFFFF00FFFF33FFFF66FFFF99FFFFCCFFFFFF0000000D0D0D1A1A1A2828283535354343435050505D5D5D6B6B6B787878868686939393A1A1A1AEAEAEBB
310
BBBBC9C9C9D6D6D6E4E4E4F1F1F1FFFFFF000000000000000000000000000000000000000000000000000000000000C11FEF6600000D104944415478DAED9D4992B33A0C80FF1B700D367DFF03F81A5E694DD55B69FFF02CD93218830319A8EAA44348823E24599207FEE1776FFFFD43F8E6ED07C00088EA907667DBC7BEE1
310
017CEFF5FF01E000BEC9FBCB00BEE9DAFF007C10800E03F830004085B2FFD85D51A6D80026DBA700E0E300F8D86617007C0C80FAE957767E18805E1FF0411A80083C9EC9B58305C39F680214007C23809F0FF8F900F78448F27B62172C1FFE70007814007EAD0FF8E5029FA3014CDB6D6C4C6512EA00D70228F0324FFB7200
310
DCDCF9090E01B05F7A7935004103BC8F7C8106D02AF34BE4BFDB0734D6DF5E170AB35FA4F131AD048D7082ECCA23DEE7040B1F30DC09CABEF0AE64E88656809177AAF66A00F7074237B500439DE04B2FE3653E204FFD37728106006F81400000570040CC3E77E3A6A56DB40F2061CDC3018C0B845E1AD06D6CB3BC6D1445B1
310
AC09D2CE82F68E11DECD701B802381106C2543D8531112110C8562F57BFDD32201A6FF4D3EA01208ED00C83F55D4DB8655104A3BBF054030808A93516E1B6EF10580D90298EFD1003ECEC8887F3182D2CD1704E65C0FC695C5F31C5F3EE72B09CC0CC02C019819A9866CB08CCF8F39C1FDC05E8DF5FEB308809B00C21800C8
310
E3CA0701980F67835846827B009CF8F37E73F74A02A5029CF6017BB9C03CC3E300CCD540C87BAC54FD1253C4C650387C669EF3F0FB050092FED98719C90EFF5801C05BBC130088EAE7E177F2C2E64F85E88DFC69FABA3BC94D00564564F253AF9785C252B5A8AB1ED01CADA9D82CB356BCCCDB8E030804C002002B7A01E096
310
B23891522974AFA5AC15FAE5AF86A180750DF0DDC4909B00F4F8801D02609315BD4684F6939AFD4DEC752F00AAB748DBE51A80B2C93FE304F71038D9561340FFFA6A001BEEB1AA0162BAE635E0800F98F7375CAFBD1550270009C2445F9E28F68BF31DB2D06F48496CDE3FC3695501732E5A231015180F00A4D8F76A27D806
310
C010C060025EDE6B008034E82539335601F2E14F2517E8F401FB00D64D1B33209BF6BB747C81D9117816401AFB8395925866EEE300C0DAFC192330AD00251001D81642739F3408C0581FA02B1AA050398557AC65D0D63626E21184D0B289C0769FFB89A93EC700F048860639A211440D20D690E5609700C09DAE31E432F101
310
C4470108BD114E038CC6E7C10168A701CE1F6A210B3FD010D4CA65F05A00D2E9FDFDA9BF3F63E905010AA06A010D1132B3ED3CD1C0A30591BA0F804E27A82665BC9F330562045A1313D05213E072046822103E5828E07505913E00F1BBB4FD42A5D646415500D8FAB976EF05299A7224AC02C07ACF507B1C701280EB165825
310
53A997C0FE443401E70202804C647DC411E600B0C4340E807CAD56B140F98BAE54DE1278632016E08FE9890793E5FFFDFD09963D66BEC02CFB5ED661B87A016E8053103CDA822600265431686E2E131823CB0060B507678C0F20A7CA5BC42070BE1100C4336E74F0EF22A0A7556A515E0FA01591FEF9020D9160E040D2A304
310
805F196D32A689DAC0914211E99E9BB1E62ACB82C86500EA6735A16C025AD40C06E06896182BD415004103E07A0DA85C2B0A20B345AB15DCD65697B9360C570C2998E1B23142D01409D64CD688376539EE943FF10BA0A8027456CB2500AF4A863217E84514184F85FF3AE3040B02C218A157A7C3986442DCB90AB1841C4B47
310
18C3E18BFA905E5F130C15390C00B0A20140E76FAF7E8001803701209C2AE669A70C005B0EBEAA1771980FD0DB1B0A05FC893980543DA100DE4903A0A601C6A6950880951F6CB3ACB8FB7C271F209B80114405B346316EA300DCA1884CA7DED409C64E4F8C8E3D2B3C4DF9D11ED42813785DC748B86EC9049206908868AAE4
310
732145E8098577CB26BB6385BBFB05FCB85521F6B2971F4BAD2F007813D0472B428F00A02BFECAE5F8152728F5F2814A61D15BF980DA996626B003201C7A3A17B8C107E88D8A1D3402880D466F3ABC67026C9418101985E97CD7F40D5AB17C91ABD5040669C0CE28B1A10000B67201A20199095CEC031A4789C900A017801D
310
1CA4845EDFA9A8E8211FA774A90FBCA963C4EA3431ECED99D3B609304A902EFDB6FC470835CC193A5E16D7FBE363516145F3A6323132AC42F2D4920DA2AE5516A5C1DFBB71C061005A370C904067DB9B0068CB6FEDA515C05E5B9E79D83B00142B58C996E064B7A0FC5962BB5A036065D1D3BCE47271CF503B80BCC7CB7806
310
D3610418AF3B19D07144033600F0E9F13739C150E5320364E897D8FAB7423F8AC1FD9A390AB9605779766E029571343D93A6CAA939420C60474A190474B886520680F3F20E003DC406D0D8A6016C4D1A69BC30E63E80CDEB236B66F402881305E68A1D19D956E18827B41A106B1FAE3B806B49130284431A30AC6364DED07F
310
FFDB668C0091C8751728121D38F9156669149E0700451FE4E5C9D05CCD03431E6CC5B302C64BC27ACD272F7F3EA6416D23909B4171D870EBE4E9BE7AC02C5F7DE525C2287F7C5E3562726A61F778FD2FA71E9B6FC0EB003415448ED7038A09534EA54335C8696A90DB3F00DBE3FE13A6DEA13BF49A56604C41249F34E70C5A
310
01C9A842690CA8260415890FC612FEA4710DC179940389E900313E4E1ACB4911837C006F4F9DF02AADC7A5BC09A8861358ADE20F6BB6549B12C001486B75D138A0AAEDFD3E009365FB8B5C8EB6C4DCBD21B045ABA2B64B00BC41117BA90090E383F833DC0788ABC87402609EAD98B1105A01D5A0721500BEF148C6F3281FB0
310
A7D658E85B1973C57D35001142610245E05E29340CF401324429D22C5434DF075B0040F8298452D62A00960B40889EF1021FC0CF0E451FC0BF5E74CF5D00BAEA01B549052300280A800E8570A3E5D2D9F501389A0DB21972500E97A7C1D8000D60F861E215D8F5E9AF430342DBBF1F098EF001D33C85CD8E475A9F7D6CEF37
310
9C26360430EEC7F4384D2B0B7B9801403E9C6FF48D0E00B419F43E80BB273C6D0273A901180303B5A701CA6A40DE3574A90F48424933464E039825002E08F249CDB609A8BF09F39C78900FC8D6F46C01007D1A90BE366980D789C945374C03FCAED65AB010096E3583971745250020B528BC0D021980F501E03A8837579E6C
310
0500D704427B00C83697D56E1EFC9B5120E86BC4AE4723247ABE1924E5131A6267E9D0D9A22854678D756980CFF1FD9A15BC842302705758E71A403AC9E5CC215695C4A48A4C0440CC123E09005C0540A5CACF9CAD589D08F061902A4FA1D999AAAC8B3C2D7CA9A0282EF3981B2A9633D207CCE487E604B7001007BE00B3F1
310
242BE91751955BA1044B1300C03E80413E608ED58C541667B3FF421F7918F8C6D6EF20B2B2017258484FC49B1FE50366B1A34CA511E0B11F40816402B44E9C7AC6A01C4E207547895D634D45517959DDEB00A4C290F640BC2BD7DE65BA0268A871D845765C59340DABAC4603DD0086748CCCF59E423F679455C9759C160271
310
4581150B907E136B165BDD012D00E035C9D0360023914EA140DB0AFB886A6FD2D0153EE0C0F880130056041A9566F3E0CABC9BEF4D03259B34405C298094C92F1820710A0068656703C69F4BB32B5398E8E70E87B868B753781B00D60748ECDD6C6D08000866EF82591DDA4C304B6878303A268D4DA302E6BE74F8061F1009
310
C431224E1D20AD1C6383488D52717F840F60992F40B69658368BF13080790B407CE94128A3015EEF75D3656CF5012D2650594A0B3A3A471B340034144ED09A00163E10CE03C076008082065CBD965858522C2D21149F75BE138F033854121BD033B43F4C2A1BEFA9A5DD0787C376FA80410B2A1E0340FF992E0070AC244684
310
3A900C7D2C002856951D024056760D04C0D101E1DDCDE02D3E60288023DB5D3EC08BA7EF07D05B0F38EB03B48E8FFC698A6FE97700007D00FC625805004DDF7A15800145D1260D88730AD374481720BE16C0A01B2CF49B00BCD604FA95E61C8001DB0FC00FC02700383125F04334E06300F46E668649E7760B00FC5A1FF029
310
F71EFF01F801F801F801787300CB82576E4BDA369735780E005C119C3C0B22F442BE28EC126F52F92400EBA9A6BB07D6026C722F232FF4FA1F13BA5A0BD1FCC82702D09B00A495FC96EDC5488A550CA8813C1480393114D5BB5C8E54132ED05C0D73DFF6480D88EEB066D31D5F4A0A7681D2434DA074E1A257AF797C797F09
310
803BC8476A40E9B3E8492FD451109B61FB21ED8F355AFF7D8F6E0598DAEBCA4AAE4110844510DAED5FC8A287CCF01F1D08659A5C5B45C8EF77C79263E8FEB8846B4DFA1C003C440388C68BBE1D9917378FBAB23F3FBEB322749B0F088D5E76E6482EA6FB5F2FF2FEF2FFF702903480B9C1F2EAEA8DABCEF73F1D8033DD30DD
310
C6FA31DA9EAD0FBA9ADA48BBED473633ACC76940B87B94BF89127F5AC2AD959AA22273DCDE91CF04A06B00D8BDA57663C31518C623DFC504B8362FC22BF4C2847C7009B921A40E79DF2A90DB9EBC8D136411EA820B7F455FB27430BFC9710900E8714F368125F800084A1FDA311BD2423481CAAD9DF51600BD0DE019A1B068
310
FCE0627A7B0D330050BD674709005201E1B1B980DC0A2C91CEA2B74F8F264D0C4071D48393A1A530FE94044170ED7B148CD16C4AB26C14446EDF968D57B8B456845B0E12017CDDF603F003E000EC4EDEFFD837B240E81B75E007E01F7EF7F6DFFFC74965CB58BC5AB50000000049454E44AE426082
  0
ENDSEC
  0
EOF
