  0
SECTION
  2
HEADER
  9
$ACADVER
  1
AC1027
  9
$ACADMAINTVER
 70
    57
  9
$DWGCODEPAGE
  3
ANSI_932
  9
$LASTSAVEDBY
  1
kashikeiQC
  9
$REQUIREDVERSIONS
160
                 0
  9
$INSBASE
 10
0.0
 20
0.0
 30
0.0
  9
$EXTMIN
 10
4.980473845854021
 20
-0.01780008135961
 30
-0.0000000000000152
  9
$EXTMAX
 10
425.0133208823833
 20
297.0182604490534
 30
0.0
  9
$LIMMIN
 10
0.0
 20
0.0
  9
$LIMMAX
 10
420.0
 20
297.0
  9
$ORTHOMODE
 70
     1
  9
$REGENMODE
 70
     1
  9
$FILLMODE
 70
     1
  9
$QTEXTMODE
 70
     0
  9
$MIRRTEXT
 70
     1
  9
$LTSCALE
 40
0.3
  9
$ATTMODE
 70
     1
  9
$TEXTSIZE
 40
2.5
  9
$TRACEWID
 40
1.0
  9
$TEXTSTYLE
  7
Standard
  9
$CLAYER
  8
寸法
  9
$CELTYPE
  6
ByLayer
  9
$CECOLOR
 62
   256
  9
$CELTSCALE
 40
1.0
  9
$DISPSILH
 70
     0
  9
$DIMSCALE
 40
1.0
  9
$DIMASZ
 40
2.5
  9
$DIMEXO
 40
0.625
  9
$DIMDLI
 40
3.75
  9
$DIMRND
 40
0.0
  9
$DIMDLE
 40
0.0
  9
$DIMEXE
 40
1.25
  9
$DIMTP
 40
0.0
  9
$DIMTM
 40
0.0
  9
$DIMTXT
 40
3.5
  9
$DIMCEN
 40
2.5
  9
$DIMTSZ
 40
0.0
  9
$DIMTOL
 70
     0
  9
$DIMLIM
 70
     0
  9
$DIMTIH
 70
     0
  9
$DIMTOH
 70
     0
  9
$DIMSE1
 70
     0
  9
$DIMSE2
 70
     0
  9
$DIMTAD
 70
     1
  9
$DIMZIN
 70
     8
  9
$DIMBLK
  1

  9
$DIMASO
 70
     1
  9
$DIMSHO
 70
     1
  9
$DIMPOST
  1

  9
$DIMAPOST
  1

  9
$DIMALT
 70
     0
  9
$DIMALTD
 70
     3
  9
$DIMALTF
 40
0.03937007874016
  9
$DIMLFAC
 40
1.0
  9
$DIMTOFL
 70
     1
  9
$DIMTVP
 40
0.0
  9
$DIMTIX
 70
     0
  9
$DIMSOXD
 70
     0
  9
$DIMSAH
 70
     0
  9
$DIMBLK1
  1

  9
$DIMBLK2
  1

  9
$DIMSTYLE
  2
ｺﾋﾟｰ - ISO-25
  9
$DIMCLRD
 70
     0
  9
$DIMCLRE
 70
     0
  9
$DIMCLRT
 70
     2
  9
$DIMTFAC
 40
1.0
  9
$DIMGAP
 40
1.0
  9
$DIMJUST
 70
     0
  9
$DIMSD1
 70
     0
  9
$DIMSD2
 70
     0
  9
$DIMTOLJ
 70
     0
  9
$DIMTZIN
 70
     8
  9
$DIMALTZ
 70
     0
  9
$DIMALTTZ
 70
     0
  9
$DIMUPT
 70
     0
  9
$DIMDEC
 70
     1
  9
$DIMTDEC
 70
     1
  9
$DIMALTU
 70
     2
  9
$DIMALTTD
 70
     3
  9
$DIMTXSTY
  7
寸法
  9
$DIMAUNIT
 70
     0
  9
$DIMADEC
 70
     0
  9
$DIMALTRND
 40
0.0
  9
$DIMAZIN
 70
     0
  9
$DIMDSEP
 70
    46
  9
$DIMATFIT
 70
     3
  9
$DIMFRAC
 70
     0
  9
$DIMLDRBLK
  1

  9
$DIMLUNIT
 70
     2
  9
$DIMLWD
 70
    -2
  9
$DIMLWE
 70
    -2
  9
$DIMTMOVE
 70
     0
  9
$DIMFXL
 40
1.0
  9
$DIMFXLON
 70
     0
  9
$DIMJOGANG
 40
0.7853981633974483
  9
$DIMTFILL
 70
     0
  9
$DIMTFILLCLR
 70
     0
  9
$DIMARCSYM
 70
     0
  9
$DIMLTYPE
  6

  9
$DIMLTEX1
  6

  9
$DIMLTEX2
  6

  9
$DIMTXTDIRECTION
 70
     0
  9
$LUNITS
 70
     2
  9
$LUPREC
 70
     4
  9
$SKETCHINC
 40
1.0
  9
$FILLETRAD
 40
1.0
  9
$AUNITS
 70
     0
  9
$AUPREC
 70
     0
  9
$MENU
  1
.
  9
$ELEVATION
 40
0.0
  9
$PELEVATION
 40
0.0
  9
$THICKNESS
 40
0.0
  9
$LIMCHECK
 70
     0
  9
$CHAMFERA
 40
0.0
  9
$CHAMFERB
 40
0.0
  9
$CHAMFERC
 40
20.0
  9
$CHAMFERD
 40
0.0
  9
$SKPOLY
 70
     0
  9
$TDCREATE
 40
2452970.700528056
  9
$TDUCREATE
 40
2452970.325528056
  9
$TDUPDATE
 40
2458841.666250301
  9
$TDUUPDATE
 40
2458841.291250301
  9
$TDINDWG
 40
1.9622992361
  9
$TDUSRTIMER
 40
1.9622982986
  9
$USRTIMER
 70
     1
  9
$ANGBASE
 50
0.0
  9
$ANGDIR
 70
     0
  9
$PDMODE
 70
     3
  9
$PDSIZE
 40
-3.0
  9
$PLINEWID
 40
0.0
  9
$SPLFRAME
 70
     0
  9
$SPLINETYPE
 70
     6
  9
$SPLINESEGS
 70
     8
  9
$HANDSEED
  5
2D69E
  9
$SURFTAB1
 70
     6
  9
$SURFTAB2
 70
     6
  9
$SURFTYPE
 70
     6
  9
$SURFU
 70
     6
  9
$SURFV
 70
     6
  9
$UCSBASE
  2

  9
$UCSNAME
  2

  9
$UCSORG
 10
0.0
 20
0.0
 30
0.0
  9
$UCSXDIR
 10
1.0
 20
0.0
 30
0.0
  9
$UCSYDIR
 10
0.0
 20
1.0
 30
0.0
  9
$UCSORTHOREF
  2

  9
$UCSORTHOVIEW
 70
     0
  9
$UCSORGTOP
 10
0.0
 20
0.0
 30
0.0
  9
$UCSORGBOTTOM
 10
0.0
 20
0.0
 30
0.0
  9
$UCSORGLEFT
 10
0.0
 20
0.0
 30
0.0
  9
$UCSORGRIGHT
 10
0.0
 20
0.0
 30
0.0
  9
$UCSORGFRONT
 10
0.0
 20
0.0
 30
0.0
  9
$UCSORGBACK
 10
0.0
 20
0.0
 30
0.0
  9
$PUCSBASE
  2

  9
$PUCSNAME
  2

  9
$PUCSORG
 10
0.0
 20
0.0
 30
0.0
  9
$PUCSXDIR
 10
1.0
 20
0.0
 30
0.0
  9
$PUCSYDIR
 10
0.0
 20
1.0
 30
0.0
  9
$PUCSORTHOREF
  2

  9
$PUCSORTHOVIEW
 70
     0
  9
$PUCSORGTOP
 10
0.0
 20
0.0
 30
0.0
  9
$PUCSORGBOTTOM
 10
0.0
 20
0.0
 30
0.0
  9
$PUCSORGLEFT
 10
0.0
 20
0.0
 30
0.0
  9
$PUCSORGRIGHT
 10
0.0
 20
0.0
 30
0.0
  9
$PUCSORGFRONT
 10
0.0
 20
0.0
 30
0.0
  9
$PUCSORGBACK
 10
0.0
 20
0.0
 30
0.0
  9
$USERI1
 70
     0
  9
$USERI2
 70
     0
  9
$USERI3
 70
     0
  9
$USERI4
 70
     0
  9
$USERI5
 70
     0
  9
$USERR1
 40
0.0
  9
$USERR2
 40
0.0
  9
$USERR3
 40
0.0
  9
$USERR4
 40
0.0
  9
$USERR5
 40
0.0
  9
$WORLDVIEW
 70
     1
  9
$SHADEDGE
 70
     3
  9
$SHADEDIF
 70
    70
  9
$TILEMODE
 70
     1
  9
$MAXACTVP
 70
    64
  9
$PINSBASE
 10
0.0
 20
0.0
 30
0.0
  9
$PLIMCHECK
 70
     0
  9
$PEXTMIN
 10
-58.82240024691737
 20
-86.72323328256494
 30
0.0
  9
$PEXTMAX
 10
448.1718497119468
 20
324.5569721112054
 30
0.0
  9
$PLIMMIN
 10
-3.757080078125
 20
-3.757083415985107
  9
$PLIMMAX
 10
416.2601318359374
 20
293.2112393379211
  9
$UNITMODE
 70
     0
  9
$VISRETAIN
 70
     1
  9
$PLINEGEN
 70
     0
  9
$PSLTSCALE
 70
     1
  9
$TREEDEPTH
 70
  3020
  9
$CMLSTYLE
  2
Standard
  9
$CMLJUST
 70
     0
  9
$CMLSCALE
 40
20.0
  9
$PROXYGRAPHICS
 70
     1
  9
$MEASUREMENT
 70
     1
  9
$CELWEIGHT
370
    -1
  9
$ENDCAPS
280
     0
  9
$JOINSTYLE
280
     0
  9
$LWDISPLAY
290
     0
  9
$INSUNITS
 70
     4
  9
$HYPERLINKBASE
  1

  9
$STYLESHEET
  1
monochrome.ctb
  9
$XEDIT
290
     1
  9
$CEPSNTYPE
380
     0
  9
$PSTYLEMODE
290
     1
  9
$FINGERPRINTGUID
  2
{FDEAD578-A652-11D2-9A35-0060089B3A3F}
  9
$VERSIONGUID
  2
{5D6227F2-8393-4160-9F4C-2D29793A6A46}
  9
$EXTNAMES
290
     1
  9
$PSVPSCALE
 40
0.0
  9
$OLESTARTUP
290
     0
  9
$SORTENTS
280
   127
  9
$INDEXCTL
280
     0
  9
$HIDETEXT
280
     1
  9
$XCLIPFRAME
280
     0
  9
$HALOGAP
280
     0
  9
$OBSCOLOR
 70
   257
  9
$OBSLTYPE
280
     0
  9
$INTERSECTIONDISPLAY
280
     0
  9
$INTERSECTIONCOLOR
 70
   257
  9
$DIMASSOC
280
     2
  9
$PROJECTNAME
  1

  9
$CAMERADISPLAY
290
     0
  9
$LENSLENGTH
 40
50.0
  9
$CAMERAHEIGHT
 40
0.0
  9
$STEPSPERSEC
 40
2.0
  9
$STEPSIZE
 40
6.0
  9
$3DDWFPREC
 40
2.0
  9
$PSOLWIDTH
 40
0.25
  9
$PSOLHEIGHT
 40
4.0
  9
$LOFTANG1
 40
1.570796326794896
  9
$LOFTANG2
 40
1.570796326794896
  9
$LOFTMAG1
 40
0.0
  9
$LOFTMAG2
 40
0.0
  9
$LOFTPARAM
 70
     7
  9
$LOFTNORMALS
280
     1
  9
$LATITUDE
 40
37.795
  9
$LONGITUDE
 40
-122.394
  9
$NORTHDIRECTION
 40
0.0
  9
$TIMEZONE
 70
 -8000
  9
$LIGHTGLYPHDISPLAY
280
     1
  9
$TILEMODELIGHTSYNCH
280
     1
  9
$CMATERIAL
347
2762
  9
$SOLIDHIST
280
     1
  9
$SHOWHIST
280
     1
  9
$DWFFRAME
280
     2
  9
$DGNFRAME
280
     0
  9
$REALWORLDSCALE
290
     1
  9
$INTERFERECOLOR
 62
     1
  9
$INTERFEREOBJVS
345
276F
  9
$INTERFEREVPVS
346
276C
  9
$CSHADOW
280
     0
  9
$SHADOWPLANELOCATION
 40
0.0
  0
ENDSEC
  0
SECTION
  2
CLASSES
  0
CLASS
  1
ACDBDICTIONARYWDFLT
  2
AcDbDictionaryWithDefault
  3
ObjectDBX Classes
 90
        0
 91
        1
280
     0
281
     0
  0
CLASS
  1
DICTIONARYVAR
  2
AcDbDictionaryVar
  3
ObjectDBX Classes
 90
        0
 91
       11
280
     0
281
     0
  0
CLASS
  1
DIMASSOC
  2
AcDbDimAssoc
  3
"AcDbDimAssoc|Product Desc:     AcDim ARX App For Dimension|Company:          Autodesk, Inc.|WEB Address:      www.autodesk.com"
 90
        0
 91
        4
280
     0
281
     0
  0
CLASS
  1
PLOTSETTINGS
  2
AcDbPlotSettings
  3
ObjectDBX Classes
 90
        0
 91
        1
280
     0
281
     0
  0
CLASS
  1
MATERIAL
  2
AcDbMaterial
  3
ObjectDBX Classes
 90
     1153
 91
        3
280
     0
281
     0
  0
CLASS
  1
VISUALSTYLE
  2
AcDbVisualStyle
  3
ObjectDBX Classes
 90
     4095
 91
       26
280
     0
281
     0
  0
CLASS
  1
TABLESTYLE
  2
AcDbTableStyle
  3
ObjectDBX Classes
 90
     4095
 91
        2
280
     0
281
     0
  0
CLASS
  1
SORTENTSTABLE
  2
AcDbSortentsTable
  3
ObjectDBX Classes
 90
        0
 91
        2
280
     0
281
     0
  0
CLASS
  1
ACAD_EVALUATION_GRAPH
  2
AcDbEvalGraph
  3
ObjectDBX Classes
 90
     1153
 91
        0
280
     0
281
     0
  0
CLASS
  1
ACAECUSTOBJ
  2
AcAeEditorObj
  3
AcAeEditorObj
 90
     1024
 91
        0
280
     0
281
     0
  0
CLASS
  1
ACDB_DYNAMICBLOCKPURGEPREVENTER_VERSION
  2
AcDbDynamicBlockPurgePreventer
  3
ObjectDBX Classes
 90
     1153
 91
        0
280
     0
281
     0
  0
CLASS
  1
ACAD_TABLE
  2
AcDbTable
  3
ObjectDBX Classes
 90
     1025
 91
        0
280
     0
281
     1
  0
CLASS
  1
SCALE
  2
AcDbScale
  3
ObjectDBX Classes
 90
     1153
 91
       17
280
     0
281
     0
  0
CLASS
  1
MLEADERSTYLE
  2
AcDbMLeaderStyle
  3
ACDB_MLEADERSTYLE_CLASS
 90
     4095
 91
        1
280
     0
281
     0
  0
CLASS
  1
TABLECONTENT
  2
AcDbTableContent
  3
ObjectDBX Classes
 90
     1152
 91
        0
280
     0
281
     0
  0
CLASS
  1
TABLEGEOMETRY
  2
AcDbTableGeometry
  3
ObjectDBX Classes
 90
     1152
 91
        0
280
     0
281
     0
  0
CLASS
  1
ACDBSECTIONVIEWSTYLE
  2
AcDbSectionViewStyle
  3
ObjectDBX Classes
 90
     1025
 91
        1
280
     0
281
     0
  0
CLASS
  1
ACDBDETAILVIEWSTYLE
  2
AcDbDetailViewStyle
  3
ObjectDBX Classes
 90
     1025
 91
        1
280
     0
281
     0
  0
CLASS
  1
CELLSTYLEMAP
  2
AcDbCellStyleMap
  3
ObjectDBX Classes
 90
     1152
 91
        2
280
     0
281
     0
  0
ENDSEC
  0
SECTION
  2
TABLES
  0
TABLE
  2
VPORT
  5
8
330
0
100
AcDbSymbolTable
 70
     1
  0
VPORT
  5
275F
330
8
100
AcDbSymbolTableRecord
100
AcDbViewportTableRecord
  2
*Active
 70
     0
 10
0.0
 20
0.0
 11
1.0
 21
1.0
 12
297.1003221663625
 22
155.0925302580385
 13
0.0
 23
0.0
 14
10.0
 24
10.0
 15
10.0
 25
10.0
 16
0.0
 26
0.0
 36
1.0
 17
0.0
 27
0.0
 37
0.0
 40
304.0340611460712
 41
2.412903225806451
 42
50.0
 43
0.0
 44
0.0
 50
0.0
 51
0.0
 71
     0
 72
   100
 73
     1
 74
     3
 75
     0
 76
     0
 77
     0
 78
     0
281
     0
 65
     1
110
0.0
120
0.0
130
0.0
111
1.0
121
0.0
131
0.0
112
0.0
122
1.0
132
0.0
 79
     0
146
0.0
348
276B
 60
     3
 61
     5
292
     1
282
     1
141
0.0
142
0.0
 63
   250
421
  3355443
1001
ACAD_NAV_VCDISPLAY
1070
     3
  0
ENDTAB
  0
TABLE
  2
LTYPE
  5
5
330
0
100
AcDbSymbolTable
 70
     4
  0
LTYPE
  5
14
330
5
100
AcDbSymbolTableRecord
100
AcDbLinetypeTableRecord
  2
ByBlock
 70
     0
  3

 72
    65
 73
     0
 40
0.0
  0
LTYPE
  5
15
330
5
100
AcDbSymbolTableRecord
100
AcDbLinetypeTableRecord
  2
ByLayer
 70
     0
  3

 72
    65
 73
     0
 40
0.0
  0
LTYPE
  5
16
330
5
100
AcDbSymbolTableRecord
100
AcDbLinetypeTableRecord
  2
Continuous
 70
     0
  3
Solid line
 72
    65
 73
     0
 40
0.0
  0
LTYPE
  5
A5
330
5
100
AcDbSymbolTableRecord
100
AcDbLinetypeTableRecord
  2
CENTER
 70
     0
  3
Center ____ _ ____ _ ____ _ ____ _ ____ _ ____
 72
    65
 73
     4
 40
50.8
 49
31.75
 74
     0
 49
-6.349999999999998
 74
     0
 49
6.349999999999998
 74
     0
 49
-6.349999999999998
 74
     0
  0
LTYPE
  5
A6
330
5
100
AcDbSymbolTableRecord
100
AcDbLinetypeTableRecord
  2
HIDDEN
 70
     0
  3
Hidden __ __ __ __ __ __ __ __ __ __ __ __ __ _
 72
    65
 73
     2
 40
9.524999999999996
 49
6.349999999999998
 74
     0
 49
-3.174999999999998
 74
     0
  0
LTYPE
  5
2365
330
5
100
AcDbSymbolTableRecord
100
AcDbLinetypeTableRecord
  2
DIVIDE
 70
     0
  3
Divide ____ . . ____ . . ____ . . ____ . . ____
 72
    65
 73
     6
 40
31.74999999999999
 49
12.7
 74
     0
 49
-6.349999999999998
 74
     0
 49
0.0
 74
     0
 49
-6.349999999999998
 74
     0
 49
0.0
 74
     0
 49
-6.349999999999998
 74
     0
  0
ENDTAB
  0
TABLE
  2
LAYER
  5
2
102
{ACAD_XDICTIONARY
360
279F
102
}
330
0
100
AcDbSymbolTable
 70
    12
  0
LAYER
  5
10
102
{ACAD_XDICTIONARY
360
24E13
102
}
330
2
100
AcDbSymbolTableRecord
100
AcDbLayerTableRecord
  2
0
 70
     0
 62
     7
  6
Continuous
370
    -3
390
F
347
2764
348
0
  0
LAYER
  5
A7
102
{ACAD_XDICTIONARY
360
24E15
102
}
330
2
100
AcDbSymbolTableRecord
100
AcDbLayerTableRecord
  2
破線
 70
     0
 62
     4
  6
HIDDEN
370
    20
390
F
347
2764
348
0
  0
LAYER
  5
A8
102
{ACAD_XDICTIONARY
360
24E17
102
}
330
2
100
AcDbSymbolTableRecord
100
AcDbLayerTableRecord
  2
一点鎖線
 70
     0
 62
     5
  6
CENTER
370
    15
390
F
347
2764
348
0
  0
LAYER
  5
A9
102
{ACAD_XDICTIONARY
360
24E19
102
}
330
2
100
AcDbSymbolTableRecord
100
AcDbLayerTableRecord
  2
補助線
 70
     0
 62
     8
  6
Continuous
290
     0
370
    -3
390
F
347
2764
348
0
  0
LAYER
  5
AA
102
{ACAD_XDICTIONARY
360
24E1B
102
}
330
2
100
AcDbSymbolTableRecord
100
AcDbLayerTableRecord
  2
実線
 70
     0
 62
     7
  6
Continuous
370
    -3
390
F
347
2764
348
0
  0
LAYER
  5
AB
102
{ACAD_XDICTIONARY
360
24E1D
102
}
330
2
100
AcDbSymbolTableRecord
100
AcDbLayerTableRecord
  2
寸法
 70
     0
 62
     3
  6
Continuous
370
    15
390
F
347
2764
348
0
  0
LAYER
  5
AC
102
{ACAD_XDICTIONARY
360
24E1F
102
}
330
2
100
AcDbSymbolTableRecord
100
AcDbLayerTableRecord
  2
文字
 70
     0
 62
     2
  6
Continuous
370
    15
390
F
347
2764
348
0
  0
LAYER
  5
185
330
2
100
AcDbSymbolTableRecord
100
AcDbLayerTableRecord
  2
Defpoints
 70
     0
 62
     7
  6
Continuous
290
     0
370
    -3
390
F
347
2764
348
0
  0
LAYER
  5
58C
102
{ACAD_XDICTIONARY
360
24E21
102
}
330
2
100
AcDbSymbolTableRecord
100
AcDbLayerTableRecord
  2
細線
 70
     0
 62
     6
  6
Continuous
370
     9
390
F
347
2764
348
0
  0
LAYER
  5
1023
102
{ACAD_XDICTIONARY
360
24E23
102
}
330
2
100
AcDbSymbolTableRecord
100
AcDbLayerTableRecord
  2
太線
 70
     0
 62
     3
  6
Continuous
370
    40
390
F
347
2764
348
0
  0
LAYER
  5
2366
102
{ACAD_XDICTIONARY
360
24E25
102
}
330
2
100
AcDbSymbolTableRecord
100
AcDbLayerTableRecord
  2
二点鎖線
 70
     0
 62
     1
  6
DIVIDE
370
    20
390
F
347
2764
348
0
  0
LAYER
  5
2BFD0
330
2
100
AcDbSymbolTableRecord
100
AcDbLayerTableRecord
  2
寸法2
 70
     0
 62
     3
  6
Continuous
370
     9
390
F
347
2764
348
0
1001
AcAecLayerStandard
1000

1000

  0
ENDTAB
  0
TABLE
  2
STYLE
  5
3
330
0
100
AcDbSymbolTable
 70
    18
  0
STYLE
  5
11
330
3
100
AcDbSymbolTableRecord
100
AcDbTextStyleTableRecord
  2
Standard
 70
     0
 40
2.5
 41
0.8
 50
0.0
 71
     0
 42
2.5
  3
romans.shx
  4
bigfont.shx
  0
STYLE
  5
A4
330
3
100
AcDbSymbolTableRecord
100
AcDbTextStyleTableRecord
  2

 70
     1
 40
0.0
 41
1.0
 50
0.0
 71
     0
 42
2.5
  3
ltypeshp.shx
  4

  0
STYLE
  5
2A5
330
3
100
AcDbSymbolTableRecord
100
AcDbTextStyleTableRecord
  2
寸法
 70
     0
 40
0.0
 41
0.75
 50
0.0
 71
     0
 42
2.5
  3
romans.shx
  4
bigfont.shx
  0
STYLE
  5
109D
330
3
100
AcDbSymbolTableRecord
100
AcDbTextStyleTableRecord
  2
縦書き
 70
     4
 40
3.0
 41
0.8
 50
0.0
 71
     0
 42
3.0
  3
romans.shx
  4
bigfont.shx
  0
STYLE
  5
10EC
330
3
100
AcDbSymbolTableRecord
100
AcDbTextStyleTableRecord
  2
ｽﾀｲﾙ1
 70
     0
 40
3.0
 41
0.8
 50
0.0
 71
     0
 42
3.0
  3
romans.shx
  4
bigfont.shx
  0
STYLE
  5
114D
330
3
100
AcDbSymbolTableRecord
100
AcDbTextStyleTableRecord
  2
ｽﾀｲﾙ2
 70
     0
 40
9.0
 41
1.0
 50
0.0
 71
     0
 42
9.0
  3
swisscbo.ttf
  4

1001
ACAD
1000
Swis721 BdCnOul BT
1071
       82
  0
STYLE
  5
2367
330
3
100
AcDbSymbolTableRecord
100
AcDbTextStyleTableRecord
  2
ｽﾀｲﾙ3
 70
     0
 40
2.0
 41
1.0
 50
0.0
 71
     0
 42
2.0
  3
isocp.shx
  4
bigfont.shx
  0
STYLE
  5
2368
330
3
100
AcDbSymbolTableRecord
100
AcDbTextStyleTableRecord
  2
ｽﾀｲﾙ4
 70
     0
 40
4.5
 41
1.0
 50
0.0
 71
     0
 42
4.5
  3
swisscbo.ttf
  4

1001
ACAD
1000
Swis721 BdCnOul BT
1071
       82
  0
STYLE
  5
3AB5
330
3
100
AcDbSymbolTableRecord
100
AcDbTextStyleTableRecord
  2
スタイル1
 70
     0
 40
3.0
 41
0.8
 50
0.0
 71
     0
 42
3.0
  3
romans.shx
  4
bigfont.shx
  0
STYLE
  5
3E4F
330
3
100
AcDbSymbolTableRecord
100
AcDbTextStyleTableRecord
  2
hhhhhhhhhhhhhhhhhh
 70
     0
 40
1.5
 41
0.8
 50
0.0
 71
     0
 42
1.0
  3
bold.shx
  4
bigfont.shx
  0
STYLE
  5
3E50
330
3
100
AcDbSymbolTableRecord
100
AcDbTextStyleTableRecord
  2
書き込み
 70
     0
 40
2.5
 41
0.75
 50
0.0
 71
     0
 42
1.0
  3
romand.shx
  4
bigfont.shx
  0
STYLE
  5
24822
330
3
100
AcDbSymbolTableRecord
100
AcDbTextStyleTableRecord
  2
ﾛｺﾞ
 70
     0
 40
14.0
 41
0.7
 50
0.0
 71
     0
 42
2.5
  3
swisscbo.ttf
  4

1001
ACAD
1000
Swis721 BdCnOul BT
1071
       82
  0
STYLE
  5
264FC
330
3
100
AcDbSymbolTableRecord
100
AcDbTextStyleTableRecord
  2
寸法２
 70
     0
 40
1.8
 41
0.8
 50
0.0
 71
     0
 42
1.8
  3
romans.shx
  4
bigfont.shx
  0
STYLE
  5
264FD
330
3
100
AcDbSymbolTableRecord
100
AcDbTextStyleTableRecord
  2
カシケイ
 70
     0
 40
3.0
 41
0.8
 50
0.0
 71
     0
 42
2.5
  3
swisscbo.ttf
  4

1001
ACAD
1000
Swis721 BdCnOul BT
1071
       82
  0
STYLE
  5
29418
330
3
100
AcDbSymbolTableRecord
100
AcDbTextStyleTableRecord
  2
スタイル6
 70
     0
 40
3.0
 41
1.0
 50
0.0
 71
     0
 42
3.0
  3
swissc.ttf
  4

1001
ACAD
1000
Swis721 Cn BT
1071
       34
  0
STYLE
  5
29419
330
3
100
AcDbSymbolTableRecord
100
AcDbTextStyleTableRecord
  2
スタイル3
 70
     0
 40
9.0
 41
1.0
 50
0.0
 71
     0
 42
2.5
  3
swisscbo.ttf
  4

1001
ACAD
1000
Swis721 BdCnOul BT
1071
       82
  0
STYLE
  5
2A7F0
330
3
100
AcDbSymbolTableRecord
100
AcDbTextStyleTableRecord
  2
BIGFONT
 70
     0
 40
0.0
 41
1.0
 50
0.0
 71
     0
 42
20.0
  3
txt.shx
  4
bigfont
  0
ENDTAB
  0
TABLE
  2
VIEW
  5
6
330
0
100
AcDbSymbolTable
 70
     0
  0
ENDTAB
  0
TABLE
  2
UCS
  5
7
330
0
100
AcDbSymbolTable
 70
     0
  0
ENDTAB
  0
TABLE
  2
APPID
  5
9
330
0
100
AcDbSymbolTable
 70
    13
  0
APPID
  5
12
330
9
100
AcDbSymbolTableRecord
100
AcDbRegAppTableRecord
  2
ACAD
 70
     0
  0
APPID
  5
2789
330
9
100
AcDbSymbolTableRecord
100
AcDbRegAppTableRecord
  2
ACAD_PSEXT
 70
     0
  0
APPID
  5
28B6
330
9
100
AcDbSymbolTableRecord
100
AcDbRegAppTableRecord
  2
ACAD_EXEMPT_FROM_CAD_STANDARDS
 70
     0
  0
APPID
  5
2977
330
9
100
AcDbSymbolTableRecord
100
AcDbRegAppTableRecord
  2
ACAUTHENVIRON
 70
     0
  0
APPID
  5
29B0
330
9
100
AcDbSymbolTableRecord
100
AcDbRegAppTableRecord
  2
AcDbDynamicBlockTrueName
 70
     0
  0
APPID
  5
29B1
330
9
100
AcDbSymbolTableRecord
100
AcDbRegAppTableRecord
  2
AcDbDynamicBlockGUID
 70
     0
  0
APPID
  5
29B3
330
9
100
AcDbSymbolTableRecord
100
AcDbRegAppTableRecord
  2
AcDbBlockRepETag
 70
     0
  0
APPID
  5
24823
330
9
100
AcDbSymbolTableRecord
100
AcDbRegAppTableRecord
  2
ACAD_DSTYLE_DIMJAG
 70
     0
  0
APPID
  5
24824
330
9
100
AcDbSymbolTableRecord
100
AcDbRegAppTableRecord
  2
ACAD_DSTYLE_DIMTALN
 70
     0
  0
APPID
  5
2867E
330
9
100
AcDbSymbolTableRecord
100
AcDbRegAppTableRecord
  2
ACAD_DSTYLE_DIMRADIAL_EXTENSION
 70
     0
  0
APPID
  5
2A28D
330
9
100
AcDbSymbolTableRecord
100
AcDbRegAppTableRecord
  2
AcadAnnoPO
 70
     0
  0
APPID
  5
2BFD1
330
9
100
AcDbSymbolTableRecord
100
AcDbRegAppTableRecord
  2
AcAecLayerStandard
 70
     0
  0
APPID
  5
2D694
330
9
100
AcDbSymbolTableRecord
100
AcDbRegAppTableRecord
  2
ACAD_NAV_VCDISPLAY
 70
     0
  0
ENDTAB
  0
TABLE
  2
DIMSTYLE
  5
A
330
0
100
AcDbSymbolTable
 70
     3
100
AcDbDimStyleTable
 71
     2
340
FF
340
27
  0
DIMSTYLE
105
27
330
A
100
AcDbSymbolTableRecord
100
AcDbDimStyleTableRecord
  2
ISO-25
 70
     0
 41
2.5
 42
0.625
 43
3.75
 44
1.25
 73
     0
 74
     0
 77
     1
 78
     8
140
2.5
141
2.5
143
0.03937007874016
147
0.625
171
     3
172
     1
271
     2
272
     2
274
     3
278
    44
283
     0
284
     8
340
11
  0
DIMSTYLE
105
FF
102
{ACAD_REACTORS
330
2D4E1
330
2D51D
330
2D587
330
2D5F5
102
}
330
A
100
AcDbSymbolTableRecord
100
AcDbDimStyleTableRecord
  2
ｺﾋﾟｰ - ISO-25
 70
     0
 41
2.5
 42
0.625
 43
3.75
 44
1.25
 73
     0
 74
     0
 77
     1
 78
     8
140
3.5
141
2.5
143
0.03937007874016
147
1.0
171
     3
172
     1
178
     2
271
     1
272
     1
274
     3
283
     0
284
     8
340
2A5
1001
ACAD_DSTYLE_DIMJAG
1070
   388
1040
1.5
1001
ACAD_DSTYLE_DIMTALN
1070
   392
1070
     0
  0
ENDTAB
  0
TABLE
  2
BLOCK_RECORD
  5
1
330
0
100
AcDbSymbolTable
 70
    13
  0
BLOCK_RECORD
  5
1F
102
{ACAD_XDICTIONARY
360
2D98
102
}
330
1
100
AcDbSymbolTableRecord
100
AcDbBlockTableRecord
  2
*Model_Space
340
22
 70
     0
280
     1
281
     0
  0
BLOCK_RECORD
  5
50
330
1
100
AcDbSymbolTableRecord
100
AcDbBlockTableRecord
  2
*Paper_Space
340
51
 70
     0
280
     1
281
     0
  0
BLOCK_RECORD
  5
55
330
1
100
AcDbSymbolTableRecord
100
AcDbBlockTableRecord
  2
*Paper_Space0
340
56
 70
     0
280
     1
281
     0
  0
BLOCK_RECORD
  5
341
102
{ACAD_XDICTIONARY
360
29CF
102
}
330
1
100
AcDbSymbolTableRecord
100
AcDbBlockTableRecord
  2
_None
340
0
 70
     0
280
     1
281
     0
1001
AcDbDynamicBlockGUID
1000
{FDCFC2F5-9095-49BF-99B6-274B4C3B84BC}
1001
AcDbBlockRepETag
1070
     1
1071
       24
  0
BLOCK_RECORD
  5
429
330
1
100
AcDbSymbolTableRecord
100
AcDbBlockTableRecord
  2
_DotSmall
340
0
 70
     0
280
     1
281
     0
  0
BLOCK_RECORD
  5
10CB
330
1
100
AcDbSymbolTableRecord
100
AcDbBlockTableRecord
  2
mark
340
0
310
2800000020000000200000000100080000000000000400000000000000000000000000000000000000000000000080000080000000808000800000008000800080800000C0C0C000C0DCC000F0CAA6000020400000206000002080000020A0000020C0000020E00000400000004020000040400000406000004080000040A0
310
000040C0000040E00000600000006020000060400000606000006080000060A0000060C0000060E00000800000008020000080400000806000008080000080A0000080C0000080E00000A0000000A0200000A0400000A0600000A0800000A0A00000A0C00000A0E00000C0000000C0200000C0400000C0600000C0800000C0
310
A00000C0C00000C0E00000E0000000E0200000E0400000E0600000E0800000E0A00000E0C00000E0E00040000000400020004000400040006000400080004000A0004000C0004000E00040200000402020004020400040206000402080004020A0004020C0004020E000404000004040200040404000404060004040800040
310
40A0004040C0004040E00040600000406020004060400040606000406080004060A0004060C0004060E00040800000408020004080400040806000408080004080A0004080C0004080E00040A0000040A0200040A0400040A0600040A0800040A0A00040A0C00040A0E00040C0000040C0200040C0400040C0600040C08000
310
40C0A00040C0C00040C0E00040E0000040E0200040E0400040E0600040E0800040E0A00040E0C00040E0E00080000000800020008000400080006000800080008000A0008000C0008000E00080200000802020008020400080206000802080008020A0008020C0008020E00080400000804020008040400080406000804080
310
008040A0008040C0008040E00080600000806020008060400080606000806080008060A0008060C0008060E00080800000808020008080400080806000808080008080A0008080C0008080E00080A0000080A0200080A0400080A0600080A0800080A0A00080A0C00080A0E00080C0000080C0200080C0400080C0600080C0
310
800080C0A00080C0C00080C0E00080E0000080E0200080E0400080E0600080E0800080E0A00080E0C00080E0E000C0000000C0002000C0004000C0006000C0008000C000A000C000C000C000E000C0200000C0202000C0204000C0206000C0208000C020A000C020C000C020E000C0400000C0402000C0404000C0406000C0
310
408000C040A000C040C000C040E000C0600000C0602000C0604000C0606000C0608000C060A000C060C000C060E000C0800000C0802000C0804000C0806000C0808000C080A000C080C000C080E000C0A00000C0A02000C0A04000C0A06000C0A08000C0A0A000C0A0C000C0A0E000C0C00000C0C02000C0C04000C0C06000
310
C0C08000C0C0A000F0FBFF00A4A0A000808080000000FF0000FF000000FFFF00FF000000FF00FF00FFFF0000FFFFFF0000000000000000000000000000000000000000000000000000000000000000000000000000000000000000000000000000000000000000000000000000000000000000000000000000000000000000
310
00000000000000000000000000000000000000000000000000000000000000000000000000000000000000000000000000000000000000000000000000000000000000000000000000000000000000000000000000000000000000000000000000000000000000000000000000000000000000000000000000000000000000
310
FF0000FF0000000000000000000000000000000000000000000000000000FFFFFF0000FFFFFF0000000000000000000000000000000000000000000000FF0000FF0000FF0000FF0000000000000000000000000000000000000000FFFF0000FF00000000FF0000FFFF0000000000000000000000000000000000FF0000FFFF
310
000000FF0000FFFF0000FF000000000000000000FFFFFFFF0000FF0000FF000000FFFF00FF000000FF0000FF0000FFFFFFFF0000FF0000FFFFFF0000FF000000FF00000000FF000000FF0000FFFFFF0000FF0000FF0000FF000000FF000000FF00FFFFFFFF00FF000000FF000000FF0000FF0000FF00000000FFFF00000000
310
FF00FF0000FF00FF00000000FFFF00000000FF0000FF000000FF000000000000FF00FF0000FF00FF000000000000FF000000FF0000FF0000FF00000000000000FF00FF0000FF00FF00000000000000FF0000FF0000FF000000FFFF0000000000FF00FF0000FF00FF0000000000FFFF000000FF0000FF0000FF0000FF000000
310
00FF00FFFFFFFF00FF00000000FF0000FF0000FF0000FF0000FFFFFF00FF00000000FFFF000000FF00000000FF00FFFFFF0000FF0000FFFFFFFF0000FF00FFFF00000000FF00FF000000FFFF00FF0000FFFFFFFF000000000000000000FF0000FF00000000FF000000FF0000FF0000000000000000000000000000000000FF
310
FF00FFFF00000000FFFF00FFFF0000000000000000000000000000000000000000FF0000FF0000FF0000FF0000000000000000000000000000000000000000000000FFFFFF0000FFFFFF0000000000000000000000000000000000000000000000000000FF0000FF0000000000000000000000000000000000000000000000
310
00000000000000000000000000000000000000000000000000000000000000000000000000000000000000000000000000000000000000000000000000000000000000000000000000000000000000000000000000000000000000000000000000000000000000000000000000000000000000000000000000000000000000
310
0000000000000000000000000000000000000000000000000000000000000000000000000000000000000000000000000000000000000000
 70
     4
280
     1
281
     0
  0
BLOCK_RECORD
  5
2D20
330
1
100
AcDbSymbolTableRecord
100
AcDbBlockTableRecord
  2
A$C34DA08B7
340
0
 70
     4
280
     1
281
     0
  0
BLOCK_RECORD
  5
2D24
330
1
100
AcDbSymbolTableRecord
100
AcDbBlockTableRecord
  2
A$C04A47E41
340
0
 70
     4
280
     1
281
     0
  0
BLOCK_RECORD
  5
2D46
330
1
100
AcDbSymbolTableRecord
100
AcDbBlockTableRecord
  2
A$C2FFA21FC
340
0
 70
     4
280
     1
281
     0
  0
BLOCK_RECORD
  5
2D4E2
330
1
100
AcDbSymbolTableRecord
100
AcDbBlockTableRecord
  2
*D8
340
0
 70
     0
280
     1
281
     0
  0
BLOCK_RECORD
  5
2D51E
330
1
100
AcDbSymbolTableRecord
100
AcDbBlockTableRecord
  2
*D9
340
0
 70
     0
280
     1
281
     0
  0
BLOCK_RECORD
  5
2D588
330
1
100
AcDbSymbolTableRecord
100
AcDbBlockTableRecord
  2
*D10
340
0
 70
     0
280
     1
281
     0
  0
BLOCK_RECORD
  5
2D5F6
330
1
100
AcDbSymbolTableRecord
100
AcDbBlockTableRecord
  2
*D11
340
0
 70
     0
280
     1
281
     0
  0
ENDTAB
  0
ENDSEC
  0
SECTION
  2
BLOCKS
  0
BLOCK
  5
20
330
1F
100
AcDbEntity
  8
0
100
AcDbBlockBegin
  2
*Model_Space
 70
     0
 10
0.0
 20
0.0
 30
0.0
  3
*Model_Space
  1

  0
ENDBLK
  5
21
330
1F
100
AcDbEntity
  8
0
100
AcDbBlockEnd
  0
BLOCK
  5
52
330
50
100
AcDbEntity
 67
     1
  8
0
100
AcDbBlockBegin
  2
*Paper_Space
 70
     0
 10
0.0
 20
0.0
 30
0.0
  3
*Paper_Space
  1

  0
ENDBLK
  5
53
330
50
100
AcDbEntity
 67
     1
  8
0
100
AcDbBlockEnd
  0
BLOCK
  5
57
330
55
100
AcDbEntity
 67
     1
  8
0
100
AcDbBlockBegin
  2
*Paper_Space0
 70
     0
 10
0.0
 20
0.0
 30
0.0
  3
*Paper_Space0
  1

  0
VIEWPORT
  5
71
330
55
100
AcDbEntity
 67
     1
  8
0
100
AcDbViewport
 10
133.3499908447265
 20
101.5999970436096
 30
0.0
 40
381.3957395593834
 41
218.2856291881582
 68
     0
 69
     0
 12
133.3499908447265
 22
101.5999970436096
 13
0.0
 23
0.0
 14
10.0
 24
10.0
 15
10.0
 25
10.0
 16
0.0
 26
0.0
 36
1.0
 17
0.0
 27
0.0
 37
0.0
 42
50.0
 43
0.0
 44
0.0
 45
218.2856291881582
 50
0.0
 51
0.0
 72
   100
 90
    32800
  1

281
     0
 71
     1
 74
     0
110
0.0
120
0.0
130
0.0
111
1.0
121
0.0
131
0.0
112
0.0
122
1.0
132
0.0
 79
     0
146
0.0
170
     0
 61
     5
348
276B
292
     1
282
     1
141
0.0
142
0.0
 63
   250
421
  3355443
  0
VIEWPORT
  5
73
330
55
100
AcDbEntity
 67
     1
  8
0
100
AcDbViewport
 10
133.349993944168
 20
101.599993944168
 30
0.0
 40
213.3599903106689
 41
162.5599903106689
 68
     0
 69
     0
 12
210.0
 22
148.5
 13
0.0
 23
0.0
 14
10.0
 24
10.0
 15
10.0
 25
10.0
 16
0.0
 26
0.0
 36
1.0
 17
0.0
 27
0.0
 37
0.0
 42
50.0
 43
0.0
 44
0.0
 45
324.0677920111345
 50
0.0
 51
0.0
 72
   100
 90
    32864
  1

281
     0
 71
     1
 74
     0
110
0.0
120
0.0
130
0.0
111
1.0
121
0.0
131
0.0
112
0.0
122
1.0
132
0.0
 79
     0
146
0.0
170
     0
 61
     5
348
276B
292
     1
282
     1
141
0.0
142
0.0
 63
   250
421
  3355443
  0
ENDBLK
  5
58
330
55
100
AcDbEntity
 67
     1
  8
0
100
AcDbBlockEnd
  0
BLOCK
  5
342
330
341
100
AcDbEntity
  8
0
100
AcDbBlockBegin
  2
_None
 70
     0
 10
0.0
 20
0.0
 30
0.0
  3
_None
  1

  0
LINE
  5
29B7
102
{ACAD_REACTORS
330
29F6
102
}
330
341
100
AcDbEntity
  8
0
100
AcDbLine
 10
7.618927466172911
 20
14.9090276980656
 30
0.0
 11
13.53608213148402
 21
23.35960033891454
 31
0.0
1001
AcDbBlockRepETag
1070
     1
1071
        0
1005
29B7
  0
LINE
  5
29B8
102
{ACAD_REACTORS
330
29F6
102
}
330
341
100
AcDbEntity
  8
0
100
AcDbLine
 10
7.618927466172911
 20
14.9090276980656
 30
0.0
 11
8.516181951946554
 21
13.62761549266754
 31
0.0
1001
AcDbBlockRepETag
1070
     1
1071
        1
1005
29B8
  0
LINE
  5
29B9
102
{ACAD_REACTORS
330
29F6
102
}
330
341
100
AcDbEntity
  8
0
100
AcDbLine
 10
21.97323679679512
 20
14.90902769806559
 30
0.0
 11
21.07598231102148
 21
16.19043990346365
 31
0.0
1001
AcDbBlockRepETag
1070
     1
1071
        2
1005
29B9
  0
LINE
  5
29BA
102
{ACAD_REACTORS
330
29F6
102
}
330
341
100
AcDbEntity
  8
0
100
AcDbLine
 10
21.97323679679512
 20
14.90902769806559
 30
0.0
 11
16.056082131484
 21
6.458455057216698
 31
0.0
1001
AcDbBlockRepETag
1070
     1
1071
        3
1005
29BA
  0
LINE
  5
29BB
102
{ACAD_REACTORS
330
29F6
102
}
330
341
100
AcDbEntity
  8
0
100
AcDbLine
 10
15.556082131484
 20
21.42363521294153
 30
0.0
 11
19.54408298552672
 21
15.72817974235458
 31
0.0
1001
AcDbBlockRepETag
1070
     1
1071
        4
1005
29BB
  0
LINE
  5
29BC
102
{ACAD_REACTORS
330
29F6
102
}
330
341
100
AcDbEntity
  8
0
100
AcDbLine
 10
9.761293059265803
 20
14.49945167592111
 30
0.0
 11
8.516181951946544
 21
13.62761549266753
 31
0.0
1001
AcDbBlockRepETag
1070
     1
1071
        5
1005
29BC
  0
LINE
  5
29BD
102
{ACAD_REACTORS
330
29F6
102
}
330
341
100
AcDbEntity
  8
0
100
AcDbLine
 10
10.04808127744132
 20
14.08987565377662
 30
0.0
 11
8.802970170122067
 21
13.21803947052303
 31
0.0
1001
AcDbBlockRepETag
1070
     1
1071
        6
1005
29BD
  0
LINE
  5
29BE
102
{ACAD_REACTORS
330
29F6
102
}
330
341
100
AcDbEntity
  8
0
100
AcDbLine
 10
14.03608213148402
 20
5.744381053845643
 30
0.0
 11
14.03608213148402
 21
24.07367434228561
 31
0.0
1001
AcDbBlockRepETag
1070
     1
1071
        7
1005
29BE
  0
LINE
  5
29BF
102
{ACAD_REACTORS
330
29F6
102
}
330
341
100
AcDbEntity
  8
0
100
AcDbLine
 10
15.556082131484
 20
5.744381053845648
 30
0.0
 11
15.556082131484
 21
21.42363521294153
 31
0.0
1001
AcDbBlockRepETag
1070
     1
1071
        8
1005
29BF
  0
LINE
  5
29C0
102
{ACAD_REACTORS
330
29F6
102
}
330
341
100
AcDbEntity
  8
0
100
AcDbLine
 10
13.53608213148402
 20
6.458455057216702
 30
0.0
 11
13.53608213148402
 21
9.108494186560758
 31
0.0
1001
AcDbBlockRepETag
1070
     1
1071
        9
1005
29C0
  0
LINE
  5
29C1
102
{ACAD_REACTORS
330
29F6
102
}
330
341
100
AcDbEntity
  8
0
100
AcDbLine
 10
16.056082131484
 20
6.458455057216702
 30
0.0
 11
16.056082131484
 21
9.108494186560749
 31
0.0
1001
AcDbBlockRepETag
1070
     1
1071
       10
1005
29C1
  0
LINE
  5
29C2
102
{ACAD_REACTORS
330
29F6
102
}
330
341
100
AcDbEntity
  8
0
100
AcDbLine
 10
14.03608213148402
 20
24.0736743422856
 30
0.0
 11
14.79608213148402
 21
25.15906682740961
 31
0.0
1001
AcDbBlockRepETag
1070
     1
1071
       11
1005
29C2
  0
LINE
  5
29C3
102
{ACAD_REACTORS
330
29F6
102
}
330
341
100
AcDbEntity
  8
0
100
AcDbLine
 10
13.53608213148402
 20
20.70956120957047
 30
0.0
 11
9.474504841090279
 21
14.90902769806561
 31
0.0
1001
AcDbBlockRepETag
1070
     1
1071
       12
1005
29C3
  0
LINE
  5
29C4
102
{ACAD_REACTORS
330
29F6
102
}
330
341
100
AcDbEntity
  8
0
100
AcDbLine
 10
16.056082131484
 20
9.108494186560754
 30
0.0
 11
20.11765942187774
 21
14.90902769806561
 31
0.0
1001
AcDbBlockRepETag
1070
     1
1071
       13
1005
29C4
  0
LINE
  5
29C5
102
{ACAD_REACTORS
330
29F6
102
}
330
341
100
AcDbEntity
  8
0
100
AcDbLine
 10
15.556082131484
 20
5.744381053845644
 30
0.0
 11
14.79608213148401
 21
4.658988568721649
 31
0.0
1001
AcDbBlockRepETag
1070
     1
1071
       14
1005
29C5
  0
LINE
  5
29C6
102
{ACAD_REACTORS
330
29F6
102
}
330
341
100
AcDbEntity
  8
0
100
AcDbLine
 10
14.03608213148402
 20
5.744381053845645
 30
0.0
 11
14.79608213148401
 21
4.658988568721649
 31
0.0
1001
AcDbBlockRepETag
1070
     1
1071
       15
1005
29C6
  0
LINE
  5
29C7
102
{ACAD_REACTORS
330
29F6
102
}
330
341
100
AcDbEntity
  8
0
100
AcDbLine
 10
8.802970170122078
 20
13.21803947052304
 30
0.0
 11
13.53608213148402
 21
6.458455057216703
 31
0.0
1001
AcDbBlockRepETag
1070
     1
1071
       16
1005
29C7
  0
LINE
  5
29C8
102
{ACAD_REACTORS
330
29F6
102
}
330
341
100
AcDbEntity
  8
0
100
AcDbLine
 10
10.04808127744132
 20
14.08987565377662
 30
0.0
 11
13.53608213148402
 21
9.10849418656076
 31
0.0
1001
AcDbBlockRepETag
1070
     1
1071
       17
1005
29C8
  0
LINE
  5
29C9
102
{ACAD_REACTORS
330
29F6
102
}
330
341
100
AcDbEntity
  8
0
100
AcDbLine
 10
13.53608213148402
 20
20.70956120957048
 30
0.0
 11
13.53608213148402
 21
23.35960033891454
 31
0.0
1001
AcDbBlockRepETag
1070
     1
1071
       18
1005
29C9
  0
LINE
  5
29CA
102
{ACAD_REACTORS
330
29F6
102
}
330
341
100
AcDbEntity
  8
0
100
AcDbLine
 10
19.83087120370222
 20
15.31860372021007
 30
0.0
 11
21.07598231102148
 21
16.19043990346365
 31
0.0
1001
AcDbBlockRepETag
1070
     1
1071
       19
1005
29CA
  0
LINE
  5
29CB
102
{ACAD_REACTORS
330
29F6
102
}
330
341
100
AcDbEntity
  8
0
100
AcDbLine
 10
19.54408298552669
 20
15.72817974235456
 30
0.0
 11
20.78919409284595
 21
16.60001592560815
 31
0.0
1001
AcDbBlockRepETag
1070
     1
1071
       20
1005
29CB
  0
LINE
  5
29CC
102
{ACAD_REACTORS
330
29F6
102
}
330
341
100
AcDbEntity
  8
0
100
AcDbLine
 10
19.83087120370224
 20
15.31860372021007
 30
0.0
 11
20.11765942187774
 21
14.90902769806561
 31
0.0
1001
AcDbBlockRepETag
1070
     1
1071
       21
1005
29CC
  0
LINE
  5
29CD
102
{ACAD_REACTORS
330
29F6
102
}
330
341
100
AcDbEntity
  8
0
100
AcDbLine
 10
20.78919409284596
 20
16.60001592560815
 30
0.0
 11
14.79608213148402
 21
25.15906682740961
 31
0.0
1001
AcDbBlockRepETag
1070
     1
1071
       22
1005
29CD
  0
LINE
  5
29CE
102
{ACAD_REACTORS
330
29F6
102
}
330
341
100
AcDbEntity
  8
0
100
AcDbLine
 10
9.761293059265803
 20
14.49945167592111
 30
0.0
 11
9.474504841090279
 21
14.90902769806561
 31
0.0
1001
AcDbBlockRepETag
1070
     1
1071
       23
1005
29CE
  0
ENDBLK
  5
343
330
341
100
AcDbEntity
  8
0
100
AcDbBlockEnd
  0
BLOCK
  5
42B
330
429
100
AcDbEntity
  8
0
100
AcDbBlockBegin
  2
_DotSmall
 70
     0
 10
0.0
 20
0.0
 30
0.0
  3
_DotSmall
  1

  0
LWPOLYLINE
  5
42A
330
429
100
AcDbEntity
  8
0
  6
ByBlock
 62
     0
100
AcDbPolyline
 90
        2
 70
     1
 43
0.5
 10
-0.0625
 20
0.0
 42
1.0
 10
0.0625
 20
0.0
 42
1.0
  0
ENDBLK
  5
42C
330
429
100
AcDbEntity
  8
0
100
AcDbBlockEnd
  0
BLOCK
  5
10EA
330
10CB
100
AcDbEntity
  8
0
100
AcDbBlockBegin
  2
mark
 70
     0
 10
0.0
 20
0.0
 30
0.0
  3
mark
  1

  4
柏原計器(株)マーク
  0
LINE
  5
10CC
330
10CB
100
AcDbEntity
  8
実線
100
AcDbLine
 10
45.0
 20
-8.5
 30
0.0
 11
27.0
 21
-21.10373568777475
 31
0.0
  0
LINE
  5
10CD
330
10CB
100
AcDbEntity
  8
実線
100
AcDbLine
 10
45.0
 20
-8.5
 30
0.0
 11
27.0
 21
4.103735687774785
 31
0.0
  0
LINE
  5
10CE
330
10CB
100
AcDbEntity
  8
実線
100
AcDbLine
 10
46.0
 20
-4.317109183163836
 30
0.0
 11
27.0
 21
8.986834042820532
 31
0.0
  0
LINE
  5
10CF
330
10CB
100
AcDbEntity
  8
実線
100
AcDbLine
 10
46.0
 20
-12.6828908168361
 30
0.0
 11
27.0
 21
-25.9868340428206
 31
0.0
  0
LINE
  5
10D0
330
10CB
100
AcDbEntity
  8
実線
100
AcDbLine
 10
5.0
 20
-8.5
 30
0.0
 11
23.0
 21
-21.10373568777475
 31
0.0
  0
LINE
  5
10D1
330
10CB
100
AcDbEntity
  8
実線
100
AcDbLine
 10
4.0
 20
-12.6828908168361
 30
0.0
 11
22.99999999999994
 21
-25.98683404282056
 31
0.0
  0
LINE
  5
10D2
330
10CB
100
AcDbEntity
  8
実線
100
AcDbLine
 10
5.0
 20
-8.5
 30
0.0
 11
23.0
 21
4.103735687774785
 31
0.0
  0
LINE
  5
10D3
330
10CB
100
AcDbEntity
  8
実線
100
AcDbLine
 10
4.0
 20
-4.317109183163863
 30
0.0
 11
23.0
 21
8.986834042820587
 31
0.0
  0
LINE
  5
10D4
330
10CB
100
AcDbEntity
  8
実線
100
AcDbLine
 10
4.0
 20
-4.317109183163863
 30
0.0
 11
4.0
 21
0.0
 31
0.0
  0
LINE
  5
10D5
330
10CB
100
AcDbEntity
  8
実線
100
AcDbLine
 10
0.0
 20
0.0
 30
0.0
 11
0.0
 21
-17.0
 31
0.0
  0
LINE
  5
10D6
330
10CB
100
AcDbEntity
  8
実線
100
AcDbLine
 10
0.0
 20
-17.0
 30
0.0
 11
4.0
 21
-17.0
 31
0.0
  0
LINE
  5
10D7
330
10CB
100
AcDbEntity
  8
実線
100
AcDbLine
 10
4.0
 20
-17.0
 30
0.0
 11
4.0
 21
-12.6828908168361
 31
0.0
  0
LINE
  5
10D8
330
10CB
100
AcDbEntity
  8
実線
100
AcDbLine
 10
4.0
 20
0.0
 30
0.0
 11
0.0
 21
0.0
 31
0.0
  0
LINE
  5
10D9
330
10CB
100
AcDbEntity
  8
実線
100
AcDbLine
 10
27.0
 20
-21.10373568777475
 30
0.0
 11
27.0
 21
-25.9868340428206
 31
0.0
  0
LINE
  5
10DA
330
10CB
100
AcDbEntity
  8
実線
100
AcDbLine
 10
23.0
 20
-21.1037356877747
 30
0.0
 11
22.99999999999994
 21
-25.98683404282056
 31
0.0
  0
ARC
  5
10DB
330
10CB
100
AcDbEntity
  8
実線
100
AcDbCircle
 10
25.0
 20
-12.5
 30
0.0
 40
6.0
100
AcDbArc
 50
180.0
 51
0.0
  0
ARC
  5
10DC
330
10CB
100
AcDbEntity
  8
実線
100
AcDbCircle
 10
25.0
 20
-12.5
 30
0.0
 40
3.0
100
AcDbArc
 50
180.0
 51
0.0
  0
ARC
  5
10DD
330
10CB
100
AcDbEntity
  8
実線
100
AcDbCircle
 10
25.0
 20
-4.5
 30
0.0
 40
6.0
100
AcDbArc
 50
0.0
 51
180.0
  0
ARC
  5
10DE
330
10CB
100
AcDbEntity
  8
実線
100
AcDbCircle
 10
25.0
 20
-4.5
 30
0.0
 40
3.0
100
AcDbArc
 50
0.0
 51
180.0
  0
LINE
  5
10DF
330
10CB
100
AcDbEntity
  8
実線
100
AcDbLine
 10
22.0
 20
-4.499999999999943
 30
0.0
 11
22.0
 21
-12.50000000000005
 31
0.0
  0
LINE
  5
10E0
330
10CB
100
AcDbEntity
  8
実線
100
AcDbLine
 10
19.0
 20
-4.499999999999943
 30
0.0
 11
19.0
 21
-12.50000000000005
 31
0.0
  0
LINE
  5
10E1
330
10CB
100
AcDbEntity
  8
実線
100
AcDbLine
 10
23.0
 20
8.986834042820587
 30
0.0
 11
23.0
 21
4.103735687774785
 31
0.0
  0
LINE
  5
10E2
330
10CB
100
AcDbEntity
  8
実線
100
AcDbLine
 10
28.0
 20
-4.499999999999971
 30
0.0
 11
28.0
 21
-12.50000000000005
 31
0.0
  0
LINE
  5
10E3
330
10CB
100
AcDbEntity
  8
実線
100
AcDbLine
 10
31.0
 20
-4.499999999999943
 30
0.0
 11
31.0
 21
-12.50000000000005
 31
0.0
  0
LINE
  5
10E4
330
10CB
100
AcDbEntity
  8
実線
100
AcDbLine
 10
27.0
 20
8.986834042820532
 30
0.0
 11
27.0
 21
4.103735687774785
 31
0.0
  0
LINE
  5
10E5
330
10CB
100
AcDbEntity
  8
実線
100
AcDbLine
 10
50.0
 20
0.0
 30
0.0
 11
50.0
 21
-17.0
 31
0.0
  0
LINE
  5
10E6
330
10CB
100
AcDbEntity
  8
実線
100
AcDbLine
 10
46.0
 20
0.0
 30
0.0
 11
46.0
 21
-4.317109183163836
 31
0.0
  0
LINE
  5
10E7
330
10CB
100
AcDbEntity
  8
実線
100
AcDbLine
 10
46.0
 20
-17.0
 30
0.0
 11
50.0
 21
-17.0
 31
0.0
  0
LINE
  5
10E8
330
10CB
100
AcDbEntity
  8
実線
100
AcDbLine
 10
46.0
 20
-12.6828908168361
 30
0.0
 11
46.0
 21
-17.0
 31
0.0
  0
LINE
  5
10E9
330
10CB
100
AcDbEntity
  8
実線
100
AcDbLine
 10
50.0
 20
0.0
 30
0.0
 11
46.0
 21
0.0
 31
0.0
  0
ENDBLK
  5
10EB
330
10CB
100
AcDbEntity
  8
0
100
AcDbBlockEnd
  0
BLOCK
  5
2D22
330
2D20
100
AcDbEntity
  8
0
100
AcDbBlockBegin
  2
A$C34DA08B7
 70
     0
 10
0.0
 20
0.0
 30
0.0
  3
A$C34DA08B7
  1

  0
LINE
  5
2D21
330
2D20
100
AcDbEntity
  8
実線
100
AcDbLine
 10
3.443694327872606
 20
-0.000000348593062
 30
0.0
 11
0.0000000833857712
 21
3.443693895893829
 31
0.0
  0
ENDBLK
  5
2D23
330
2D20
100
AcDbEntity
  8
0
100
AcDbBlockEnd
  0
BLOCK
  5
2D26
330
2D24
100
AcDbEntity
  8
0
100
AcDbBlockBegin
  2
A$C04A47E41
 70
     0
 10
0.0
 20
0.0
 30
0.0
  3
A$C04A47E41
  1

  0
LINE
  5
2D25
330
2D24
100
AcDbEntity
  8
実線
100
AcDbLine
 10
0.0
 20
0.0
 30
0.0
 11
-3.443694244486835
 21
3.443694244486891
 31
0.0
  0
ENDBLK
  5
2D27
330
2D24
100
AcDbEntity
  8
0
100
AcDbBlockEnd
  0
BLOCK
  5
2D4F
330
2D46
100
AcDbEntity
  8
0
100
AcDbBlockBegin
  2
A$C2FFA21FC
 70
     0
 10
0.0
 20
0.0
 30
0.0
  3
A$C2FFA21FC
  1

  0
LINE
  5
2D47
330
2D46
100
AcDbEntity
  8
実線
100
AcDbLine
 10
1.673649195882092
 20
5.714196736163046
 30
0.0
 11
4.040546862123335
 21
5.714196736163046
 31
0.0
  0
LINE
  5
2D48
330
2D46
100
AcDbEntity
  8
実線
100
AcDbLine
 10
-0.0000001942917152
 20
1.673649679747882
 30
0.0
 11
-0.0000001942917152
 21
4.040547345989125
 31
0.0
  0
LINE
  5
2D49
330
2D46
100
AcDbEntity
  8
実線
100
AcDbLine
 10
-0.0000001942917152
 20
4.040547345989239
 30
0.0
 11
1.673649195882092
 21
5.714196736162989
 31
0.0
  0
LINE
  5
2D4A
330
2D46
100
AcDbEntity
  8
実線
100
AcDbLine
 10
1.673649195882092
 20
0.0000002895740749
 30
0.0
 11
4.040546862123335
 21
0.0000002895740749
 31
0.0
  0
LINE
  5
2D4B
330
2D46
100
AcDbEntity
  8
実線
100
AcDbLine
 10
-0.0000001942917152
 20
1.673649679747882
 30
0.0
 11
1.673649195882035
 21
0.0000002895740749
 31
0.0
  0
LINE
  5
2D4C
330
2D46
100
AcDbEntity
  8
実線
100
AcDbLine
 10
5.714196252297256
 20
1.673649679747882
 30
0.0
 11
5.714196252297256
 21
4.040547345989125
 31
0.0
  0
LINE
  5
2D4D
330
2D46
100
AcDbEntity
  8
実線
100
AcDbLine
 10
5.714196252297256
 20
4.040547345989239
 30
0.0
 11
4.040546862123449
 21
5.714196736162989
 31
0.0
  0
LINE
  5
2D4E
330
2D46
100
AcDbEntity
  8
実線
100
AcDbLine
 10
5.714196252297256
 20
1.673649679747882
 30
0.0
 11
4.040546862123505
 21
0.0000002895740749
 31
0.0
  0
ENDBLK
  5
2D50
330
2D46
100
AcDbEntity
  8
0
100
AcDbBlockEnd
  0
BLOCK
  5
2D4E3
330
2D4E2
100
AcDbEntity
  8
0
100
AcDbBlockBegin
  2
*D8
 70
     1
 10
0.0
 20
0.0
 30
0.0
  3
*D8
  1

  0
LINE
  5
2D631
330
2D4E2
100
AcDbEntity
  8
寸法
 62
     0
440
 16777216
370
    -2
100
AcDbLine
 10
189.3221890920545
 20
34.59402900502335
 30
0.0
 11
269.6494045150097
 21
34.59402900502333
 31
0.0
  0
LINE
  5
2D632
330
2D4E2
100
AcDbEntity
  8
寸法
 62
     0
440
 16777216
370
    -2
100
AcDbLine
 10
268.3994045150097
 20
74.59402900502334
 30
0.0
 11
269.6494045150097
 21
74.59402900502334
 31
0.0
  0
LINE
  5
2D633
330
2D4E2
100
AcDbEntity
  8
寸法
 62
     0
440
 16777216
370
    -2
100
AcDbLine
 10
268.3994045150097
 20
37.09402900502333
 30
0.0
 11
268.3994045150097
 21
72.09402900502334
 31
0.0
  0
SOLID
  5
2D634
330
2D4E2
100
AcDbEntity
  8
寸法
 62
     0
440
 16777216
100
AcDbTrace
 10
267.982737848343
 20
37.09402900502333
 30
0.0
 11
268.8160711816764
 21
37.09402900502333
 31
0.0
 12
268.3994045150097
 22
34.59402900502333
 32
0.0
 13
268.3994045150097
 23
34.59402900502333
 33
0.0
  0
SOLID
  5
2D635
330
2D4E2
100
AcDbEntity
  8
寸法
 62
     0
440
 16777216
100
AcDbTrace
 10
267.982737848343
 20
72.09402900502334
 30
0.0
 11
268.8160711816764
 21
72.09402900502334
 31
0.0
 12
268.3994045150097
 22
74.59402900502334
 32
0.0
 13
268.3994045150097
 23
74.59402900502334
 33
0.0
  0
MTEXT
  5
2D636
330
2D4E2
100
AcDbEntity
  8
寸法
 62
     2
440
 16777216
100
AcDbMText
 10
265.6494045150097
 20
54.59402900502337
 30
0.0
 40
3.5
 41
0.0
 46
0.0
 71
     5
 72
     1
  1
40
  7
寸法
 11
0.0000000000000001
 21
1.0
 31
0.0
 73
     1
 44
1.0
  0
POINT
  5
2D637
330
2D4E2
100
AcDbEntity
  8
Defpoints
 62
     0
440
 16777216
100
AcDbPoint
 10
188.6971890920545
 20
34.59402900502335
 30
0.0
  0
POINT
  5
2D638
330
2D4E2
100
AcDbEntity
  8
Defpoints
 62
     0
440
 16777216
100
AcDbPoint
 10
267.7744045150098
 20
74.59402900502334
 30
0.0
  0
POINT
  5
2D639
330
2D4E2
100
AcDbEntity
  8
Defpoints
 62
     0
440
 16777216
100
AcDbPoint
 10
268.3994045150097
 20
74.59402900502334
 30
0.0
  0
ENDBLK
  5
2D4E4
330
2D4E2
100
AcDbEntity
  8
0
100
AcDbBlockEnd
  0
BLOCK
  5
2D51F
330
2D51E
100
AcDbEntity
  8
0
100
AcDbBlockBegin
  2
*D9
 70
     1
 10
0.0
 20
0.0
 30
0.0
  3
*D9
  1

  0
LINE
  5
2D65E
330
2D51E
100
AcDbEntity
  8
寸法
 62
     0
440
 16777216
370
    -2
100
AcDbLine
 10
158.2441075417415
 20
162.7377857581258
 30
0.0
 11
276.4619199439719
 21
162.7377857581258
 31
0.0
  0
LINE
  5
2D65F
330
2D51E
100
AcDbEntity
  8
寸法
 62
     0
440
 16777216
370
    -2
100
AcDbLine
 10
158.2441075417425
 20
270.7377857581258
 30
0.0
 11
276.4619199439719
 21
270.7377857581258
 31
0.0
  0
LINE
  5
2D660
330
2D51E
100
AcDbEntity
  8
寸法
 62
     0
440
 16777216
370
    -2
100
AcDbLine
 10
275.2119199439719
 20
165.2377857581258
 30
0.0
 11
275.2119199439719
 21
268.2377857581258
 31
0.0
  0
SOLID
  5
2D661
330
2D51E
100
AcDbEntity
  8
寸法
 62
     0
440
 16777216
100
AcDbTrace
 10
274.7952532773052
 20
165.2377857581258
 30
0.0
 11
275.6285866106386
 21
165.2377857581258
 31
0.0
 12
275.2119199439719
 22
162.7377857581258
 32
0.0
 13
275.2119199439719
 23
162.7377857581258
 33
0.0
  0
SOLID
  5
2D662
330
2D51E
100
AcDbEntity
  8
寸法
 62
     0
440
 16777216
100
AcDbTrace
 10
274.7952532773052
 20
268.2377857581258
 30
0.0
 11
275.6285866106386
 21
268.2377857581258
 31
0.0
 12
275.2119199439719
 22
270.7377857581258
 32
0.0
 13
275.2119199439719
 23
270.7377857581258
 33
0.0
  0
MTEXT
  5
2D663
330
2D51E
100
AcDbEntity
  8
寸法
 62
     2
440
 16777216
100
AcDbMText
 10
272.4619199439719
 20
216.7377857581259
 30
0.0
 40
3.5
 41
0.0
 46
0.0
 71
     5
 72
     1
  1
108
  7
寸法
 11
0.0000000000000001
 21
1.0
 31
0.0
 73
     1
 44
1.0
  0
POINT
  5
2D664
330
2D51E
100
AcDbEntity
  8
Defpoints
 62
     0
440
 16777216
100
AcDbPoint
 10
157.6191075417415
 20
162.7377857581258
 30
0.0
  0
POINT
  5
2D665
330
2D51E
100
AcDbEntity
  8
Defpoints
 62
     0
440
 16777216
100
AcDbPoint
 10
157.6191075417425
 20
270.7377857581258
 30
0.0
  0
POINT
  5
2D666
330
2D51E
100
AcDbEntity
  8
Defpoints
 62
     0
440
 16777216
100
AcDbPoint
 10
275.2119199439719
 20
270.7377857581258
 30
0.0
  0
ENDBLK
  5
2D520
330
2D51E
100
AcDbEntity
  8
0
100
AcDbBlockEnd
  0
BLOCK
  5
2D589
330
2D588
100
AcDbEntity
  8
0
100
AcDbBlockBegin
  2
*D10
 70
     1
 10
0.0
 20
0.0
 30
0.0
  3
*D10
  1

  0
LINE
  5
2D643
330
2D588
100
AcDbEntity
  8
寸法
 62
     0
440
 16777216
370
    -2
100
AcDbLine
 10
189.3221890920545
 20
34.59402900502335
 30
0.0
 11
276.4619199439719
 21
34.59402900502332
 31
0.0
  0
LINE
  5
2D644
330
2D588
100
AcDbEntity
  8
寸法
 62
     0
440
 16777216
370
    -2
100
AcDbLine
 10
204.2163770920545
 20
149.5940290050233
 30
0.0
 11
276.4619199439719
 21
149.5940290050233
 31
0.0
  0
LINE
  5
2D645
330
2D588
100
AcDbEntity
  8
寸法
 62
     0
440
 16777216
370
    -2
100
AcDbLine
 10
275.2119199439718
 20
37.09402900502332
 30
0.0
 11
275.2119199439719
 21
147.0940290050233
 31
0.0
  0
SOLID
  5
2D646
330
2D588
100
AcDbEntity
  8
寸法
 62
     0
440
 16777216
100
AcDbTrace
 10
274.7952532773052
 20
37.09402900502332
 30
0.0
 11
275.6285866106385
 21
37.09402900502332
 31
0.0
 12
275.2119199439718
 22
34.59402900502332
 32
0.0
 13
275.2119199439718
 23
34.59402900502332
 33
0.0
  0
SOLID
  5
2D647
330
2D588
100
AcDbEntity
  8
寸法
 62
     0
440
 16777216
100
AcDbTrace
 10
274.7952532773052
 20
147.0940290050233
 30
0.0
 11
275.6285866106386
 21
147.0940290050233
 31
0.0
 12
275.2119199439719
 22
149.5940290050233
 32
0.0
 13
275.2119199439719
 23
149.5940290050233
 33
0.0
  0
MTEXT
  5
2D648
330
2D588
100
AcDbEntity
  8
寸法
 62
     2
440
 16777216
100
AcDbMText
 10
272.4619199439719
 20
92.09402900502338
 30
0.0
 40
3.5
 41
0.0
 46
0.0
 71
     5
 72
     1
  1
115
  7
寸法
 11
0.0000000000000001
 21
1.0
 31
0.0
 73
     1
 44
1.0
  0
POINT
  5
2D649
330
2D588
100
AcDbEntity
  8
Defpoints
 62
     0
440
 16777216
100
AcDbPoint
 10
188.6971890920545
 20
34.59402900502335
 30
0.0
  0
POINT
  5
2D64A
330
2D588
100
AcDbEntity
  8
Defpoints
 62
     0
440
 16777216
100
AcDbPoint
 10
203.5913770920545
 20
149.5940290050233
 30
0.0
  0
POINT
  5
2D64B
330
2D588
100
AcDbEntity
  8
Defpoints
 62
     0
440
 16777216
100
AcDbPoint
 10
275.2119199439719
 20
149.5940290050233
 30
0.0
  0
ENDBLK
  5
2D58A
330
2D588
100
AcDbEntity
  8
0
100
AcDbBlockEnd
  0
BLOCK
  5
2D5F7
330
2D5F6
100
AcDbEntity
  8
0
100
AcDbBlockBegin
  2
*D11
 70
     1
 10
0.0
 20
0.0
 30
0.0
  3
*D11
  1

  0
LINE
  5
2D64C
330
2D5F6
100
AcDbEntity
  8
寸法
 62
     0
440
 16777216
370
    -2
100
AcDbLine
 10
29.59137709205447
 20
75.21902900502334
 30
0.0
 11
29.59137709205447
 21
82.71770559953358
 31
0.0
  0
LINE
  5
2D64D
330
2D5F6
100
AcDbEntity
  8
寸法
 62
     0
440
 16777216
370
    -2
100
AcDbLine
 10
259.5913770920545
 20
75.21902900502334
 30
0.0
 11
259.5913770920545
 21
82.71770559953358
 31
0.0
  0
LINE
  5
2D64E
330
2D5F6
100
AcDbEntity
  8
寸法
 62
     0
440
 16777216
370
    -2
100
AcDbLine
 10
32.09137709205447
 20
81.46770559953358
 30
0.0
 11
257.0913770920545
 21
81.46770559953358
 31
0.0
  0
SOLID
  5
2D64F
330
2D5F6
100
AcDbEntity
  8
寸法
 62
     0
440
 16777216
100
AcDbTrace
 10
32.09137709205447
 20
81.88437226620026
 30
0.0
 11
32.09137709205447
 21
81.05103893286692
 31
0.0
 12
29.59137709205447
 22
81.46770559953358
 32
0.0
 13
29.59137709205447
 23
81.46770559953358
 33
0.0
  0
SOLID
  5
2D650
330
2D5F6
100
AcDbEntity
  8
寸法
 62
     0
440
 16777216
100
AcDbTrace
 10
257.0913770920545
 20
81.88437226620026
 30
0.0
 11
257.0913770920545
 21
81.05103893286692
 31
0.0
 12
259.5913770920545
 22
81.46770559953358
 32
0.0
 13
259.5913770920545
 23
81.46770559953358
 33
0.0
  0
MTEXT
  5
2D651
330
2D5F6
100
AcDbEntity
  8
寸法
 62
     2
440
 16777216
100
AcDbMText
 10
144.5913770920545
 20
84.21770559953358
 30
0.0
 40
3.5
 41
0.0
 46
0.0
 71
     5
 72
     1
  1
230
  7
寸法
 73
     1
 44
1.0
  0
POINT
  5
2D652
330
2D5F6
100
AcDbEntity
  8
Defpoints
 62
     0
440
 16777216
100
AcDbPoint
 10
29.59137709205447
 20
74.59402900502334
 30
0.0
  0
POINT
  5
2D653
330
2D5F6
100
AcDbEntity
  8
Defpoints
 62
     0
440
 16777216
100
AcDbPoint
 10
259.5913770920545
 20
74.59402900502334
 30
0.0
  0
POINT
  5
2D654
330
2D5F6
100
AcDbEntity
  8
Defpoints
 62
     0
440
 16777216
100
AcDbPoint
 10
259.5913770920545
 20
81.46770559953358
 30
0.0
  0
ENDBLK
  5
2D5F8
330
2D5F6
100
AcDbEntity
  8
0
100
AcDbBlockEnd
  0
ENDSEC
  0
SECTION
  2
ENTITIES
  0
TEXT
  5
108D
330
1F
100
AcDbEntity
  8
文字
100
AcDbText
 10
293.0
 20
27.25
 30
0.0
 40
3.0
  1

 41
0.8
 72
     1
 11
293.0
 21
28.75
 31
0.0
100
AcDbText
 73
     2
  0
TEXT
  5
108F
330
1F
100
AcDbEntity
  8
文字
100
AcDbText
 10
333.0
 20
27.5
 30
0.0
 40
3.0
  1

 41
0.8
 72
     1
 11
333.0
 21
29.0
 31
0.0
100
AcDbText
 73
     2
  0
TEXT
  5
1090
330
1F
100
AcDbEntity
  8
文字
100
AcDbText
 10
353.0
 20
27.5
 30
0.0
 40
3.0
  1

 41
0.8
 72
     1
 11
353.0
 21
29.0
 31
0.0
100
AcDbText
 73
     2
  0
MTEXT
  5
1581D
330
1F
100
AcDbEntity
  8
実線
 62
     2
100
AcDbMText
 10
196.5671900572592
 20
248.2436849630891
 30
0.0
 40
2.5
 41
0.0
 46
0.0
 71
     9
 72
     1
  1

  7
寸法
 73
     1
 44
1.0
  0
TEXT
  5
27C66
330
1F
100
AcDbEntity
  8
文字
100
AcDbText
 10
333.0093667494119
 20
114.4113944500367
 30
0.0
 40
4.5
  1
表　示　部
 41
0.9
 72
     1
 11
344.619366749412
 21
116.6613944500367
 31
0.0
100
AcDbText
 73
     2
  0
LINE
  5
27C67
330
1F
100
AcDbEntity
  8
文字
100
AcDbLine
 10
331.4352661873195
 20
113.2105739922317
 30
0.0
 11
358.4073960774858
 21
113.2105739922317
 31
0.0
  0
LINE
  5
29A83
330
1F
100
AcDbEntity
  8
0
100
AcDbLine
 10
215.0
 20
272.0
 30
0.0
 11
215.0
 21
287.0
 31
0.0
  0
LINE
  5
29ABB
330
1F
100
AcDbEntity
  8
0
100
AcDbLine
 10
400.0
 20
148.5
 30
0.0
 11
415.0
 21
148.5
 31
0.0
  0
LINE
  5
29B24
330
1F
100
AcDbEntity
  8
0
100
AcDbLine
 10
215.0
 20
25.0
 30
0.0
 11
215.0
 21
10.0
 31
0.0
  0
LINE
  5
29B27
330
1F
100
AcDbEntity
  8
0
100
AcDbLine
 10
29.99999999999926
 20
148.5000000000001
 30
0.0
 11
15.0
 21
148.5
 31
0.0
  0
LINE
  5
29B3C
330
1F
100
AcDbEntity
  8
補助線
100
AcDbLine
 10
5.0
 20
297.0
 30
0.0
 11
5.0
 21
0.0
 31
0.0
  0
LINE
  5
29B3D
330
1F
100
AcDbEntity
  8
補助線
100
AcDbLine
 10
425.0
 20
297.0
 30
0.0
 11
5.0
 21
297.0
 31
0.0
  0
LINE
  5
29B3E
330
1F
100
AcDbEntity
  8
補助線
100
AcDbLine
 10
425.0
 20
0.0
 30
0.0
 11
425.0
 21
297.0
 31
0.0
  0
LINE
  5
29B3F
330
1F
100
AcDbEntity
  8
補助線
100
AcDbLine
 10
5.0
 20
0.0
 30
0.0
 11
425.0
 21
0.0
 31
0.0
  0
LINE
  5
29B58
330
1F
100
AcDbEntity
  8
0
100
AcDbLine
 10
24.99999999999926
 20
217.7500000000001
 30
0.0
 11
14.9999999999996
 21
217.75
 31
0.0
  0
LINE
  5
29B59
330
1F
100
AcDbEntity
  8
0
100
AcDbLine
 10
24.99999999999926
 20
79.25000000000004
 30
0.0
 11
15.00000000000039
 21
79.25
 31
0.0
  0
LINE
  5
29B5A
330
1F
100
AcDbEntity
  8
0
100
AcDbLine
 10
405.0
 20
217.75
 30
0.0
 11
415.0
 21
217.75
 31
0.0
  0
LINE
  5
29B5B
330
1F
100
AcDbEntity
  8
0
100
AcDbLine
 10
405.0
 20
79.25
 30
0.0
 11
415.0
 21
79.25
 31
0.0
  0
LINE
  5
29B74
330
1F
100
AcDbEntity
  8
0
100
AcDbLine
 10
115.0
 20
277.0
 30
0.0
 11
114.9999999999999
 21
286.9999999999998
 31
0.0
  0
LINE
  5
29B75
330
1F
100
AcDbEntity
  8
0
100
AcDbLine
 10
315.0
 20
277.0
 30
0.0
 11
315.0
 21
287.0000000000002
 31
0.0
  0
LINE
  5
29B76
330
1F
100
AcDbEntity
  8
0
100
AcDbLine
 10
114.9999999999999
 20
20.0
 30
0.0
 11
114.9999999999999
 21
10.0
 31
0.0
  0
LINE
  5
29B77
330
1F
100
AcDbEntity
  8
0
100
AcDbLine
 10
315.0
 20
20.0
 30
0.0
 11
315.0
 21
10.0
 31
0.0
  0
TEXT
  5
29B81
330
1F
100
AcDbEntity
  8
0
100
AcDbText
 10
56.87381033117557
 20
279.47215302696
 30
0.0
 40
5.0
  1
1
 41
0.8
 72
     1
 11
58.4928579502232
 21
281.97215302696
 31
0.0
100
AcDbText
 73
     2
  0
TEXT
  5
29B83
330
1F
100
AcDbEntity
  8
0
100
AcDbText
 10
156.5880960454613
 20
279.4721530269602
 30
0.0
 40
5.0
  1
2
 41
0.8
 72
     1
 11
158.4928579502232
 21
281.9721530269601
 31
0.0
100
AcDbText
 73
     2
  0
TEXT
  5
29B84
330
1F
100
AcDbEntity
  8
0
100
AcDbText
 10
256.5880960454613
 20
279.47215302696
 30
0.0
 40
5.0
  1
3
 41
0.8
 72
     1
 11
258.4928579502232
 21
281.97215302696
 31
0.0
100
AcDbText
 73
     2
  0
TEXT
  5
29B85
330
1F
100
AcDbEntity
  8
0
100
AcDbText
 10
356.4928579502232
 20
279.47215302696
 30
0.0
 40
5.0
  1
4
 41
0.8
 72
     1
 11
358.4928579502232
 21
281.97215302696
 31
0.0
100
AcDbText
 73
     2
  0
TEXT
  5
29B86
330
1F
100
AcDbEntity
  8
0
100
AcDbText
 10
56.87381033117557
 20
12.84246760572546
 30
0.0
 40
5.0
  1
1
 41
0.8
 72
     1
 11
58.4928579502232
 21
15.34246760572546
 31
0.0
100
AcDbText
 73
     2
  0
TEXT
  5
29B87
330
1F
100
AcDbEntity
  8
0
100
AcDbText
 10
156.5880960454613
 20
12.84246760572563
 30
0.0
 40
5.0
  1
2
 41
0.8
 72
     1
 11
158.4928579502232
 21
15.34246760572563
 31
0.0
100
AcDbText
 73
     2
  0
TEXT
  5
29B88
330
1F
100
AcDbEntity
  8
0
100
AcDbText
 10
256.5880960454613
 20
12.84246760572546
 30
0.0
 40
5.0
  1
3
 41
0.8
 72
     1
 11
258.4928579502232
 21
15.34246760572546
 31
0.0
100
AcDbText
 73
     2
  0
TEXT
  5
29B89
330
1F
100
AcDbEntity
  8
0
100
AcDbText
 10
356.4928579502232
 20
12.84246760572546
 30
0.0
 40
5.0
  1
4
 41
0.8
 72
     1
 11
358.4928579502232
 21
15.34246760572546
 31
0.0
100
AcDbText
 73
     2
  0
TEXT
  5
29B8A
330
1F
100
AcDbEntity
  8
0
100
AcDbText
 10
18.58632463146319
 20
250.031914925517
 30
0.0
 40
5.0
  1
A
 41
0.8
 72
     1
 11
20.30061034574891
 21
252.531914925517
 31
0.0
100
AcDbText
 73
     2
  0
TEXT
  5
29B8B
330
1F
100
AcDbEntity
  8
0
100
AcDbText
 10
18.2053722505112
 20
180.781914925517
 30
0.0
 40
5.0
  1
B
 41
0.8
 72
     1
 11
20.3006103457493
 21
183.281914925517
 31
0.0
100
AcDbText
 73
     2
  0
TEXT
  5
29B8C
330
1F
100
AcDbEntity
  8
0
100
AcDbText
 10
18.30061034574891
 20
111.531914925517
 30
0.0
 40
5.0
  1
C
 41
0.8
 72
     1
 11
20.30061034574891
 21
114.031914925517
 31
0.0
100
AcDbText
 73
     2
  0
TEXT
  5
29B8D
330
1F
100
AcDbEntity
  8
0
100
AcDbText
 10
18.20537225051081
 20
42.28191492551809
 30
0.0
 40
5.0
  1
D
 41
0.8
 72
     1
 11
20.30061034574891
 21
44.78191492551809
 31
0.0
100
AcDbText
 73
     2
  0
TEXT
  5
29B8E
330
1F
100
AcDbEntity
  8
0
100
AcDbText
 10
408.0524664877939
 20
250.0319149255158
 30
0.0
 40
5.0
  1
A
 41
0.8
 72
     1
 11
409.7667522020797
 21
252.5319149255158
 31
0.0
100
AcDbText
 73
     2
  0
TEXT
  5
29B8F
330
1F
100
AcDbEntity
  8
0
100
AcDbText
 10
407.671514106842
 20
180.7819149255158
 30
0.0
 40
5.0
  1
B
 41
0.8
 72
     1
 11
409.7667522020801
 21
183.2819149255158
 31
0.0
100
AcDbText
 73
     2
  0
TEXT
  5
29B90
330
1F
100
AcDbEntity
  8
0
100
AcDbText
 10
407.7667522020797
 20
111.5319149255158
 30
0.0
 40
5.0
  1
C
 41
0.8
 72
     1
 11
409.7667522020797
 21
114.0319149255158
 31
0.0
100
AcDbText
 73
     2
  0
TEXT
  5
29B91
330
1F
100
AcDbEntity
  8
0
100
AcDbText
 10
407.6715141068416
 20
42.28191492551693
 30
0.0
 40
5.0
  1
D
 41
0.8
 72
     1
 11
409.7667522020797
 21
44.78191492551693
 31
0.0
100
AcDbText
 73
     2
  0
LINE
  5
2A351
330
1F
100
AcDbEntity
  8
0
100
AcDbLine
 10
280.0
 20
20.0
 30
0.0
 11
280.0
 21
68.0
 31
0.0
  0
LINE
  5
2A352
330
1F
100
AcDbEntity
  8
0
100
AcDbLine
 10
280.0
 20
35.0
 30
0.0
 11
405.0
 21
35.0
 31
0.0
  0
LINE
  5
2A353
330
1F
100
AcDbEntity
  8
0
100
AcDbLine
 10
280.0
 20
58.0
 30
0.0
 11
405.0
 21
58.0
 31
0.0
  0
LINE
  5
2A354
330
1F
100
AcDbEntity
  8
0
100
AcDbLine
 10
280.0
 20
68.0
 30
0.0
 11
405.0
 21
68.0
 31
0.0
  0
LINE
  5
2A355
330
1F
100
AcDbEntity
  8
0
100
AcDbLine
 10
292.5
 20
35.0
 30
0.0
 11
292.5
 21
20.0
 31
0.0
  0
LINE
  5
2A356
330
1F
100
AcDbEntity
  8
0
100
AcDbLine
 10
305.0
 20
35.0
 30
0.0
 11
305.0
 21
20.0
 31
0.0
  0
LINE
  5
2A357
330
1F
100
AcDbEntity
  8
0
100
AcDbLine
 10
317.5
 20
35.0
 30
0.0
 11
317.5
 21
20.0
 31
0.0
  0
LINE
  5
2A358
330
1F
100
AcDbEntity
  8
0
100
AcDbLine
 10
330.0
 20
35.0
 30
0.0
 11
330.0
 21
20.0
 31
0.0
  0
LINE
  5
2A359
330
1F
100
AcDbEntity
  8
0
100
AcDbLine
 10
342.5
 20
58.0
 30
0.0
 11
342.5
 21
20.0
 31
0.0
  0
LINE
  5
2A35A
330
1F
100
AcDbEntity
  8
0
100
AcDbLine
 10
373.7499999999999
 20
46.49999999999999
 30
0.0
 11
373.7499999999999
 21
35.0
 31
0.0
  0
LINE
  5
2A35B
330
1F
100
AcDbEntity
  8
0
100
AcDbLine
 10
301.5
 20
68.0
 30
0.0
 11
301.5
 21
58.0
 31
0.0
  0
LINE
  5
2A35C
330
1F
100
AcDbEntity
  8
0
100
AcDbLine
 10
280.0
 20
31.0
 30
0.0
 11
342.5
 21
31.0
 31
0.0
  0
TEXT
  5
2A35D
330
1F
100
AcDbEntity
  8
0
100
AcDbText
 10
287.96
 20
61.5
 30
0.0
 40
3.0
  1
品名
 41
0.9
 72
     1
 11
290.75
 21
63.0
 31
0.0
100
AcDbText
 73
     2
  0
TEXT
  5
2A35E
330
1F
100
AcDbEntity
  8
0
100
AcDbText
 10
283.37
 20
31.5
 30
0.0
 40
3.0
  1
承認
 41
0.9
 72
     1
 11
286.25
 21
33.0
 31
0.0
100
AcDbText
 73
     2
  0
TEXT
  5
2A35F
330
1F
100
AcDbEntity
  8
0
100
AcDbText
 10
295.96
 20
31.5
 30
0.0
 40
3.0
  1
検図
 41
0.9
 72
     1
 11
298.75
 21
33.0
 31
0.0
100
AcDbText
 73
     2
  0
TEXT
  5
2A360
330
1F
100
AcDbEntity
  8
0
100
AcDbText
 10
308.46
 20
31.5
 30
0.0
 40
3.0
  1
製図
 41
0.9
 72
     1
 11
311.25
 21
33.0
 31
0.0
100
AcDbText
 73
     2
  0
TEXT
  5
2A361
330
1F
100
AcDbEntity
  8
0
100
AcDbText
 10
319.43
 20
31.5
 30
0.0
 40
3.0
  1
年月日
 41
0.9
 72
     1
 11
323.75
 21
33.0
 31
0.0
100
AcDbText
 73
     2
  0
TEXT
  5
2A362
330
1F
100
AcDbEntity
  8
0
100
AcDbText
 10
333.37
 20
31.5
 30
0.0
 40
3.0
  1
尺度
 41
0.9
 72
     1
 11
336.25
 21
33.0
 31
0.0
100
AcDbText
 73
     2
  0
TEXT
  5
2A363
330
1F
100
AcDbEntity
  8
0
100
AcDbText
 10
347.5141191097013
 20
25.47732717604083
 30
0.0
 40
5.0
  1
柏原計器工業株式会社
 41
0.9
 72
     1
 11
373.9141191097012
 21
27.97732717604083
 31
0.0
100
AcDbText
 73
     2
  0
TEXT
  5
2A364
330
1F
100
AcDbEntity
  8
0
100
AcDbText
 10
331.75
 20
23.75
 30
0.0
 40
3.5
  1
free
 41
0.9
 72
     1
 11
336.25
 21
25.5
 31
0.0
100
AcDbText
 73
     2
  0
TEXT
  5
2A365
330
1F
100
AcDbEntity
  8
0
100
AcDbText
 10
306.5860329945233
 20
50.90516497261692
 30
0.0
 40
3.5
  1
外観図
 41
0.9
 72
     1
 11
311.7310329945233
 21
52.65516497261692
 31
0.0
100
AcDbText
 73
     2
  0
TEXT
  5
2A366
330
1F
100
AcDbEntity
  8
0
100
AcDbText
 10
309.2835983023972
 20
61.25
 30
0.0
 40
3.5
  1
接線流羽根車式乾式直読式水道メーター　30mm
 41
0.9
 72
     1
 11
352.3935983023971
 21
63.0
 31
0.0
100
AcDbText
 73
     2
  0
LINE
  5
2A367
330
1F
100
AcDbEntity
  8
0
100
AcDbLine
 10
404.9999999999998
 20
46.49999999999999
 30
0.0
 11
280.0
 21
46.5
 31
0.0
  0
LINE
  5
2A369
330
1F
100
AcDbEntity
  8
0
100
AcDbLine
 10
347.5
 20
57.99999999999999
 30
0.0
 11
347.5
 21
46.5
 31
0.0
  0
TEXT
  5
2A36A
330
1F
100
AcDbEntity
  8
0
100
AcDbText
 10
343.8012444219987
 20
53.78915733104803
 30
0.0
 40
3.0
  1
図
 41
0.9
 72
     1
 11
345.0612444219987
 21
55.28915733104803
 31
0.0
100
AcDbText
 73
     2
  0
TEXT
  5
2A36B
330
1F
100
AcDbEntity
  8
0
100
AcDbText
 10
343.74
 20
48.125
 30
0.0
 40
3.0
  1
番
 41
0.9
 72
     1
 11
345.0
 21
49.62499999999999
 31
0.0
100
AcDbText
 73
     2
  0
LINE
  5
2A36C
330
1F
100
AcDbEntity
  8
0
100
AcDbLine
 10
285.0
 20
46.49999999999999
 30
0.0
 11
285.0
 21
35.0
 31
0.0
  0
TEXT
  5
2A36D
330
1F
100
AcDbEntity
  8
0
100
AcDbText
 10
281.3012444219987
 20
42.28915733104803
 30
0.0
 40
3.0
  1
摘
 41
0.9
 72
     1
 11
282.5612444219987
 21
43.78915733104803
 31
0.0
100
AcDbText
 73
     2
  0
TEXT
  5
2A36E
330
1F
100
AcDbEntity
  8
0
100
AcDbText
 10
281.24
 20
36.625
 30
0.0
 40
3.0
  1
要
 41
0.9
 72
     1
 11
282.5
 21
38.125
 31
0.0
100
AcDbText
 73
     2
  0
LINE
  5
2A36F
330
1F
100
AcDbEntity
  8
0
100
AcDbLine
 10
285.0
 20
57.99999999999999
 30
0.0
 11
285.0
 21
46.5
 31
0.0
  0
TEXT
  5
2A370
330
1F
100
AcDbEntity
  8
0
100
AcDbText
 10
281.3912444219987
 20
53.78915733104803
 30
0.0
 40
3.0
  1
名
 41
0.9
 72
     1
 11
282.5612444219987
 21
55.28915733104803
 31
0.0
100
AcDbText
 73
     2
  0
TEXT
  5
2A371
330
1F
100
AcDbEntity
  8
0
100
AcDbText
 10
281.24
 20
48.125
 30
0.0
 40
3.0
  1
称
 41
0.9
 72
     1
 11
282.5
 21
49.62499999999999
 31
0.0
100
AcDbText
 73
     2
  0
LINE
  5
2A372
330
1F
100
AcDbEntity
  8
0
  6
CENTER
 48
0.2
370
    15
100
AcDbLine
 10
380.3743237194039
 20
40.70717840942182
 30
0.0
 11
402.3661932218493
 21
40.70717840942182
 31
0.0
  0
LINE
  5
2A373
330
1F
100
AcDbEntity
  8
0
  6
CENTER
 48
0.2
370
    15
100
AcDbLine
 10
385.6829979138538
 20
45.02275052681983
 30
0.0
 11
385.6829979138538
 21
36.39160629202382
 31
0.0
  0
CIRCLE
  5
2A374
330
1F
100
AcDbEntity
  8
0
100
AcDbCircle
 10
385.6829979138538
 20
40.70717840942182
 30
0.0
 40
3.616483184024218
  0
CIRCLE
  5
2A375
330
1F
100
AcDbEntity
  8
0
100
AcDbCircle
 10
385.6829979138538
 20
40.70717840942182
 30
0.0
 40
2.153012167676263
  0
LINE
  5
2A376
330
1F
100
AcDbEntity
  8
0
100
AcDbLine
 10
391.435352056124
 20
42.86019057709808
 30
0.0
 11
391.435352056124
 21
38.5377720924151
 31
0.0
  0
LINE
  5
2A377
330
1F
100
AcDbEntity
  8
0
100
AcDbLine
 10
391.435352056124
 20
38.5377720924151
 30
0.0
 11
400.8293035353753
 21
37.0906952253976
 31
0.0
  0
LINE
  5
2A378
330
1F
100
AcDbEntity
  8
0
100
AcDbLine
 10
400.8293035353753
 20
37.0906952253976
 30
0.0
 11
400.8293035353753
 21
44.32366159344604
 31
0.0
  0
LINE
  5
2A379
330
1F
100
AcDbEntity
  8
0
100
AcDbLine
 10
400.8293035353753
 20
44.32366159344604
 30
0.0
 11
391.435352056124
 21
42.86019057709808
 31
0.0
  0
TEXT
  5
2A37A
330
1F
100
AcDbEntity
  8
0
100
AcDbText
 10
343.8012444219987
 20
42.28915733104803
 30
0.0
 40
3.0
  1
材
 41
0.9
 72
     1
 11
345.0612444219987
 21
43.78915733104803
 31
0.0
100
AcDbText
 73
     2
  0
TEXT
  5
2A37B
330
1F
100
AcDbEntity
  8
0
100
AcDbText
 10
343.74
 20
36.625
 30
0.0
 40
3.0
  1
質
 41
0.9
 72
     1
 11
345.0
 21
38.125
 31
0.0
100
AcDbText
 73
     2
  0
LINE
  5
2A37C
330
1F
100
AcDbEntity
  8
0
100
AcDbLine
 10
347.5
 20
46.49999999999999
 30
0.0
 11
347.5
 21
35.0
 31
0.0
  0
TEXT
  5
2A37D
330
1F
100
AcDbEntity
  8
0
100
AcDbText
 10
375.0512444219985
 20
42.72828299788964
 30
0.0
 40
3.0
  1
投
 41
0.9
 72
     1
 11
376.3112444219985
 21
44.22828299788965
 31
0.0
100
AcDbText
 73
     2
  0
TEXT
  5
2A37E
330
1F
100
AcDbEntity
  8
0
100
AcDbText
 10
374.9899999999998
 20
35.74674936600604
 30
0.0
 40
3.0
  1
法
 41
0.9
 72
     1
 11
376.2499999999998
 21
37.24674936600604
 31
0.0
100
AcDbText
 73
     2
  0
LINE
  5
2A37F
330
1F
100
AcDbEntity
  8
0
100
AcDbLine
 10
378.7499999999998
 20
46.49999999999999
 30
0.0
 11
378.7499999999998
 21
35.0
 31
0.0
  0
TEXT
  5
2A380
330
1F
100
AcDbEntity
  8
0
100
AcDbText
 10
375.0512444219985
 20
39.32506030432352
 30
0.0
 40
3.0
  1
影
 41
0.9
 72
     1
 11
376.3112444219985
 21
40.82506030432351
 31
0.0
100
AcDbText
 73
     2
  0
TEXT
  5
2A77A
330
1F
100
AcDbEntity
  8
0
100
AcDbText
 10
317.8166666666667
 20
26.58703627890884
 30
0.0
 40
3.5
  1
2019.
 41
0.8
 72
     1
 11
323.75
 21
28.33703627890884
 31
0.0
100
AcDbText
 73
     2
  0
TEXT
  5
2A77B
330
1F
100
AcDbEntity
  8
0
100
AcDbText
 10
317.55
 20
21.53356531963254
 30
0.0
 40
3.5
  1
11.20
 41
0.8
 72
     1
 11
323.75
 21
23.28356531963255
 31
0.0
100
AcDbText
 73
     2
  0
TEXT
  5
2BF6C
330
1F
100
AcDbEntity
  8
0
100
AcDbText
 10
303.5560329945233
 20
39.40516497261692
 30
0.0
 40
3.5
  1
PD-30
 41
0.9
 72
     1
 11
311.7310329945233
 21
41.15516497261692
 31
0.0
100
AcDbText
 73
     2
  0
TEXT
  5
2CB93
330
1F
100
AcDbEntity
  8
寸法
100
AcDbText
 10
211.0761759135048
 20
113.3301322442804
 30
-0.0000000000000032
 40
3.5
  1
φ47.8～山11　上水
 41
0.9
  7
寸法
100
AcDbText
  0
LWPOLYLINE
  5
2CB95
330
1F
100
AcDbEntity
  8
寸法
100
AcDbPolyline
 90
        3
 70
     0
 43
0.0
 10
250.2413770920544
 20
98.39402900502335
 10
259.6703751423699
 20
111.4234378283599
 10
205.7423825438241
 20
111.3803064954085
1001
ACAD
1000
DSTYLE
1002
{
1070
   147
1040
1.0
1070
    77
1070
     0
1002
}
  0
TEXT
  5
2CB96
330
1F
100
AcDbEntity
  8
寸法
100
AcDbText
 10
211.2358481588703
 20
105.8708565700921
 30
-0.0000000000000032
 40
3.5
  1
φ49.4～山11　金門
 41
0.9
  7
寸法
100
AcDbText
  0
CIRCLE
  5
2D021
330
1F
100
AcDbEntity
  8
実線
100
AcDbCircle
 10
342.4925994450543
 20
172.1169213723195
 30
0.0
 40
30.5
  0
CIRCLE
  5
2D022
330
1F
100
AcDbEntity
  8
実線
100
AcDbCircle
 10
342.4925994450543
 20
172.1169213723195
 30
0.0
 40
29.5
  0
ARC
  5
2D023
330
1F
100
AcDbEntity
  8
実線
100
AcDbCircle
 10
342.4925994450543
 20
172.1169213723195
 30
0.0
 40
29.142563
100
AcDbArc
 50
10.73731900000166
 51
169.2626809999983
  0
ARC
  5
2D024
330
1F
100
AcDbEntity
  8
実線
100
AcDbCircle
 10
315.9514824450543
 20
177.0263413723195
 30
0.0
 40
2.154897999999999
100
AcDbArc
 50
166.0352089999986
 51
191.3446929999982
  0
LINE
  5
2D025
330
1F
100
AcDbEntity
  8
実線
100
AcDbLine
 10
314.1493334450545
 20
175.8420073723194
 30
0.0
 11
313.9951944450543
 21
176.2140033723195
 31
0.0
  0
LINE
  5
2D026
330
1F
100
AcDbEntity
  8
実線
100
AcDbLine
 10
313.9951944450543
 20
176.2140033723195
 30
0.0
 11
313.8386884450544
 21
176.6024493723195
 31
0.0
  0
ARC
  5
2D027
330
1F
100
AcDbEntity
  8
実線
100
AcDbCircle
 10
342.4925994450543
 20
172.1169213723195
 30
0.0
 40
28.587008
100
AcDbArc
 50
172.5126699999977
 51
301.3102519999984
  0
ARC
  5
2D028
330
1F
100
AcDbEntity
  8
実線
100
AcDbCircle
 10
346.9994794450542
 20
164.4862143723195
 30
0.0
 40
19.725828
100
AcDbArc
 50
301.6441119999966
 51
310.296515999996
  0
ARC
  5
2D029
330
1F
100
AcDbEntity
  8
実線
100
AcDbCircle
 10
342.4925994450543
 20
172.1169213723195
 30
0.0
 40
28.5
100
AcDbArc
 50
307.2842279999978
 51
7.180755999999683
  0
LINE
  5
2D02A
330
1F
100
AcDbEntity
  8
実線
100
AcDbLine
 10
370.7686244450544
 20
175.6828403723194
 30
0.0
 11
370.7688484450543
 21
175.6811313723195
 31
0.0
  0
LINE
  5
2D02B
330
1F
100
AcDbEntity
  8
実線
100
AcDbLine
 10
370.7688484450543
 20
175.6811313723195
 30
0.0
 11
370.7690664450545
 21
175.6794213723195
 31
0.0
  0
LINE
  5
2D02C
330
1F
100
AcDbEntity
  8
実線
100
AcDbLine
 10
371.1465114450543
 20
176.6024493723195
 30
0.0
 11
370.9966534450543
 21
176.2302793723195
 31
0.0
  0
LINE
  5
2D02D
330
1F
100
AcDbEntity
  8
実線
100
AcDbLine
 10
370.9966534450543
 20
176.2302793723195
 30
0.0
 11
370.7686334450543
 21
175.6828613723195
 31
0.0
  0
LINE
  5
2D02E
330
1F
100
AcDbEntity
  8
実線
100
AcDbLine
 10
370.7686334450543
 20
175.6828613723195
 30
0.0
 11
370.7686244450544
 21
175.6828403723194
 31
0.0
  0
ARC
  5
2D02F
330
1F
100
AcDbEntity
  8
実線
100
AcDbCircle
 10
369.0642254450543
 20
177.0270383723194
 30
0.0
 40
2.125133
100
AcDbArc
 50
348.4750589999983
 51
14.14503900000051
  0
LINE
  5
2D030
330
1F
100
AcDbEntity
  8
実線
100
AcDbLine
 10
371.1465114450543
 20
176.6024493723195
 30
0.0
 11
370.6642904450543
 21
176.9911993723195
 31
0.0
  0
ARC
  5
2D031
330
1F
100
AcDbEntity
  8
実線
100
AcDbCircle
 10
370.1688274450544
 20
177.2035183723195
 30
0.0
 40
0.539039
100
AcDbArc
 50
336.8035849999996
 51
27.86234499999382
  0
LINE
  5
2D032
330
1F
100
AcDbEntity
  8
実線
100
AcDbLine
 10
370.6453774450545
 20
177.4554383723194
 30
0.0
 11
371.1249244450544
 21
177.5463733723194
 31
0.0
  0
LINE
  5
2D033
330
1F
100
AcDbEntity
  8
実線
100
AcDbLine
 10
314.3398224450543
 20
177.4554383723194
 30
0.0
 11
313.8602744450543
 21
177.5463733723194
 31
0.0
  0
ARC
  5
2D034
330
1F
100
AcDbEntity
  8
実線
100
AcDbCircle
 10
314.8215454450544
 20
177.2033083723195
 30
0.0
 40
0.543716
100
AcDbArc
 50
152.3728060000005
 51
202.961263999999
  0
LINE
  5
2D035
330
1F
100
AcDbEntity
  8
実線
100
AcDbLine
 10
313.8386884450544
 20
176.6024493723195
 30
0.0
 11
314.3209084450543
 21
176.9911993723195
 31
0.0
  0
ARC
  5
2D036
330
1F
100
AcDbEntity
  8
実線
100
AcDbCircle
 10
342.4925994450543
 20
172.1169213723195
 30
0.0
 40
28.65447
100
AcDbArc
 50
10.73731900000166
 51
169.2626809999983
  0
CIRCLE
  5
2D037
330
1F
100
AcDbEntity
  8
実線
100
AcDbCircle
 10
342.4925994450543
 20
172.1169213723195
 30
0.0
 40
31.0
  0
LINE
  5
2D038
330
1F
100
AcDbEntity
  8
実線
100
AcDbLine
 10
314.3398224450543
 20
177.4554383723194
 30
0.0
 11
370.6453774450545
 21
177.4554383723194
 31
0.0
  0
LINE
  5
2D039
330
1F
100
AcDbEntity
  8
実線
100
AcDbLine
 10
370.6642904450543
 20
176.9911993723195
 30
0.0
 11
314.3209084450543
 21
176.9911993723195
 31
0.0
  0
LINE
  5
2D03A
330
1F
100
AcDbEntity
  8
実線
100
AcDbLine
 10
327.8925994450544
 20
187.4169213723195
 30
0.0
 11
327.8925994450544
 21
180.2169213723194
 31
0.0
  0
LINE
  5
2D03B
330
1F
100
AcDbEntity
  8
実線
100
AcDbLine
 10
327.8925994450544
 20
180.2169213723194
 30
0.0
 11
355.8925994450544
 21
180.2169213723194
 31
0.0
  0
LINE
  5
2D03C
330
1F
100
AcDbEntity
  8
実線
100
AcDbLine
 10
355.8925994450544
 20
180.2169213723194
 30
0.0
 11
355.8925994450544
 21
187.4169213723195
 31
0.0
  0
LINE
  5
2D03D
330
1F
100
AcDbEntity
  8
実線
100
AcDbLine
 10
357.8925994450544
 20
180.2169213723194
 30
0.0
 11
357.8925994450544
 21
187.4169213723195
 31
0.0
  0
LINE
  5
2D03E
330
1F
100
AcDbEntity
  8
実線
100
AcDbLine
 10
361.8925994450544
 20
180.2169213723194
 30
0.0
 11
357.8925994450544
 21
180.2169213723194
 31
0.0
  0
LINE
  5
2D03F
330
1F
100
AcDbEntity
  8
実線
100
AcDbLine
 10
355.8925994450544
 20
187.4169213723195
 30
0.0
 11
327.8925994450544
 21
187.4169213723195
 31
0.0
  0
LINE
  5
2D040
330
1F
100
AcDbEntity
  8
実線
100
AcDbLine
 10
361.8925994450544
 20
187.4169213723195
 30
0.0
 11
361.8925994450544
 21
180.2169213723194
 31
0.0
  0
LINE
  5
2D041
330
1F
100
AcDbEntity
  8
実線
100
AcDbLine
 10
357.8925994450544
 20
187.4169213723195
 30
0.0
 11
361.8925994450544
 21
187.4169213723195
 31
0.0
  0
ARC
  5
2D042
330
1F
100
AcDbEntity
  8
実線
100
AcDbCircle
 10
370.2729704450544
 20
175.6169023723195
 30
0.0
 40
0.5000200000000001
100
AcDbArc
 50
7.577740000000205
 51
87.18785600000103
  0
LINE
  5
2D043
330
1F
100
AcDbEntity
  8
実線
100
AcDbLine
 10
370.2975024450543
 20
176.1163203723196
 30
0.0
 11
370.6642904450543
 21
176.9911993723195
 31
0.0
  0
LINE
  5
2D044
330
1F
100
AcDbEntity
  8
実線
100
AcDbLine
 10
314.3209084450543
 20
176.9911993723195
 30
0.0
 11
314.6332654450544
 21
176.2426433723195
 31
0.0
  0
LINE
  5
2D045
330
1F
100
AcDbEntity
  8
実線
100
AcDbLine
 10
314.1493334450545
 20
175.8420073723194
 30
0.0
 11
314.6332654450544
 21
176.2426433723195
 31
0.0
  0
CIRCLE
  5
2D046
330
1F
100
AcDbEntity
  8
実線
100
AcDbCircle
 10
342.4925994450543
 20
172.1169213723195
 30
0.0
 40
31.5
  0
LINE
  5
2D047
330
1F
100
AcDbEntity
  8
実線
100
AcDbLine
 10
370.2729884450544
 20
176.1169213723195
 30
0.0
 11
360.3178594450544
 21
176.1169213723195
 31
0.0
  0
LINE
  5
2D048
330
1F
100
AcDbEntity
  8
実線
100
AcDbLine
 10
314.6332654450544
 20
176.2426433723195
 30
0.0
 11
360.7753764450543
 21
176.2426433723195
 31
0.0
  0
LINE
  5
2D049
330
1F
100
AcDbEntity
  8
実線
100
AcDbLine
 10
370.2729884450544
 20
176.1169213723195
 30
0.0
 11
370.2852494450542
 21
176.1167713723194
 31
0.0
  0
LINE
  5
2D04A
330
1F
100
AcDbEntity
  8
実線
100
AcDbLine
 10
370.2852494450542
 20
176.1167713723194
 30
0.0
 11
370.2975024450543
 21
176.1163203723196
 31
0.0
  0
LINE
  5
2D04B
330
1F
100
AcDbEntity
  8
実線
100
AcDbLine
 10
357.0948184450542
 20
148.1101683723195
 30
0.0
 11
357.3484664450543
 21
147.6931583723195
 31
0.0
  0
ARC
  5
2D04C
330
1F
100
AcDbEntity
  8
実線
100
AcDbCircle
 10
354.9108724450543
 20
155.8062963723195
 30
0.0
 40
8.0
100
AcDbArc
 50
285.8424589999992
 51
307.2842279999978
  0
LINE
  5
2D04D
330
1F
100
AcDbEntity
  8
実線
100
AcDbLine
 10
359.4136174450544
 20
175.7784053723195
 30
0.0
 11
314.6332654450544
 21
175.7784053723195
 31
0.0
  0
LINE
  5
2D04E
330
1F
100
AcDbEntity
  8
実線
100
AcDbLine
 10
314.6332654450544
 20
176.2426433723195
 30
0.0
 11
314.6332654450544
 21
175.7784053723195
 31
0.0
  0
ARC
  5
2D04F
330
1F
100
AcDbEntity
  8
実線
100
AcDbCircle
 10
362.6655184450545
 20
168.4688943723195
 30
0.0
 40
8.000238000000001
100
AcDbArc
 50
103.6659480000025
 51
113.9836290000039
  0
LINE
  5
2D050
330
1F
100
AcDbEntity
  8
実線
100
AcDbLine
 10
314.6332654450544
 20
175.7784053723195
 30
0.0
 11
314.1493334450545
 21
175.8420073723194
 31
0.0
  0
ARC
  5
2D051
330
1F
100
AcDbEntity
  8
実線
100
AcDbCircle
 10
342.4925994450543
 20
172.1169213723195
 30
0.0
 40
28.098914
100
AcDbArc
 50
172.5126699999977
 51
301.3102519999984
  0
CIRCLE
  5
2D052
330
1F
100
AcDbEntity
  8
実線
100
AcDbCircle
 10
342.4925994450543
 20
164.3169213723195
 30
0.0
 40
5.5
  0
ARC
  5
2D053
330
1F
100
AcDbEntity
  8
実線
100
AcDbCircle
 10
355.2585794450545
 20
164.2991813723196
 30
0.0
 40
0.5
100
AcDbArc
 50
267.6555649999978
 51
29.37878200000016
  0
ARC
  5
2D054
330
1F
100
AcDbEntity
  8
実線
100
AcDbCircle
 10
354.9108724450543
 20
155.8062963723195
 30
0.0
 40
8.0
100
AcDbArc
 50
87.65556500000434
 51
285.8424589999992
  0
ARC
  5
2D055
330
1F
100
AcDbEntity
  8
実線
100
AcDbCircle
 10
362.6654414450543
 20
168.4691203723195
 30
0.0
 40
8.0
100
AcDbArc
 50
113.9837820000035
 51
209.3787820000001
  0
CIRCLE
  5
2D056
330
1F
100
AcDbEntity
  8
実線
100
AcDbCircle
 10
342.4925994450543
 20
164.3169213723195
 30
0.0
 40
4.5
  0
LINE
  5
2D057
330
1F
100
AcDbEntity
  8
実線
100
AcDbLine
 10
342.4925994450543
 20
160.8169213723195
 30
0.0
 11
342.4925994450543
 21
162.8169213723195
 31
0.0
  0
LINE
  5
2D058
330
1F
100
AcDbEntity
  8
実線
100
AcDbLine
 10
342.4925994450543
 20
165.8169213723195
 30
0.0
 11
342.4925994450543
 21
167.8169213723195
 31
0.0
  0
LINE
  5
2D059
330
1F
100
AcDbEntity
  8
実線
100
AcDbLine
 10
365.3925994450544
 20
184.7169213723194
 30
0.0
 11
365.3925994450544
 21
182.7169213723195
 31
0.0
  0
LINE
  5
2D05A
330
1F
100
AcDbEntity
  8
実線
100
AcDbLine
 10
362.0925994450542
 20
183.7169213723194
 30
0.0
 11
365.3925994450544
 21
184.7169213723194
 31
0.0
  0
LINE
  5
2D05B
330
1F
100
AcDbEntity
  8
実線
100
AcDbLine
 10
362.0925994450542
 20
183.7169213723194
 30
0.0
 11
365.3925994450544
 21
182.7169213723195
 31
0.0
  0
CIRCLE
  5
2D05C
330
1F
100
AcDbEntity
  8
実線
100
AcDbCircle
 10
356.9925994450543
 20
179.0169213723194
 30
0.0
 40
1.0
  0
LINE
  5
2D05D
330
1F
100
AcDbEntity
  8
実線
100
AcDbLine
 10
348.7425994450543
 20
167.1169213723195
 30
0.0
 11
349.4925994450543
 21
167.1169213723195
 31
0.0
  0
LINE
  5
2D05E
330
1F
100
AcDbEntity
  8
実線
100
AcDbLine
 10
349.9925994450543
 20
167.1169213723195
 30
0.0
 11
350.7425994450543
 21
167.1169213723195
 31
0.0
  0
LINE
  5
2D05F
330
1F
100
AcDbEntity
  8
実線
100
AcDbLine
 10
349.9925994450543
 20
167.1169213723195
 30
0.0
 11
349.9925994450543
 21
170.6169213723195
 31
0.0
  0
LINE
  5
2D060
330
1F
100
AcDbEntity
  8
実線
100
AcDbLine
 10
348.7425994450543
 20
167.1169213723195
 30
0.0
 11
349.7425994450543
 21
163.6169213723195
 31
0.0
  0
LINE
  5
2D061
330
1F
100
AcDbEntity
  8
実線
100
AcDbLine
 10
349.7425994450543
 20
163.6169213723195
 30
0.0
 11
350.7425994450543
 21
167.1169213723195
 31
0.0
  0
LINE
  5
2D062
330
1F
100
AcDbEntity
  8
実線
100
AcDbLine
 10
349.4925994450543
 20
167.1169213723195
 30
0.0
 11
349.4925994450543
 21
170.6169213723195
 31
0.0
  0
LINE
  5
2D063
330
1F
100
AcDbEntity
  8
実線
100
AcDbLine
 10
349.9925994450543
 20
170.6169213723195
 30
0.0
 11
349.4925994450543
 21
170.6169213723195
 31
0.0
  0
LINE
  5
2D064
330
1F
100
AcDbEntity
  8
実線
100
AcDbLine
 10
334.4925994450544
 20
163.8169213723195
 30
0.0
 11
334.4925994450544
 21
164.8169213723195
 31
0.0
  0
LINE
  5
2D065
330
1F
100
AcDbEntity
  8
実線
100
AcDbLine
 10
334.4925994450544
 20
164.8169213723195
 30
0.0
 11
336.4925994450544
 21
164.3169213723195
 31
0.0
  0
LINE
  5
2D066
330
1F
100
AcDbEntity
  8
実線
100
AcDbLine
 10
334.4925994450544
 20
163.8169213723195
 30
0.0
 11
336.4925994450544
 21
164.3169213723195
 31
0.0
  0
TEXT
  5
2D067
330
1F
100
AcDbEntity
  8
実線
100
AcDbText
 10
317.9925994450544
 20
164.1169213723195
 30
0.0
 40
2.333333
  1
H
100
AcDbText
  0
TEXT
  5
2D068
330
1F
100
AcDbEntity
  8
実線
100
AcDbText
 10
323.1592664450543
 20
156.3227619942291
 30
0.0
 40
2.5
  1
型承L128号24
 41
0.8
  7
BIGFONT
100
AcDbText
  0
TEXT
  5
2D069
330
1F
100
AcDbEntity
  8
実線
100
AcDbText
 10
326.9925994450543
 20
152.9502543723196
 30
0.0
 40
2.8125
  1
Q3=10
 41
0.8
100
AcDbText
  0
TEXT
  5
2D06A
330
1F
100
AcDbEntity
  8
実線
100
AcDbText
 10
329.1592664450543
 20
149.6169213723195
 30
0.0
 40
2.68272
  1
R=100
 41
0.8
100
AcDbText
  0
LINE
  5
2D06B
330
1F
100
AcDbEntity
  8
実線
100
AcDbLine
 10
318.0959324450544
 20
172.1108103723195
 30
0.0
 11
318.0959324450544
 21
171.5495863723195
 31
0.0
  0
LINE
  5
2D06C
330
1F
100
AcDbEntity
  8
実線
100
AcDbLine
 10
321.2159324450543
 20
171.5258103723196
 30
0.0
 11
321.2159324450543
 21
170.4858103723195
 31
0.0
  0
LINE
  5
2D06D
330
1F
100
AcDbEntity
  8
実線
100
AcDbLine
 10
321.0859324450544
 20
169.3673243723195
 30
0.0
 11
321.0859324450544
 21
168.7325223723195
 31
0.0
  0
LINE
  5
2D06E
330
1F
100
AcDbEntity
  8
実線
100
AcDbLine
 10
321.0859324450544
 20
173.2790983723195
 30
0.0
 11
321.0859324450544
 21
172.6442963723194
 31
0.0
  0
LINE
  5
2D06F
330
1F
100
AcDbEntity
  8
実線
100
AcDbLine
 10
320.5659324450544
 20
169.3673243723195
 30
0.0
 11
320.5659324450544
 21
168.7325223723195
 31
0.0
  0
LINE
  5
2D070
330
1F
100
AcDbEntity
  8
実線
100
AcDbLine
 10
318.2259324450545
 20
171.0058103723195
 30
0.0
 11
320.5659324450544
 21
169.3673243723195
 31
0.0
  0
LINE
  5
2D071
330
1F
100
AcDbEntity
  8
実線
100
AcDbLine
 10
323.5559324450544
 20
170.4620343723194
 30
0.0
 11
321.0859324450544
 21
168.7325223723195
 31
0.0
  0
LINE
  5
2D072
330
1F
100
AcDbEntity
  8
実線
100
AcDbLine
 10
323.4259324450543
 20
171.0058103723195
 30
0.0
 11
321.0859324450544
 21
169.3673243723195
 31
0.0
  0
LINE
  5
2D073
330
1F
100
AcDbEntity
  8
実線
100
AcDbLine
 10
324.0759324450544
 20
169.9008103723196
 30
0.0
 11
323.5559324450544
 21
169.9008103723196
 31
0.0
  0
LINE
  5
2D074
330
1F
100
AcDbEntity
  8
実線
100
AcDbLine
 10
323.5559324450544
 20
171.5495863723195
 30
0.0
 11
323.5559324450544
 21
172.1108103723195
 31
0.0
  0
LINE
  5
2D075
330
1F
100
AcDbEntity
  8
実線
100
AcDbLine
 10
318.0959324450544
 20
170.4620343723194
 30
0.0
 11
318.0959324450544
 21
169.9008103723196
 31
0.0
  0
LINE
  5
2D076
330
1F
100
AcDbEntity
  8
実線
100
AcDbLine
 10
317.5759324450544
 20
172.1108103723195
 30
0.0
 11
318.0959324450544
 21
172.1108103723195
 31
0.0
  0
LINE
  5
2D077
330
1F
100
AcDbEntity
  8
実線
100
AcDbLine
 10
323.4259324450543
 20
171.0058103723195
 30
0.0
 11
321.0859324450544
 21
172.6442963723194
 31
0.0
  0
LINE
  5
2D078
330
1F
100
AcDbEntity
  8
実線
100
AcDbLine
 10
323.5559324450544
 20
171.5495863723195
 30
0.0
 11
321.0859324450544
 21
173.2790983723195
 31
0.0
  0
LINE
  5
2D079
330
1F
100
AcDbEntity
  8
実線
100
AcDbLine
 10
320.4359324450543
 20
171.5258103723196
 30
0.0
 11
320.4359324450543
 21
170.4858103723195
 31
0.0
  0
LINE
  5
2D07A
330
1F
100
AcDbEntity
  8
実線
100
AcDbLine
 10
323.5559324450544
 20
172.1108103723195
 30
0.0
 11
324.0759324450544
 21
172.1108103723195
 31
0.0
  0
LINE
  5
2D07B
330
1F
100
AcDbEntity
  8
実線
100
AcDbLine
 10
318.0959324450544
 20
169.9008103723196
 30
0.0
 11
317.5759324450544
 21
169.9008103723196
 31
0.0
  0
LINE
  5
2D07C
330
1F
100
AcDbEntity
  8
実線
100
AcDbLine
 10
321.6059324450544
 20
171.5258103723196
 30
0.0
 11
321.6059324450544
 21
170.4858103723195
 31
0.0
  0
LINE
  5
2D07D
330
1F
100
AcDbEntity
  8
実線
100
AcDbLine
 10
318.0959324450544
 20
171.5495863723195
 30
0.0
 11
320.5659324450544
 21
173.2790983723195
 31
0.0
  0
LINE
  5
2D07E
330
1F
100
AcDbEntity
  8
実線
100
AcDbLine
 10
317.5759324450544
 20
172.1108103723195
 30
0.0
 11
317.5759324450544
 21
169.9008103723196
 31
0.0
  0
LINE
  5
2D07F
330
1F
100
AcDbEntity
  8
実線
100
AcDbLine
 10
323.5559324450544
 20
169.9008103723196
 30
0.0
 11
323.5559324450544
 21
170.4620343723194
 31
0.0
  0
LINE
  5
2D080
330
1F
100
AcDbEntity
  8
実線
100
AcDbLine
 10
318.0959324450544
 20
170.4620343723194
 30
0.0
 11
320.5659324450544
 21
168.7325223723195
 31
0.0
  0
LINE
  5
2D081
330
1F
100
AcDbEntity
  8
実線
100
AcDbLine
 10
318.2259324450545
 20
171.0058103723195
 30
0.0
 11
320.5659324450544
 21
172.6442963723194
 31
0.0
  0
LINE
  5
2D082
330
1F
100
AcDbEntity
  8
実線
100
AcDbLine
 10
324.0759324450544
 20
172.1108103723195
 30
0.0
 11
324.0759324450544
 21
169.9008103723196
 31
0.0
  0
LINE
  5
2D083
330
1F
100
AcDbEntity
  8
実線
100
AcDbLine
 10
320.0459324450544
 20
171.5258103723196
 30
0.0
 11
320.0459324450544
 21
170.4858103723195
 31
0.0
  0
LINE
  5
2D084
330
1F
100
AcDbEntity
  8
実線
100
AcDbLine
 10
320.5659324450544
 20
173.2790983723195
 30
0.0
 11
320.5659324450544
 21
172.6442963723194
 31
0.0
  0
ARC
  5
2D085
330
1F
100
AcDbEntity
  8
実線
100
AcDbCircle
 10
320.8259324450544
 20
171.5258103723196
 30
0.0
 40
0.7800000000000001
100
AcDbArc
 50
0.0
 51
180.0
  0
ARC
  5
2D086
330
1F
100
AcDbEntity
  8
実線
100
AcDbCircle
 10
320.8259324450544
 20
170.4858103723195
 30
0.0
 40
0.7800000000000001
100
AcDbArc
 50
180.0
 51
0.0
  0
ARC
  5
2D087
330
1F
100
AcDbEntity
  8
実線
100
AcDbCircle
 10
320.8259324450544
 20
171.5258103723196
 30
0.0
 40
0.39
100
AcDbArc
 50
0.0
 51
180.0
  0
ARC
  5
2D088
330
1F
100
AcDbEntity
  8
実線
100
AcDbCircle
 10
320.8259324450544
 20
170.4858103723195
 30
0.0
 40
0.39
100
AcDbArc
 50
180.0
 51
0.0
  0
CIRCLE
  5
2D089
330
1F
100
AcDbEntity
  8
実線
100
AcDbCircle
 10
342.4925994450543
 20
172.1169213723195
 30
0.0
 40
32.5
  0
CIRCLE
  5
2D08A
330
1F
100
AcDbEntity
  8
実線
100
AcDbCircle
 10
342.4925994450543
 20
172.1169213723195
 30
0.0
 40
34.0
  0
CIRCLE
  5
2D08B
330
1F
100
AcDbEntity
  8
実線
100
AcDbCircle
 10
342.4925994450543
 20
172.1169213723195
 30
0.0
 40
36.0
  0
CIRCLE
  5
2D08C
330
1F
100
AcDbEntity
  8
実線
100
AcDbCircle
 10
342.4925994450543
 20
172.1169213723195
 30
0.0
 40
42.5
  0
LINE
  5
2D08D
330
1F
100
AcDbEntity
  8
実線
100
AcDbLine
 10
355.5925994450543
 20
180.2169213723194
 30
0.0
 11
355.5925994450543
 21
187.4169213723195
 31
0.0
  0
LINE
  5
2D08E
330
1F
100
AcDbEntity
  8
実線
100
AcDbLine
 10
358.1925994450544
 20
180.2169213723194
 30
0.0
 11
358.1925994450544
 21
187.4169213723195
 31
0.0
  0
LINE
  5
2D08F
330
1F
100
AcDbEntity
  8
実線
100
AcDbLine
 10
361.5925994450543
 20
187.4169213723195
 30
0.0
 11
361.5925994450543
 21
180.2169213723194
 31
0.0
  0
LINE
  5
2D090
330
1F
100
AcDbEntity
  8
実線
100
AcDbLine
 10
352.1925994450544
 20
180.2169213723194
 30
0.0
 11
352.1925994450544
 21
187.4169213723195
 31
0.0
  0
LINE
  5
2D091
330
1F
100
AcDbEntity
  8
実線
100
AcDbLine
 10
349.5925994450542
 20
180.2169213723194
 30
0.0
 11
349.5925994450542
 21
187.4169213723195
 31
0.0
  0
LINE
  5
2D092
330
1F
100
AcDbEntity
  8
実線
100
AcDbLine
 10
346.1925994450544
 20
180.2169213723194
 30
0.0
 11
346.1925994450544
 21
187.4169213723195
 31
0.0
  0
LINE
  5
2D093
330
1F
100
AcDbEntity
  8
実線
100
AcDbLine
 10
343.5925994450542
 20
180.2169213723194
 30
0.0
 11
343.5925994450542
 21
187.4169213723195
 31
0.0
  0
LINE
  5
2D094
330
1F
100
AcDbEntity
  8
実線
100
AcDbLine
 10
340.1925994450544
 20
180.2169213723194
 30
0.0
 11
340.1925994450544
 21
187.4169213723195
 31
0.0
  0
LINE
  5
2D095
330
1F
100
AcDbEntity
  8
実線
100
AcDbLine
 10
337.5925994450542
 20
180.2169213723194
 30
0.0
 11
337.5925994450542
 21
187.4169213723195
 31
0.0
  0
LINE
  5
2D096
330
1F
100
AcDbEntity
  8
実線
100
AcDbLine
 10
334.1925994450544
 20
180.2169213723194
 30
0.0
 11
334.1925994450544
 21
187.4169213723195
 31
0.0
  0
LINE
  5
2D097
330
1F
100
AcDbEntity
  8
実線
100
AcDbLine
 10
331.5925994450542
 20
180.2169213723194
 30
0.0
 11
331.5925994450542
 21
187.4169213723195
 31
0.0
  0
LINE
  5
2D098
330
1F
100
AcDbEntity
  8
実線
100
AcDbLine
 10
328.1925994450544
 20
180.2169213723194
 30
0.0
 11
328.1925994450544
 21
187.4169213723195
 31
0.0
  0
LINE
  5
2D099
330
1F
100
AcDbEntity
  8
実線
100
AcDbLine
 10
358.6425994450544
 20
185.0669213723195
 30
0.0
 11
358.6425994450544
 21
182.5669213723195
 31
0.0
  0
ARC
  5
2D09A
330
1F
100
AcDbEntity
  8
実線
100
AcDbCircle
 10
359.6425994450545
 20
185.0669213723195
 30
0.0
 40
1.0
100
AcDbArc
 50
90.0
 51
180.0
  0
LINE
  5
2D09B
330
1F
100
AcDbEntity
  8
実線
100
AcDbLine
 10
361.1425994450544
 20
185.0669213723195
 30
0.0
 11
361.1425994450544
 21
182.5669213723195
 31
0.0
  0
ARC
  5
2D09C
330
1F
100
AcDbEntity
  8
実線
100
AcDbCircle
 10
360.1425994450544
 20
182.5669213723195
 30
0.0
 40
1.0
100
AcDbArc
 50
270.0
 51
0.0
  0
LINE
  5
2D09D
330
1F
100
AcDbEntity
  8
実線
100
AcDbLine
 10
360.1425994450544
 20
181.5669213723195
 30
0.0
 11
359.6425994450545
 21
181.5669213723195
 31
0.0
  0
ARC
  5
2D09E
330
1F
100
AcDbEntity
  8
実線
100
AcDbCircle
 10
359.6425994450545
 20
182.5669213723195
 30
0.0
 40
1.0
100
AcDbArc
 50
180.0
 51
270.0
  0
LINE
  5
2D09F
330
1F
100
AcDbEntity
  8
実線
100
AcDbLine
 10
360.1425994450544
 20
186.0669213723195
 30
0.0
 11
359.6425994450545
 21
186.0669213723195
 31
0.0
  0
ARC
  5
2D0A0
330
1F
100
AcDbEntity
  8
実線
100
AcDbCircle
 10
360.1425994450544
 20
185.0669213723195
 30
0.0
 40
1.0
100
AcDbArc
 50
0.0
 51
90.0
  0
LINE
  5
2D0A1
330
1F
100
AcDbEntity
  8
実線
100
AcDbLine
 10
360.6425994450544
 20
185.0669213723195
 30
0.0
 11
360.6425994450544
 21
182.5669213723195
 31
0.0
  0
ARC
  5
2D0A2
330
1F
100
AcDbEntity
  8
実線
100
AcDbCircle
 10
360.1425994450544
 20
182.5669213723195
 30
0.0
 40
0.5
100
AcDbArc
 50
270.0
 51
0.0
  0
LINE
  5
2D0A3
330
1F
100
AcDbEntity
  8
実線
100
AcDbLine
 10
360.1425994450544
 20
185.5669213723195
 30
0.0
 11
359.6425994450545
 21
185.5669213723195
 31
0.0
  0
ARC
  5
2D0A4
330
1F
100
AcDbEntity
  8
実線
100
AcDbCircle
 10
360.1425994450544
 20
185.0669213723195
 30
0.0
 40
0.5
100
AcDbArc
 50
0.0
 51
90.0
  0
ARC
  5
2D0A5
330
1F
100
AcDbEntity
  8
実線
100
AcDbCircle
 10
359.6425994450545
 20
185.0669213723195
 30
0.0
 40
0.5
100
AcDbArc
 50
90.0
 51
180.0
  0
LINE
  5
2D0A6
330
1F
100
AcDbEntity
  8
実線
100
AcDbLine
 10
359.1425994450544
 20
185.0669213723195
 30
0.0
 11
359.1425994450544
 21
182.5669213723195
 31
0.0
  0
LINE
  5
2D0A7
330
1F
100
AcDbEntity
  8
実線
100
AcDbLine
 10
360.1425994450544
 20
182.0669213723195
 30
0.0
 11
359.6425994450545
 21
182.0669213723195
 31
0.0
  0
ARC
  5
2D0A8
330
1F
100
AcDbEntity
  8
実線
100
AcDbCircle
 10
359.6425994450545
 20
182.5669213723195
 30
0.0
 40
0.5
100
AcDbArc
 50
180.0
 51
270.0
  0
LINE
  5
2D0A9
330
1F
100
AcDbEntity
  8
実線
100
AcDbLine
 10
352.6425994450544
 20
185.0669213723195
 30
0.0
 11
352.6425994450544
 21
182.5669213723195
 31
0.0
  0
ARC
  5
2D0AA
330
1F
100
AcDbEntity
  8
実線
100
AcDbCircle
 10
353.6425994450544
 20
185.0669213723195
 30
0.0
 40
1.0
100
AcDbArc
 50
90.0
 51
180.0
  0
LINE
  5
2D0AB
330
1F
100
AcDbEntity
  8
実線
100
AcDbLine
 10
355.1425994450544
 20
185.0669213723195
 30
0.0
 11
355.1425994450544
 21
182.5669213723195
 31
0.0
  0
ARC
  5
2D0AC
330
1F
100
AcDbEntity
  8
実線
100
AcDbCircle
 10
354.1425994450544
 20
182.5669213723195
 30
0.0
 40
1.0
100
AcDbArc
 50
270.0
 51
0.0
  0
LINE
  5
2D0AD
330
1F
100
AcDbEntity
  8
実線
100
AcDbLine
 10
354.1425994450544
 20
181.5669213723195
 30
0.0
 11
353.6425994450544
 21
181.5669213723195
 31
0.0
  0
ARC
  5
2D0AE
330
1F
100
AcDbEntity
  8
実線
100
AcDbCircle
 10
353.6425994450544
 20
182.5669213723195
 30
0.0
 40
1.0
100
AcDbArc
 50
180.0
 51
270.0
  0
LINE
  5
2D0AF
330
1F
100
AcDbEntity
  8
実線
100
AcDbLine
 10
354.1425994450544
 20
186.0669213723195
 30
0.0
 11
353.6425994450544
 21
186.0669213723195
 31
0.0
  0
ARC
  5
2D0B0
330
1F
100
AcDbEntity
  8
実線
100
AcDbCircle
 10
354.1425994450544
 20
185.0669213723195
 30
0.0
 40
1.0
100
AcDbArc
 50
0.0
 51
90.0
  0
LINE
  5
2D0B1
330
1F
100
AcDbEntity
  8
実線
100
AcDbLine
 10
354.6425994450544
 20
185.0669213723195
 30
0.0
 11
354.6425994450544
 21
182.5669213723195
 31
0.0
  0
ARC
  5
2D0B2
330
1F
100
AcDbEntity
  8
実線
100
AcDbCircle
 10
354.1425994450544
 20
182.5669213723195
 30
0.0
 40
0.5
100
AcDbArc
 50
270.0
 51
0.0
  0
LINE
  5
2D0B3
330
1F
100
AcDbEntity
  8
実線
100
AcDbLine
 10
354.1425994450544
 20
185.5669213723195
 30
0.0
 11
353.6425994450544
 21
185.5669213723195
 31
0.0
  0
ARC
  5
2D0B4
330
1F
100
AcDbEntity
  8
実線
100
AcDbCircle
 10
354.1425994450544
 20
185.0669213723195
 30
0.0
 40
0.5
100
AcDbArc
 50
0.0
 51
90.0
  0
ARC
  5
2D0B5
330
1F
100
AcDbEntity
  8
実線
100
AcDbCircle
 10
353.6425994450544
 20
185.0669213723195
 30
0.0
 40
0.5
100
AcDbArc
 50
90.0
 51
180.0
  0
LINE
  5
2D0B6
330
1F
100
AcDbEntity
  8
実線
100
AcDbLine
 10
353.1425994450544
 20
185.0669213723195
 30
0.0
 11
353.1425994450544
 21
182.5669213723195
 31
0.0
  0
LINE
  5
2D0B7
330
1F
100
AcDbEntity
  8
実線
100
AcDbLine
 10
354.1425994450544
 20
182.0669213723195
 30
0.0
 11
353.6425994450544
 21
182.0669213723195
 31
0.0
  0
ARC
  5
2D0B8
330
1F
100
AcDbEntity
  8
実線
100
AcDbCircle
 10
353.6425994450544
 20
182.5669213723195
 30
0.0
 40
0.5
100
AcDbArc
 50
180.0
 51
270.0
  0
LINE
  5
2D0B9
330
1F
100
AcDbEntity
  8
実線
100
AcDbLine
 10
346.6425994450544
 20
185.0669213723195
 30
0.0
 11
346.6425994450544
 21
182.5669213723195
 31
0.0
  0
ARC
  5
2D0BA
330
1F
100
AcDbEntity
  8
実線
100
AcDbCircle
 10
347.6425994450544
 20
185.0669213723195
 30
0.0
 40
1.0
100
AcDbArc
 50
90.0
 51
180.0
  0
LINE
  5
2D0BB
330
1F
100
AcDbEntity
  8
実線
100
AcDbLine
 10
349.1425994450545
 20
185.0669213723195
 30
0.0
 11
349.1425994450545
 21
182.5669213723195
 31
0.0
  0
ARC
  5
2D0BC
330
1F
100
AcDbEntity
  8
実線
100
AcDbCircle
 10
348.1425994450544
 20
182.5669213723195
 30
0.0
 40
1.0
100
AcDbArc
 50
270.0
 51
0.0
  0
LINE
  5
2D0BD
330
1F
100
AcDbEntity
  8
実線
100
AcDbLine
 10
348.1425994450544
 20
181.5669213723195
 30
0.0
 11
347.6425994450544
 21
181.5669213723195
 31
0.0
  0
ARC
  5
2D0BE
330
1F
100
AcDbEntity
  8
実線
100
AcDbCircle
 10
347.6425994450544
 20
182.5669213723195
 30
0.0
 40
1.0
100
AcDbArc
 50
180.0
 51
270.0
  0
LINE
  5
2D0BF
330
1F
100
AcDbEntity
  8
実線
100
AcDbLine
 10
348.1425994450544
 20
186.0669213723195
 30
0.0
 11
347.6425994450544
 21
186.0669213723195
 31
0.0
  0
ARC
  5
2D0C0
330
1F
100
AcDbEntity
  8
実線
100
AcDbCircle
 10
348.1425994450544
 20
185.0669213723195
 30
0.0
 40
1.0
100
AcDbArc
 50
0.0
 51
90.0
  0
LINE
  5
2D0C1
330
1F
100
AcDbEntity
  8
実線
100
AcDbLine
 10
348.6425994450544
 20
185.0669213723195
 30
0.0
 11
348.6425994450544
 21
182.5669213723195
 31
0.0
  0
ARC
  5
2D0C2
330
1F
100
AcDbEntity
  8
実線
100
AcDbCircle
 10
348.1425994450544
 20
182.5669213723195
 30
0.0
 40
0.5
100
AcDbArc
 50
270.0
 51
0.0
  0
LINE
  5
2D0C3
330
1F
100
AcDbEntity
  8
実線
100
AcDbLine
 10
348.1425994450544
 20
185.5669213723195
 30
0.0
 11
347.6425994450544
 21
185.5669213723195
 31
0.0
  0
ARC
  5
2D0C4
330
1F
100
AcDbEntity
  8
実線
100
AcDbCircle
 10
348.1425994450544
 20
185.0669213723195
 30
0.0
 40
0.5
100
AcDbArc
 50
0.0
 51
90.0
  0
ARC
  5
2D0C5
330
1F
100
AcDbEntity
  8
実線
100
AcDbCircle
 10
347.6425994450544
 20
185.0669213723195
 30
0.0
 40
0.5
100
AcDbArc
 50
90.0
 51
180.0
  0
LINE
  5
2D0C6
330
1F
100
AcDbEntity
  8
実線
100
AcDbLine
 10
347.1425994450545
 20
185.0669213723195
 30
0.0
 11
347.1425994450545
 21
182.5669213723195
 31
0.0
  0
LINE
  5
2D0C7
330
1F
100
AcDbEntity
  8
実線
100
AcDbLine
 10
348.1425994450544
 20
182.0669213723195
 30
0.0
 11
347.6425994450544
 21
182.0669213723195
 31
0.0
  0
ARC
  5
2D0C8
330
1F
100
AcDbEntity
  8
実線
100
AcDbCircle
 10
347.6425994450544
 20
182.5669213723195
 30
0.0
 40
0.5
100
AcDbArc
 50
180.0
 51
270.0
  0
LINE
  5
2D0C9
330
1F
100
AcDbEntity
  8
実線
100
AcDbLine
 10
340.6425994450544
 20
185.0669213723195
 30
0.0
 11
340.6425994450544
 21
182.5669213723195
 31
0.0
  0
ARC
  5
2D0CA
330
1F
100
AcDbEntity
  8
実線
100
AcDbCircle
 10
341.6425994450544
 20
185.0669213723195
 30
0.0
 40
1.0
100
AcDbArc
 50
90.0
 51
180.0
  0
LINE
  5
2D0CB
330
1F
100
AcDbEntity
  8
実線
100
AcDbLine
 10
343.1425994450544
 20
185.0669213723195
 30
0.0
 11
343.1425994450544
 21
182.5669213723195
 31
0.0
  0
ARC
  5
2D0CC
330
1F
100
AcDbEntity
  8
実線
100
AcDbCircle
 10
342.1425994450544
 20
182.5669213723195
 30
0.0
 40
1.0
100
AcDbArc
 50
270.0
 51
0.0
  0
LINE
  5
2D0CD
330
1F
100
AcDbEntity
  8
実線
100
AcDbLine
 10
342.1425994450544
 20
181.5669213723195
 30
0.0
 11
341.6425994450544
 21
181.5669213723195
 31
0.0
  0
ARC
  5
2D0CE
330
1F
100
AcDbEntity
  8
実線
100
AcDbCircle
 10
341.6425994450544
 20
182.5669213723195
 30
0.0
 40
1.0
100
AcDbArc
 50
180.0
 51
270.0
  0
LINE
  5
2D0CF
330
1F
100
AcDbEntity
  8
実線
100
AcDbLine
 10
342.1425994450544
 20
186.0669213723195
 30
0.0
 11
341.6425994450544
 21
186.0669213723195
 31
0.0
  0
ARC
  5
2D0D0
330
1F
100
AcDbEntity
  8
実線
100
AcDbCircle
 10
342.1425994450544
 20
185.0669213723195
 30
0.0
 40
1.0
100
AcDbArc
 50
0.0
 51
90.0
  0
LINE
  5
2D0D1
330
1F
100
AcDbEntity
  8
実線
100
AcDbLine
 10
342.6425994450544
 20
185.0669213723195
 30
0.0
 11
342.6425994450544
 21
182.5669213723195
 31
0.0
  0
ARC
  5
2D0D2
330
1F
100
AcDbEntity
  8
実線
100
AcDbCircle
 10
342.1425994450544
 20
182.5669213723195
 30
0.0
 40
0.5
100
AcDbArc
 50
270.0
 51
0.0
  0
LINE
  5
2D0D3
330
1F
100
AcDbEntity
  8
実線
100
AcDbLine
 10
342.1425994450544
 20
185.5669213723195
 30
0.0
 11
341.6425994450544
 21
185.5669213723195
 31
0.0
  0
ARC
  5
2D0D4
330
1F
100
AcDbEntity
  8
実線
100
AcDbCircle
 10
342.1425994450544
 20
185.0669213723195
 30
0.0
 40
0.5
100
AcDbArc
 50
0.0
 51
90.0
  0
ARC
  5
2D0D5
330
1F
100
AcDbEntity
  8
実線
100
AcDbCircle
 10
341.6425994450544
 20
185.0669213723195
 30
0.0
 40
0.5
100
AcDbArc
 50
90.0
 51
180.0
  0
LINE
  5
2D0D6
330
1F
100
AcDbEntity
  8
実線
100
AcDbLine
 10
341.1425994450544
 20
185.0669213723195
 30
0.0
 11
341.1425994450544
 21
182.5669213723195
 31
0.0
  0
LINE
  5
2D0D7
330
1F
100
AcDbEntity
  8
実線
100
AcDbLine
 10
342.1425994450544
 20
182.0669213723195
 30
0.0
 11
341.6425994450544
 21
182.0669213723195
 31
0.0
  0
ARC
  5
2D0D8
330
1F
100
AcDbEntity
  8
実線
100
AcDbCircle
 10
341.6425994450544
 20
182.5669213723195
 30
0.0
 40
0.5
100
AcDbArc
 50
180.0
 51
270.0
  0
LINE
  5
2D0D9
330
1F
100
AcDbEntity
  8
実線
100
AcDbLine
 10
334.6425994450545
 20
185.0669213723195
 30
0.0
 11
334.6425994450545
 21
182.5669213723195
 31
0.0
  0
ARC
  5
2D0DA
330
1F
100
AcDbEntity
  8
実線
100
AcDbCircle
 10
335.6425994450544
 20
185.0669213723195
 30
0.0
 40
1.0
100
AcDbArc
 50
90.0
 51
180.0
  0
LINE
  5
2D0DB
330
1F
100
AcDbEntity
  8
実線
100
AcDbLine
 10
337.1425994450544
 20
185.0669213723195
 30
0.0
 11
337.1425994450544
 21
182.5669213723195
 31
0.0
  0
ARC
  5
2D0DC
330
1F
100
AcDbEntity
  8
実線
100
AcDbCircle
 10
336.1425994450544
 20
182.5669213723195
 30
0.0
 40
1.0
100
AcDbArc
 50
270.0
 51
0.0
  0
LINE
  5
2D0DD
330
1F
100
AcDbEntity
  8
実線
100
AcDbLine
 10
336.1425994450544
 20
181.5669213723195
 30
0.0
 11
335.6425994450544
 21
181.5669213723195
 31
0.0
  0
ARC
  5
2D0DE
330
1F
100
AcDbEntity
  8
実線
100
AcDbCircle
 10
335.6425994450544
 20
182.5669213723195
 30
0.0
 40
1.0
100
AcDbArc
 50
180.0
 51
270.0
  0
LINE
  5
2D0DF
330
1F
100
AcDbEntity
  8
実線
100
AcDbLine
 10
336.1425994450544
 20
186.0669213723195
 30
0.0
 11
335.6425994450544
 21
186.0669213723195
 31
0.0
  0
ARC
  5
2D0E0
330
1F
100
AcDbEntity
  8
実線
100
AcDbCircle
 10
336.1425994450544
 20
185.0669213723195
 30
0.0
 40
1.0
100
AcDbArc
 50
0.0
 51
90.0
  0
LINE
  5
2D0E1
330
1F
100
AcDbEntity
  8
実線
100
AcDbLine
 10
336.6425994450545
 20
185.0669213723195
 30
0.0
 11
336.6425994450545
 21
182.5669213723195
 31
0.0
  0
ARC
  5
2D0E2
330
1F
100
AcDbEntity
  8
実線
100
AcDbCircle
 10
336.1425994450544
 20
182.5669213723195
 30
0.0
 40
0.5
100
AcDbArc
 50
270.0
 51
0.0
  0
LINE
  5
2D0E3
330
1F
100
AcDbEntity
  8
実線
100
AcDbLine
 10
336.1425994450544
 20
185.5669213723195
 30
0.0
 11
335.6425994450544
 21
185.5669213723195
 31
0.0
  0
ARC
  5
2D0E4
330
1F
100
AcDbEntity
  8
実線
100
AcDbCircle
 10
336.1425994450544
 20
185.0669213723195
 30
0.0
 40
0.5
100
AcDbArc
 50
0.0
 51
90.0
  0
ARC
  5
2D0E5
330
1F
100
AcDbEntity
  8
実線
100
AcDbCircle
 10
335.6425994450544
 20
185.0669213723195
 30
0.0
 40
0.5
100
AcDbArc
 50
90.0
 51
180.0
  0
LINE
  5
2D0E6
330
1F
100
AcDbEntity
  8
実線
100
AcDbLine
 10
335.1425994450544
 20
185.0669213723195
 30
0.0
 11
335.1425994450544
 21
182.5669213723195
 31
0.0
  0
LINE
  5
2D0E7
330
1F
100
AcDbEntity
  8
実線
100
AcDbLine
 10
336.1425994450544
 20
182.0669213723195
 30
0.0
 11
335.6425994450544
 21
182.0669213723195
 31
0.0
  0
ARC
  5
2D0E8
330
1F
100
AcDbEntity
  8
実線
100
AcDbCircle
 10
335.6425994450544
 20
182.5669213723195
 30
0.0
 40
0.5
100
AcDbArc
 50
180.0
 51
270.0
  0
LINE
  5
2D0E9
330
1F
100
AcDbEntity
  8
実線
100
AcDbLine
 10
328.6425994450544
 20
185.0669213723195
 30
0.0
 11
328.6425994450544
 21
182.5669213723195
 31
0.0
  0
ARC
  5
2D0EA
330
1F
100
AcDbEntity
  8
実線
100
AcDbCircle
 10
329.6425994450544
 20
185.0669213723195
 30
0.0
 40
1.0
100
AcDbArc
 50
90.0
 51
180.0
  0
LINE
  5
2D0EB
330
1F
100
AcDbEntity
  8
実線
100
AcDbLine
 10
331.1425994450544
 20
185.0669213723195
 30
0.0
 11
331.1425994450544
 21
182.5669213723195
 31
0.0
  0
ARC
  5
2D0EC
330
1F
100
AcDbEntity
  8
実線
100
AcDbCircle
 10
330.1425994450544
 20
182.5669213723195
 30
0.0
 40
1.0
100
AcDbArc
 50
270.0
 51
0.0
  0
LINE
  5
2D0ED
330
1F
100
AcDbEntity
  8
実線
100
AcDbLine
 10
330.1425994450544
 20
181.5669213723195
 30
0.0
 11
329.6425994450544
 21
181.5669213723195
 31
0.0
  0
ARC
  5
2D0EE
330
1F
100
AcDbEntity
  8
実線
100
AcDbCircle
 10
329.6425994450544
 20
182.5669213723195
 30
0.0
 40
1.0
100
AcDbArc
 50
180.0
 51
270.0
  0
LINE
  5
2D0EF
330
1F
100
AcDbEntity
  8
実線
100
AcDbLine
 10
330.1425994450544
 20
186.0669213723195
 30
0.0
 11
329.6425994450544
 21
186.0669213723195
 31
0.0
  0
ARC
  5
2D0F0
330
1F
100
AcDbEntity
  8
実線
100
AcDbCircle
 10
330.1425994450544
 20
185.0669213723195
 30
0.0
 40
1.0
100
AcDbArc
 50
0.0
 51
90.0
  0
LINE
  5
2D0F1
330
1F
100
AcDbEntity
  8
実線
100
AcDbLine
 10
330.6425994450544
 20
185.0669213723195
 30
0.0
 11
330.6425994450544
 21
182.5669213723195
 31
0.0
  0
ARC
  5
2D0F2
330
1F
100
AcDbEntity
  8
実線
100
AcDbCircle
 10
330.1425994450544
 20
182.5669213723195
 30
0.0
 40
0.5
100
AcDbArc
 50
270.0
 51
0.0
  0
LINE
  5
2D0F3
330
1F
100
AcDbEntity
  8
実線
100
AcDbLine
 10
330.1425994450544
 20
185.5669213723195
 30
0.0
 11
329.6425994450544
 21
185.5669213723195
 31
0.0
  0
ARC
  5
2D0F4
330
1F
100
AcDbEntity
  8
実線
100
AcDbCircle
 10
330.1425994450544
 20
185.0669213723195
 30
0.0
 40
0.5
100
AcDbArc
 50
0.0
 51
90.0
  0
ARC
  5
2D0F5
330
1F
100
AcDbEntity
  8
実線
100
AcDbCircle
 10
329.6425994450544
 20
185.0669213723195
 30
0.0
 40
0.5
100
AcDbArc
 50
90.0
 51
180.0
  0
LINE
  5
2D0F6
330
1F
100
AcDbEntity
  8
実線
100
AcDbLine
 10
329.1425994450544
 20
185.0669213723195
 30
0.0
 11
329.1425994450544
 21
182.5669213723195
 31
0.0
  0
LINE
  5
2D0F7
330
1F
100
AcDbEntity
  8
実線
100
AcDbLine
 10
330.1425994450544
 20
182.0669213723195
 30
0.0
 11
329.6425994450544
 21
182.0669213723195
 31
0.0
  0
ARC
  5
2D0F8
330
1F
100
AcDbEntity
  8
実線
100
AcDbCircle
 10
329.6425994450544
 20
182.5669213723195
 30
0.0
 40
0.5
100
AcDbArc
 50
180.0
 51
270.0
  0
LINE
  5
2D0F9
330
1F
100
AcDbEntity
  8
実線
100
AcDbLine
 10
332.3925994450544
 20
180.2169213723194
 30
0.0
 11
332.3925994450544
 21
187.4169213723195
 31
0.0
  0
LINE
  5
2D0FA
330
1F
100
AcDbEntity
  8
実線
100
AcDbLine
 10
332.5925994450543
 20
180.2169213723194
 30
0.0
 11
332.5925994450543
 21
187.4169213723195
 31
0.0
  0
LINE
  5
2D0FB
330
1F
100
AcDbEntity
  8
実線
100
AcDbLine
 10
338.3925994450544
 20
180.2169213723194
 30
0.0
 11
338.3925994450544
 21
187.4169213723195
 31
0.0
  0
LINE
  5
2D0FC
330
1F
100
AcDbEntity
  8
実線
100
AcDbLine
 10
344.3925994450544
 20
180.2169213723194
 30
0.0
 11
344.3925994450544
 21
187.4169213723195
 31
0.0
  0
LINE
  5
2D0FD
330
1F
100
AcDbEntity
  8
実線
100
AcDbLine
 10
350.3925994450544
 20
180.2169213723194
 30
0.0
 11
350.3925994450544
 21
187.4169213723195
 31
0.0
  0
LINE
  5
2D0FE
330
1F
100
AcDbEntity
  8
実線
100
AcDbLine
 10
350.5925994450543
 20
180.2169213723194
 30
0.0
 11
350.5925994450543
 21
187.4169213723195
 31
0.0
  0
LINE
  5
2D0FF
330
1F
100
AcDbEntity
  8
実線
100
AcDbLine
 10
344.5925994450543
 20
180.2169213723194
 30
0.0
 11
344.5925994450543
 21
187.4169213723195
 31
0.0
  0
LINE
  5
2D100
330
1F
100
AcDbEntity
  8
実線
100
AcDbLine
 10
338.5925994450543
 20
180.2169213723194
 30
0.0
 11
338.5925994450543
 21
187.4169213723195
 31
0.0
  0
CIRCLE
  5
2D101
330
1F
100
AcDbEntity
  8
実線
100
AcDbCircle
 10
342.4925994450543
 20
164.3169213723195
 30
0.0
 40
3.5
  0
LINE
  5
2D102
330
1F
100
AcDbEntity
  8
実線
100
AcDbLine
 10
340.9925994450544
 20
167.4791993723194
 30
0.0
 11
340.9925994450544
 21
168.0250203723195
 31
0.0
  0
LINE
  5
2D103
330
1F
100
AcDbEntity
  8
実線
100
AcDbLine
 10
343.9925994450543
 20
167.4791993723194
 30
0.0
 11
343.9925994450543
 21
168.0250203723195
 31
0.0
  0
ARC
  5
2D104
330
1F
100
AcDbEntity
  8
実線
100
AcDbCircle
 10
342.4925994450543
 20
164.3169213723195
 30
0.0
 40
4.0
100
AcDbArc
 50
187.9756869999992
 51
232.0243130000017
  0
ARC
  5
2D105
330
1F
100
AcDbEntity
  8
実線
100
AcDbCircle
 10
342.4925994450543
 20
164.3169213723195
 30
0.0
 40
4.0
100
AcDbArc
 50
307.9756869999983
 51
352.0243130000009
  0
ARC
  5
2D106
330
1F
100
AcDbEntity
  8
実線
100
AcDbCircle
 10
342.4925994450543
 20
164.3169213723195
 30
0.0
 40
4.0
100
AcDbArc
 50
67.97568699999878
 51
112.0243130000012
  0
LINE
  5
2D107
330
1F
100
AcDbEntity
  8
実線
100
AcDbLine
 10
340.5039864450543
 20
161.4367443723194
 30
0.0
 11
340.0312914450544
 21
161.1638333723196
 31
0.0
  0
LINE
  5
2D108
330
1F
100
AcDbEntity
  8
実線
100
AcDbLine
 10
339.0039864450543
 20
164.0348203723196
 30
0.0
 11
338.5312914450544
 21
163.7619093723195
 31
0.0
  0
LINE
  5
2D109
330
1F
100
AcDbEntity
  8
実線
100
AcDbLine
 10
344.4812124450543
 20
161.4367443723194
 30
0.0
 11
344.9539074450543
 21
161.1638333723196
 31
0.0
  0
LINE
  5
2D10A
330
1F
100
AcDbEntity
  8
実線
100
AcDbLine
 10
345.9812124450543
 20
164.0348203723196
 30
0.0
 11
346.4539074450542
 21
163.7619093723195
 31
0.0
  0
LINE
  5
2D10B
330
1F
100
AcDbEntity
  8
実線
100
AcDbLine
 10
342.4925994450543
 20
165.8169213723195
 30
0.0
 11
341.4319394450542
 21
165.3775813723195
 31
0.0
  0
LINE
  5
2D10C
330
1F
100
AcDbEntity
  8
実線
100
AcDbLine
 10
341.4319394450542
 20
165.3775813723195
 30
0.0
 11
340.9925994450544
 21
164.3169213723195
 31
0.0
  0
LINE
  5
2D10D
330
1F
100
AcDbEntity
  8
実線
100
AcDbLine
 10
340.9925994450544
 20
164.3169213723195
 30
0.0
 11
341.4319394450542
 21
163.2562613723195
 31
0.0
  0
LINE
  5
2D10E
330
1F
100
AcDbEntity
  8
実線
100
AcDbLine
 10
341.4319394450542
 20
163.2562613723195
 30
0.0
 11
342.4925994450543
 21
162.8169213723195
 31
0.0
  0
LINE
  5
2D10F
330
1F
100
AcDbEntity
  8
実線
100
AcDbLine
 10
342.4925994450543
 20
162.8169213723195
 30
0.0
 11
343.5532594450545
 21
163.2562613723195
 31
0.0
  0
LINE
  5
2D110
330
1F
100
AcDbEntity
  8
実線
100
AcDbLine
 10
343.5532594450545
 20
163.2562613723195
 30
0.0
 11
343.9925994450543
 21
164.3169213723195
 31
0.0
  0
LINE
  5
2D111
330
1F
100
AcDbEntity
  8
実線
100
AcDbLine
 10
343.9925994450543
 20
164.3169213723195
 30
0.0
 11
343.5532594450545
 21
165.3775813723195
 31
0.0
  0
LINE
  5
2D112
330
1F
100
AcDbEntity
  8
実線
100
AcDbLine
 10
343.5532594450545
 20
165.3775813723195
 30
0.0
 11
342.4925994450543
 21
165.8169213723195
 31
0.0
  0
CIRCLE
  5
2D113
330
1F
100
AcDbEntity
  8
実線
100
AcDbCircle
 10
342.4925994450543
 20
164.3169213723195
 30
0.0
 40
1.199999999999999
  0
LINE
  5
2D114
330
1F
100
AcDbEntity
  8
実線
100
AcDbLine
 10
341.4319394450542
 20
165.3775813723195
 30
0.0
 11
340.0177254450543
 21
166.7917953723195
 31
0.0
  0
LINE
  5
2D115
330
1F
100
AcDbEntity
  8
実線
100
AcDbLine
 10
338.9925994450543
 20
164.3169213723195
 30
0.0
 11
340.9925994450544
 21
164.3169213723195
 31
0.0
  0
LINE
  5
2D116
330
1F
100
AcDbEntity
  8
実線
100
AcDbLine
 10
343.9925994450543
 20
164.3169213723195
 30
0.0
 11
345.9925994450543
 21
164.3169213723195
 31
0.0
  0
LINE
  5
2D117
330
1F
100
AcDbEntity
  8
実線
100
AcDbLine
 10
343.5532594450545
 20
165.3775813723195
 30
0.0
 11
344.9674734450543
 21
166.7917953723195
 31
0.0
  0
LINE
  5
2D118
330
1F
100
AcDbEntity
  8
実線
100
AcDbLine
 10
341.4319394450542
 20
163.2562613723195
 30
0.0
 11
340.0177254450543
 21
161.8420473723195
 31
0.0
  0
LINE
  5
2D119
330
1F
100
AcDbEntity
  8
実線
100
AcDbLine
 10
343.5532594450545
 20
163.2562613723195
 30
0.0
 11
344.9674734450543
 21
161.8420473723195
 31
0.0
  0
ARC
  5
2D11A
330
1F
100
AcDbEntity
  8
実線
100
AcDbCircle
 10
354.9108724450543
 20
155.8062963723195
 30
0.0
 40
2.5
100
AcDbArc
 50
276.8921029999974
 51
263.1078969999957
  0
LINE
  5
2D11B
330
1F
100
AcDbEntity
  8
実線
100
AcDbLine
 10
354.8108724450542
 20
162.3062963723195
 30
0.0
 11
355.0108724450545
 21
162.3062963723195
 31
0.0
  0
ARC
  5
2D11C
330
1F
100
AcDbEntity
  8
実線
100
AcDbCircle
 10
367.3735884450544
 20
164.1537933723194
 30
0.0
 40
12.5
100
AcDbArc
 50
188.4994390000004
 51
213.814077999997
  0
ARC
  5
2D11D
330
1F
100
AcDbEntity
  8
実線
100
AcDbCircle
 10
342.4481564450543
 20
164.1537933723194
 30
0.0
 40
12.5
100
AcDbArc
 50
326.185922000003
 51
351.5005609999994
  0
ARC
  5
2D11E
330
1F
100
AcDbEntity
  8
実線
100
AcDbCircle
 10
354.9108724450543
 20
155.8062963723195
 30
0.0
 40
1.6585
100
AcDbArc
 50
280.4213909999962
 51
259.5786089999973
  0
LINE
  5
2D11F
330
1F
100
AcDbEntity
  8
実線
100
AcDbLine
 10
355.2108724450543
 20
153.3243613723194
 30
0.0
 11
355.2108724450543
 21
155.2296683723194
 31
0.0
  0
LINE
  5
2D120
330
1F
100
AcDbEntity
  8
実線
100
AcDbLine
 10
354.6108724450544
 20
153.3243613723194
 30
0.0
 11
354.6108724450544
 21
155.2296683723194
 31
0.0
  0
ARC
  5
2D121
330
1F
100
AcDbEntity
  8
実線
100
AcDbCircle
 10
354.9108724450543
 20
155.8062963723195
 30
0.0
 40
0.65
100
AcDbArc
 50
242.5135739999948
 51
297.4864259999978
  0
ARC
  5
2D122
330
1F
100
AcDbEntity
  8
実線
100
AcDbCircle
 10
362.6654414450543
 20
168.4691203723195
 30
0.0
 40
2.5
100
AcDbArc
 50
276.8921029999974
 51
263.1078969999957
  0
LINE
  5
2D123
330
1F
100
AcDbEntity
  8
実線
100
AcDbLine
 10
362.5654414450544
 20
174.9691203723195
 30
0.0
 11
362.7654414450542
 21
174.9691203723195
 31
0.0
  0
ARC
  5
2D124
330
1F
100
AcDbEntity
  8
実線
100
AcDbCircle
 10
375.1281574450543
 20
176.8166173723194
 30
0.0
 40
12.5
100
AcDbArc
 50
188.4994390000004
 51
213.814077999997
  0
ARC
  5
2D125
330
1F
100
AcDbEntity
  8
実線
100
AcDbCircle
 10
350.2027254450543
 20
176.8166173723194
 30
0.0
 40
12.5
100
AcDbArc
 50
326.185922000003
 51
351.5005609999994
  0
ARC
  5
2D126
330
1F
100
AcDbEntity
  8
実線
100
AcDbCircle
 10
362.6654414450543
 20
168.4691203723195
 30
0.0
 40
1.6585
100
AcDbArc
 50
280.4213909999962
 51
259.5786089999973
  0
LINE
  5
2D127
330
1F
100
AcDbEntity
  8
実線
100
AcDbLine
 10
362.9654414450545
 20
165.9871853723194
 30
0.0
 11
362.9654414450545
 21
167.8924923723194
 31
0.0
  0
LINE
  5
2D128
330
1F
100
AcDbEntity
  8
実線
100
AcDbLine
 10
362.3654414450543
 20
165.9871853723194
 30
0.0
 11
362.3654414450543
 21
167.8924923723194
 31
0.0
  0
ARC
  5
2D129
330
1F
100
AcDbEntity
  8
実線
100
AcDbCircle
 10
362.6654414450543
 20
168.4691203723195
 30
0.0
 40
0.65
100
AcDbArc
 50
242.5135739999948
 51
297.4864259999978
  0
LINE
  5
2D12A
330
1F
100
AcDbEntity
  8
実線
100
AcDbLine
 10
352.3925994450544
 20
189.4169213723195
 30
0.0
 11
352.3925994450544
 21
191.2919213723195
 31
0.0
  0
LINE
  5
2D12B
330
1F
100
AcDbEntity
  8
実線
100
AcDbLine
 10
352.3925994450544
 20
192.2273353723195
 30
0.0
 11
352.3925994450544
 21
192.4169213723195
 31
0.0
  0
LINE
  5
2D12C
330
1F
100
AcDbEntity
  8
実線
100
AcDbLine
 10
351.8925994450544
 20
189.4169213723195
 30
0.0
 11
351.8925994450544
 21
192.4169213723195
 31
0.0
  0
ARC
  5
2D12D
330
1F
100
AcDbEntity
  8
実線
100
AcDbCircle
 10
353.0175994450544
 20
191.2919213723195
 30
0.0
 40
0.625
100
AcDbArc
 50
0.0
 51
180.0
  0
ARC
  5
2D12E
330
1F
100
AcDbEntity
  8
実線
100
AcDbCircle
 10
353.0175994450544
 20
191.2919213723195
 30
0.0
 40
1.125
100
AcDbArc
 50
38.942440999995
 51
123.7489890000025
  0
LINE
  5
2D12F
330
1F
100
AcDbEntity
  8
実線
100
AcDbLine
 10
353.6425994450544
 20
189.4169213723195
 30
0.0
 11
353.6425994450544
 21
191.2919213723195
 31
0.0
  0
LINE
  5
2D130
330
1F
100
AcDbEntity
  8
実線
100
AcDbLine
 10
354.1425994450544
 20
189.4169213723195
 30
0.0
 11
354.1425994450544
 21
191.2919213723195
 31
0.0
  0
ARC
  5
2D131
330
1F
100
AcDbEntity
  8
実線
100
AcDbCircle
 10
354.7675994450544
 20
191.2919213723195
 30
0.0
 40
1.125
100
AcDbArc
 50
0.0
 51
141.0575590000049
  0
ARC
  5
2D132
330
1F
100
AcDbEntity
  8
実線
100
AcDbCircle
 10
354.7675994450544
 20
191.2919213723195
 30
0.0
 40
0.625
100
AcDbArc
 50
0.0
 51
180.0
  0
LINE
  5
2D133
330
1F
100
AcDbEntity
  8
実線
100
AcDbLine
 10
355.3925994450545
 20
189.4169213723195
 30
0.0
 11
355.3925994450545
 21
191.2919213723195
 31
0.0
  0
LINE
  5
2D134
330
1F
100
AcDbEntity
  8
実線
100
AcDbLine
 10
355.8925994450544
 20
189.4169213723195
 30
0.0
 11
355.8925994450544
 21
191.2919213723195
 31
0.0
  0
LINE
  5
2D135
330
1F
100
AcDbEntity
  8
実線
100
AcDbLine
 10
351.8925994450544
 20
192.4169213723195
 30
0.0
 11
352.3925994450544
 21
192.4169213723195
 31
0.0
  0
LINE
  5
2D136
330
1F
100
AcDbEntity
  8
実線
100
AcDbLine
 10
351.8925994450544
 20
189.4169213723195
 30
0.0
 11
352.3925994450544
 21
189.4169213723195
 31
0.0
  0
LINE
  5
2D137
330
1F
100
AcDbEntity
  8
実線
100
AcDbLine
 10
353.6425994450544
 20
189.4169213723195
 30
0.0
 11
354.1425994450544
 21
189.4169213723195
 31
0.0
  0
LINE
  5
2D138
330
1F
100
AcDbEntity
  8
実線
100
AcDbLine
 10
355.3925994450545
 20
189.4169213723195
 30
0.0
 11
355.8925994450544
 21
189.4169213723195
 31
0.0
  0
CIRCLE
  5
2D139
330
1F
100
AcDbEntity
  8
実線
100
AcDbCircle
 10
342.4925994450543
 20
172.1169213723195
 30
0.0
 40
45.0
  0
LINE
  5
2D13A
330
1F
100
AcDbEntity
  8
実線
100
AcDbLine
 10
359.7535484450543
 20
165.1347233723194
 30
0.0
 11
359.5634124450544
 21
165.0369523723194
 31
0.0
  0
LINE
  5
2D13B
330
1F
100
AcDbEntity
  8
実線
100
AcDbLine
 10
360.5352434450545
 20
164.0591723723195
 30
0.0
 11
360.5986164450544
 21
164.2791713723194
 31
0.0
  0
LINE
  5
2D13C
330
1F
100
AcDbEntity
  8
実線
100
AcDbLine
 10
358.6223864450542
 20
170.4424493723194
 30
0.0
 11
358.5589974450543
 21
170.5891193723195
 31
0.0
  0
LINE
  5
2D13D
330
1F
100
AcDbEntity
  8
実線
100
AcDbLine
 10
367.7066334450544
 20
166.8200603723195
 30
0.0
 11
367.9601594450544
 21
166.6733903723194
 31
0.0
  0
LINE
  5
2D13E
330
1F
100
AcDbEntity
  8
実線
100
AcDbLine
 10
359.2253784450543
 20
164.0591723723195
 30
0.0
 11
359.3521414450545
 21
163.9125153723195
 31
0.0
  0
LINE
  5
2D13F
330
1F
100
AcDbEntity
  8
実線
100
AcDbLine
 10
366.7136844450545
 20
167.5778403723194
 30
0.0
 11
366.8404464450544
 21
167.7244973723194
 31
0.0
  0
LINE
  5
2D140
330
1F
100
AcDbEntity
  8
実線
100
AcDbLine
 10
363.2246024450544
 20
173.8285023723195
 30
0.0
 11
363.0978394450542
 21
173.9751723723194
 31
0.0
  0
LINE
  5
2D141
330
1F
100
AcDbEntity
  8
実線
100
AcDbLine
 10
359.8169214450543
 20
165.8925043723194
 30
0.0
 11
359.5634124450544
 21
165.7947193723195
 31
0.0
  0
LINE
  5
2D142
330
1F
100
AcDbEntity
  8
実線
100
AcDbLine
 10
362.1055774450545
 20
164.0402393723194
 30
0.0
 11
361.9154414450543
 21
163.8935693723196
 31
0.0
  0
LINE
  5
2D143
330
1F
100
AcDbEntity
  8
実線
100
AcDbLine
 10
368.1004594450544
 20
169.9969233723194
 30
0.0
 11
367.9736964450542
 21
169.8502663723194
 31
0.0
  0
LINE
  5
2D144
330
1F
100
AcDbEntity
  8
実線
100
AcDbLine
 10
359.4940004450543
 20
171.8025873723195
 30
0.0
 11
359.2827294450542
 21
171.9492573723195
 31
0.0
  0
LINE
  5
2D145
330
1F
100
AcDbEntity
  8
実線
100
AcDbLine
 10
363.4154414450543
 20
163.6735713723195
 30
0.0
 11
363.3520524450544
 21
163.8202413723194
 31
0.0
  0
LINE
  5
2D146
330
1F
100
AcDbEntity
  8
実線
100
AcDbLine
 10
367.0652394450542
 20
170.7547033723195
 30
0.0
 11
367.3187644450543
 21
170.8524753723194
 31
0.0
  0
LINE
  5
2D147
330
1F
100
AcDbEntity
  8
実線
100
AcDbLine
 10
358.3688614450543
 20
169.7580103723195
 30
0.0
 11
358.1575904450545
 21
169.8313383723195
 31
0.0
  0
LINE
  5
2D148
330
1F
100
AcDbEntity
  8
実線
100
AcDbLine
 10
362.3168484450543
 20
162.8424623723196
 30
0.0
 11
362.5069844450543
 21
162.7691333723195
 31
0.0
  0
LINE
  5
2D149
330
1F
100
AcDbEntity
  8
実線
100
AcDbLine
 10
363.3513644450543
 20
173.6085033723194
 30
0.0
 11
363.2246024450544
 21
173.8285023723195
 31
0.0
  0
LINE
  5
2D14A
330
1F
100
AcDbEntity
  8
実線
100
AcDbLine
 10
358.6944974450544
 20
167.8409313723194
 30
0.0
 11
357.7437864450542
 21
165.6409313723194
 31
0.0
  0
LINE
  5
2D14B
330
1F
100
AcDbEntity
  8
実線
100
AcDbLine
 10
358.0942174450545
 20
168.6335603723195
 30
0.0
 11
358.3688614450543
 21
168.7069023723194
 31
0.0
  0
LINE
  5
2D14C
330
1F
100
AcDbEntity
  8
実線
100
AcDbLine
 10
361.9154414450543
 20
163.8935693723196
 30
0.0
 11
361.9154414450543
 21
164.9691203723194
 31
0.0
  0
LINE
  5
2D14D
330
1F
100
AcDbEntity
  8
実線
100
AcDbLine
 10
360.2183284450543
 20
165.0369523723194
 30
0.0
 11
360.0070734450544
 21
165.1347233723194
 31
0.0
  0
LINE
  5
2D14E
330
1F
100
AcDbEntity
  8
実線
100
AcDbLine
 10
357.5026584450543
 20
169.7580103723195
 30
0.0
 11
357.3125224450544
 21
169.6113393723195
 31
0.0
  0
LINE
  5
2D14F
330
1F
100
AcDbEntity
  8
実線
100
AcDbLine
 10
368.0869214450543
 20
165.9889513723195
 30
0.0
 11
367.9601594450544
 21
165.8422803723196
 31
0.0
  0
LINE
  5
2D150
330
1F
100
AcDbEntity
  8
実線
100
AcDbLine
 10
361.9147384450544
 20
173.2173913723195
 30
0.0
 11
361.9147384450544
 21
172.8507353723195
 31
0.0
  0
LINE
  5
2D151
330
1F
100
AcDbEntity
  8
実線
100
AcDbLine
 10
360.2817174450545
 20
163.7658453723194
 30
0.0
 11
360.4084804450542
 21
163.8391743723194
 31
0.0
  0
LINE
  5
2D152
330
1F
100
AcDbEntity
  8
実線
100
AcDbLine
 10
357.2491494450544
 20
170.2224503723195
 30
0.0
 11
357.3125224450544
 21
170.0757803723194
 31
0.0
  0
LINE
  5
2D153
330
1F
100
AcDbEntity
  8
実線
100
AcDbLine
 10
358.4322344450543
 20
169.9046673723195
 30
0.0
 11
358.6223864450542
 21
170.2224503723195
 31
0.0
  0
LINE
  5
2D154
330
1F
100
AcDbEntity
  8
実線
100
AcDbLine
 10
367.9601594450544
 20
166.8933883723194
 30
0.0
 11
367.7066334450544
 21
166.8200603723195
 31
0.0
  0
LINE
  5
2D155
330
1F
100
AcDbEntity
  8
実線
100
AcDbLine
 10
359.0986164450544
 20
164.5236133723195
 30
0.0
 11
359.1619894450543
 21
164.2058423723196
 31
0.0
  0
LINE
  5
2D156
330
1F
100
AcDbEntity
  8
実線
100
AcDbLine
 10
367.5587524450543
 20
167.8956103723195
 30
0.0
 11
367.8333964450542
 21
167.7978393723195
 31
0.0
  0
LINE
  5
2D157
330
1F
100
AcDbEntity
  8
実線
100
AcDbLine
 10
360.3390684450544
 20
171.1914763723195
 30
0.0
 11
360.1489324450542
 21
171.0448063723195
 31
0.0
  0
LINE
  5
2D158
330
1F
100
AcDbEntity
  8
実線
100
AcDbLine
 10
360.4658304450543
 20
171.4114753723195
 30
0.0
 11
360.3390684450544
 21
171.1914763723195
 31
0.0
  0
LINE
  5
2D159
330
1F
100
AcDbEntity
  8
実線
100
AcDbLine
 10
360.5925934450545
 20
172.3159133723194
 30
0.0
 11
360.5925934450545
 21
171.8759153723196
 31
0.0
  0
LINE
  5
2D15A
330
1F
100
AcDbEntity
  8
実線
100
AcDbLine
 10
360.5292044450544
 20
172.6336963723195
 30
0.0
 11
360.5925934450545
 21
172.3159133723194
 31
0.0
  0
LINE
  5
2D15B
330
1F
100
AcDbEntity
  8
実線
100
AcDbLine
 10
360.4658304450543
 20
172.7803533723194
 30
0.0
 11
360.5292044450544
 21
172.6336963723195
 31
0.0
  0
LINE
  5
2D15C
330
1F
100
AcDbEntity
  8
実線
100
AcDbLine
 10
359.9376614450544
 20
173.1714653723194
 30
0.0
 11
360.1489324450542
 21
173.0736933723195
 31
0.0
  0
LINE
  5
2D15D
330
1F
100
AcDbEntity
  8
実線
100
AcDbLine
 10
366.7272214450543
 20
168.8724863723195
 30
0.0
 11
366.6638324450544
 21
168.6524883723194
 31
0.0
  0
LINE
  5
2D15E
330
1F
100
AcDbEntity
  8
実線
100
AcDbLine
 10
359.4094914450543
 20
173.0736933723195
 30
0.0
 11
359.6841364450545
 21
173.1714653723194
 31
0.0
  0
LINE
  5
2D15F
330
1F
100
AcDbEntity
  8
実線
100
AcDbLine
 10
359.2827294450542
 20
173.0003523723195
 30
0.0
 11
359.4094914450543
 21
173.0736933723195
 31
0.0
  0
LINE
  5
2D160
330
1F
100
AcDbEntity
  8
実線
100
AcDbLine
 10
359.1559664450544
 20
172.7803533723194
 30
0.0
 11
359.2827294450542
 21
173.0003523723195
 31
0.0
  0
LINE
  5
2D161
330
1F
100
AcDbEntity
  8
実線
100
AcDbLine
 10
359.0925934450545
 20
172.5603543723194
 30
0.0
 11
359.1559664450544
 21
172.7803533723194
 31
0.0
  0
LINE
  5
2D162
330
1F
100
AcDbEntity
  8
実線
100
AcDbLine
 10
362.5069844450543
 20
164.2113393723194
 30
0.0
 11
362.2323394450543
 21
164.1135683723195
 31
0.0
  0
LINE
  5
2D163
330
1F
100
AcDbEntity
  8
実線
100
AcDbLine
 10
359.9376614450544
 20
171.7292453723195
 30
0.0
 11
359.6841364450545
 21
171.7292453723195
 31
0.0
  0
LINE
  5
2D164
330
1F
100
AcDbEntity
  8
実線
100
AcDbLine
 10
366.7272214450543
 20
170.4613763723195
 30
0.0
 11
366.8539844450545
 21
170.6080333723195
 31
0.0
  0
LINE
  5
2D165
330
1F
100
AcDbEntity
  8
実線
100
AcDbLine
 10
360.1489324450542
 20
173.0736933723195
 30
0.0
 11
360.3390684450544
 21
172.9270233723194
 31
0.0
  0
LINE
  5
2D166
330
1F
100
AcDbEntity
  8
実線
100
AcDbLine
 10
367.9601594450544
 20
167.7244973723194
 30
0.0
 11
368.0869214450543
 21
167.5778403723194
 31
0.0
  0
LINE
  5
2D167
330
1F
100
AcDbEntity
  8
実線
100
AcDbLine
 10
360.0070734450544
 20
165.1347233723194
 30
0.0
 11
359.7535484450543
 21
165.1347233723194
 31
0.0
  0
LINE
  5
2D168
330
1F
100
AcDbEntity
  8
実線
100
AcDbLine
 10
358.6857594450544
 20
169.3913413723195
 30
0.0
 11
358.5589974450543
 21
169.6113393723195
 31
0.0
  0
LINE
  5
2D169
330
1F
100
AcDbEntity
  8
実線
100
AcDbLine
 10
361.9154414450543
 20
163.1357893723194
 30
0.0
 11
362.0422044450545
 21
162.9891323723194
 31
0.0
  0
LINE
  5
2D16A
330
1F
100
AcDbEntity
  8
実線
100
AcDbLine
 10
363.4147384450543
 20
172.8507353723195
 30
0.0
 11
363.4147384450543
 21
173.2173913723195
 31
0.0
  0
LINE
  5
2D16B
330
1F
100
AcDbEntity
  8
実線
100
AcDbLine
 10
359.2253784450543
 20
164.7436113723195
 30
0.0
 11
359.0986164450544
 21
164.5236133723195
 31
0.0
  0
LINE
  5
2D16C
330
1F
100
AcDbEntity
  8
実線
100
AcDbLine
 10
357.5026584450543
 20
168.7069023723194
 30
0.0
 11
357.7773184450543
 21
168.6335603723195
 31
0.0
  0
LINE
  5
2D16D
330
1F
100
AcDbEntity
  8
実線
100
AcDbLine
 10
360.5352434450545
 20
164.7436113723195
 30
0.0
 11
360.4084804450542
 21
164.8902813723194
 31
0.0
  0
LINE
  5
2D16E
330
1F
100
AcDbEntity
  8
実線
100
AcDbLine
 10
358.0942174450545
 20
170.8335603723195
 30
0.0
 11
357.7773184450543
 21
170.8335603723195
 31
0.0
  0
LINE
  5
2D16F
330
1F
100
AcDbEntity
  8
実線
100
AcDbLine
 10
368.1502944450542
 20
166.3800623723194
 30
0.0
 11
368.1502944450542
 21
166.1356213723194
 31
0.0
  0
LINE
  5
2D170
330
1F
100
AcDbEntity
  8
実線
100
AcDbLine
 10
362.1048734450544
 20
173.8285023723195
 30
0.0
 11
361.9781274450545
 21
173.6085033723194
 31
0.0
  0
LINE
  5
2D171
330
1F
100
AcDbEntity
  8
実線
100
AcDbLine
 10
359.7535484450543
 20
163.6925163723196
 30
0.0
 11
360.0070734450544
 21
163.6925163723196
 31
0.0
  0
LINE
  5
2D172
330
1F
100
AcDbEntity
  8
実線
100
AcDbLine
 10
357.7139294450542
 20
169.8313383723195
 30
0.0
 11
358.1575904450545
 21
169.8313383723195
 31
0.0
  0
LINE
  5
2D173
330
1F
100
AcDbEntity
  8
実線
100
AcDbLine
 10
363.3520524450544
 20
163.1357893723194
 30
0.0
 11
363.4154414450543
 21
163.3557883723196
 31
0.0
  0
LINE
  5
2D174
330
1F
100
AcDbEntity
  8
実線
100
AcDbLine
 10
368.0869214450543
 20
167.5778403723194
 30
0.0
 11
368.1502944450542
 21
167.4311703723196
 31
0.0
  0
LINE
  5
2D175
330
1F
100
AcDbEntity
  8
実線
100
AcDbLine
 10
359.6841364450545
 20
173.1714653723194
 30
0.0
 11
359.9376614450544
 21
173.1714653723194
 31
0.0
  0
LINE
  5
2D176
330
1F
100
AcDbEntity
  8
実線
100
AcDbLine
 10
366.9672094450543
 20
165.7689523723194
 30
0.0
 11
366.7770574450544
 21
165.9156223723195
 31
0.0
  0
LINE
  5
2D177
330
1F
100
AcDbEntity
  8
実線
100
AcDbLine
 10
360.5986164450544
 20
165.4280633723195
 30
0.0
 11
360.4718534450542
 21
165.6480623723195
 31
0.0
  0
LINE
  5
2D178
330
1F
100
AcDbEntity
  8
実線
100
AcDbLine
 10
367.0652394450542
 20
169.3369273723195
 30
0.0
 11
366.8539844450545
 21
169.0924853723195
 31
0.0
  0
LINE
  5
2D179
330
1F
100
AcDbEntity
  8
実線
100
AcDbLine
 10
363.0351534450544
 20
164.1135683723195
 30
0.0
 11
362.7605094450544
 21
164.2113393723194
 31
0.0
  0
LINE
  5
2D17A
330
1F
100
AcDbEntity
  8
実線
100
AcDbLine
 10
367.8469344450543
 20
170.7547033723195
 30
0.0
 11
368.0370854450544
 21
170.6080333723195
 31
0.0
  0
LINE
  5
2D17B
330
1F
100
AcDbEntity
  8
実線
100
AcDbLine
 10
360.4718534450542
 20
165.6480623723195
 30
0.0
 11
360.2817174450545
 21
165.7947193723195
 31
0.0
  0
LINE
  5
2D17C
330
1F
100
AcDbEntity
  8
実線
100
AcDbLine
 10
363.0351534450544
 20
162.8424623723196
 30
0.0
 11
363.2252894450544
 21
162.9891323723194
 31
0.0
  0
LINE
  5
2D17D
330
1F
100
AcDbEntity
  8
実線
100
AcDbLine
 10
357.3125224450544
 20
170.5891193723195
 30
0.0
 11
357.2491494450544
 21
170.4424493723194
 31
0.0
  0
LINE
  5
2D17E
330
1F
100
AcDbEntity
  8
実線
100
AcDbLine
 10
358.6223864450542
 20
168.9269013723195
 30
0.0
 11
358.6857594450544
 21
169.1468993723194
 31
0.0
  0
LINE
  5
2D17F
330
1F
100
AcDbEntity
  8
実線
100
AcDbLine
 10
359.5634124450544
 20
165.0369523723194
 30
0.0
 11
359.3521414450545
 21
164.8902813723194
 31
0.0
  0
LINE
  5
2D180
330
1F
100
AcDbEntity
  8
実線
100
AcDbLine
 10
357.2491494450544
 20
168.9269013723195
 30
0.0
 11
357.3758954450543
 21
168.7802303723195
 31
0.0
  0
LINE
  5
2D181
330
1F
100
AcDbEntity
  8
実線
100
AcDbLine
 10
367.5587524450543
 20
165.6956233723196
 30
0.0
 11
367.2418534450544
 21
165.6956233723196
 31
0.0
  0
LINE
  5
2D182
330
1F
100
AcDbEntity
  8
実線
100
AcDbLine
 10
360.5986164450544
 20
164.2791713723194
 30
0.0
 11
360.5986164450544
 21
164.5236133723195
 31
0.0
  0
LINE
  5
2D183
330
1F
100
AcDbEntity
  8
実線
100
AcDbLine
 10
358.5589974450543
 20
170.5891193723195
 30
0.0
 11
358.4322344450543
 21
170.7357763723195
 31
0.0
  0
LINE
  5
2D184
330
1F
100
AcDbEntity
  8
実線
100
AcDbLine
 10
367.9601594450544
 20
166.6733903723194
 30
0.0
 11
368.0869214450543
 21
166.5267323723195
 31
0.0
  0
LINE
  5
2D185
330
1F
100
AcDbEntity
  8
実線
100
AcDbLine
 10
362.3940004450544
 20
174.0556723723194
 30
0.0
 11
362.2316364450544
 21
173.9751723723194
 31
0.0
  0
LINE
  5
2D186
330
1F
100
AcDbEntity
  8
実線
100
AcDbLine
 10
359.3521414450545
 20
163.9125153723195
 30
0.0
 11
359.5634124450544
 21
163.7658453723194
 31
0.0
  0
LINE
  5
2D187
330
1F
100
AcDbEntity
  8
実線
100
AcDbLine
 10
360.2817174450545
 20
165.7947193723195
 30
0.0
 11
360.0070734450544
 21
165.8925043723194
 31
0.0
  0
LINE
  5
2D188
330
1F
100
AcDbEntity
  8
実線
100
AcDbLine
 10
357.3125224450544
 20
170.0757803723194
 30
0.0
 11
357.4392854450544
 21
169.9046673723195
 31
0.0
  0
LINE
  5
2D189
330
1F
100
AcDbEntity
  8
実線
100
AcDbLine
 10
357.3758954450543
 20
168.7802303723195
 30
0.0
 11
357.5026584450543
 21
168.7069023723194
 31
0.0
  0
LINE
  5
2D18A
330
1F
100
AcDbEntity
  8
実線
100
AcDbLine
 10
359.6841364450545
 20
170.9714783723194
 30
0.0
 11
359.4094914450543
 21
171.0448063723195
 31
0.0
  0
LINE
  5
2D18B
330
1F
100
AcDbEntity
  8
実線
100
AcDbLine
 10
368.1502944450542
 20
167.2111713723194
 30
0.0
 11
368.0869214450543
 21
167.0400583723195
 31
0.0
  0
LINE
  5
2D18C
330
1F
100
AcDbEntity
  8
実線
100
AcDbLine
 10
367.9736964450542
 20
169.8502663723194
 30
0.0
 11
367.3187644450543
 21
169.5569253723196
 31
0.0
  0
LINE
  5
2D18D
330
1F
100
AcDbEntity
  8
実線
100
AcDbLine
 10
363.3520524450544
 20
163.8202413723194
 30
0.0
 11
363.2252894450544
 21
163.9668983723194
 31
0.0
  0
LINE
  5
2D18E
330
1F
100
AcDbEntity
  8
実線
100
AcDbLine
 10
367.3187644450543
 20
170.8524753723194
 30
0.0
 11
367.5722894450544
 21
170.8524753723194
 31
0.0
  0
LINE
  5
2D18F
330
1F
100
AcDbEntity
  8
実線
100
AcDbLine
 10
360.3390684450544
 20
171.9492573723195
 30
0.0
 11
360.1489324450542
 21
171.8025873723195
 31
0.0
  0
LINE
  5
2D190
330
1F
100
AcDbEntity
  8
実線
100
AcDbLine
 10
360.5925934450545
 20
171.8759153723196
 30
0.0
 11
360.4658304450543
 21
171.4114753723195
 31
0.0
  0
LINE
  5
2D191
330
1F
100
AcDbEntity
  8
実線
100
AcDbLine
 10
360.5925934450545
 20
172.3159133723194
 30
0.0
 11
360.4658304450543
 21
172.0959143723195
 31
0.0
  0
LINE
  5
2D192
330
1F
100
AcDbEntity
  8
実線
100
AcDbLine
 10
362.5069844450543
 20
162.7691333723195
 30
0.0
 11
362.7605094450544
 21
162.7691333723195
 31
0.0
  0
LINE
  5
2D193
330
1F
100
AcDbEntity
  8
実線
100
AcDbLine
 10
357.7773184450543
 20
170.8335603723195
 30
0.0
 11
357.4392854450544
 21
170.7357763723195
 31
0.0
  0
LINE
  5
2D194
330
1F
100
AcDbEntity
  8
実線
100
AcDbLine
 10
358.3688614450543
 20
168.7069023723194
 30
0.0
 11
358.4956234450544
 21
168.7802303723195
 31
0.0
  0
LINE
  5
2D195
330
1F
100
AcDbEntity
  8
実線
100
AcDbLine
 10
357.3125224450544
 20
169.6113393723195
 30
0.0
 11
357.1857594450544
 21
169.3913413723195
 31
0.0
  0
LINE
  5
2D196
330
1F
100
AcDbEntity
  8
実線
100
AcDbLine
 10
367.9601594450544
 20
165.8422803723196
 30
0.0
 11
367.8333964450542
 21
165.7689523723194
 31
0.0
  0
LINE
  5
2D197
330
1F
100
AcDbEntity
  8
実線
100
AcDbLine
 10
361.9147384450544
 20
172.8507353723195
 30
0.0
 11
361.9599374450543
 21
172.5718593723194
 31
0.0
  0
LINE
  5
2D198
330
1F
100
AcDbEntity
  8
実線
100
AcDbLine
 10
360.4084804450542
 20
163.8391743723194
 30
0.0
 11
360.5352434450545
 21
164.0591723723195
 31
0.0
  0
LINE
  5
2D199
330
1F
100
AcDbEntity
  8
実線
100
AcDbLine
 10
358.6223864450542
 20
170.2224503723195
 30
0.0
 11
358.6223864450542
 21
170.4424493723194
 31
0.0
  0
LINE
  5
2D19A
330
1F
100
AcDbEntity
  8
実線
100
AcDbLine
 10
367.7066334450544
 20
166.8200603723195
 30
0.0
 11
367.0517014450543
 21
166.8200603723195
 31
0.0
  0
LINE
  5
2D19B
330
1F
100
AcDbEntity
  8
実線
100
AcDbLine
 10
359.1619894450543
 20
164.2058423723196
 30
0.0
 11
359.2253784450543
 21
164.0591723723195
 31
0.0
  0
LINE
  5
2D19C
330
1F
100
AcDbEntity
  8
実線
100
AcDbLine
 10
360.1489324450542
 20
171.8025873723195
 30
0.0
 11
359.9376614450544
 21
171.7292453723195
 31
0.0
  0
LINE
  5
2D19D
330
1F
100
AcDbEntity
  8
実線
100
AcDbLine
 10
367.8333964450542
 20
167.7978393723195
 30
0.0
 11
367.9601594450544
 21
167.7244973723194
 31
0.0
  0
LINE
  5
2D19E
330
1F
100
AcDbEntity
  8
実線
100
AcDbLine
 10
360.0070734450544
 20
165.8925043723194
 30
0.0
 11
359.8169214450543
 21
165.8925043723194
 31
0.0
  0
LINE
  5
2D19F
330
1F
100
AcDbEntity
  8
実線
100
AcDbLine
 10
366.6638324450544
 20
168.6524883723194
 30
0.0
 11
368.1638324450544
 21
168.6524883723194
 31
0.0
  0
LINE
  5
2D1A0
330
1F
100
AcDbEntity
  8
実線
100
AcDbLine
 10
358.8448374450543
 20
173.7277303723195
 30
0.0
 11
359.1387294450544
 21
173.3232223723195
 31
0.0
  0
LINE
  5
2D1A1
330
1F
100
AcDbEntity
  8
実線
100
AcDbLine
 10
368.1638324450544
 20
170.1680363723195
 30
0.0
 11
368.1004594450544
 21
169.9969233723194
 31
0.0
  0
LINE
  5
2D1A2
330
1F
100
AcDbEntity
  8
実線
100
AcDbLine
 10
356.4835744450545
 20
166.4605103723194
 30
0.0
 11
356.9591024450545
 21
166.6150183723194
 31
0.0
  0
LINE
  5
2D1A3
330
1F
100
AcDbEntity
  8
実線
100
AcDbLine
 10
358.8448374450543
 20
163.2105103723194
 30
0.0
 11
359.1387294450544
 21
163.6150183723194
 31
0.0
  0
LINE
  5
2D1A4
330
1F
100
AcDbEntity
  8
実線
100
AcDbLine
 10
362.6654414450543
 20
161.9691203723195
 30
0.0
 11
362.6654414450543
 21
162.4691203723195
 31
0.0
  0
LINE
  5
2D1A5
330
1F
100
AcDbEntity
  8
実線
100
AcDbLine
 10
366.4860454450543
 20
163.2105103723194
 30
0.0
 11
366.1921534450544
 21
163.6150183723194
 31
0.0
  0
LINE
  5
2D1A6
330
1F
100
AcDbEntity
  8
実線
100
AcDbLine
 10
368.8473084450543
 20
166.4605103723194
 30
0.0
 11
368.3717804450544
 21
166.6150183723194
 31
0.0
  0
LINE
  5
2D1A7
330
1F
100
AcDbEntity
  8
実線
100
AcDbLine
 10
359.6841364450545
 20
171.7292453723195
 30
0.0
 11
359.4940004450543
 21
171.8025873723195
 31
0.0
  0
LINE
  5
2D1A8
330
1F
100
AcDbEntity
  8
実線
100
AcDbLine
 10
363.4154414450543
 20
163.3557883723196
 30
0.0
 11
363.4154414450543
 21
163.6735713723195
 31
0.0
  0
LINE
  5
2D1A9
330
1F
100
AcDbEntity
  8
実線
100
AcDbLine
 10
366.4860454450543
 20
173.7277303723195
 30
0.0
 11
366.1921534450544
 21
173.3232223723195
 31
0.0
  0
LINE
  5
2D1AA
330
1F
100
AcDbEntity
  8
実線
100
AcDbLine
 10
366.8539844450545
 20
170.6080333723195
 30
0.0
 11
367.0652394450542
 21
170.7547033723195
 31
0.0
  0
LINE
  5
2D1AB
330
1F
100
AcDbEntity
  8
実線
100
AcDbLine
 10
366.6502944450542
 20
167.4311703723196
 30
0.0
 11
366.7136844450545
 21
167.5778403723194
 31
0.0
  0
LINE
  5
2D1AC
330
1F
100
AcDbEntity
  8
実線
100
AcDbLine
 10
358.5589974450543
 20
169.6113393723195
 30
0.0
 11
358.3688614450543
 21
169.7580103723195
 31
0.0
  0
LINE
  5
2D1AD
330
1F
100
AcDbEntity
  8
実線
100
AcDbLine
 10
362.0422044450545
 20
162.9891323723194
 30
0.0
 11
362.3168484450543
 21
162.8424623723196
 31
0.0
  0
LINE
  5
2D1AE
330
1F
100
AcDbEntity
  8
実線
100
AcDbLine
 10
363.4147384450543
 20
173.2173913723195
 30
0.0
 11
363.3513644450543
 21
173.6085033723194
 31
0.0
  0
LINE
  5
2D1AF
330
1F
100
AcDbEntity
  8
実線
100
AcDbLine
 10
357.1944974450544
 20
167.8409313723194
 30
0.0
 11
358.6944974450544
 21
167.8409313723194
 31
0.0
  0
LINE
  5
2D1B0
330
1F
100
AcDbEntity
  8
実線
100
AcDbLine
 10
357.7773184450543
 20
168.6335603723195
 30
0.0
 11
358.0942174450545
 21
168.6335603723195
 31
0.0
  0
LINE
  5
2D1B1
330
1F
100
AcDbEntity
  8
実線
100
AcDbLine
 10
366.7770574450544
 20
165.9156223723195
 30
0.0
 11
366.6502944450542
 21
166.0622793723195
 31
0.0
  0
LINE
  5
2D1B2
330
1F
100
AcDbEntity
  8
実線
100
AcDbLine
 10
360.3390684450544
 20
172.9270233723194
 30
0.0
 11
360.4658304450543
 21
172.7803533723194
 31
0.0
  0
LINE
  5
2D1B3
330
1F
100
AcDbEntity
  8
実線
100
AcDbLine
 10
360.4084804450542
 20
164.8902813723194
 30
0.0
 11
360.2183284450543
 21
165.0369523723194
 31
0.0
  0
LINE
  5
2D1B4
330
1F
100
AcDbEntity
  8
実線
100
AcDbLine
 10
357.7139294450542
 20
169.8313383723195
 30
0.0
 11
357.5026584450543
 21
169.7580103723195
 31
0.0
  0
LINE
  5
2D1B5
330
1F
100
AcDbEntity
  8
実線
100
AcDbLine
 10
368.1502944450542
 20
166.1356213723194
 30
0.0
 11
368.0869214450543
 21
165.9889513723195
 31
0.0
  0
LINE
  5
2D1B6
330
1F
100
AcDbEntity
  8
実線
100
AcDbLine
 10
356.4835744450545
 20
170.4777303723195
 30
0.0
 11
356.9591024450545
 21
170.3232223723195
 31
0.0
  0
LINE
  5
2D1B7
330
1F
100
AcDbEntity
  8
実線
100
AcDbLine
 10
361.9781274450545
 20
173.6085033723194
 30
0.0
 11
361.9147384450544
 21
173.2173913723195
 31
0.0
  0
LINE
  5
2D1B8
330
1F
100
AcDbEntity
  8
実線
100
AcDbLine
 10
360.0070734450544
 20
163.6925163723196
 30
0.0
 11
360.2817174450545
 21
163.7658453723194
 31
0.0
  0
LINE
  5
2D1B9
330
1F
100
AcDbEntity
  8
実線
100
AcDbLine
 10
358.1575904450545
 20
169.8313383723195
 30
0.0
 11
358.4322344450543
 21
169.9046673723195
 31
0.0
  0
LINE
  5
2D1BA
330
1F
100
AcDbEntity
  8
実線
100
AcDbLine
 10
368.0869214450543
 20
167.0400583723195
 30
0.0
 11
367.9601594450544
 21
166.8933883723194
 31
0.0
  0
LINE
  5
2D1BB
330
1F
100
AcDbEntity
  8
実線
100
AcDbLine
 10
367.2418534450544
 20
167.8956103723195
 30
0.0
 11
367.5587524450543
 21
167.8956103723195
 31
0.0
  0
LINE
  5
2D1BC
330
1F
100
AcDbEntity
  8
実線
100
AcDbLine
 10
365.9324324450543
 20
165.8737693723195
 30
0.0
 11
364.6859414450544
 21
164.1871083723196
 31
0.0
  0
LINE
  5
2D1BD
330
1F
100
AcDbEntity
  8
実線
100
AcDbLine
 10
366.8539844450545
 20
169.0924853723195
 30
0.0
 11
366.7272214450543
 21
168.8724863723195
 31
0.0
  0
LINE
  5
2D1BE
330
1F
100
AcDbEntity
  8
実線
100
AcDbLine
 10
359.3521414450545
 20
165.6480623723195
 30
0.0
 11
359.2253784450543
 21
165.4280633723195
 31
0.0
  0
LINE
  5
2D1BF
330
1F
100
AcDbEntity
  8
実線
100
AcDbLine
 10
368.0370854450544
 20
170.6080333723195
 30
0.0
 11
368.1638324450544
 21
170.3880353723194
 31
0.0
  0
LINE
  5
2D1C0
330
1F
100
AcDbEntity
  8
実線
100
AcDbLine
 10
362.7605094450544
 20
164.2113393723194
 30
0.0
 11
362.5069844450543
 21
164.2113393723194
 31
0.0
  0
LINE
  5
2D1C1
330
1F
100
AcDbEntity
  8
実線
100
AcDbLine
 10
363.2252894450544
 20
162.9891323723194
 30
0.0
 11
363.3520524450544
 21
163.1357893723194
 31
0.0
  0
LINE
  5
2D1C2
330
1F
100
AcDbEntity
  8
実線
100
AcDbLine
 10
366.6638324450544
 20
170.3147063723195
 30
0.0
 11
366.7272214450543
 21
170.4613763723195
 31
0.0
  0
LINE
  5
2D1C3
330
1F
100
AcDbEntity
  8
実線
100
AcDbLine
 10
357.2491494450544
 20
170.4424493723194
 30
0.0
 11
357.2491494450544
 21
170.2224503723195
 31
0.0
  0
LINE
  5
2D1C4
330
1F
100
AcDbEntity
  8
実線
100
AcDbLine
 10
358.6857594450544
 20
169.1468993723194
 30
0.0
 11
358.6857594450544
 21
169.3913413723195
 31
0.0
  0
LINE
  5
2D1C5
330
1F
100
AcDbEntity
  8
実線
100
AcDbLine
 10
364.6859414450544
 20
164.1871083723196
 30
0.0
 11
366.2493304450543
 21
164.1871083723196
 31
0.0
  0
LINE
  5
2D1C6
330
1F
100
AcDbEntity
  8
実線
100
AcDbLine
 10
363.3699824450543
 20
172.5745273723195
 30
0.0
 11
363.4147384450543
 21
172.8507353723195
 31
0.0
  0
LINE
  5
2D1C7
330
1F
100
AcDbEntity
  8
実線
100
AcDbLine
 10
359.3521414450545
 20
164.8902813723194
 30
0.0
 11
359.2253784450543
 21
164.7436113723195
 31
0.0
  0
LINE
  5
2D1C8
330
1F
100
AcDbEntity
  8
実線
100
AcDbLine
 10
367.2418534450544
 20
165.6956233723196
 30
0.0
 11
366.9672094450543
 21
165.7689523723194
 31
0.0
  0
LINE
  5
2D1C9
330
1F
100
AcDbEntity
  8
実線
100
AcDbLine
 10
359.2253784450543
 20
165.4280633723195
 30
0.0
 11
359.0986164450544
 21
164.9636233723195
 31
0.0
  0
LINE
  5
2D1CA
330
1F
100
AcDbEntity
  8
実線
100
AcDbLine
 10
358.4322344450543
 20
170.7357763723195
 30
0.0
 11
358.0942174450545
 21
170.8335603723195
 31
0.0
  0
LINE
  5
2D1CB
330
1F
100
AcDbEntity
  8
実線
100
AcDbLine
 10
362.2316364450544
 20
173.9751723723194
 30
0.0
 11
362.1048734450544
 21
173.8285023723195
 31
0.0
  0
LINE
  5
2D1CC
330
1F
100
AcDbEntity
  8
実線
100
AcDbLine
 10
359.5634124450544
 20
163.7658453723194
 30
0.0
 11
359.7535484450543
 21
163.6925163723196
 31
0.0
  0
LINE
  5
2D1CD
330
1F
100
AcDbEntity
  8
実線
100
AcDbLine
 10
357.4392854450544
 20
169.9046673723195
 30
0.0
 11
357.7139294450542
 21
169.8313383723195
 31
0.0
  0
LINE
  5
2D1CE
330
1F
100
AcDbEntity
  8
実線
100
AcDbLine
 10
368.1502944450542
 20
167.4311703723196
 30
0.0
 11
368.1502944450542
 21
167.2111713723194
 31
0.0
  0
LINE
  5
2D1CF
330
1F
100
AcDbEntity
  8
実線
100
AcDbLine
 10
360.1489324450542
 20
171.0448063723195
 30
0.0
 11
359.8742874450543
 21
170.9714783723194
 31
0.0
  0
LINE
  5
2D1D0
330
1F
100
AcDbEntity
  8
実線
100
AcDbLine
 10
366.8404464450544
 20
167.7244973723194
 30
0.0
 11
366.9672094450543
 21
167.7978393723195
 31
0.0
  0
LINE
  5
2D1D1
330
1F
100
AcDbEntity
  8
実線
100
AcDbLine
 10
359.4094914450543
 20
171.0448063723195
 30
0.0
 11
359.2193554450544
 21
171.1914763723195
 31
0.0
  0
LINE
  5
2D1D2
330
1F
100
AcDbEntity
  8
実線
100
AcDbLine
 10
361.9154414450543
 20
164.9691203723194
 30
0.0
 11
363.4154414450543
 21
164.9691203723194
 31
0.0
  0
LINE
  5
2D1D3
330
1F
100
AcDbEntity
  8
実線
100
AcDbLine
 10
366.9672094450543
 20
167.7978393723195
 30
0.0
 11
367.2418534450544
 21
167.8956103723195
 31
0.0
  0
LINE
  5
2D1D4
330
1F
100
AcDbEntity
  8
実線
100
AcDbLine
 10
360.5986164450544
 20
164.5236133723195
 30
0.0
 11
360.5352434450545
 21
164.7436113723195
 31
0.0
  0
LINE
  5
2D1D5
330
1F
100
AcDbEntity
  8
実線
100
AcDbLine
 10
359.5634124450544
 20
165.7947193723195
 30
0.0
 11
359.3521414450545
 21
165.6480623723195
 31
0.0
  0
LINE
  5
2D1D6
330
1F
100
AcDbEntity
  8
実線
100
AcDbLine
 10
359.2827294450542
 20
171.9492573723195
 30
0.0
 11
359.1559664450544
 21
172.0959143723195
 31
0.0
  0
LINE
  5
2D1D7
330
1F
100
AcDbEntity
  8
実線
100
AcDbLine
 10
359.2193554450544
 20
171.1914763723195
 30
0.0
 11
359.0925934450545
 21
171.4114753723195
 31
0.0
  0
LINE
  5
2D1D8
330
1F
100
AcDbEntity
  8
実線
100
AcDbLine
 10
359.8742874450543
 20
170.9714783723194
 30
0.0
 11
359.6841364450545
 21
170.9714783723194
 31
0.0
  0
LINE
  5
2D1D9
330
1F
100
AcDbEntity
  8
実線
100
AcDbLine
 10
359.0925934450545
 20
172.3159133723194
 30
0.0
 11
359.0925934450545
 21
172.5603543723194
 31
0.0
  0
LINE
  5
2D1DA
330
1F
100
AcDbEntity
  8
実線
100
AcDbLine
 10
359.1559664450544
 20
172.0959143723195
 30
0.0
 11
359.0925934450545
 21
172.3159133723194
 31
0.0
  0
LINE
  5
2D1DB
330
1F
100
AcDbEntity
  8
実線
100
AcDbLine
 10
363.2252894450544
 20
163.9668983723194
 30
0.0
 11
363.0351534450544
 21
164.1135683723195
 31
0.0
  0
LINE
  5
2D1DC
330
1F
100
AcDbEntity
  8
実線
100
AcDbLine
 10
368.1638324450544
 20
170.3880353723194
 30
0.0
 11
368.1638324450544
 21
170.1680363723195
 31
0.0
  0
LINE
  5
2D1DD
330
1F
100
AcDbEntity
  8
実線
100
AcDbLine
 10
365.6052924450544
 20
173.1821733723194
 30
0.0
 11
365.0982584450544
 21
172.5710623723195
 31
0.0
  0
LINE
  5
2D1DE
330
1F
100
AcDbEntity
  8
実線
100
AcDbLine
 10
359.0986164450544
 20
164.9636233723195
 30
0.0
 11
359.0986164450544
 21
164.5236133723195
 31
0.0
  0
LINE
  5
2D1DF
330
1F
100
AcDbEntity
  8
実線
100
AcDbLine
 10
367.5722894450544
 20
170.8524753723194
 30
0.0
 11
367.8469344450543
 21
170.7547033723195
 31
0.0
  0
LINE
  5
2D1E0
330
1F
100
AcDbEntity
  8
実線
100
AcDbLine
 10
367.3187644450543
 20
169.5569253723196
 30
0.0
 11
367.0652394450542
 21
169.3369273723195
 31
0.0
  0
LINE
  5
2D1E1
330
1F
100
AcDbEntity
  8
実線
100
AcDbLine
 10
360.4658304450543
 20
172.0959143723195
 30
0.0
 11
360.3390684450544
 21
171.9492573723195
 31
0.0
  0
LINE
  5
2D1E2
330
1F
100
AcDbEntity
  8
実線
100
AcDbLine
 10
362.7605094450544
 20
162.7691333723195
 30
0.0
 11
363.0351534450544
 21
162.8424623723196
 31
0.0
  0
LINE
  5
2D1E3
330
1F
100
AcDbEntity
  8
実線
100
AcDbLine
 10
357.1857594450544
 20
169.3913413723195
 30
0.0
 11
357.1857594450544
 21
169.1468993723194
 31
0.0
  0
LINE
  5
2D1E4
330
1F
100
AcDbEntity
  8
実線
100
AcDbLine
 10
363.0978394450542
 20
173.9751723723194
 30
0.0
 11
362.9336074450543
 21
174.0701743723194
 31
0.0
  0
LINE
  5
2D1E5
330
1F
100
AcDbEntity
  8
実線
100
AcDbLine
 10
362.2323394450543
 20
164.1135683723195
 30
0.0
 11
362.1055774450545
 21
164.0402393723194
 31
0.0
  0
LINE
  5
2D1E6
330
1F
100
AcDbEntity
  8
実線
100
AcDbLine
 10
365.6052924450544
 20
170.9821863723194
 30
0.0
 11
365.6052924450544
 21
173.1821733723194
 31
0.0
  0
LINE
  5
2D1E7
330
1F
100
AcDbEntity
  8
実線
100
AcDbLine
 10
357.4392854450544
 20
170.7357763723195
 30
0.0
 11
357.3125224450544
 21
170.5891193723195
 31
0.0
  0
LINE
  5
2D1E8
330
1F
100
AcDbEntity
  8
実線
100
AcDbLine
 10
365.9324324450543
 20
163.6737693723195
 30
0.0
 11
365.9324324450543
 21
165.8737693723195
 31
0.0
  0
LINE
  5
2D1E9
330
1F
100
AcDbEntity
  8
実線
100
AcDbLine
 10
358.4956234450544
 20
168.7802303723195
 30
0.0
 11
358.6223864450542
 21
168.9269013723195
 31
0.0
  0
LINE
  5
2D1EA
330
1F
100
AcDbEntity
  8
実線
100
AcDbLine
 10
368.0869214450543
 20
166.5267323723195
 30
0.0
 11
368.1502944450542
 21
166.3800623723194
 31
0.0
  0
LINE
  5
2D1EB
330
1F
100
AcDbEntity
  8
実線
100
AcDbLine
 10
368.8473084450543
 20
170.4777303723195
 30
0.0
 11
368.3717804450544
 21
170.3232223723195
 31
0.0
  0
LINE
  5
2D1EC
330
1F
100
AcDbEntity
  8
実線
100
AcDbLine
 10
357.1857594450544
 20
169.1468993723194
 30
0.0
 11
357.2491494450544
 21
168.9269013723195
 31
0.0
  0
LINE
  5
2D1ED
330
1F
100
AcDbEntity
  8
実線
100
AcDbLine
 10
367.8333964450542
 20
165.7689523723194
 30
0.0
 11
367.5587524450543
 21
165.6956233723196
 31
0.0
  0
CIRCLE
  5
2D1EE
330
1F
100
AcDbEntity
  8
実線
100
AcDbCircle
 10
362.6654414450543
 20
168.4691203723195
 30
0.0
 40
6.5
  0
LINE
  5
2D1EF
330
1F
100
AcDbEntity
  8
実線
100
AcDbLine
 10
351.9989794450544
 20
152.4718993723195
 30
0.0
 11
351.8088434450544
 21
152.3741283723194
 31
0.0
  0
LINE
  5
2D1F0
330
1F
100
AcDbEntity
  8
実線
100
AcDbLine
 10
352.7806744450543
 20
151.3963483723195
 30
0.0
 11
352.8440474450542
 21
151.6163473723194
 31
0.0
  0
LINE
  5
2D1F1
330
1F
100
AcDbEntity
  8
実線
100
AcDbLine
 10
350.8678174450545
 20
157.7796253723194
 30
0.0
 11
350.8044284450543
 21
157.9262953723195
 31
0.0
  0
LINE
  5
2D1F2
330
1F
100
AcDbEntity
  8
実線
100
AcDbLine
 10
359.9520644450543
 20
154.1572363723195
 30
0.0
 11
360.2055904450542
 21
154.0105663723194
 31
0.0
  0
LINE
  5
2D1F3
330
1F
100
AcDbEntity
  8
実線
100
AcDbLine
 10
351.4708094450543
 20
151.3963483723195
 30
0.0
 11
351.5975724450543
 21
151.2496913723195
 31
0.0
  0
LINE
  5
2D1F4
330
1F
100
AcDbEntity
  8
実線
100
AcDbLine
 10
358.9591154450543
 20
154.9150163723194
 30
0.0
 11
359.0858774450544
 21
155.0616733723194
 31
0.0
  0
LINE
  5
2D1F5
330
1F
100
AcDbEntity
  8
実線
100
AcDbLine
 10
355.4700334450542
 20
161.1656783723196
 30
0.0
 11
355.3432704450545
 21
161.3123483723194
 31
0.0
  0
LINE
  5
2D1F6
330
1F
100
AcDbEntity
  8
実線
100
AcDbLine
 10
352.0623524450543
 20
153.2296803723194
 30
0.0
 11
351.8088434450544
 21
153.1318953723195
 31
0.0
  0
LINE
  5
2D1F7
330
1F
100
AcDbEntity
  8
実線
100
AcDbLine
 10
354.3510084450543
 20
151.3774153723195
 30
0.0
 11
354.1608724450544
 21
151.2307453723195
 31
0.0
  0
LINE
  5
2D1F8
330
1F
100
AcDbEntity
  8
実線
100
AcDbLine
 10
360.3458904450542
 20
157.3340993723194
 30
0.0
 11
360.2191274450545
 21
157.1874423723194
 31
0.0
  0
LINE
  5
2D1F9
330
1F
100
AcDbEntity
  8
実線
100
AcDbLine
 10
351.7394314450544
 20
159.1397633723194
 30
0.0
 11
351.5281604450545
 21
159.2864333723195
 31
0.0
  0
LINE
  5
2D1FA
330
1F
100
AcDbEntity
  8
実線
100
AcDbLine
 10
355.6608724450543
 20
151.0107473723195
 30
0.0
 11
355.5974834450542
 21
151.1574173723194
 31
0.0
  0
LINE
  5
2D1FB
330
1F
100
AcDbEntity
  8
実線
100
AcDbLine
 10
359.3106704450545
 20
158.0918793723195
 30
0.0
 11
359.5641954450544
 21
158.1896513723194
 31
0.0
  0
LINE
  5
2D1FC
330
1F
100
AcDbEntity
  8
実線
100
AcDbLine
 10
350.6142924450544
 20
157.0951863723195
 30
0.0
 11
350.4030214450543
 21
157.1685143723194
 31
0.0
  0
LINE
  5
2D1FD
330
1F
100
AcDbEntity
  8
実線
100
AcDbLine
 10
354.5622794450544
 20
150.1796383723195
 30
0.0
 11
354.7524154450544
 21
150.1063093723194
 31
0.0
  0
LINE
  5
2D1FE
330
1F
100
AcDbEntity
  8
実線
100
AcDbLine
 10
355.5967954450543
 20
160.9456793723194
 30
0.0
 11
355.4700334450542
 21
161.1656783723196
 31
0.0
  0
LINE
  5
2D1FF
330
1F
100
AcDbEntity
  8
実線
100
AcDbLine
 10
350.9399284450544
 20
155.1781073723194
 30
0.0
 11
349.9892174450545
 21
152.9781073723194
 31
0.0
  0
LINE
  5
2D200
330
1F
100
AcDbEntity
  8
実線
100
AcDbLine
 10
350.3396484450543
 20
155.9707363723195
 30
0.0
 11
350.6142924450544
 21
156.0440783723194
 31
0.0
  0
LINE
  5
2D201
330
1F
100
AcDbEntity
  8
実線
100
AcDbLine
 10
354.1608724450544
 20
151.2307453723195
 30
0.0
 11
354.1608724450544
 21
152.3062963723195
 31
0.0
  0
LINE
  5
2D202
330
1F
100
AcDbEntity
  8
実線
100
AcDbLine
 10
352.4637594450544
 20
152.3741283723194
 30
0.0
 11
352.2525044450542
 21
152.4718993723195
 31
0.0
  0
LINE
  5
2D203
330
1F
100
AcDbEntity
  8
実線
100
AcDbLine
 10
349.7480894450543
 20
157.0951863723195
 30
0.0
 11
349.5579534450542
 21
156.9485153723195
 31
0.0
  0
LINE
  5
2D204
330
1F
100
AcDbEntity
  8
実線
100
AcDbLine
 10
360.3323524450543
 20
153.3261273723195
 30
0.0
 11
360.2055904450542
 21
153.1794563723195
 31
0.0
  0
LINE
  5
2D205
330
1F
100
AcDbEntity
  8
実線
100
AcDbLine
 10
354.1601694450544
 20
160.5545673723194
 30
0.0
 11
354.1601694450544
 21
160.1879113723195
 31
0.0
  0
LINE
  5
2D206
330
1F
100
AcDbEntity
  8
実線
100
AcDbLine
 10
352.5271484450543
 20
151.1030213723194
 30
0.0
 11
352.6539114450543
 21
151.1763503723195
 31
0.0
  0
LINE
  5
2D207
330
1F
100
AcDbEntity
  8
実線
100
AcDbLine
 10
349.4945804450542
 20
157.5596263723195
 30
0.0
 11
349.5579534450542
 21
157.4129563723195
 31
0.0
  0
LINE
  5
2D208
330
1F
100
AcDbEntity
  8
実線
100
AcDbLine
 10
350.6776654450543
 20
157.2418433723195
 30
0.0
 11
350.8678174450545
 21
157.5596263723195
 31
0.0
  0
LINE
  5
2D209
330
1F
100
AcDbEntity
  8
実線
100
AcDbLine
 10
360.2055904450542
 20
154.2305643723194
 30
0.0
 11
359.9520644450543
 21
154.1572363723195
 31
0.0
  0
LINE
  5
2D20A
330
1F
100
AcDbEntity
  8
実線
100
AcDbLine
 10
351.3440474450542
 20
151.8607893723195
 30
0.0
 11
351.4074204450542
 21
151.5430183723195
 31
0.0
  0
LINE
  5
2D20B
330
1F
100
AcDbEntity
  8
実線
100
AcDbLine
 10
359.8041834450544
 20
155.2327863723195
 30
0.0
 11
360.0788274450545
 21
155.1350153723196
 31
0.0
  0
LINE
  5
2D20C
330
1F
100
AcDbEntity
  8
実線
100
AcDbLine
 10
352.5844994450543
 20
158.5286523723195
 30
0.0
 11
352.3943634450543
 21
158.3819823723195
 31
0.0
  0
LINE
  5
2D20D
330
1F
100
AcDbEntity
  8
実線
100
AcDbLine
 10
352.7112614450544
 20
158.7486513723195
 30
0.0
 11
352.5844994450543
 21
158.5286523723195
 31
0.0
  0
LINE
  5
2D20E
330
1F
100
AcDbEntity
  8
実線
100
AcDbLine
 10
352.8380244450543
 20
159.6530893723194
 30
0.0
 11
352.8380244450543
 21
159.2130913723195
 31
0.0
  0
LINE
  5
2D20F
330
1F
100
AcDbEntity
  8
実線
100
AcDbLine
 10
352.7746354450544
 20
159.9708723723195
 30
0.0
 11
352.8380244450543
 21
159.6530893723194
 31
0.0
  0
LINE
  5
2D210
330
1F
100
AcDbEntity
  8
実線
100
AcDbLine
 10
352.7112614450544
 20
160.1175293723195
 30
0.0
 11
352.7746354450544
 21
159.9708723723195
 31
0.0
  0
LINE
  5
2D211
330
1F
100
AcDbEntity
  8
実線
100
AcDbLine
 10
352.1830924450544
 20
160.5086413723194
 30
0.0
 11
352.3943634450543
 21
160.4108693723195
 31
0.0
  0
LINE
  5
2D212
330
1F
100
AcDbEntity
  8
実線
100
AcDbLine
 10
358.9726524450544
 20
156.2096623723195
 30
0.0
 11
358.9092634450542
 21
155.9896643723194
 31
0.0
  0
LINE
  5
2D213
330
1F
100
AcDbEntity
  8
実線
100
AcDbLine
 10
351.6549224450543
 20
160.4108693723195
 30
0.0
 11
351.9295674450543
 21
160.5086413723194
 31
0.0
  0
LINE
  5
2D214
330
1F
100
AcDbEntity
  8
実線
100
AcDbLine
 10
351.5281604450545
 20
160.3375283723195
 30
0.0
 11
351.6549224450543
 21
160.4108693723195
 31
0.0
  0
LINE
  5
2D215
330
1F
100
AcDbEntity
  8
実線
100
AcDbLine
 10
351.4013974450543
 20
160.1175293723195
 30
0.0
 11
351.5281604450545
 21
160.3375283723195
 31
0.0
  0
LINE
  5
2D216
330
1F
100
AcDbEntity
  8
実線
100
AcDbLine
 10
351.3380244450543
 20
159.8975303723194
 30
0.0
 11
351.4013974450543
 21
160.1175293723195
 31
0.0
  0
LINE
  5
2D217
330
1F
100
AcDbEntity
  8
実線
100
AcDbLine
 10
354.7524154450544
 20
151.5485153723195
 30
0.0
 11
354.4777704450544
 21
151.4507443723195
 31
0.0
  0
LINE
  5
2D218
330
1F
100
AcDbEntity
  8
実線
100
AcDbLine
 10
352.1830924450544
 20
159.0664213723195
 30
0.0
 11
351.9295674450543
 21
159.0664213723195
 31
0.0
  0
LINE
  5
2D219
330
1F
100
AcDbEntity
  8
実線
100
AcDbLine
 10
358.9726524450544
 20
157.7985523723195
 30
0.0
 11
359.0994154450543
 21
157.9452093723195
 31
0.0
  0
LINE
  5
2D21A
330
1F
100
AcDbEntity
  8
実線
100
AcDbLine
 10
352.3943634450543
 20
160.4108693723195
 30
0.0
 11
352.5844994450543
 21
160.2641993723194
 31
0.0
  0
LINE
  5
2D21B
330
1F
100
AcDbEntity
  8
実線
100
AcDbLine
 10
360.2055904450542
 20
155.0616733723194
 30
0.0
 11
360.3323524450543
 21
154.9150163723194
 31
0.0
  0
LINE
  5
2D21C
330
1F
100
AcDbEntity
  8
実線
100
AcDbLine
 10
352.2525044450542
 20
152.4718993723195
 30
0.0
 11
351.9989794450544
 21
152.4718993723195
 31
0.0
  0
LINE
  5
2D21D
330
1F
100
AcDbEntity
  8
実線
100
AcDbLine
 10
350.9311904450544
 20
156.7285173723195
 30
0.0
 11
350.8044284450543
 21
156.9485153723195
 31
0.0
  0
LINE
  5
2D21E
330
1F
100
AcDbEntity
  8
実線
100
AcDbLine
 10
354.1608724450544
 20
150.4729653723195
 30
0.0
 11
354.2876354450543
 21
150.3263083723195
 31
0.0
  0
LINE
  5
2D21F
330
1F
100
AcDbEntity
  8
実線
100
AcDbLine
 10
355.6601694450544
 20
160.1879113723195
 30
0.0
 11
355.6601694450544
 21
160.5545673723194
 31
0.0
  0
LINE
  5
2D220
330
1F
100
AcDbEntity
  8
実線
100
AcDbLine
 10
351.4708094450543
 20
152.0807873723195
 30
0.0
 11
351.3440474450542
 21
151.8607893723195
 31
0.0
  0
LINE
  5
2D221
330
1F
100
AcDbEntity
  8
実線
100
AcDbLine
 10
349.7480894450543
 20
156.0440783723194
 30
0.0
 11
350.0227494450544
 21
155.9707363723195
 31
0.0
  0
LINE
  5
2D222
330
1F
100
AcDbEntity
  8
実線
100
AcDbLine
 10
352.7806744450543
 20
152.0807873723195
 30
0.0
 11
352.6539114450543
 21
152.2274573723194
 31
0.0
  0
LINE
  5
2D223
330
1F
100
AcDbEntity
  8
実線
100
AcDbLine
 10
350.3396484450543
 20
158.1707363723195
 30
0.0
 11
350.0227494450544
 21
158.1707363723195
 31
0.0
  0
LINE
  5
2D224
330
1F
100
AcDbEntity
  8
実線
100
AcDbLine
 10
360.3957254450545
 20
153.7172383723194
 30
0.0
 11
360.3957254450545
 21
153.4727973723194
 31
0.0
  0
LINE
  5
2D225
330
1F
100
AcDbEntity
  8
実線
100
AcDbLine
 10
354.3503044450542
 20
161.1656783723196
 30
0.0
 11
354.2235584450543
 21
160.9456793723194
 31
0.0
  0
LINE
  5
2D226
330
1F
100
AcDbEntity
  8
実線
100
AcDbLine
 10
351.9989794450544
 20
151.0296923723195
 30
0.0
 11
352.2525044450542
 21
151.0296923723195
 31
0.0
  0
LINE
  5
2D227
330
1F
100
AcDbEntity
  8
実線
100
AcDbLine
 10
349.9593604450545
 20
157.1685143723194
 30
0.0
 11
350.4030214450543
 21
157.1685143723194
 31
0.0
  0
LINE
  5
2D228
330
1F
100
AcDbEntity
  8
実線
100
AcDbLine
 10
355.5974834450542
 20
150.4729653723195
 30
0.0
 11
355.6608724450543
 21
150.6929643723195
 31
0.0
  0
LINE
  5
2D229
330
1F
100
AcDbEntity
  8
実線
100
AcDbLine
 10
360.3323524450543
 20
154.9150163723194
 30
0.0
 11
360.3957254450545
 21
154.7683463723195
 31
0.0
  0
LINE
  5
2D22A
330
1F
100
AcDbEntity
  8
実線
100
AcDbLine
 10
351.9295674450543
 20
160.5086413723194
 30
0.0
 11
352.1830924450544
 21
160.5086413723194
 31
0.0
  0
LINE
  5
2D22B
330
1F
100
AcDbEntity
  8
実線
100
AcDbLine
 10
359.2126404450544
 20
153.1061283723194
 30
0.0
 11
359.0224884450543
 21
153.2527983723195
 31
0.0
  0
LINE
  5
2D22C
330
1F
100
AcDbEntity
  8
実線
100
AcDbLine
 10
352.8440474450542
 20
152.7652393723196
 30
0.0
 11
352.7172844450545
 21
152.9852383723195
 31
0.0
  0
LINE
  5
2D22D
330
1F
100
AcDbEntity
  8
実線
100
AcDbLine
 10
359.3106704450545
 20
156.6741033723195
 30
0.0
 11
359.0994154450543
 21
156.4296613723194
 31
0.0
  0
LINE
  5
2D22E
330
1F
100
AcDbEntity
  8
実線
100
AcDbLine
 10
355.2805844450543
 20
151.4507443723195
 30
0.0
 11
355.0059404450542
 21
151.5485153723195
 31
0.0
  0
LINE
  5
2D22F
330
1F
100
AcDbEntity
  8
実線
100
AcDbLine
 10
360.0923654450544
 20
158.0918793723195
 30
0.0
 11
360.2825164450544
 21
157.9452093723195
 31
0.0
  0
LINE
  5
2D230
330
1F
100
AcDbEntity
  8
実線
100
AcDbLine
 10
352.7172844450545
 20
152.9852383723195
 30
0.0
 11
352.5271484450543
 21
153.1318953723195
 31
0.0
  0
LINE
  5
2D231
330
1F
100
AcDbEntity
  8
実線
100
AcDbLine
 10
355.2805844450543
 20
150.1796383723195
 30
0.0
 11
355.4707204450544
 21
150.3263083723195
 31
0.0
  0
LINE
  5
2D232
330
1F
100
AcDbEntity
  8
実線
100
AcDbLine
 10
349.5579534450542
 20
157.9262953723195
 30
0.0
 11
349.4945804450542
 21
157.7796253723194
 31
0.0
  0
LINE
  5
2D233
330
1F
100
AcDbEntity
  8
実線
100
AcDbLine
 10
350.8678174450545
 20
156.2640773723195
 30
0.0
 11
350.9311904450544
 21
156.4840753723196
 31
0.0
  0
LINE
  5
2D234
330
1F
100
AcDbEntity
  8
実線
100
AcDbLine
 10
351.8088434450544
 20
152.3741283723194
 30
0.0
 11
351.5975724450543
 21
152.2274573723194
 31
0.0
  0
LINE
  5
2D235
330
1F
100
AcDbEntity
  8
実線
100
AcDbLine
 10
349.4945804450542
 20
156.2640773723195
 30
0.0
 11
349.6213264450544
 21
156.1174063723196
 31
0.0
  0
LINE
  5
2D236
330
1F
100
AcDbEntity
  8
実線
100
AcDbLine
 10
359.8041834450544
 20
153.0327993723195
 30
0.0
 11
359.4872844450545
 21
153.0327993723195
 31
0.0
  0
LINE
  5
2D237
330
1F
100
AcDbEntity
  8
実線
100
AcDbLine
 10
352.8440474450542
 20
151.6163473723194
 30
0.0
 11
352.8440474450542
 21
151.8607893723195
 31
0.0
  0
LINE
  5
2D238
330
1F
100
AcDbEntity
  8
実線
100
AcDbLine
 10
350.8044284450543
 20
157.9262953723195
 30
0.0
 11
350.6776654450543
 21
158.0729523723195
 31
0.0
  0
LINE
  5
2D239
330
1F
100
AcDbEntity
  8
実線
100
AcDbLine
 10
360.2055904450542
 20
154.0105663723194
 30
0.0
 11
360.3323524450543
 21
153.8639083723195
 31
0.0
  0
LINE
  5
2D23A
330
1F
100
AcDbEntity
  8
実線
100
AcDbLine
 10
354.6394314450542
 20
161.3928483723194
 30
0.0
 11
354.4770674450544
 21
161.3123483723194
 31
0.0
  0
LINE
  5
2D23B
330
1F
100
AcDbEntity
  8
実線
100
AcDbLine
 10
351.5975724450543
 20
151.2496913723195
 30
0.0
 11
351.8088434450544
 21
151.1030213723194
 31
0.0
  0
LINE
  5
2D23C
330
1F
100
AcDbEntity
  8
実線
100
AcDbLine
 10
352.5271484450543
 20
153.1318953723195
 30
0.0
 11
352.2525044450542
 21
153.2296803723194
 31
0.0
  0
LINE
  5
2D23D
330
1F
100
AcDbEntity
  8
実線
100
AcDbLine
 10
349.5579534450542
 20
157.4129563723195
 30
0.0
 11
349.6847164450544
 21
157.2418433723195
 31
0.0
  0
LINE
  5
2D23E
330
1F
100
AcDbEntity
  8
実線
100
AcDbLine
 10
349.6213264450544
 20
156.1174063723196
 30
0.0
 11
349.7480894450543
 21
156.0440783723194
 31
0.0
  0
LINE
  5
2D23F
330
1F
100
AcDbEntity
  8
実線
100
AcDbLine
 10
351.9295674450543
 20
158.3086543723194
 30
0.0
 11
351.6549224450543
 21
158.3819823723195
 31
0.0
  0
LINE
  5
2D240
330
1F
100
AcDbEntity
  8
実線
100
AcDbLine
 10
360.3957254450545
 20
154.5483473723194
 30
0.0
 11
360.3323524450543
 21
154.3772343723195
 31
0.0
  0
LINE
  5
2D241
330
1F
100
AcDbEntity
  8
実線
100
AcDbLine
 10
360.2191274450545
 20
157.1874423723194
 30
0.0
 11
359.5641954450544
 21
156.8941013723196
 31
0.0
  0
LINE
  5
2D242
330
1F
100
AcDbEntity
  8
実線
100
AcDbLine
 10
355.5974834450542
 20
151.1574173723194
 30
0.0
 11
355.4707204450544
 21
151.3040743723195
 31
0.0
  0
LINE
  5
2D243
330
1F
100
AcDbEntity
  8
実線
100
AcDbLine
 10
359.5641954450544
 20
158.1896513723194
 30
0.0
 11
359.8177204450542
 21
158.1896513723194
 31
0.0
  0
LINE
  5
2D244
330
1F
100
AcDbEntity
  8
実線
100
AcDbLine
 10
352.5844994450543
 20
159.2864333723195
 30
0.0
 11
352.3943634450543
 21
159.1397633723194
 31
0.0
  0
LINE
  5
2D245
330
1F
100
AcDbEntity
  8
実線
100
AcDbLine
 10
352.8380244450543
 20
159.2130913723195
 30
0.0
 11
352.7112614450544
 21
158.7486513723195
 31
0.0
  0
LINE
  5
2D246
330
1F
100
AcDbEntity
  8
実線
100
AcDbLine
 10
352.8380244450543
 20
159.6530893723194
 30
0.0
 11
352.7112614450544
 21
159.4330903723195
 31
0.0
  0
LINE
  5
2D247
330
1F
100
AcDbEntity
  8
実線
100
AcDbLine
 10
354.7524154450544
 20
150.1063093723194
 30
0.0
 11
355.0059404450542
 21
150.1063093723194
 31
0.0
  0
LINE
  5
2D248
330
1F
100
AcDbEntity
  8
実線
100
AcDbLine
 10
350.0227494450544
 20
158.1707363723195
 30
0.0
 11
349.6847164450544
 21
158.0729523723195
 31
0.0
  0
LINE
  5
2D249
330
1F
100
AcDbEntity
  8
実線
100
AcDbLine
 10
350.6142924450544
 20
156.0440783723194
 30
0.0
 11
350.7410544450543
 21
156.1174063723196
 31
0.0
  0
LINE
  5
2D24A
330
1F
100
AcDbEntity
  8
実線
100
AcDbLine
 10
349.5579534450542
 20
156.9485153723195
 30
0.0
 11
349.4311904450544
 21
156.7285173723195
 31
0.0
  0
LINE
  5
2D24B
330
1F
100
AcDbEntity
  8
実線
100
AcDbLine
 10
360.2055904450542
 20
153.1794563723195
 30
0.0
 11
360.0788274450545
 21
153.1061283723194
 31
0.0
  0
LINE
  5
2D24C
330
1F
100
AcDbEntity
  8
実線
100
AcDbLine
 10
354.1601694450544
 20
160.1879113723195
 30
0.0
 11
354.2053684450543
 21
159.9090353723194
 31
0.0
  0
LINE
  5
2D24D
330
1F
100
AcDbEntity
  8
実線
100
AcDbLine
 10
352.6539114450543
 20
151.1763503723195
 30
0.0
 11
352.7806744450543
 21
151.3963483723195
 31
0.0
  0
LINE
  5
2D24E
330
1F
100
AcDbEntity
  8
実線
100
AcDbLine
 10
350.8678174450545
 20
157.5596263723195
 30
0.0
 11
350.8678174450545
 21
157.7796253723194
 31
0.0
  0
LINE
  5
2D24F
330
1F
100
AcDbEntity
  8
実線
100
AcDbLine
 10
359.9520644450543
 20
154.1572363723195
 30
0.0
 11
359.2971324450543
 21
154.1572363723195
 31
0.0
  0
LINE
  5
2D250
330
1F
100
AcDbEntity
  8
実線
100
AcDbLine
 10
351.4074204450542
 20
151.5430183723195
 30
0.0
 11
351.4708094450543
 21
151.3963483723195
 31
0.0
  0
LINE
  5
2D251
330
1F
100
AcDbEntity
  8
実線
100
AcDbLine
 10
352.3943634450543
 20
159.1397633723194
 30
0.0
 11
352.1830924450544
 21
159.0664213723195
 31
0.0
  0
LINE
  5
2D252
330
1F
100
AcDbEntity
  8
実線
100
AcDbLine
 10
360.0788274450545
 20
155.1350153723196
 30
0.0
 11
360.2055904450542
 21
155.0616733723194
 31
0.0
  0
LINE
  5
2D253
330
1F
100
AcDbEntity
  8
実線
100
AcDbLine
 10
352.2525044450542
 20
153.2296803723194
 30
0.0
 11
352.0623524450543
 21
153.2296803723194
 31
0.0
  0
LINE
  5
2D254
330
1F
100
AcDbEntity
  8
実線
100
AcDbLine
 10
358.9092634450542
 20
155.9896643723194
 30
0.0
 11
360.4092634450542
 21
155.9896643723194
 31
0.0
  0
LINE
  5
2D255
330
1F
100
AcDbEntity
  8
実線
100
AcDbLine
 10
351.0902684450543
 20
161.0649063723196
 30
0.0
 11
351.3841604450543
 21
160.6603983723195
 31
0.0
  0
LINE
  5
2D256
330
1F
100
AcDbEntity
  8
実線
100
AcDbLine
 10
360.4092634450542
 20
157.5052123723195
 30
0.0
 11
360.3458904450542
 21
157.3340993723194
 31
0.0
  0
LINE
  5
2D257
330
1F
100
AcDbEntity
  8
実線
100
AcDbLine
 10
348.7290054450543
 20
153.7976863723194
 30
0.0
 11
349.2045334450543
 21
153.9521943723194
 31
0.0
  0
LINE
  5
2D258
330
1F
100
AcDbEntity
  8
実線
100
AcDbLine
 10
351.0902684450543
 20
150.5476863723194
 30
0.0
 11
351.3841604450543
 21
150.9521943723195
 31
0.0
  0
LINE
  5
2D259
330
1F
100
AcDbEntity
  8
実線
100
AcDbLine
 10
354.9108724450543
 20
149.3062963723195
 30
0.0
 11
354.9108724450543
 21
149.8062963723195
 31
0.0
  0
LINE
  5
2D25A
330
1F
100
AcDbEntity
  8
実線
100
AcDbLine
 10
358.7314764450543
 20
150.5476863723194
 30
0.0
 11
358.4375844450544
 21
150.9521943723195
 31
0.0
  0
LINE
  5
2D25B
330
1F
100
AcDbEntity
  8
実線
100
AcDbLine
 10
361.0927394450544
 20
153.7976863723194
 30
0.0
 11
360.6172114450544
 21
153.9521943723194
 31
0.0
  0
LINE
  5
2D25C
330
1F
100
AcDbEntity
  8
実線
100
AcDbLine
 10
351.9295674450543
 20
159.0664213723195
 30
0.0
 11
351.7394314450544
 21
159.1397633723194
 31
0.0
  0
LINE
  5
2D25D
330
1F
100
AcDbEntity
  8
実線
100
AcDbLine
 10
355.6608724450543
 20
150.6929643723195
 30
0.0
 11
355.6608724450543
 21
151.0107473723195
 31
0.0
  0
LINE
  5
2D25E
330
1F
100
AcDbEntity
  8
実線
100
AcDbLine
 10
358.7314764450543
 20
161.0649063723196
 30
0.0
 11
358.4375844450544
 21
160.6603983723195
 31
0.0
  0
LINE
  5
2D25F
330
1F
100
AcDbEntity
  8
実線
100
AcDbLine
 10
359.0994154450543
 20
157.9452093723195
 30
0.0
 11
359.3106704450545
 21
158.0918793723195
 31
0.0
  0
LINE
  5
2D260
330
1F
100
AcDbEntity
  8
実線
100
AcDbLine
 10
358.8957254450545
 20
154.7683463723195
 30
0.0
 11
358.9591154450543
 21
154.9150163723194
 31
0.0
  0
LINE
  5
2D261
330
1F
100
AcDbEntity
  8
実線
100
AcDbLine
 10
350.8044284450543
 20
156.9485153723195
 30
0.0
 11
350.6142924450544
 21
157.0951863723195
 31
0.0
  0
LINE
  5
2D262
330
1F
100
AcDbEntity
  8
実線
100
AcDbLine
 10
354.2876354450543
 20
150.3263083723195
 30
0.0
 11
354.5622794450544
 21
150.1796383723195
 31
0.0
  0
LINE
  5
2D263
330
1F
100
AcDbEntity
  8
実線
100
AcDbLine
 10
355.6601694450544
 20
160.5545673723194
 30
0.0
 11
355.5967954450543
 21
160.9456793723194
 31
0.0
  0
LINE
  5
2D264
330
1F
100
AcDbEntity
  8
実線
100
AcDbLine
 10
349.4399284450544
 20
155.1781073723194
 30
0.0
 11
350.9399284450544
 21
155.1781073723194
 31
0.0
  0
LINE
  5
2D265
330
1F
100
AcDbEntity
  8
実線
100
AcDbLine
 10
350.0227494450544
 20
155.9707363723195
 30
0.0
 11
350.3396484450543
 21
155.9707363723195
 31
0.0
  0
LINE
  5
2D266
330
1F
100
AcDbEntity
  8
実線
100
AcDbLine
 10
359.0224884450543
 20
153.2527983723195
 30
0.0
 11
358.8957254450545
 21
153.3994553723195
 31
0.0
  0
LINE
  5
2D267
330
1F
100
AcDbEntity
  8
実線
100
AcDbLine
 10
352.5844994450543
 20
160.2641993723194
 30
0.0
 11
352.7112614450544
 21
160.1175293723195
 31
0.0
  0
LINE
  5
2D268
330
1F
100
AcDbEntity
  8
実線
100
AcDbLine
 10
352.6539114450543
 20
152.2274573723194
 30
0.0
 11
352.4637594450544
 21
152.3741283723194
 31
0.0
  0
LINE
  5
2D269
330
1F
100
AcDbEntity
  8
実線
100
AcDbLine
 10
349.9593604450545
 20
157.1685143723194
 30
0.0
 11
349.7480894450543
 21
157.0951863723195
 31
0.0
  0
LINE
  5
2D26A
330
1F
100
AcDbEntity
  8
実線
100
AcDbLine
 10
360.3957254450545
 20
153.4727973723194
 30
0.0
 11
360.3323524450543
 21
153.3261273723195
 31
0.0
  0
LINE
  5
2D26B
330
1F
100
AcDbEntity
  8
実線
100
AcDbLine
 10
348.7290054450543
 20
157.8149063723195
 30
0.0
 11
349.2045334450543
 21
157.6603983723195
 31
0.0
  0
LINE
  5
2D26C
330
1F
100
AcDbEntity
  8
実線
100
AcDbLine
 10
354.2235584450543
 20
160.9456793723194
 30
0.0
 11
354.1601694450544
 21
160.5545673723194
 31
0.0
  0
LINE
  5
2D26D
330
1F
100
AcDbEntity
  8
実線
100
AcDbLine
 10
352.2525044450542
 20
151.0296923723195
 30
0.0
 11
352.5271484450543
 21
151.1030213723194
 31
0.0
  0
LINE
  5
2D26E
330
1F
100
AcDbEntity
  8
実線
100
AcDbLine
 10
350.4030214450543
 20
157.1685143723194
 30
0.0
 11
350.6776654450543
 21
157.2418433723195
 31
0.0
  0
LINE
  5
2D26F
330
1F
100
AcDbEntity
  8
実線
100
AcDbLine
 10
360.3323524450543
 20
154.3772343723195
 30
0.0
 11
360.2055904450542
 21
154.2305643723194
 31
0.0
  0
LINE
  5
2D270
330
1F
100
AcDbEntity
  8
実線
100
AcDbLine
 10
359.4872844450545
 20
155.2327863723195
 30
0.0
 11
359.8041834450544
 21
155.2327863723195
 31
0.0
  0
LINE
  5
2D271
330
1F
100
AcDbEntity
  8
実線
100
AcDbLine
 10
358.1778634450543
 20
153.2109453723195
 30
0.0
 11
356.9313724450542
 21
151.5242843723195
 31
0.0
  0
LINE
  5
2D272
330
1F
100
AcDbEntity
  8
実線
100
AcDbLine
 10
359.0994154450543
 20
156.4296613723194
 30
0.0
 11
358.9726524450544
 21
156.2096623723195
 31
0.0
  0
LINE
  5
2D273
330
1F
100
AcDbEntity
  8
実線
100
AcDbLine
 10
351.5975724450543
 20
152.9852383723195
 30
0.0
 11
351.4708094450543
 21
152.7652393723196
 31
0.0
  0
LINE
  5
2D274
330
1F
100
AcDbEntity
  8
実線
100
AcDbLine
 10
360.2825164450544
 20
157.9452093723195
 30
0.0
 11
360.4092634450542
 21
157.7252113723194
 31
0.0
  0
LINE
  5
2D275
330
1F
100
AcDbEntity
  8
実線
100
AcDbLine
 10
355.0059404450542
 20
151.5485153723195
 30
0.0
 11
354.7524154450544
 21
151.5485153723195
 31
0.0
  0
LINE
  5
2D276
330
1F
100
AcDbEntity
  8
実線
100
AcDbLine
 10
355.4707204450544
 20
150.3263083723195
 30
0.0
 11
355.5974834450542
 21
150.4729653723195
 31
0.0
  0
LINE
  5
2D277
330
1F
100
AcDbEntity
  8
実線
100
AcDbLine
 10
358.9092634450542
 20
157.6518823723195
 30
0.0
 11
358.9726524450544
 21
157.7985523723195
 31
0.0
  0
LINE
  5
2D278
330
1F
100
AcDbEntity
  8
実線
100
AcDbLine
 10
349.4945804450542
 20
157.7796253723194
 30
0.0
 11
349.4945804450542
 21
157.5596263723195
 31
0.0
  0
LINE
  5
2D279
330
1F
100
AcDbEntity
  8
実線
100
AcDbLine
 10
350.9311904450544
 20
156.4840753723196
 30
0.0
 11
350.9311904450544
 21
156.7285173723195
 31
0.0
  0
LINE
  5
2D27A
330
1F
100
AcDbEntity
  8
実線
100
AcDbLine
 10
356.9313724450542
 20
151.5242843723195
 30
0.0
 11
358.4947614450543
 21
151.5242843723195
 31
0.0
  0
LINE
  5
2D27B
330
1F
100
AcDbEntity
  8
実線
100
AcDbLine
 10
355.6154134450542
 20
159.9117033723195
 30
0.0
 11
355.6601694450544
 21
160.1879113723195
 31
0.0
  0
LINE
  5
2D27C
330
1F
100
AcDbEntity
  8
実線
100
AcDbLine
 10
351.5975724450543
 20
152.2274573723194
 30
0.0
 11
351.4708094450543
 21
152.0807873723195
 31
0.0
  0
LINE
  5
2D27D
330
1F
100
AcDbEntity
  8
実線
100
AcDbLine
 10
359.4872844450545
 20
153.0327993723195
 30
0.0
 11
359.2126404450544
 21
153.1061283723194
 31
0.0
  0
LINE
  5
2D27E
330
1F
100
AcDbEntity
  8
実線
100
AcDbLine
 10
351.4708094450543
 20
152.7652393723196
 30
0.0
 11
351.3440474450542
 21
152.3007993723195
 31
0.0
  0
LINE
  5
2D27F
330
1F
100
AcDbEntity
  8
実線
100
AcDbLine
 10
350.6776654450543
 20
158.0729523723195
 30
0.0
 11
350.3396484450543
 21
158.1707363723195
 31
0.0
  0
LINE
  5
2D280
330
1F
100
AcDbEntity
  8
実線
100
AcDbLine
 10
354.4770674450544
 20
161.3123483723194
 30
0.0
 11
354.3503044450542
 21
161.1656783723196
 31
0.0
  0
LINE
  5
2D281
330
1F
100
AcDbEntity
  8
実線
100
AcDbLine
 10
351.8088434450544
 20
151.1030213723194
 30
0.0
 11
351.9989794450544
 21
151.0296923723195
 31
0.0
  0
LINE
  5
2D282
330
1F
100
AcDbEntity
  8
実線
100
AcDbLine
 10
349.6847164450544
 20
157.2418433723195
 30
0.0
 11
349.9593604450545
 21
157.1685143723194
 31
0.0
  0
LINE
  5
2D283
330
1F
100
AcDbEntity
  8
実線
100
AcDbLine
 10
360.3957254450545
 20
154.7683463723195
 30
0.0
 11
360.3957254450545
 21
154.5483473723194
 31
0.0
  0
LINE
  5
2D284
330
1F
100
AcDbEntity
  8
実線
100
AcDbLine
 10
352.3943634450543
 20
158.3819823723195
 30
0.0
 11
352.1197184450543
 21
158.3086543723194
 31
0.0
  0
LINE
  5
2D285
330
1F
100
AcDbEntity
  8
実線
100
AcDbLine
 10
359.0858774450544
 20
155.0616733723194
 30
0.0
 11
359.2126404450544
 21
155.1350153723196
 31
0.0
  0
LINE
  5
2D286
330
1F
100
AcDbEntity
  8
実線
100
AcDbLine
 10
351.6549224450543
 20
158.3819823723195
 30
0.0
 11
351.4647864450542
 21
158.5286523723195
 31
0.0
  0
LINE
  5
2D287
330
1F
100
AcDbEntity
  8
実線
100
AcDbLine
 10
354.1608724450544
 20
152.3062963723195
 30
0.0
 11
355.6608724450543
 21
152.3062963723195
 31
0.0
  0
LINE
  5
2D288
330
1F
100
AcDbEntity
  8
実線
100
AcDbLine
 10
359.2126404450544
 20
155.1350153723196
 30
0.0
 11
359.4872844450545
 21
155.2327863723195
 31
0.0
  0
LINE
  5
2D289
330
1F
100
AcDbEntity
  8
実線
100
AcDbLine
 10
352.8440474450542
 20
151.8607893723195
 30
0.0
 11
352.7806744450543
 21
152.0807873723195
 31
0.0
  0
LINE
  5
2D28A
330
1F
100
AcDbEntity
  8
実線
100
AcDbLine
 10
351.8088434450544
 20
153.1318953723195
 30
0.0
 11
351.5975724450543
 21
152.9852383723195
 31
0.0
  0
LINE
  5
2D28B
330
1F
100
AcDbEntity
  8
実線
100
AcDbLine
 10
351.5281604450545
 20
159.2864333723195
 30
0.0
 11
351.4013974450543
 21
159.4330903723195
 31
0.0
  0
LINE
  5
2D28C
330
1F
100
AcDbEntity
  8
実線
100
AcDbLine
 10
351.4647864450542
 20
158.5286523723195
 30
0.0
 11
351.3380244450543
 21
158.7486513723195
 31
0.0
  0
LINE
  5
2D28D
330
1F
100
AcDbEntity
  8
実線
100
AcDbLine
 10
352.1197184450543
 20
158.3086543723194
 30
0.0
 11
351.9295674450543
 21
158.3086543723194
 31
0.0
  0
LINE
  5
2D28E
330
1F
100
AcDbEntity
  8
実線
100
AcDbLine
 10
351.3380244450543
 20
159.6530893723194
 30
0.0
 11
351.3380244450543
 21
159.8975303723194
 31
0.0
  0
LINE
  5
2D28F
330
1F
100
AcDbEntity
  8
実線
100
AcDbLine
 10
351.4013974450543
 20
159.4330903723195
 30
0.0
 11
351.3380244450543
 21
159.6530893723194
 31
0.0
  0
LINE
  5
2D290
330
1F
100
AcDbEntity
  8
実線
100
AcDbLine
 10
355.4707204450544
 20
151.3040743723195
 30
0.0
 11
355.2805844450543
 21
151.4507443723195
 31
0.0
  0
LINE
  5
2D291
330
1F
100
AcDbEntity
  8
実線
100
AcDbLine
 10
360.4092634450542
 20
157.7252113723194
 30
0.0
 11
360.4092634450542
 21
157.5052123723195
 31
0.0
  0
LINE
  5
2D292
330
1F
100
AcDbEntity
  8
実線
100
AcDbLine
 10
357.8507234450542
 20
160.5193493723194
 30
0.0
 11
357.3436894450545
 21
159.9082383723195
 31
0.0
  0
LINE
  5
2D293
330
1F
100
AcDbEntity
  8
実線
100
AcDbLine
 10
351.3440474450542
 20
152.3007993723195
 30
0.0
 11
351.3440474450542
 21
151.8607893723195
 31
0.0
  0
LINE
  5
2D294
330
1F
100
AcDbEntity
  8
実線
100
AcDbLine
 10
359.8177204450542
 20
158.1896513723194
 30
0.0
 11
360.0923654450544
 21
158.0918793723195
 31
0.0
  0
LINE
  5
2D295
330
1F
100
AcDbEntity
  8
実線
100
AcDbLine
 10
359.5641954450544
 20
156.8941013723196
 30
0.0
 11
359.3106704450545
 21
156.6741033723195
 31
0.0
  0
LINE
  5
2D296
330
1F
100
AcDbEntity
  8
実線
100
AcDbLine
 10
352.7112614450544
 20
159.4330903723195
 30
0.0
 11
352.5844994450543
 21
159.2864333723195
 31
0.0
  0
LINE
  5
2D297
330
1F
100
AcDbEntity
  8
実線
100
AcDbLine
 10
355.0059404450542
 20
150.1063093723194
 30
0.0
 11
355.2805844450543
 21
150.1796383723195
 31
0.0
  0
LINE
  5
2D298
330
1F
100
AcDbEntity
  8
実線
100
AcDbLine
 10
349.4311904450544
 20
156.7285173723195
 30
0.0
 11
349.4311904450544
 21
156.4840753723196
 31
0.0
  0
LINE
  5
2D299
330
1F
100
AcDbEntity
  8
実線
100
AcDbLine
 10
355.3432704450545
 20
161.3123483723194
 30
0.0
 11
355.1790384450544
 21
161.4073503723194
 31
0.0
  0
LINE
  5
2D29A
330
1F
100
AcDbEntity
  8
実線
100
AcDbLine
 10
354.4777704450544
 20
151.4507443723195
 30
0.0
 11
354.3510084450543
 21
151.3774153723195
 31
0.0
  0
LINE
  5
2D29B
330
1F
100
AcDbEntity
  8
実線
100
AcDbLine
 10
357.8507234450542
 20
158.3193623723194
 30
0.0
 11
357.8507234450542
 21
160.5193493723194
 31
0.0
  0
LINE
  5
2D29C
330
1F
100
AcDbEntity
  8
実線
100
AcDbLine
 10
349.6847164450544
 20
158.0729523723195
 30
0.0
 11
349.5579534450542
 21
157.9262953723195
 31
0.0
  0
LINE
  5
2D29D
330
1F
100
AcDbEntity
  8
実線
100
AcDbLine
 10
358.1778634450543
 20
151.0109453723195
 30
0.0
 11
358.1778634450543
 21
153.2109453723195
 31
0.0
  0
LINE
  5
2D29E
330
1F
100
AcDbEntity
  8
実線
100
AcDbLine
 10
350.7410544450543
 20
156.1174063723196
 30
0.0
 11
350.8678174450545
 21
156.2640773723195
 31
0.0
  0
LINE
  5
2D29F
330
1F
100
AcDbEntity
  8
実線
100
AcDbLine
 10
360.3323524450543
 20
153.8639083723195
 30
0.0
 11
360.3957254450545
 21
153.7172383723194
 31
0.0
  0
LINE
  5
2D2A0
330
1F
100
AcDbEntity
  8
実線
100
AcDbLine
 10
361.0927394450544
 20
157.8149063723195
 30
0.0
 11
360.6172114450544
 21
157.6603983723195
 31
0.0
  0
LINE
  5
2D2A1
330
1F
100
AcDbEntity
  8
実線
100
AcDbLine
 10
349.4311904450544
 20
156.4840753723196
 30
0.0
 11
349.4945804450542
 21
156.2640773723195
 31
0.0
  0
LINE
  5
2D2A2
330
1F
100
AcDbEntity
  8
実線
100
AcDbLine
 10
360.0788274450545
 20
153.1061283723194
 30
0.0
 11
359.8041834450544
 21
153.0327993723195
 31
0.0
  0
CIRCLE
  5
2D2A3
330
1F
100
AcDbEntity
  8
実線
100
AcDbCircle
 10
354.9108724450543
 20
155.8062963723195
 30
0.0
 40
6.5
  0
LINE
  5
2D2A4
330
1F
100
AcDbEntity
  8
実線
100
AcDbLine
 10
356.4338874450543
 20
191.8018703723195
 30
0.0
 11
356.2968024450545
 21
191.9460523723195
 31
0.0
  0
LINE
  5
2D2A5
330
1F
100
AcDbEntity
  8
実線
100
AcDbLine
 10
356.6595064450544
 20
191.6436643723194
 30
0.0
 11
356.4338874450543
 21
191.8018703723195
 31
0.0
  0
LINE
  5
2D2A6
330
1F
100
AcDbEntity
  8
実線
100
AcDbLine
 10
356.9791244450544
 20
191.5660853723194
 30
0.0
 11
356.6595064450544
 21
191.6436643723194
 31
0.0
  0
LINE
  5
2D2A7
330
1F
100
AcDbEntity
  8
実線
100
AcDbLine
 10
357.3319114450544
 20
191.5660853723194
 30
0.0
 11
356.9791244450544
 21
191.5660853723194
 31
0.0
  0
LINE
  5
2D2A8
330
1F
100
AcDbEntity
  8
実線
100
AcDbLine
 10
357.6420144450542
 20
191.6413553723194
 30
0.0
 11
357.3319114450544
 21
191.5660853723194
 31
0.0
  0
LINE
  5
2D2A9
330
1F
100
AcDbEntity
  8
実線
100
AcDbLine
 10
357.8070614450544
 20
191.7281493723195
 30
0.0
 11
357.6420144450542
 21
191.6413553723194
 31
0.0
  0
LINE
  5
2D2AA
330
1F
100
AcDbEntity
  8
実線
100
AcDbLine
 10
357.9673394450545
 20
191.8967413723195
 30
0.0
 11
357.8070614450544
 21
191.7281493723195
 31
0.0
  0
LINE
  5
2D2AB
330
1F
100
AcDbEntity
  8
実線
100
AcDbLine
 10
358.0555094450545
 20
192.0822503723194
 30
0.0
 11
357.9673394450545
 21
191.8967413723195
 31
0.0
  0
LINE
  5
2D2AC
330
1F
100
AcDbEntity
  8
実線
100
AcDbLine
 10
358.0555094450545
 20
192.3721353723196
 30
0.0
 11
358.0555094450545
 21
192.0822503723194
 31
0.0
  0
LINE
  5
2D2AD
330
1F
100
AcDbEntity
  8
実線
100
AcDbLine
 10
357.9673374450542
 20
192.5576483723195
 30
0.0
 11
358.0555094450545
 21
192.3721353723196
 31
0.0
  0
LINE
  5
2D2AE
330
1F
100
AcDbEntity
  8
実線
100
AcDbLine
 10
357.8272744450544
 20
192.7049643723195
 30
0.0
 11
357.9673374450542
 21
192.5576483723195
 31
0.0
  0
LINE
  5
2D2AF
330
1F
100
AcDbEntity
  8
実線
100
AcDbLine
 10
356.2700394450542
 20
193.3582593723194
 30
0.0
 11
356.3437034450542
 21
193.5132073723194
 31
0.0
  0
LINE
  5
2D2B0
330
1F
100
AcDbEntity
  8
実線
100
AcDbLine
 10
356.3437034450542
 20
193.5132073723194
 30
0.0
 11
356.5039734450545
 21
193.6817743723194
 31
0.0
  0
LINE
  5
2D2B1
330
1F
100
AcDbEntity
  8
実線
100
AcDbLine
 10
356.5039734450545
 20
193.6817743723194
 30
0.0
 11
356.6639904450542
 21
193.7659393723195
 31
0.0
  0
LINE
  5
2D2B2
330
1F
100
AcDbEntity
  8
実線
100
AcDbLine
 10
356.6639904450542
 20
193.7659393723195
 30
0.0
 11
356.9734004450545
 21
193.8660733723194
 31
0.0
  0
LINE
  5
2D2B3
330
1F
100
AcDbEntity
  8
実線
100
AcDbLine
 10
356.9734004450545
 20
193.8660733723194
 30
0.0
 11
357.3376354450543
 21
193.8660733723194
 31
0.0
  0
LINE
  5
2D2B4
330
1F
100
AcDbEntity
  8
実線
100
AcDbLine
 10
357.3376354450543
 20
193.8660733723194
 30
0.0
 11
357.6470454450543
 21
193.7659393723195
 31
0.0
  0
LINE
  5
2D2B5
330
1F
100
AcDbEntity
  8
実線
100
AcDbLine
 10
357.6470454450543
 20
193.7659393723195
 30
0.0
 11
357.8070624450545
 21
193.6817743723194
 31
0.0
  0
LINE
  5
2D2B6
330
1F
100
AcDbEntity
  8
実線
100
AcDbLine
 10
357.8070624450545
 20
193.6817743723194
 30
0.0
 11
357.9673374450542
 21
193.5132013723195
 31
0.0
  0
LINE
  5
2D2B7
330
1F
100
AcDbEntity
  8
実線
100
AcDbLine
 10
357.9673374450542
 20
193.5132013723195
 30
0.0
 11
358.0555094450545
 21
193.3276883723196
 31
0.0
  0
LINE
  5
2D2B8
330
1F
100
AcDbEntity
  8
実線
100
AcDbLine
 10
358.0555094450545
 20
193.3276883723196
 30
0.0
 11
358.0555094450545
 21
193.0644743723195
 31
0.0
  0
LINE
  5
2D2B9
330
1F
100
AcDbEntity
  8
実線
100
AcDbLine
 10
358.0555094450545
 20
193.0644743723195
 30
0.0
 11
357.9703644450544
 21
192.8554753723195
 31
0.0
  0
LINE
  5
2D2BA
330
1F
100
AcDbEntity
  8
実線
100
AcDbLine
 10
357.9703644450544
 20
192.8554753723195
 30
0.0
 11
357.8272744450544
 21
192.7049643723195
 31
0.0
  0
LINE
  5
2D2BB
330
1F
100
AcDbEntity
  8
実線
100
AcDbLine
 10
356.6306574450543
 20
192.0302983723194
 30
0.0
 11
356.5142164450542
 21
192.1527663723194
 31
0.0
  0
LINE
  5
2D2BC
330
1F
100
AcDbEntity
  8
実線
100
AcDbLine
 10
356.7853424450543
 20
191.9218323723195
 30
0.0
 11
356.6306574450543
 21
192.0302983723194
 31
0.0
  0
LINE
  5
2D2BD
330
1F
100
AcDbEntity
  8
実線
100
AcDbLine
 10
357.0150124450545
 20
191.8660853723195
 30
0.0
 11
356.7853424450543
 21
191.9218323723195
 31
0.0
  0
LINE
  5
2D2BE
330
1F
100
AcDbEntity
  8
実線
100
AcDbLine
 10
357.2960234450543
 20
191.8660853723195
 30
0.0
 11
357.0150124450545
 21
191.8660853723195
 31
0.0
  0
LINE
  5
2D2BF
330
1F
100
AcDbEntity
  8
実線
100
AcDbLine
 10
357.5352084450544
 20
191.9241413723194
 30
0.0
 11
357.2960234450543
 21
191.8660853723195
 31
0.0
  0
LINE
  5
2D2C0
330
1F
100
AcDbEntity
  8
実線
100
AcDbLine
 10
357.6236874450544
 20
191.9706703723194
 30
0.0
 11
357.5352084450544
 21
191.9241413723194
 31
0.0
  0
LINE
  5
2D2C1
330
1F
100
AcDbEntity
  8
実線
100
AcDbLine
 10
357.7169334450543
 20
192.0687533723195
 30
0.0
 11
357.6236874450544
 21
191.9706703723194
 31
0.0
  0
LINE
  5
2D2C2
330
1F
100
AcDbEntity
  8
実線
100
AcDbLine
 10
357.7555094450543
 20
192.1499163723196
 30
0.0
 11
357.7169334450543
 21
192.0687533723195
 31
0.0
  0
LINE
  5
2D2C3
330
1F
100
AcDbEntity
  8
実線
100
AcDbLine
 10
357.7555094450543
 20
192.3044693723194
 30
0.0
 11
357.7555094450543
 21
192.1499163723196
 31
0.0
  0
LINE
  5
2D2C4
330
1F
100
AcDbEntity
  8
実線
100
AcDbLine
 10
357.7169354450543
 20
192.3856303723195
 30
0.0
 11
357.7555094450543
 21
192.3044693723194
 31
0.0
  0
LINE
  5
2D2C5
330
1F
100
AcDbEntity
  8
実線
100
AcDbLine
 10
357.6236884450543
 20
192.4837043723195
 30
0.0
 11
357.7169354450543
 21
192.3856303723195
 31
0.0
  0
LINE
  5
2D2C6
330
1F
100
AcDbEntity
  8
実線
100
AcDbLine
 10
357.4248094450543
 20
192.5883013723195
 30
0.0
 11
357.6236884450543
 21
192.4837043723195
 31
0.0
  0
LINE
  5
2D2C7
330
1F
100
AcDbEntity
  8
実線
100
AcDbLine
 10
357.4248094450543
 20
192.5883013723195
 30
0.0
 11
356.8069164450542
 21
192.5883013723195
 31
0.0
  0
LINE
  5
2D2C8
330
1F
100
AcDbEntity
  8
実線
100
AcDbLine
 10
357.4424574450543
 20
192.8883013723194
 30
0.0
 11
356.8069164450542
 21
192.8883013723194
 31
0.0
  0
LINE
  5
2D2C9
330
1F
100
AcDbEntity
  8
実線
100
AcDbLine
 10
357.6360214450545
 20
192.9391963723195
 30
0.0
 11
357.4424574450543
 21
192.8883013723194
 31
0.0
  0
LINE
  5
2D2CA
330
1F
100
AcDbEntity
  8
実線
100
AcDbLine
 10
357.7139084450544
 20
193.0211233723195
 30
0.0
 11
357.6360214450545
 21
192.9391963723195
 31
0.0
  0
LINE
  5
2D2CB
330
1F
100
AcDbEntity
  8
実線
100
AcDbLine
 10
357.7555094450543
 20
193.1232383723194
 30
0.0
 11
357.7139084450544
 21
193.0211233723195
 31
0.0
  0
LINE
  5
2D2CC
330
1F
100
AcDbEntity
  8
実線
100
AcDbLine
 10
357.7555094450543
 20
193.2600223723194
 30
0.0
 11
357.7555094450543
 21
193.1232383723194
 31
0.0
  0
LINE
  5
2D2CD
330
1F
100
AcDbEntity
  8
実線
100
AcDbLine
 10
357.7169354450543
 20
193.3411823723194
 30
0.0
 11
357.7555094450543
 21
193.2600223723194
 31
0.0
  0
LINE
  5
2D2CE
330
1F
100
AcDbEntity
  8
実線
100
AcDbLine
 10
357.6236864450543
 20
193.4392583723195
 30
0.0
 11
357.7169354450543
 21
193.3411823723194
 31
0.0
  0
LINE
  5
2D2CF
330
1F
100
AcDbEntity
  8
実線
100
AcDbLine
 10
357.5301774450543
 20
193.4884423723196
 30
0.0
 11
357.6236864450543
 21
193.4392583723195
 31
0.0
  0
LINE
  5
2D2D0
330
1F
100
AcDbEntity
  8
実線
100
AcDbLine
 10
357.2902994450544
 20
193.5660733723194
 30
0.0
 11
357.5301774450543
 21
193.4884423723196
 31
0.0
  0
LINE
  5
2D2D1
330
1F
100
AcDbEntity
  8
実線
100
AcDbLine
 10
357.0207364450543
 20
193.5660733723194
 30
0.0
 11
357.2902994450544
 21
193.5660733723194
 31
0.0
  0
LINE
  5
2D2D2
330
1F
100
AcDbEntity
  8
実線
100
AcDbLine
 10
356.7808584450542
 20
193.4884423723196
 30
0.0
 11
357.0207364450543
 21
193.5660733723194
 31
0.0
  0
LINE
  5
2D2D3
330
1F
100
AcDbEntity
  8
実線
100
AcDbLine
 10
356.6873494450545
 20
193.4392583723195
 30
0.0
 11
356.7808584450542
 21
193.4884423723196
 31
0.0
  0
LINE
  5
2D2D4
330
1F
100
AcDbEntity
  8
実線
100
AcDbLine
 10
356.5940954450543
 20
193.3411763723194
 30
0.0
 11
356.6873494450545
 21
193.4392583723195
 31
0.0
  0
LINE
  5
2D2D5
330
1F
100
AcDbEntity
  8
実線
100
AcDbLine
 10
356.5409794450543
 20
193.2294513723194
 30
0.0
 11
356.5940954450543
 21
193.3411763723194
 31
0.0
  0
LINE
  5
2D2D6
330
1F
100
AcDbEntity
  8
実線
100
AcDbLine
 10
356.5142164450542
 20
192.1527663723194
 30
0.0
 11
356.2968024450545
 21
191.9460523723195
 31
0.0
  0
LINE
  5
2D2D7
330
1F
100
AcDbEntity
  8
実線
100
AcDbLine
 10
356.8069164450542
 20
192.5883013723195
 30
0.0
 11
356.8069164450542
 21
192.8883013723194
 31
0.0
  0
LINE
  5
2D2D8
330
1F
100
AcDbEntity
  8
実線
100
AcDbLine
 10
356.5409794450543
 20
193.2294513723194
 30
0.0
 11
356.2700394450542
 21
193.3582593723194
 31
0.0
  0
TEXT
  5
2D2D9
330
1F
100
AcDbEntity
  8
実線
100
AcDbText
 10
361.5041096238726
 20
156.079933784527
 30
0.0
 40
2.68272
  1
1L
 41
0.8
100
AcDbText
  0
TEXT
  5
2D2DA
330
1F
100
AcDbEntity
  8
実線
100
AcDbText
 10
365.4716990584654
 20
173.2085214228142
 30
0.0
 40
2.68272
  1
10L
 41
0.8
100
AcDbText
  0
LINE
  5
2D2DB
330
1F
100
AcDbEntity
  8
一点鎖線
100
AcDbLine
 10
154.5913770920545
 20
275.5766932818822
 30
0.0
 11
154.5913770920545
 21
160.6010868363453
 31
0.0
  0
LINE
  5
2D2DC
330
1F
100
AcDbEntity
  8
一点鎖線
100
AcDbLine
 10
21.10766136414282
 20
216.7377857581258
 30
0.0
 11
266.8037828873971
 21
216.7377857581259
 31
0.0
  0
HATCH
  5
2D2DD
330
1F
100
AcDbEntity
  8
細線
100
AcDbHatch
 10
0.0
 20
0.0
 30
0.0
210
0.0
220
0.0
230
1.0
  2
ANSI31
 70
     0
 71
     0
 91
        7
 92
        7
 72
     1
 73
     1
 93
        3
 10
314.3398217621491
 20
177.4554386600899
 42
0.0
 10
314.3398223520644
 20
177.4554385482264
 42
0.0
 10
370.6453769631919
 20
177.4554385482264
 42
0.8281936963703474
 97
        0
 92
       22
 72
     0
 73
     1
 93
        4
 10
355.8925993520643
 20
187.4169215482264
 10
355.8925993520643
 20
180.2169215482264
 10
327.8925993520643
 20
180.2169215482264
 10
327.8925993520643
 20
187.4169215482264
 97
        0
 92
       22
 72
     1
 73
     1
 93
       15
 10
351.8925993520643
 20
192.4169215482264
 42
0.0
 10
352.3925993520643
 20
192.4169215482264
 42
0.0
 10
352.3925993520643
 20
192.2273358949199
 42
-0.387907304066802
 10
353.8925993520643
 20
191.9990283294131
 42
-0.7071067811865352
 10
355.8925993520643
 20
191.2919215482265
 42
0.0
 10
355.8925993520643
 20
189.4169215482264
 42
0.0
 10
355.3925993520643
 20
189.4169215482264
 42
0.0
 10
355.3925993520643
 20
191.2919215482265
 42
1.0
 10
354.1425993520643
 20
191.2919215482265
 42
0.0
 10
354.1425993520643
 20
189.4169215482264
 42
0.0
 10
353.6425993520643
 20
189.4169215482264
 42
0.0
 10
353.6425993520643
 20
191.2919215482265
 42
1.0
 10
352.3925993520643
 20
191.2919215482265
 42
0.0
 10
352.3925993520643
 20
189.4169215482264
 42
0.0
 10
351.8925993520643
 20
189.4169215482264
 42
0.0
 97
        0
 92
       22
 72
     0
 73
     1
 93
       48
 10
356.2700393520643
 20
193.3582595482263
 10
356.3437033520643
 20
193.5132075482264
 10
356.5039733520643
 20
193.6817745482263
 10
356.6639903520643
 20
193.7659395482263
 10
356.9734003520644
 20
193.8660735482264
 10
357.3376353520643
 20
193.8660735482264
 10
357.7625947004783
 20
193.7285444464065
 10
358.0555093520643
 20
193.4204645739261
 10
358.0555093520643
 20
193.0644745482265
 10
357.9703643520643
 20
192.8554755482265
 10
357.8272743520645
 20
192.7049645482265
 10
358.0555093520643
 20
192.4649106634746
 10
358.0555093520643
 20
192.0822505482264
 10
357.9673393520643
 20
191.8967415482265
 10
357.7493056424207
 20
191.667397912941
 10
357.3319113520643
 20
191.5660855482264
 10
356.9791243520644
 20
191.5660855482264
 10
356.6595063520645
 20
191.6436645482264
 10
356.2677121651391
 20
191.9183940308352
 10
356.5142163520643
 20
192.1527665482264
 10
356.6306573520644
 20
192.0302985482264
 10
356.7853423520644
 20
191.9218325482264
 10
357.0150123520643
 20
191.8660855482263
 10
357.2960233520644
 20
191.8660855482263
 10
357.5352083520643
 20
191.9241415482264
 10
357.6236873520643
 20
191.9706705482264
 10
357.7169333520644
 20
192.0687535482264
 10
357.7555093520643
 20
192.1499165482265
 10
357.7555093520643
 20
192.3044695482264
 10
357.7169353520644
 20
192.3856305482264
 10
357.6236883520644
 20
192.4837045482264
 10
357.4248093520643
 20
192.5883015482265
 10
356.8069163520643
 20
192.5883015482265
 10
356.8069163520643
 20
192.8883015482264
 10
357.4424573520644
 20
192.8883015482264
 10
357.6360213520643
 20
192.9391965482265
 10
357.7139083520644
 20
193.0211235482264
 10
357.7555093520643
 20
193.1232385482264
 10
357.7555093520643
 20
193.2600225482264
 10
357.7169353520644
 20
193.3411825482263
 10
357.6236863520644
 20
193.4392585482263
 10
357.5301773520644
 20
193.4884425482265
 10
357.2902993520643
 20
193.5660735482264
 10
357.0207363520645
 20
193.5660735482264
 10
356.7808583520644
 20
193.4884425482265
 10
356.6873493520643
 20
193.4392585482263
 10
356.5940953520644
 20
193.3411765482263
 10
356.5409793520644
 20
193.2294515482264
 97
        0
 92
       22
 72
     0
 73
     1
 93
        4
 10
357.8925993520643
 20
187.4169215482264
 10
361.8925993520643
 20
187.4169215482264
 10
361.8925993520643
 20
180.2169215482264
 10
357.8925993520643
 20
180.2169215482264
 97
        0
 92
       22
 72
     1
 73
     1
 93
        2
 10
357.9925993520644
 20
179.0169215482263
 42
-1.0
 10
355.9925993520644
 20
179.0169215482263
 42
-1.0
 97
        0
 92
       22
 72
     0
 73
     1
 93
        3
 10
362.0925993520643
 20
183.7169215482264
 10
365.3925993520643
 20
184.7169215482264
 10
365.3925993520643
 20
182.7169215482264
 97
        0
 75
     0
 76
     1
 52
0.0
 41
0.3
 77
     0
 78
     1
 53
45.0
 43
1.923489931238236
 44
-51.70389345508306
 45
-0.6735192090801864
 46
0.6735192090801866
 79
     0
 47
0.1736982573492234
 98
        7
 10
335.6500985767589
 20
194.5951490878666
 10
335.6500985767589
 20
194.5951490878666
 10
335.6500985767589
 20
194.5951490878666
 10
335.6500985767589
 20
194.5951490878666
 10
335.6500985767589
 20
194.5951490878666
 10
335.6500985767589
 20
194.5951490878666
 10
335.6500985767589
 20
194.5951490878666
1001
ACAD
1010
0.0
1020
0.0
1030
0.0
  0
LINE
  5
2D2DE
330
1F
100
AcDbEntity
  8
実線
100
AcDbLine
 10
158.5625037681566
 20
246.7377857581259
 30
0.0
 11
158.5625037681566
 21
186.7377857581258
 31
0.0
  0
LINE
  5
2D2DF
330
1F
100
AcDbEntity
  8
実線
100
AcDbLine
 10
169.5625037681566
 20
246.7377857581259
 30
0.0
 11
169.5625037681566
 21
186.7377857581258
 31
0.0
  0
LINE
  5
2D2E0
330
1F
100
AcDbEntity
  8
実線
100
AcDbLine
 10
198.5369281532466
 20
204.2377857581258
 30
0.0
 11
202.1939009763007
 21
204.2377857581259
 31
0.0
  0
LINE
  5
2D2E1
330
1F
100
AcDbEntity
  8
実線
100
AcDbLine
 10
198.5369281532466
 20
229.2377857581258
 30
0.0
 11
202.1939009763007
 21
229.2377857581258
 31
0.0
  0
LINE
  5
2D2E2
330
1F
100
AcDbEntity
  8
実線
100
AcDbLine
 10
100.5625037681566
 20
206.7377857581258
 30
0.0
 11
114.5625037681566
 21
206.7377857581258
 31
0.0
  0
LINE
  5
2D2E3
330
1F
100
AcDbEntity
  8
実線
100
AcDbLine
 10
101.5625037681566
 20
207.737785758126
 30
0.0
 11
113.5625037681566
 21
207.7377857581258
 31
0.0
  0
LINE
  5
2D2E4
330
1F
100
AcDbEntity
  8
実線
100
AcDbLine
 10
100.5625037681566
 20
212.7377857581258
 30
0.0
 11
114.5625037681566
 21
212.7377857581258
 31
0.0
  0
LINE
  5
2D2E5
330
1F
100
AcDbEntity
  8
実線
100
AcDbLine
 10
101.5625037681566
 20
211.7377857581258
 30
0.0
 11
113.5625037681566
 21
211.7377857581258
 31
0.0
  0
LINE
  5
2D2E6
330
1F
100
AcDbEntity
  8
実線
100
AcDbLine
 10
100.5625037681566
 20
226.7377857581259
 30
0.0
 11
114.5625037681566
 21
226.7377857581258
 31
0.0
  0
LINE
  5
2D2E7
330
1F
100
AcDbEntity
  8
実線
100
AcDbLine
 10
100.5625037681566
 20
220.7377857581259
 30
0.0
 11
114.5625037681566
 21
220.7377857581259
 31
0.0
  0
LINE
  5
2D2E8
330
1F
100
AcDbEntity
  8
実線
100
AcDbLine
 10
158.5625037681566
 20
186.7377857581258
 30
0.0
 11
169.5625037681566
 21
186.7377857581258
 31
0.0
  0
LINE
  5
2D2E9
330
1F
100
AcDbEntity
  8
実線
100
AcDbLine
 10
158.5625037681566
 20
246.7377857581259
 30
0.0
 11
169.5625037681566
 21
246.7377857581258
 31
0.0
  0
CIRCLE
  5
2D2EA
330
1F
100
AcDbEntity
  8
実線
100
AcDbCircle
 10
154.5625037681566
 20
216.7377857581258
 30
0.0
 40
40.0
  0
ARC
  5
2D2EB
330
1F
100
AcDbEntity
  8
実線
100
AcDbCircle
 10
154.5625037681566
 20
216.7377857581258
 30
0.0
 40
45.0
100
AcDbArc
 50
192.8395884069036
 51
342.9336903541472
  0
ARC
  5
2D2EC
330
1F
100
AcDbEntity
  8
実線
100
AcDbCircle
 10
198.5369281532466
 20
203.2377857581258
 30
0.0
 40
1.0
100
AcDbArc
 50
90.0
 51
162.9336903541472
  0
ARC
  5
2D2ED
330
1F
100
AcDbEntity
  8
実線
100
AcDbCircle
 10
154.5625037681566
 20
216.7377857581258
 30
0.0
 40
45.0
100
AcDbArc
 50
17.06630964585279
 51
167.1604115930956
  0
ARC
  5
2D2EE
330
1F
100
AcDbEntity
  8
実線
100
AcDbCircle
 10
198.5369281532466
 20
230.2377857581258
 30
0.0
 40
1.0
100
AcDbArc
 50
197.0663096458524
 51
270.0
  0
ARC
  5
2D2EF
330
1F
100
AcDbEntity
  8
実線
100
AcDbCircle
 10
154.5625037681566
 20
216.7377857581258
 30
0.0
 40
50.0
100
AcDbArc
 50
346.426421403475
 51
13.57357859652535
  0
ARC
  5
2D2F0
330
1F
100
AcDbEntity
  8
実線
100
AcDbCircle
 10
202.1939009763007
 20
205.2377857581258
 30
0.0
 40
1.0
100
AcDbArc
 50
270.0
 51
346.426421403475
  0
ARC
  5
2D2F1
330
1F
100
AcDbEntity
  8
実線
100
AcDbCircle
 10
202.1939009763007
 20
228.2377857581258
 30
0.0
 40
1.0
100
AcDbArc
 50
13.57357859652535
 51
90.0
  0
TEXT
  5
2D2F2
330
1F
100
AcDbEntity
  8
文字
100
AcDbText
 10
184.5625037681566
 20
199.2299120698527
 30
0.0
 40
10.0
  1
30
 50
90.0
 41
1.3
  7
スタイル3
 72
     1
 11
179.5625037681566
 21
207.8740679140086
 31
0.0
100
AcDbText
 73
     2
  0
TEXT
  5
2D2F3
330
1F
100
AcDbEntity
  8
文字
100
AcDbText
 10
184.324084253036
 20
217.5822299518211
 30
0.0
 40
8.0
  1
mm
 50
90.0
 41
1.05
  7
スタイル3
 72
     1
 11
180.324084253036
 21
225.971320860912
 31
0.0
100
AcDbText
 73
     2
  0
LINE
  5
2D2F4
330
1F
100
AcDbEntity
  8
実線
100
AcDbLine
 10
100.5625037681566
 20
226.7377857581259
 30
0.0
 11
100.5625037681566
 21
206.7377857581258
 31
0.0
  0
LINE
  5
2D2F5
330
1F
100
AcDbEntity
  8
実線
100
AcDbLine
 10
101.5625037681566
 20
211.7377857581258
 30
0.0
 11
101.5625037681566
 21
207.737785758126
 31
0.0
  0
LINE
  5
2D2F6
330
1F
100
AcDbEntity
  8
実線
100
AcDbLine
 10
114.5625037681566
 20
226.7377857581259
 30
0.0
 11
114.5625037681566
 21
220.7377857581259
 31
0.0
  0
LINE
  5
2D2F7
330
1F
100
AcDbEntity
  8
実線
100
AcDbLine
 10
114.5625037681566
 20
212.7377857581258
 30
0.0
 11
114.5625037681566
 21
206.7377857581258
 31
0.0
  0
LINE
  5
2D2F8
330
1F
100
AcDbEntity
  8
実線
100
AcDbLine
 10
113.5625037681566
 20
211.7377857581258
 30
0.0
 11
113.5625037681566
 21
207.7377857581258
 31
0.0
  0
LINE
  5
2D2F9
330
1F
100
AcDbEntity
  8
実線
100
AcDbLine
 10
101.5625037681566
 20
211.7377857581258
 30
0.0
 11
100.5625037681566
 21
212.7377857581258
 31
0.0
  0
LINE
  5
2D2FA
330
1F
100
AcDbEntity
  8
実線
100
AcDbLine
 10
101.5625037681566
 20
207.737785758126
 30
0.0
 11
100.5625037681566
 21
206.7377857581258
 31
0.0
  0
LINE
  5
2D2FB
330
1F
100
AcDbEntity
  8
実線
100
AcDbLine
 10
113.5625037681566
 20
211.7377857581258
 30
0.0
 11
114.5625037681566
 21
212.7377857581258
 31
0.0
  0
LINE
  5
2D2FC
330
1F
100
AcDbEntity
  8
実線
100
AcDbLine
 10
113.5625037681566
 20
207.7377857581258
 30
0.0
 11
114.5625037681566
 21
206.7377857581258
 31
0.0
  0
LINE
  5
2D2FD
330
1F
100
AcDbEntity
  8
実線
100
AcDbLine
 10
101.5625037681566
 20
221.7377857581259
 30
0.0
 11
113.5625037681566
 21
221.7377857581259
 31
0.0
  0
LINE
  5
2D2FE
330
1F
100
AcDbEntity
  8
実線
100
AcDbLine
 10
101.5625037681566
 20
225.7377857581258
 30
0.0
 11
113.5625037681566
 21
225.7377857581259
 31
0.0
  0
LINE
  5
2D2FF
330
1F
100
AcDbEntity
  8
実線
100
AcDbLine
 10
101.5625037681566
 20
225.7377857581258
 30
0.0
 11
101.5625037681566
 21
221.7377857581259
 31
0.0
  0
LINE
  5
2D300
330
1F
100
AcDbEntity
  8
実線
100
AcDbLine
 10
113.5625037681566
 20
225.7377857581259
 30
0.0
 11
113.5625037681566
 21
221.7377857581259
 31
0.0
  0
LINE
  5
2D301
330
1F
100
AcDbEntity
  8
実線
100
AcDbLine
 10
101.5625037681566
 20
225.7377857581258
 30
0.0
 11
100.5625037681566
 21
226.7377857581259
 31
0.0
  0
LINE
  5
2D302
330
1F
100
AcDbEntity
  8
実線
100
AcDbLine
 10
101.5625037681566
 20
221.7377857581259
 30
0.0
 11
100.5625037681566
 21
220.7377857581259
 31
0.0
  0
LINE
  5
2D303
330
1F
100
AcDbEntity
  8
実線
100
AcDbLine
 10
113.5625037681566
 20
225.7377857581259
 30
0.0
 11
114.5625037681566
 21
226.7377857581259
 31
0.0
  0
LINE
  5
2D304
330
1F
100
AcDbEntity
  8
実線
100
AcDbLine
 10
113.5625037681566
 20
221.7377857581259
 30
0.0
 11
114.5625037681566
 21
220.7377857581259
 31
0.0
  0
LINE
  5
2D305
330
1F
100
AcDbEntity
  8
実線
100
AcDbLine
 10
146.5625037681566
 20
208.1377857581129
 30
0.0
 11
140.9063909785659
 21
215.777785758131
 31
0.0
  0
LINE
  5
2D306
330
1F
100
AcDbEntity
  8
実線
100
AcDbLine
 10
146.5625037681566
 20
208.1377857581129
 30
0.0
 11
152.2186165577473
 21
215.777785758131
 31
0.0
  0
LINE
  5
2D307
330
1F
100
AcDbEntity
  8
実線
100
AcDbLine
 10
148.5702913602272
 20
207.6577857581154
 30
0.0
 11
154.5625037681566
 21
215.777785758131
 31
0.0
  0
LINE
  5
2D308
330
1F
100
AcDbEntity
  8
実線
100
AcDbLine
 10
146.5625037681566
 20
225.3377857581388
 30
0.0
 11
140.9063909785659
 21
217.6977857581206
 31
0.0
  0
LINE
  5
2D309
330
1F
100
AcDbEntity
  8
実線
100
AcDbLine
 10
144.5547161760862
 20
207.6577857581154
 30
0.0
 11
138.5625037681566
 21
215.777785758131
 31
0.0
  0
LINE
  5
2D30A
330
1F
100
AcDbEntity
  8
実線
100
AcDbLine
 10
144.5547161760862
 20
225.8177857581362
 30
0.0
 11
138.5625037681566
 21
217.6977857581206
 31
0.0
  0
LINE
  5
2D30B
330
1F
100
AcDbEntity
  8
実線
100
AcDbLine
 10
146.5625037681566
 20
225.3377857581388
 30
0.0
 11
152.2186165577473
 21
217.6977857581206
 31
0.0
  0
LINE
  5
2D30C
330
1F
100
AcDbEntity
  8
実線
100
AcDbLine
 10
148.5702913602272
 20
225.8177857581362
 30
0.0
 11
154.5625037681566
 21
217.6977857581206
 31
0.0
  0
LINE
  5
2D30D
330
1F
100
AcDbEntity
  8
実線
100
AcDbLine
 10
148.5702913602272
 20
225.8177857581362
 30
0.0
 11
150.6425037681347
 21
225.8177857581362
 31
0.0
  0
LINE
  5
2D30E
330
1F
100
AcDbEntity
  8
実線
100
AcDbLine
 10
150.6425037681347
 20
227.7377857581258
 30
0.0
 11
142.4825037681789
 21
227.7377857581258
 31
0.0
  0
LINE
  5
2D30F
330
1F
100
AcDbEntity
  8
実線
100
AcDbLine
 10
142.4825037681789
 20
227.7377857581258
 30
0.0
 11
142.4825037681789
 21
225.8177857581362
 31
0.0
  0
LINE
  5
2D310
330
1F
100
AcDbEntity
  8
実線
100
AcDbLine
 10
142.4825037681789
 20
225.8177857581362
 30
0.0
 11
144.5547161760862
 21
225.8177857581362
 31
0.0
  0
LINE
  5
2D311
330
1F
100
AcDbEntity
  8
実線
100
AcDbLine
 10
150.6425037681347
 20
225.8177857581362
 30
0.0
 11
150.6425037681347
 21
227.7377857581258
 31
0.0
  0
LINE
  5
2D312
330
1F
100
AcDbEntity
  8
実線
100
AcDbLine
 10
140.9063909785659
 20
215.777785758131
 30
0.0
 11
138.5625037681566
 21
215.777785758131
 31
0.0
  0
LINE
  5
2D313
330
1F
100
AcDbEntity
  8
実線
100
AcDbLine
 10
140.9063909785659
 20
217.6977857581206
 30
0.0
 11
138.5625037681566
 21
217.6977857581206
 31
0.0
  0
ARC
  5
2D314
330
1F
100
AcDbEntity
  8
実線
100
AcDbCircle
 10
144.642503768167
 20
216.7377857581258
 30
0.0
 40
2.879999999984399
100
AcDbArc
 50
90.0
 51
270.0
  0
ARC
  5
2D315
330
1F
100
AcDbEntity
  8
実線
100
AcDbCircle
 10
144.642503768167
 20
216.7377857581258
 30
0.0
 40
1.439999999992199
100
AcDbArc
 50
90.0
 51
270.0
  0
ARC
  5
2D316
330
1F
100
AcDbEntity
  8
実線
100
AcDbCircle
 10
148.4825037681462
 20
216.7377857581258
 30
0.0
 40
2.879999999984399
100
AcDbArc
 50
270.0
 51
90.0
  0
ARC
  5
2D317
330
1F
100
AcDbEntity
  8
実線
100
AcDbCircle
 10
148.4825037681462
 20
216.7377857581258
 30
0.0
 40
1.439999999992199
100
AcDbArc
 50
270.0
 51
90.0
  0
LINE
  5
2D318
330
1F
100
AcDbEntity
  8
実線
100
AcDbLine
 10
148.4825037681462
 20
218.1777857581181
 30
0.0
 11
144.642503768167
 21
218.1777857581181
 31
0.0
  0
LINE
  5
2D319
330
1F
100
AcDbEntity
  8
実線
100
AcDbLine
 10
148.4825037681462
 20
219.6177857581103
 30
0.0
 11
144.642503768167
 21
219.6177857581103
 31
0.0
  0
LINE
  5
2D31A
330
1F
100
AcDbEntity
  8
実線
100
AcDbLine
 10
154.5625037681566
 20
217.6977857581206
 30
0.0
 11
152.2186165577473
 21
217.6977857581206
 31
0.0
  0
LINE
  5
2D31B
330
1F
100
AcDbEntity
  8
実線
100
AcDbLine
 10
148.4825037681462
 20
215.2977857581336
 30
0.0
 11
144.642503768167
 21
215.2977857581336
 31
0.0
  0
LINE
  5
2D31C
330
1F
100
AcDbEntity
  8
実線
100
AcDbLine
 10
148.4825037681462
 20
213.8577857581414
 30
0.0
 11
144.642503768167
 21
213.8577857581414
 31
0.0
  0
LINE
  5
2D31D
330
1F
100
AcDbEntity
  8
実線
100
AcDbLine
 10
154.5625037681566
 20
215.777785758131
 30
0.0
 11
152.2186165577473
 21
215.777785758131
 31
0.0
  0
LINE
  5
2D31E
330
1F
100
AcDbEntity
  8
実線
100
AcDbLine
 10
150.6425037681347
 20
205.7377857581258
 30
0.0
 11
142.4825037681789
 21
205.7377857581258
 31
0.0
  0
LINE
  5
2D31F
330
1F
100
AcDbEntity
  8
実線
100
AcDbLine
 10
150.6425037681347
 20
207.6577857581154
 30
0.0
 11
148.5702913602272
 21
207.6577857581154
 31
0.0
  0
LINE
  5
2D320
330
1F
100
AcDbEntity
  8
実線
100
AcDbLine
 10
142.4825037681789
 20
207.6577857581154
 30
0.0
 11
142.4825037681789
 21
205.7377857581258
 31
0.0
  0
LINE
  5
2D321
330
1F
100
AcDbEntity
  8
実線
100
AcDbLine
 10
144.5547161760862
 20
207.6577857581154
 30
0.0
 11
142.4825037681789
 21
207.6577857581154
 31
0.0
  0
LINE
  5
2D322
330
1F
100
AcDbEntity
  8
実線
100
AcDbLine
 10
150.6425037681347
 20
205.7377857581258
 30
0.0
 11
150.6425037681347
 21
207.6577857581154
 31
0.0
  0
TEXT
  5
2D323
330
1F
100
AcDbEntity
  8
文字
100
AcDbText
 10
129.6323797317852
 20
215.0396107991221
 30
0.0
 40
10.0
  1
I
 50
90.0
  7
スタイル3
 72
     1
 11
124.6323797317852
 21
216.8220783315896
 31
0.0
100
AcDbText
 73
     2
  0
TEXT
  5
2D324
330
1F
100
AcDbEntity
  8
文字
100
AcDbText
 10
132.0555438776105
 20
205.3315096159239
 30
0.0
 40
10.0
  1
H
 50
107.9999999999988
  7
スタイル3
 72
     1
 11
126.0712164321435
 21
207.569035788405
 31
0.0
100
AcDbText
 73
     2
  0
TEXT
  5
2D325
330
1F
100
AcDbEntity
  8
文字
100
AcDbText
 10
136.4852815240766
 20
199.2052872995045
 30
0.0
 40
9.999999999999998
  1
S
 50
125.999999999997
  7
スタイル3
 72
     1
 11
130.2989788474222
 21
199.213494374694
 31
0.0
100
AcDbText
 73
     2
  0
TEXT
  5
2D326
330
1F
100
AcDbEntity
  8
文字
100
AcDbText
 10
142.7826303768689
 20
194.4810367549584
 30
0.0
 40
10.0
  1
A
 50
143.9999999999989
  7
スタイル3
 72
     1
 11
136.9018241358612
 21
192.573352700511
 31
0.0
100
AcDbText
 73
     2
  0
TEXT
  5
2D327
330
1F
100
AcDbEntity
  8
文字
100
AcDbText
 10
150.2307164080928
 20
191.9321851214842
 30
0.0
 40
10.0
  1
K
 50
161.9999999999984
  7
スタイル3
 72
     1
 11
145.2334197958998
 21
188.2985940975125
 31
0.0
100
AcDbText
 73
     2
  0
TEXT
  5
2D328
330
1F
100
AcDbEntity
  8
文字
100
AcDbText
 10
143.4804514383282
 20
239.3500923512998
 30
0.0
 40
9.999999999999998
  1
A
 50
17.99999999999956
  7
スタイル3
 72
     1
 11
145.3937537984359
 21
245.2290730941391
 31
0.0
100
AcDbText
 73
     2
  0
TEXT
  5
2D329
330
1F
100
AcDbEntity
  8
文字
100
AcDbText
 10
136.8724045963458
 20
234.7005043816293
 30
0.0
 40
10.0
  1
R
 50
36.00000000000113
  7
スタイル3
 72
     1
 11
137.0382123847248
 21
241.0013106788603
 31
0.0
100
AcDbText
 73
     2
  0
TEXT
  5
2D32A
330
1F
100
AcDbEntity
  8
文字
100
AcDbText
 10
132.3057547649894
 20
228.5176591494137
 30
0.0
 40
10.0
  1
A
 50
53.99999999999853
  7
スタイル3
 72
     1
 11
130.398070710542
 21
234.3984653904214
 31
0.0
100
AcDbText
 73
     2
  0
TEXT
  5
2D32B
330
1F
100
AcDbEntity
  8
文字
100
AcDbText
 10
129.649549825028
 20
220.7391736141524
 30
0.0
 40
9.999999999999998
  1
H
 50
72.00000000000112
  7
スタイル3
 72
     1
 11
126.1233121075433
 21
226.0668697303828
 31
0.0
100
AcDbText
 73
     2
  0
LINE
  5
2D32C
330
1F
100
AcDbEntity
  8
一点鎖線
100
AcDbLine
 10
146.5625037681566
 20
231.3321203379419
 30
0.0
 11
146.5625037681566
 21
202.1434511783099
 31
0.0
  0
LINE
  5
2D32D
330
1F
100
AcDbEntity
  8
実線
100
AcDbLine
 10
158.5625037681566
 20
269.7393890369694
 30
0.0
 11
158.5625037681566
 21
264.8652207614584
 31
0.0
  0
LINE
  5
2D32E
330
1F
100
AcDbEntity
  8
実線
100
AcDbLine
 10
150.5625037681566
 20
269.7393890369694
 30
0.0
 11
150.5625037681566
 21
264.8652207614584
 31
0.0
  0
ARC
  5
2D32F
330
1F
100
AcDbEntity
  8
実線
100
AcDbCircle
 10
154.5625037681566
 20
216.7377857581258
 30
0.0
 40
46.5
100
AcDbArc
 50
97.10634339788718
 51
167.5813184941818
  0
ARC
  5
2D330
330
1F
100
AcDbEntity
  8
実線
100
AcDbCircle
 10
154.5625037681566
 20
216.7377857581258
 30
0.0
 40
46.5
100
AcDbArc
 50
192.4186815058181
 51
262.8936566021063
  0
ARC
  5
2D331
330
1F
100
AcDbEntity
  8
実線
100
AcDbCircle
 10
154.5625037681566
 20
216.7377857581258
 30
0.0
 40
46.5
100
AcDbArc
 50
277.1063433978937
 51
344.4061042595296
  0
ARC
  5
2D332
330
1F
100
AcDbEntity
  8
実線
100
AcDbCircle
 10
154.5625037681566
 20
216.7377857581258
 30
0.0
 40
46.5
100
AcDbArc
 50
15.59389574046961
 51
82.89365660211283
  0
ARC
  5
2D333
330
1F
100
AcDbEntity
  8
実線
100
AcDbCircle
 10
160.5625037681566
 20
264.8652207614584
 30
0.0
 40
2.0
100
AcDbArc
 50
180.0
 51
262.8936566021063
  0
ARC
  5
2D334
330
1F
100
AcDbEntity
  8
実線
100
AcDbCircle
 10
148.5625037681566
 20
264.8652207614584
 30
0.0
 40
2.0
100
AcDbArc
 50
277.1063433978937
 51
0.0
  0
ARC
  5
2D336
330
1F
100
AcDbEntity
  8
実線
100
AcDbCircle
 10
157.5625037681566
 20
269.7393890369694
 30
0.0
 40
1.0
100
AcDbArc
 50
0.0
 51
86.7551083282543
  0
ARC
  5
2D337
330
1F
100
AcDbEntity
  8
実線
100
AcDbCircle
 10
151.5625037681566
 20
269.7393890369694
 30
0.0
 40
1.0
100
AcDbArc
 50
93.24489167174567
 51
180.0
  0
LINE
  5
2D338
330
1F
100
AcDbEntity
  8
実線
100
AcDbLine
 10
158.5625037681566
 20
163.7361824792823
 30
0.0
 11
158.5625037681566
 21
168.6103507547933
 31
0.0
  0
LINE
  5
2D339
330
1F
100
AcDbEntity
  8
実線
100
AcDbLine
 10
150.5625037681566
 20
163.7361824792823
 30
0.0
 11
150.5625037681566
 21
168.6103507547933
 31
0.0
  0
ARC
  5
2D33A
330
1F
100
AcDbEntity
  8
実線
100
AcDbCircle
 10
160.5625037681566
 20
168.6103507547933
 30
0.0
 40
2.0
100
AcDbArc
 50
97.10634339788718
 51
180.0
  0
ARC
  5
2D33B
330
1F
100
AcDbEntity
  8
実線
100
AcDbCircle
 10
148.5625037681566
 20
168.6103507547933
 30
0.0
 40
2.0
100
AcDbArc
 50
0.0
 51
82.89365660211283
  0
ARC
  5
2D33D
102
{ACAD_REACTORS
330
2D534
102
}
330
1F
100
AcDbEntity
  8
実線
100
AcDbCircle
 10
157.5625037681566
 20
163.7361824792823
 30
0.0
 40
1.0
100
AcDbArc
 50
273.2448916717457
 51
0.0
  0
ARC
  5
2D33E
330
1F
100
AcDbEntity
  8
実線
100
AcDbCircle
 10
151.5625037681566
 20
163.7361824792823
 30
0.0
 40
1.0
100
AcDbArc
 50
180.0
 51
266.7551083282543
  0
LINE
  5
2D33F
330
1F
100
AcDbEntity
  8
実線
100
AcDbLine
 10
207.4775299894484
 20
212.7377857581258
 30
0.0
 11
204.402246945665
 21
212.7377857581258
 31
0.0
  0
LINE
  5
2D340
330
1F
100
AcDbEntity
  8
実線
100
AcDbLine
 10
207.4775299894484
 20
220.7377857581258
 30
0.0
 11
204.402246945665
 21
220.7377857581258
 31
0.0
  0
ARC
  5
2D341
330
1F
100
AcDbEntity
  8
実線
100
AcDbCircle
 10
154.5625037681566
 20
216.7377857581258
 30
0.0
 40
54.0
100
AcDbArc
 50
356.7551083282539
 51
3.244891671745756
  0
ARC
  5
2D342
330
1F
100
AcDbEntity
  8
実線
100
AcDbCircle
 10
207.4775299894484
 20
213.7377857581258
 30
0.0
 40
1.0
100
AcDbArc
 50
270.0
 51
356.7551083282571
  0
ARC
  5
2D343
330
1F
100
AcDbEntity
  8
実線
100
AcDbCircle
 10
207.4775299894484
 20
219.7377857581259
 30
0.0
 40
1.0
100
AcDbArc
 50
3.244891671742492
 51
90.0
  0
LINE
  5
2D344
330
1F
100
AcDbEntity
  8
実線
100
AcDbLine
 10
186.7968089627161
 20
183.2236160888056
 30
0.0
 11
202.8228530920544
 21
187.8951157581258
 31
0.0
  0
LINE
  5
2D345
330
1F
100
AcDbEntity
  8
実線
100
AcDbLine
 10
202.8228530920544
 20
187.8951157581258
 30
0.0
 11
220.1687940920544
 21
192.9513577581258
 31
0.0
  0
LINE
  5
2D346
330
1F
100
AcDbEntity
  8
実線
100
AcDbLine
 10
220.1687940920544
 20
192.9513577581258
 30
0.0
 11
237.4719760920543
 21
197.9951367581258
 31
0.0
  0
LINE
  5
2D347
330
1F
100
AcDbEntity
  8
実線
100
AcDbLine
 10
186.7968086847938
 20
250.2519556947549
 30
0.0
 11
202.8220420920543
 21
245.5806917581259
 31
0.0
  0
LINE
  5
2D348
330
1F
100
AcDbEntity
  8
実線
100
AcDbLine
 10
202.8220420920543
 20
245.5806917581259
 30
0.0
 11
220.1681200920543
 21
240.5244097581259
 31
0.0
  0
LINE
  5
2D349
330
1F
100
AcDbEntity
  8
実線
100
AcDbLine
 10
220.1681200920543
 20
240.5244097581259
 30
0.0
 11
237.4719720920543
 21
235.4804347581259
 31
0.0
  0
LINE
  5
2D34A
330
1F
100
AcDbEntity
  8
実線
100
AcDbLine
 10
46.59137709205447
 20
240.5377857581259
 30
0.0
 11
46.59137709205447
 21
216.7377857581258
 31
0.0
  0
LINE
  5
2D34B
330
1F
100
AcDbEntity
  8
実線
100
AcDbLine
 10
46.59137709205447
 20
192.9377857581259
 30
0.0
 11
46.59137709205447
 21
216.7377857581258
 31
0.0
  0
LINE
  5
2D34C
330
1F
100
AcDbEntity
  8
実線
100
AcDbLine
 10
31.29137709205452
 20
240.5377857581259
 30
0.0
 11
31.29137709205452
 21
192.9377857581259
 31
0.0
  0
LINE
  5
2D34D
330
1F
100
AcDbEntity
  8
実線
100
AcDbLine
 10
29.59137709205447
 20
238.8377857581259
 30
0.0
 11
29.59137709205447
 21
194.6377857581258
 31
0.0
  0
LINE
  5
2D34E
330
1F
100
AcDbEntity
  8
実線
100
AcDbLine
 10
242.5913770920545
 20
240.5377857581259
 30
0.0
 11
242.5913770920545
 21
192.9377857581259
 31
0.0
  0
LINE
  5
2D34F
330
1F
100
AcDbEntity
  8
実線
100
AcDbLine
 10
257.8913770920544
 20
240.5377857581259
 30
0.0
 11
257.8913770920544
 21
192.9377857581259
 31
0.0
  0
LINE
  5
2D350
330
1F
100
AcDbEntity
  8
実線
100
AcDbLine
 10
259.5913770920545
 20
238.8377857581259
 30
0.0
 11
259.5913770920545
 21
194.6377857581258
 31
0.0
  0
ARC
  5
2D351
330
1F
100
AcDbEntity
  8
実線
100
AcDbCircle
 10
50.58243109205432
 20
192.6704087581258
 30
0.0
 40
4.0
100
AcDbArc
 50
63.04771800000285
 51
176.167198
  0
ARC
  5
2D352
330
1F
100
AcDbEntity
  8
実線
100
AcDbCircle
 10
50.58243109205432
 20
240.8051617581258
 30
0.0
 40
4.0
100
AcDbArc
 50
183.8328019999991
 51
296.9522819999972
  0
ARC
  5
2D353
330
1F
100
AcDbEntity
  8
実線
100
AcDbCircle
 10
238.5913770920545
 20
239.3206087581259
 30
0.0
 40
4.0
100
AcDbArc
 50
253.7488969999973
 51
0.0
  0
ARC
  5
2D354
330
1F
100
AcDbEntity
  8
実線
100
AcDbCircle
 10
238.5913770920545
 20
194.1549627581258
 30
0.0
 40
4.0
100
AcDbArc
 50
0.0
 51
106.2515580000012
  0
LINE
  5
2D355
330
1F
100
AcDbEntity
  8
実線
100
AcDbLine
 10
122.0058018177785
 20
183.5367141170741
 30
0.0
 11
59.0321090920545
 21
194.0518677581258
 31
0.0
  0
LINE
  5
2D356
330
1F
100
AcDbEntity
  8
実線
100
AcDbLine
 10
122.0058018177785
 20
249.9388573991776
 30
0.0
 11
59.0321090920545
 21
239.4237037581258
 31
0.0
  0
ARC
  5
2D357
330
1F
100
AcDbEntity
  8
実線
100
AcDbCircle
 10
62.82013409205456
 20
216.7377857581258
 30
0.0
 40
23.0
100
AcDbArc
 50
99.47961800000085
 51
116.9522819999971
  0
ARC
  5
2D358
330
1F
100
AcDbEntity
  8
実線
100
AcDbCircle
 10
62.82013409205456
 20
216.7377857581258
 30
0.0
 40
23.0
100
AcDbArc
 50
243.0477180000028
 51
260.5203819999991
  0
LINE
  5
2D359
330
1F
100
AcDbEntity
  8
実線
100
AcDbLine
 10
31.29137709205452
 20
192.9377857581259
 30
0.0
 11
46.59137709205447
 21
192.9377857581259
 31
0.0
  0
LINE
  5
2D35A
330
1F
100
AcDbEntity
  8
実線
100
AcDbLine
 10
46.59137709205447
 20
240.5377857581259
 30
0.0
 11
31.29137709205452
 21
240.5377857581259
 31
0.0
  0
LINE
  5
2D35B
330
1F
100
AcDbEntity
  8
実線
100
AcDbLine
 10
31.29137709205452
 20
240.5377857581259
 30
0.0
 11
29.59137709205447
 21
238.8377857581259
 31
0.0
  0
LINE
  5
2D35C
330
1F
100
AcDbEntity
  8
実線
100
AcDbLine
 10
29.59137709205447
 20
194.6377857581258
 30
0.0
 11
31.29137709205452
 21
192.9377857581259
 31
0.0
  0
LINE
  5
2D35D
330
1F
100
AcDbEntity
  8
実線
100
AcDbLine
 10
257.8913770920544
 20
240.5377857581259
 30
0.0
 11
242.5913770920545
 21
240.5377857581259
 31
0.0
  0
LINE
  5
2D35E
330
1F
100
AcDbEntity
  8
実線
100
AcDbLine
 10
242.5913770920545
 20
192.9377857581259
 30
0.0
 11
257.8913770920544
 21
192.9377857581259
 31
0.0
  0
LINE
  5
2D35F
330
1F
100
AcDbEntity
  8
実線
100
AcDbLine
 10
257.8913770920544
 20
192.9377857581259
 30
0.0
 11
259.5913770920545
 21
194.6377857581258
 31
0.0
  0
LINE
  5
2D360
330
1F
100
AcDbEntity
  8
実線
100
AcDbLine
 10
259.5913770920545
 20
238.8377857581259
 30
0.0
 11
257.8913770920544
 21
240.5377857581259
 31
0.0
  0
MTEXT
  5
2D378
330
1F
100
AcDbEntity
  8
文字
370
     9
100
AcDbMText
 10
152.9355600877511
 20
169.2666996170133
 30
0.0
 40
5.0
 41
19.85484558976438
 46
0.0
 71
     1
 72
     5
  1
{\fMS PMincho|b0|i0|c128|p18;\W1.05;E}
  7
寸法
 73
     1
 44
1.0
  0
LINE
  5
2D379
102
{ACAD_REACTORS
330
2D60C
102
}
330
1F
100
AcDbEntity
  8
実線
100
AcDbLine
 10
29.59137709205447
 20
89.59402900502334
 30
0.0
 11
29.59137709205447
 21
59.59402900502334
 31
0.0
  0
LINE
  5
2D37A
330
1F
100
AcDbEntity
  8
実線
100
AcDbLine
 10
197.0913770920545
 20
115.0940290050233
 30
0.0
 11
197.0913770920545
 21
118.0940290050233
 31
0.0
  0
LINE
  5
2D37B
330
1F
100
AcDbEntity
  8
実線
100
AcDbLine
 10
195.6913770920543
 20
113.6940290050233
 30
0.0
 11
197.0913770920545
 21
115.0940290050233
 31
0.0
  0
LINE
  5
2D37C
330
1F
100
AcDbEntity
  8
実線
100
AcDbLine
 10
195.6913770920543
 20
111.7510120050233
 30
0.0
 11
195.6913770920543
 21
113.6940290050233
 31
0.0
  0
ARC
  5
2D37D
330
1F
100
AcDbEntity
  8
実線
100
AcDbCircle
 10
199.6913770920544
 20
111.7510120050233
 30
0.0
 40
4.0
100
AcDbArc
 50
180.0
 51
203.0141740000027
  0
ARC
  5
2D37E
330
1F
100
AcDbEntity
  8
実線
100
AcDbCircle
 10
154.5913770920545
 20
92.59402900502335
 30
0.0
 40
45.0
100
AcDbArc
 50
15.94799400000207
 51
23.01417400000346
  0
ARC
  5
2D37F
330
1F
100
AcDbEntity
  8
実線
100
AcDbCircle
 10
202.6712790920544
 20
106.3324660050233
 30
0.0
 40
5.004216
100
AcDbArc
 50
195.9365810000008
 51
256.9868339999992
  0
LINE
  5
2D380
330
1F
100
AcDbEntity
  8
実線
100
AcDbLine
 10
237.6921210920543
 20
93.11142000502334
 30
0.0
 11
201.5444550920545
 21
101.4567660050233
 31
0.0
  0
ARC
  5
2D381
330
1F
100
AcDbEntity
  8
実線
100
AcDbCircle
 10
238.5913770920545
 20
97.00902700502334
 30
0.0
 40
4.0
100
AcDbArc
 50
257.0000000000027
 51
0.0
  0
LINE
  5
2D382
330
1F
100
AcDbEntity
  8
実線
100
AcDbLine
 10
242.5913770920545
 20
98.39402900502335
 30
0.0
 11
242.5913770920545
 21
50.79402900502334
 31
0.0
  0
LINE
  5
2D383
330
1F
100
AcDbEntity
  8
実線
100
AcDbLine
 10
257.8913770920544
 20
98.39402900502335
 30
0.0
 11
242.5913770920545
 21
98.39402900502335
 31
0.0
  0
LINE
  5
2D384
330
1F
100
AcDbEntity
  8
実線
100
AcDbLine
 10
259.5913770920545
 20
96.69402900502333
 30
0.0
 11
257.8913770920544
 21
98.39402900502335
 31
0.0
  0
LINE
  5
2D385
330
1F
100
AcDbEntity
  8
実線
100
AcDbLine
 10
259.5913770920545
 20
96.69402900502333
 30
0.0
 11
259.5913770920545
 21
89.59402900502334
 31
0.0
  0
LINE
  5
2D386
330
1F
100
AcDbEntity
  8
実線
100
AcDbLine
 10
259.5913770920545
 20
59.59402900502334
 30
0.0
 11
259.5913770920545
 21
52.49402900502335
 31
0.0
  0
LINE
  5
2D387
330
1F
100
AcDbEntity
  8
実線
100
AcDbLine
 10
257.8913770920544
 20
50.79402900502334
 30
0.0
 11
259.5913770920545
 21
52.49402900502335
 31
0.0
  0
LINE
  5
2D388
330
1F
100
AcDbEntity
  8
実線
100
AcDbLine
 10
242.5913770920545
 20
50.79402900502334
 30
0.0
 11
257.8913770920544
 21
50.79402900502334
 31
0.0
  0
ARC
  5
2D389
330
1F
100
AcDbEntity
  8
実線
100
AcDbCircle
 10
238.5913770920545
 20
52.66471000502335
 30
0.0
 40
4.0
100
AcDbArc
 50
0.0
 51
80.77011400000293
  0
LINE
  5
2D38A
330
1F
100
AcDbEntity
  8
実線
100
AcDbLine
 10
201.9119220920545
 20
62.67758900502335
 30
0.0
 11
239.2329610920544
 21
56.61292100502334
 31
0.0
  0
ARC
  5
2D38B
330
1F
100
AcDbEntity
  8
実線
100
AcDbCircle
 10
201.5920050920545
 20
60.70275600502333
 30
0.0
 40
2.000577999999999
100
AcDbArc
 50
80.79819500000146
 51
173.3841779999998
  0
LINE
  5
2D38C
330
1F
100
AcDbEntity
  8
実線
100
AcDbLine
 10
199.5913770920545
 20
50.73692900502334
 30
0.0
 11
199.5913770920545
 21
60.70220900502334
 31
0.0
  0
ARC
  5
2D38D
330
1F
100
AcDbEntity
  8
実線
100
AcDbCircle
 10
186.5913770920544
 20
50.73692900502334
 30
0.0
 40
13.0
100
AcDbArc
 50
277.6622560000031
 51
318.1711990000035
  0
ARC
  5
2D38E
330
1F
100
AcDbEntity
  8
実線
100
AcDbCircle
 10
186.5913770920544
 20
50.73692900502334
 30
0.0
 40
13.0
100
AcDbArc
 50
318.1711990000035
 51
0.0
  0
ARC
  5
2D38F
330
1F
100
AcDbEntity
  8
実線
100
AcDbCircle
 10
195.2792780920545
 20
42.45041200502334
 30
0.0
 40
1.0
100
AcDbArc
 50
318.1782690000008
 51
322.9340799999965
  0
LINE
  5
2D390
330
1F
100
AcDbEntity
  8
実線
100
AcDbLine
 10
196.0245010920546
 20
41.78359700502335
 30
0.0
 11
190.1876350920545
 21
35.26039900502335
 31
0.0
  0
ARC
  5
2D391
330
1F
100
AcDbEntity
  8
実線
100
AcDbCircle
 10
188.6971890920545
 20
36.59402900502334
 30
0.0
 40
2.0
100
AcDbArc
 50
270.0
 51
318.1782690000008
  0
LINE
  5
2D392
102
{ACAD_REACTORS
330
2D4F8
330
2D59E
102
}
330
1F
100
AcDbEntity
  8
実線
100
AcDbLine
 10
188.6971890920545
 20
34.59402900502335
 30
0.0
 11
120.4855650920544
 21
34.59402900502335
 31
0.0
  0
ARC
  5
2D393
330
1F
100
AcDbEntity
  8
実線
100
AcDbCircle
 10
120.4855650920544
 20
36.59402900502334
 30
0.0
 40
2.0
100
AcDbArc
 50
221.8217309999991
 51
270.0
  0
LINE
  5
2D394
330
1F
100
AcDbEntity
  8
実線
100
AcDbLine
 10
118.9951190920544
 20
35.26039900502335
 30
0.0
 11
115.9376720920545
 21
38.67735800502334
 31
0.0
  0
LINE
  5
2D395
330
1F
100
AcDbEntity
  8
実線
100
AcDbLine
 10
51.65676409205457
 20
52.86549000502336
 30
0.0
 11
51.45550209205453
 21
52.93146500502337
 31
0.0
  0
ARC
  5
2D396
330
1F
100
AcDbEntity
  8
実線
100
AcDbCircle
 10
50.22704509205436
 20
49.12381000502335
 30
0.0
 40
4.000918
100
AcDbArc
 50
72.11883299999858
 51
151.2296430000033
  0
LINE
  5
2D397
330
1F
100
AcDbEntity
  8
実線
100
AcDbLine
 10
31.29137709205452
 20
50.79402900502334
 30
0.0
 11
46.59137709205447
 21
50.79402900502334
 31
0.0
  0
LINE
  5
2D398
330
1F
100
AcDbEntity
  8
実線
100
AcDbLine
 10
29.59137709205447
 20
52.49402900502335
 30
0.0
 11
31.29137709205452
 21
50.79402900502334
 31
0.0
  0
LINE
  5
2D399
330
1F
100
AcDbEntity
  8
実線
100
AcDbLine
 10
29.59137709205447
 20
52.49402900502335
 30
0.0
 11
29.59137709205447
 21
59.59402900502334
 31
0.0
  0
ARC
  5
2D39A
330
1F
100
AcDbEntity
  8
実線
100
AcDbCircle
 10
159.5489410920545
 20
388.9730290050234
 30
0.0
 40
353.0
100
AcDbArc
 50
252.2031140000014
 51
262.9032799999985
  0
ARC
  5
2D39B
330
1F
100
AcDbEntity
  8
実線
100
AcDbCircle
 10
154.5913770920545
 20
92.59402900502335
 30
0.0
 40
45.0
100
AcDbArc
 50
156.9858259999965
 51
163.7782109999995
  0
ARC
  5
2D39C
330
1F
100
AcDbEntity
  8
実線
100
AcDbCircle
 10
154.5913770920545
 20
92.59402900502335
 30
0.0
 40
45.0
100
AcDbArc
 50
163.7782109999995
 51
169.4161970000004
  0
LINE
  5
2D39D
102
{ACAD_REACTORS
330
2D60C
102
}
330
1F
100
AcDbEntity
  8
実線
100
AcDbLine
 10
259.5913770920545
 20
59.59402900502334
 30
0.0
 11
259.5913770920545
 21
89.59402900502334
 31
0.0
  0
ARC
  5
2D39E
330
1F
100
AcDbEntity
  8
実線
100
AcDbCircle
 10
201.5983270920544
 20
60.70195700502336
 30
0.0
 40
2.006949999999999
100
AcDbArc
 50
173.3823109999988
 51
179.992825
  0
LINE
  5
2D39F
330
1F
100
AcDbEntity
  8
実線
100
AcDbLine
 10
199.5913770920545
 20
60.70220900502334
 30
0.0
 11
199.5827310920545
 21
60.73626900502333
 31
0.0
  0
LINE
  5
2D3A0
330
1F
100
AcDbEntity
  8
実線
100
AcDbLine
 10
29.59137709205447
 20
89.59402900502334
 30
0.0
 11
29.59137709205447
 21
96.69402900502333
 31
0.0
  0
LINE
  5
2D3A1
330
1F
100
AcDbEntity
  8
実線
100
AcDbLine
 10
31.29137709205452
 20
98.39402900502335
 30
0.0
 11
29.59137709205447
 21
96.69402900502333
 31
0.0
  0
LINE
  5
2D3A2
330
1F
100
AcDbEntity
  8
実線
100
AcDbLine
 10
46.59137709205447
 20
98.39402900502335
 30
0.0
 11
31.29137709205452
 21
98.39402900502335
 31
0.0
  0
ARC
  5
2D3A3
330
1F
100
AcDbEntity
  8
実線
100
AcDbCircle
 10
50.66911709205442
 20
98.67083000502333
 30
0.0
 40
4.087124
100
AcDbArc
 50
183.8833350000002
 51
187.9165099999993
  0
LINE
  5
2D3A4
330
1F
100
AcDbEntity
  8
実線
100
AcDbLine
 10
62.82013409205433
 20
97.59402900502335
 30
0.0
 11
91.59137709205447
 21
97.59402900502335
 31
0.0
  0
LINE
  5
2D3A5
330
1F
100
AcDbEntity
  8
実線
100
AcDbLine
 10
91.59137709205447
 20
97.59402900502335
 30
0.0
 11
106.4249990920546
 21
97.59402900502335
 31
0.0
  0
ARC
  5
2D3A6
330
1F
100
AcDbEntity
  8
実線
100
AcDbCircle
 10
106.4249990920546
 20
101.5940290050233
 30
0.0
 40
4.0
100
AcDbArc
 50
270.0
 51
349.4161970000005
  0
LINE
  5
2D3A7
330
1F
100
AcDbEntity
  8
実線
100
AcDbLine
 10
91.59137709205447
 20
97.59402900502335
 30
0.0
 11
111.3829380920545
 21
105.1650610050233
 31
0.0
  0
ARC
  5
2D3A8
330
1F
100
AcDbEntity
  8
実線
100
AcDbCircle
 10
109.4913770920545
 20
111.7510120050233
 30
0.0
 40
4.0
100
AcDbArc
 50
336.9858259999964
 51
0.0
  0
LINE
  5
2D3A9
330
1F
100
AcDbEntity
  8
実線
100
AcDbLine
 10
113.4913770920545
 20
113.6940290050233
 30
0.0
 11
113.4913770920545
 21
111.7510120050233
 31
0.0
  0
LINE
  5
2D3AA
330
1F
100
AcDbEntity
  8
実線
100
AcDbLine
 10
112.0913770920545
 20
115.0940290050233
 30
0.0
 11
113.4913770920545
 21
113.6940290050233
 31
0.0
  0
LINE
  5
2D3AB
330
1F
100
AcDbEntity
  8
実線
100
AcDbLine
 10
112.0913770920545
 20
118.0940290050233
 30
0.0
 11
112.0913770920545
 21
115.0940290050233
 31
0.0
  0
ARC
  5
2D3AC
330
1F
100
AcDbEntity
  8
実線
100
AcDbCircle
 10
50.58266109205442
 20
98.66000100502333
 30
0.0
 40
4.000001
100
AcDbArc
 50
187.933437000001
 51
296.9515490000004
  0
ARC
  5
2D3AD
330
1F
100
AcDbEntity
  8
実線
100
AcDbCircle
 10
50.23460109205439
 20
49.11927700502335
 30
0.0
 40
4.009723
100
AcDbArc
 50
151.2248309999982
 51
155.3122440000002
  0
LINE
  5
2D3AE
330
1F
100
AcDbEntity
  8
実線
100
AcDbLine
 10
199.5994280920545
 20
60.89243500502334
 30
0.0
 11
199.6047390920546
 21
60.93315800502336
 31
0.0
  0
LINE
  5
2D3AF
330
1F
100
AcDbEntity
  8
実線
100
AcDbLine
 10
46.7068240920546
 20
51.02535700502335
 30
0.0
 11
46.72855409205453
 21
51.06484200502336
 31
0.0
  0
LINE
  5
2D3B0
330
1F
100
AcDbEntity
  8
一点鎖線
100
AcDbLine
 10
154.5913770920545
 20
155.9170569954517
 30
0.0
 11
154.5913770920545
 21
27.51090396686536
 31
0.0
  0
LINE
  5
2D3B1
102
{ACAD_REACTORS
330
2D4F8
102
}
330
1F
100
AcDbEntity
  8
一点鎖線
100
AcDbLine
 10
267.7744045150098
 20
74.59402900502334
 30
0.0
 11
25.10153752683177
 21
74.59402900502334
 31
0.0
  0
CIRCLE
  5
2D3B6
330
1F
100
AcDbEntity
  8
実線
100
AcDbCircle
 10
107.0913770920544
 20
100.5940290050233
 30
0.0
 40
1.25
  0
ARC
  5
2D3B7
330
1F
100
AcDbEntity
  8
実線
100
AcDbCircle
 10
154.5913770920545
 20
288.5940290050233
 30
0.0
 40
253.0
100
AcDbArc
 50
261.2387579999973
 51
277.6622560000031
  0
ARC
  5
2D3B8
330
1F
100
AcDbEntity
  8
実線
100
AcDbCircle
 10
62.81806109205445
 20
74.59220100502335
 30
0.0
 40
23.0
100
AcDbArc
 50
90.0
 51
116.779479999997
  0
LINE
  5
2D3B9
330
1F
100
AcDbEntity
  8
実線
100
AcDbLine
 10
150.5913770920544
 20
135.0940290050233
 30
0.0
 11
150.5913770920544
 21
119.0940290050233
 31
0.0
  0
LINE
  5
2D3BA
330
1F
100
AcDbEntity
  8
実線
100
AcDbLine
 10
208.5913770920545
 20
134.0940290050233
 30
0.0
 11
208.5913770920545
 21
120.0940290050233
 31
0.0
  0
ARC
  5
2D3BB
330
1F
100
AcDbEntity
  8
実線
100
AcDbCircle
 10
207.5913770920545
 20
134.0940290050233
 30
0.0
 40
1.0
100
AcDbArc
 50
0.0
 51
90.0
  0
LINE
  5
2D3BC
330
1F
100
AcDbEntity
  8
実線
100
AcDbLine
 10
100.5913770920545
 20
138.0940290050233
 30
0.0
 11
100.5913770920545
 21
119.0940290050233
 31
0.0
  0
LINE
  5
2D3BD
330
1F
100
AcDbEntity
  8
実線
100
AcDbLine
 10
201.0913770920545
 20
118.0940290050233
 30
0.0
 11
201.0913770920545
 21
118.0940290050233
 31
0.0
  0
ARC
  5
2D3BE
330
1F
100
AcDbEntity
  8
実線
100
AcDbCircle
 10
202.0913770920545
 20
118.0940290050233
 30
0.0
 40
1.0
100
AcDbArc
 50
90.0
 51
180.0
  0
LINE
  5
2D3BF
330
1F
100
AcDbEntity
  8
実線
100
AcDbLine
 10
108.0913770920544
 20
135.0940290050233
 30
0.0
 11
108.0913770920544
 21
118.0940290050233
 31
0.0
  0
LINE
  5
2D3C0
330
1F
100
AcDbEntity
  8
実線
100
AcDbLine
 10
199.5913770920545
 20
142.5940290050233
 30
0.0
 11
199.5913770920545
 21
136.0940290050233
 31
0.0
  0
LINE
  5
2D3C1
330
1F
100
AcDbEntity
  8
実線
100
AcDbLine
 10
109.5913770920544
 20
142.5940290050233
 30
0.0
 11
109.5913770920544
 21
135.0940290050233
 31
0.0
  0
LINE
  5
2D3C2
330
1F
100
AcDbEntity
  8
実線
100
AcDbLine
 10
109.5913770920544
 20
142.5940290050233
 30
0.0
 11
154.5913770920545
 21
142.5940290050233
 31
0.0
  0
LINE
  5
2D3C3
330
1F
100
AcDbEntity
  8
実線
100
AcDbLine
 10
197.0913770920545
 20
142.5940290050233
 30
0.0
 11
199.5913770920545
 21
142.5940290050233
 31
0.0
  0
LINE
  5
2D3C4
330
1F
100
AcDbEntity
  8
実線
100
AcDbLine
 10
108.0913770920544
 20
135.0940290050233
 30
0.0
 11
201.0913770920545
 21
135.0940290050233
 31
0.0
  0
LINE
  5
2D3C5
330
1F
100
AcDbEntity
  8
実線
100
AcDbLine
 10
200.5913770920545
 20
135.0940290050233
 30
0.0
 11
201.0913770920545
 21
135.0940290050233
 31
0.0
  0
ARC
  5
2D3C6
330
1F
100
AcDbEntity
  8
実線
100
AcDbCircle
 10
200.5913770920545
 20
136.0940290050233
 30
0.0
 40
1.0
100
AcDbArc
 50
180.0
 51
270.0
  0
LINE
  5
2D3C7
330
1F
100
AcDbEntity
  8
実線
100
AcDbLine
 10
108.0913770920544
 20
118.0940290050233
 30
0.0
 11
201.0913770920545
 21
118.0940290050233
 31
0.0
  0
LINE
  5
2D3C8
330
1F
100
AcDbEntity
  8
実線
100
AcDbLine
 10
150.5913770920544
 20
119.0940290050233
 30
0.0
 11
158.5913770920547
 21
119.0940290050233
 31
0.0
  0
LINE
  5
2D3C9
330
1F
100
AcDbEntity
  8
実線
100
AcDbLine
 10
100.5913770920545
 20
119.0940290050233
 30
0.0
 11
108.0913770920544
 21
119.0940290050233
 31
0.0
  0
LINE
  5
2D3CA
330
1F
100
AcDbEntity
  8
実線
100
AcDbLine
 10
202.0913770920545
 20
119.0940290050233
 30
0.0
 11
207.5913770920545
 21
119.0940290050233
 31
0.0
  0
ARC
  5
2D3CB
330
1F
100
AcDbEntity
  8
実線
100
AcDbCircle
 10
207.5913770920545
 20
120.0940290050233
 30
0.0
 40
1.0
100
AcDbArc
 50
270.0
 51
0.0
  0
LINE
  5
2D3CC
330
1F
100
AcDbEntity
  8
実線
100
AcDbLine
 10
201.0913770920545
 20
135.0940290050233
 30
0.0
 11
207.5913770920545
 21
135.0940290050233
 31
0.0
  0
LINE
  5
2D3CD
330
1F
100
AcDbEntity
  8
実線
100
AcDbLine
 10
109.5913770920544
 20
141.5940290050233
 30
0.0
 11
104.0913770920544
 21
141.5940290050233
 31
0.0
  0
ARC
  5
2D3CE
330
1F
100
AcDbEntity
  8
実線
100
AcDbCircle
 10
104.0913770920544
 20
138.0940290050233
 30
0.0
 40
3.5
100
AcDbArc
 50
90.0
 51
180.0
  0
CIRCLE
  5
2D3CF
330
1F
100
AcDbEntity
  8
実線
100
AcDbCircle
 10
104.0913770920544
 20
138.0940290050233
 30
0.0
 40
1.3
  0
ARC
  5
2D3D0
330
1F
100
AcDbEntity
  8
実線
100
AcDbCircle
 10
89.59137709205448
 20
142.5940290050233
 30
0.0
 40
20.0
100
AcDbArc
 50
303.3670129692364
 51
357.134016017402
  0
LINE
  5
2D3D1
330
1F
100
AcDbEntity
  8
実線
100
AcDbLine
 10
201.0913770920545
 20
118.0940290050233
 30
0.0
 11
201.0913770920545
 21
135.0940290050233
 31
0.0
  0
LINE
  5
2D3D2
330
1F
100
AcDbEntity
  8
実線
100
AcDbLine
 10
100.5913770920545
 20
149.5940290050233
 30
0.0
 11
203.5913770920545
 21
149.5940290050233
 31
0.0
  0
LINE
  5
2D3D3
330
1F
100
AcDbEntity
  8
実線
100
AcDbLine
 10
201.0913770920545
 20
147.0940290050233
 30
0.0
 11
204.5913770920545
 21
147.0940290050233
 31
0.0
  0
ARC
  5
2D3D4
330
1F
100
AcDbEntity
  8
実線
100
AcDbCircle
 10
201.0913770920545
 20
145.5940290050233
 30
0.0
 40
1.5
100
AcDbArc
 50
90.0
 51
180.0
  0
ARC
  5
2D3D5
330
1F
100
AcDbEntity
  8
実線
100
AcDbCircle
 10
196.0913770920545
 20
148.0940290050233
 30
0.0
 40
1.5
100
AcDbArc
 50
90.0
 51
180.0
  0
LINE
  5
2D3D6
330
1F
100
AcDbEntity
  8
実線
100
AcDbLine
 10
114.5913770920544
 20
148.0940290050233
 30
0.0
 11
123.5913770920544
 21
148.0940290050233
 31
0.0
  0
LINE
  5
2D3D7
330
1F
100
AcDbEntity
  8
実線
100
AcDbLine
 10
132.5913770920545
 20
148.0940290050233
 30
0.0
 11
158.5913770920545
 21
148.0940290050233
 31
0.0
  0
LINE
  5
2D3D8
330
1F
100
AcDbEntity
  8
実線
100
AcDbLine
 10
169.5913770920545
 20
148.0940290050233
 30
0.0
 11
194.5913770920545
 21
148.0940290050233
 31
0.0
  0
LINE
  5
2D3D9
330
1F
100
AcDbEntity
  8
実線
100
AcDbLine
 10
101.5913770920545
 20
152.5940290050233
 30
0.0
 11
113.5913770920544
 21
152.5940290050233
 31
0.0
  0
LINE
  5
2D3DA
330
1F
100
AcDbEntity
  8
実線
100
AcDbLine
 10
107.5913770920545
 20
142.5940290050233
 30
0.0
 11
199.5913770920545
 21
142.5940290050233
 31
0.0
  0
LINE
  5
2D3DB
330
1F
100
AcDbEntity
  8
実線
100
AcDbLine
 10
194.5913770920545
 20
148.0940290050233
 30
0.0
 11
194.5913770920545
 21
148.0940290050233
 31
0.0
  0
LINE
  5
2D3DC
330
1F
100
AcDbEntity
  8
実線
100
AcDbLine
 10
100.5913770920545
 20
149.5940290050233
 30
0.0
 11
100.5913770920545
 21
138.0940290050233
 31
0.0
  0
LINE
  5
2D3DD
330
1F
100
AcDbEntity
  8
実線
100
AcDbLine
 10
107.5913770920545
 20
142.5940290050233
 30
0.0
 11
107.5913770920545
 21
138.0940290050233
 31
0.0
  0
LINE
  5
2D3DE
330
1F
100
AcDbEntity
  8
実線
100
AcDbLine
 10
109.5913770920544
 20
148.0940290050233
 30
0.0
 11
109.5913770920544
 21
142.5940290050233
 31
0.0
  0
ARC
  5
2D3DF
330
1F
100
AcDbEntity
  8
実線
100
AcDbCircle
 10
111.0913770920544
 20
148.0940290050233
 30
0.0
 40
1.5
100
AcDbArc
 50
90.0
 51
180.0
  0
LINE
  5
2D3E0
330
1F
100
AcDbEntity
  8
実線
100
AcDbLine
 10
199.5913770920545
 20
148.5940290050233
 30
0.0
 11
199.5913770920545
 21
142.5940290050233
 31
0.0
  0
ARC
  5
2D3E1
330
1F
100
AcDbEntity
  8
実線
100
AcDbCircle
 10
198.5913770920545
 20
148.5940290050233
 30
0.0
 40
1.0
100
AcDbArc
 50
0.0
 51
90.0
  0
CIRCLE
  5
2D3E2
330
1F
100
AcDbEntity
  8
実線
100
AcDbCircle
 10
104.0913770920544
 20
138.0940290050233
 30
0.0
 40
1.35
  0
ARC
  5
2D3E3
330
1F
100
AcDbEntity
  8
実線
100
AcDbCircle
 10
104.0913770920544
 20
138.0940290050233
 30
0.0
 40
3.5
100
AcDbArc
 50
180.0
 51
0.0
  0
LINE
  5
2D3E4
330
1F
100
AcDbEntity
  8
実線
100
AcDbLine
 10
114.5913770920544
 20
149.5940290050233
 30
0.0
 11
113.5913770920544
 21
152.5940290050233
 31
0.0
  0
LINE
  5
2D3E5
330
1F
100
AcDbEntity
  8
実線
100
AcDbLine
 10
100.5913770920545
 20
149.5940290050233
 30
0.0
 11
101.5913770920545
 21
152.5940290050233
 31
0.0
  0
LINE
  5
2D3E6
330
1F
100
AcDbEntity
  8
実線
100
AcDbLine
 10
123.5913770920544
 20
149.5940290050233
 30
0.0
 11
123.5913770920544
 21
148.0940290050233
 31
0.0
  0
LINE
  5
2D3E7
330
1F
100
AcDbEntity
  8
実線
100
AcDbLine
 10
132.5913770920545
 20
149.5940290050233
 30
0.0
 11
132.5913770920545
 21
148.0940290050233
 31
0.0
  0
LINE
  5
2D3E8
330
1F
100
AcDbEntity
  8
実線
100
AcDbLine
 10
158.5913770920545
 20
149.5940290050233
 30
0.0
 11
158.5913770920545
 21
148.0940290050233
 31
0.0
  0
LINE
  5
2D3E9
330
1F
100
AcDbEntity
  8
実線
100
AcDbLine
 10
169.5913770920545
 20
149.5940290050233
 30
0.0
 11
169.5913770920545
 21
148.0940290050233
 31
0.0
  0
LINE
  5
2D3EA
330
1F
100
AcDbEntity
  8
実線
100
AcDbLine
 10
114.5913770920544
 20
148.0940290050233
 30
0.0
 11
114.5913770920544
 21
148.0940290050233
 31
0.0
  0
ARC
  5
2D3EB
330
1F
100
AcDbEntity
  8
実線
100
AcDbCircle
 10
113.0913770920545
 20
148.0940290050233
 30
0.0
 40
1.5
100
AcDbArc
 50
0.0
 51
90.0
  0
LINE
  5
2D3EC
330
1F
100
AcDbEntity
  8
実線
100
AcDbLine
 10
204.5913770920545
 20
148.5940290050233
 30
0.0
 11
204.5913770920545
 21
147.0940290050233
 31
0.0
  0
ARC
  5
2D3ED
102
{ACAD_REACTORS
330
2D59E
102
}
330
1F
100
AcDbEntity
  8
実線
100
AcDbCircle
 10
203.5913770920545
 20
148.5940290050233
 30
0.0
 40
1.0
100
AcDbArc
 50
0.0
 51
90.0
  0
LINE
  5
2D3EE
330
1F
100
AcDbEntity
  8
実線
100
AcDbLine
 10
184.5913770920544
 20
149.5940290050233
 30
0.0
 11
184.5913770920544
 21
148.0940290050233
 31
0.0
  0
LINE
  5
2D3EF
330
1F
100
AcDbEntity
  8
実線
100
AcDbLine
 10
158.5913770920547
 20
135.0940290050233
 30
0.0
 11
158.5913770920547
 21
119.0940290050233
 31
0.0
  0
LINE
  5
2D3F9
330
1F
100
AcDbEntity
  8
実線
100
AcDbLine
 10
46.59137704905401
 20
98.39402911433303
 30
0.0
 11
46.59137709205447
 21
50.79402900502334
 31
0.0
  0
LINE
  5
2D3FA
330
1F
100
AcDbEntity
  8
実線
100
AcDbLine
 10
163.9913770920541
 20
93.59402900502344
 30
0.0
 11
170.9913770920541
 21
90.59402900502343
 31
0.0
  0
LINE
  5
2D3FB
330
1F
100
AcDbEntity
  8
実線
100
AcDbLine
 10
163.9913770920541
 20
87.59402900502337
 30
0.0
 11
170.9913770920541
 21
90.59402900502343
 31
0.0
  0
LINE
  5
2D3FC
330
1F
100
AcDbEntity
  8
実線
100
AcDbLine
 10
138.1913770920544
 20
87.59402900502342
 30
0.0
 11
140.1913770920543
 21
89.59402900502343
 31
0.0
  0
LINE
  5
2D3FD
330
1F
100
AcDbEntity
  8
実線
100
AcDbLine
 10
156.1913770920544
 20
87.59402900502342
 30
0.0
 11
158.1913770920543
 21
89.59402900502343
 31
0.0
  0
LINE
  5
2D3FE
330
1F
100
AcDbEntity
  8
実線
100
AcDbLine
 10
163.9913770920541
 20
89.59402900502343
 30
0.0
 11
163.9913770920541
 21
87.59402900502337
 31
0.0
  0
LINE
  5
2D3FF
330
1F
100
AcDbEntity
  8
実線
100
AcDbLine
 10
138.1913770920544
 20
93.59402900502344
 30
0.0
 11
156.1913770920544
 21
93.59402900502344
 31
0.0
  0
LINE
  5
2D400
330
1F
100
AcDbEntity
  8
実線
100
AcDbLine
 10
138.1913770920544
 20
91.59402900502342
 30
0.0
 11
163.9913770920541
 21
91.59402900502342
 31
0.0
  0
LINE
  5
2D401
330
1F
100
AcDbEntity
  8
実線
100
AcDbLine
 10
138.1913770920544
 20
89.59402900502343
 30
0.0
 11
163.9913770920541
 21
89.59402900502343
 31
0.0
  0
LINE
  5
2D402
330
1F
100
AcDbEntity
  8
実線
100
AcDbLine
 10
163.9913770920541
 20
91.59402900502342
 30
0.0
 11
163.9913770920541
 21
93.59402900502344
 31
0.0
  0
LINE
  5
2D403
330
1F
100
AcDbEntity
  8
実線
100
AcDbLine
 10
156.1913770920544
 20
93.59402900502344
 30
0.0
 11
158.1913770920543
 21
91.59402900502342
 31
0.0
  0
LINE
  5
2D404
330
1F
100
AcDbEntity
  8
実線
100
AcDbLine
 10
138.1913770920544
 20
93.59402900502344
 30
0.0
 11
140.1913770920543
 21
91.59402900502342
 31
0.0
  0
LINE
  5
2D405
330
1F
100
AcDbEntity
  8
実線
100
AcDbLine
 10
138.1913770920544
 20
89.59402900502343
 30
0.0
 11
138.1913770920544
 21
91.59402900502342
 31
0.0
  0
LINE
  5
2D406
330
1F
100
AcDbEntity
  8
実線
100
AcDbLine
 10
138.1913770920544
 20
87.59402900502342
 30
0.0
 11
156.1913770920544
 21
87.59402900502342
 31
0.0
  0
TEXT
  5
2D407
330
1F
100
AcDbEntity
  8
文字
100
AcDbText
 10
167.0633028862489
 20
68.90034142059111
 30
0.0
 40
10.0
  1
m
 41
0.8
  7
ﾛｺﾞ
 72
     1
 11
171.0581080810541
 21
73.90034142059111
 31
0.0
100
AcDbText
 73
     2
  0
TEXT
  5
2D408
330
1F
100
AcDbEntity
  8
文字
100
AcDbText
 10
157.9957548241823
 20
68.90034142059111
 30
0.0
 40
10.0
  1
m
 41
0.8
  7
ﾛｺﾞ
 72
     1
 11
161.9905600189875
 21
73.90034142059111
 31
0.0
100
AcDbText
 73
     2
  0
TEXT
  5
2D409
330
1F
100
AcDbEntity
  8
文字
100
AcDbText
 10
133.9243170806145
 20
68.7856210636279
 30
0.0
 40
12.0
  1
3
 41
1.3
  7
ﾛｺﾞ
 72
     1
 11
139.110810587108
 21
74.7856210636279
 31
0.0
100
AcDbText
 73
     2
  0
TEXT
  5
2D40A
330
1F
100
AcDbEntity
  8
文字
100
AcDbText
 10
145.1170073160332
 20
68.7856210636279
 30
0.0
 40
12.0
  1
0
 41
1.3
  7
ﾛｺﾞ
 72
     1
 11
150.3035008225267
 21
74.7856210636279
 31
0.0
100
AcDbText
 73
     2
  0
TEXT
  5
2D410
330
1F
100
AcDbEntity
  8
文字
100
AcDbText
 10
103.3211447152442
 20
71.27036799700238
 30
0.0
 40
6.7
  1
E
  7
ﾛｺﾞ
 72
     1
 11
105.5269239360234
 21
74.62036799700237
 31
0.0
100
AcDbText
 73
     2
  0
TEXT
  5
2D411
330
1F
100
AcDbEntity
  8
文字
100
AcDbText
 10
95.42466406565676
 20
71.30452301752757
 30
0.0
 40
6.7
  1
9
  7
ﾛｺﾞ
 72
     1
 11
97.65219653318922
 21
74.65452301752756
 31
0.0
100
AcDbText
 73
     2
  0
TEXT
  5
2D412
330
1F
100
AcDbEntity
  8
文字
100
AcDbText
 10
89.42466406565676
 20
71.30452301752757
 30
0.0
 40
6.7
  1
1
  7
ﾛｺﾞ
 72
     1
 11
91.65219653318922
 21
74.65452301752756
 31
0.0
100
AcDbText
 73
     2
  0
DIMENSION
  5
2D4E1
102
{ACAD_XDICTIONARY
360
2D4EE
102
}
102
{ACAD_REACTORS
330
2D4F8
102
}
330
1F
100
AcDbEntity
  8
寸法
100
AcDbDimension
280
     0
  2
*D8
 10
268.3994045150097
 20
74.59402900502334
 30
0.0
 11
265.6494045150097
 21
54.59402900502337
 31
0.0
 70
    32
 71
     5
 42
40.00000000000001
 73
     0
 74
     0
 75
     0
  3
ｺﾋﾟｰ - ISO-25
100
AcDbAlignedDimension
 13
188.6971890920545
 23
34.59402900502335
 33
0.0
 14
267.7744045150098
 24
74.59402900502334
 34
0.0
 50
90.0
100
AcDbRotatedDimension
  0
DIMENSION
  5
2D51D
102
{ACAD_XDICTIONARY
360
2D52A
102
}
102
{ACAD_REACTORS
330
2D534
102
}
330
1F
100
AcDbEntity
  8
寸法
100
AcDbDimension
280
     0
  2
*D9
 10
275.2119199439719
 20
270.7377857581258
 30
0.0
 11
272.4619199439719
 21
216.7377857581259
 31
0.0
 70
    32
 71
     5
 42
108.0
 73
     0
 74
     0
 75
     0
  3
ｺﾋﾟｰ - ISO-25
100
AcDbAlignedDimension
 13
157.6191075417415
 23
162.7377857581258
 33
0.0
 14
157.6191075417425
 24
270.7377857581258
 34
0.0
 50
90.0
100
AcDbRotatedDimension
  0
LINE
  5
2D572
330
1F
100
AcDbEntity
  8
実線
100
AcDbLine
 10
151.5058999945717
 20
270.7377857581258
 30
0.0
 11
157.6191075417415
 21
270.7377857581258
 31
0.0
  0
LINE
  5
2D57C
330
1F
100
AcDbEntity
  8
実線
100
AcDbLine
 10
151.5058999945717
 20
162.7377857581258
 30
0.0
 11
157.6191075417415
 21
162.7377857581258
 31
0.0
  0
DIMENSION
  5
2D587
102
{ACAD_XDICTIONARY
360
2D594
102
}
102
{ACAD_REACTORS
330
2D59E
102
}
330
1F
100
AcDbEntity
  8
寸法
100
AcDbDimension
280
     0
  2
*D10
 10
275.2119199439719
 20
149.5940290050233
 30
0.0
 11
272.4619199439719
 21
92.09402900502338
 31
0.0
 70
    32
 71
     5
 42
115.0
 73
     0
 74
     0
 75
     0
  3
ｺﾋﾟｰ - ISO-25
100
AcDbAlignedDimension
 13
188.6971890920545
 23
34.59402900502335
 33
0.0
 14
203.5913770920545
 24
149.5940290050233
 34
0.0
 50
90.0
100
AcDbRotatedDimension
  0
SOLID
  5
2D5AF
330
1F
100
AcDbEntity
  8
寸法
100
AcDbTrace
 10
251.3694799765419
 20
100.6636098035602
 30
-0.0000000000000032
 11
250.2413774559623
 21
98.39402926650654
 31
-0.0000000000000032
 12
252.0445816360956
 22
100.1750586867747
 32
-0.0000000000000032
 13
252.0445816360956
 23
100.1750586867747
 33
-0.0000000000000032
1001
ACAD
1000
DSTYLE
1002
{
1070
   147
1040
1.0
1070
    77
1070
     0
1002
}
  0
TEXT
  5
2D5CF
330
1F
100
AcDbEntity
  8
0
100
AcDbText
 10
362.0810329945233
 20
50.90516497261692
 30
0.0
 40
3.5
  1
A-220520
 41
0.9
 72
     1
 11
374.2310329945233
 21
52.65516497261693
 31
0.0
100
AcDbText
 73
     2
  0
LINE
  5
2D5F1
330
1F
100
AcDbEntity
  8
0
100
AcDbLine
 10
405.0
 20
277.0
 30
0.0
 11
25.0
 21
277.0
 31
0.0
  0
LINE
  5
2D5F2
330
1F
100
AcDbEntity
  8
0
100
AcDbLine
 10
405.0
 20
20.0
 30
0.0
 11
405.0
 21
277.0
 31
0.0
  0
LINE
  5
2D5F3
330
1F
100
AcDbEntity
  8
0
100
AcDbLine
 10
25.0
 20
277.0
 30
0.0
 11
25.0
 21
20.0
 31
0.0
  0
LINE
  5
2D5F4
330
1F
100
AcDbEntity
  8
0
100
AcDbLine
 10
25.0
 20
20.0
 30
0.0
 11
405.0
 21
20.0
 31
0.0
  0
DIMENSION
  5
2D5F5
102
{ACAD_XDICTIONARY
360
2D602
102
}
102
{ACAD_REACTORS
330
2D60C
102
}
330
1F
100
AcDbEntity
  8
寸法
100
AcDbDimension
280
     0
  2
*D11
 10
259.5913770920545
 20
81.46770559953358
 30
0.0
 11
144.5913770920545
 21
84.21770559953358
 31
0.0
 70
    32
 71
     5
 42
230.0
 73
     0
 74
     0
 75
     0
  3
ｺﾋﾟｰ - ISO-25
100
AcDbAlignedDimension
 13
29.59137709205447
 23
74.59402900502334
 33
0.0
 14
259.5913770920545
 24
74.59402900502334
 34
0.0
100
AcDbRotatedDimension
  0
VIEWPORT
  5
6B
330
50
100
AcDbEntity
 67
     1
  8
0
100
AcDbViewport
 10
433.5371052199574
 20
123.3251464112375
 30
0.0
 40
833.2744282326544
 41
415.0001327249074
 68
     1
 69
     1
 12
433.5371052199574
 22
123.3251464112375
 13
0.0
 23
0.0
 14
10.0
 24
10.0
 15
10.0
 25
10.0
 16
0.0
 26
0.0
 36
1.0
 17
0.0
 27
0.0
 37
0.0
 42
50.0
 43
0.0
 44
0.0
 45
415.0001327249074
 50
0.0
 51
0.0
 72
   100
 90
    32800
  1

281
     0
 71
     1
 74
     0
110
0.0
120
0.0
130
0.0
111
1.0
121
0.0
131
0.0
112
0.0
122
1.0
132
0.0
 79
     0
146
0.0
170
     0
 61
     5
348
276B
292
     1
282
     1
141
0.0
142
0.0
 63
   250
421
  3355443
  0
VIEWPORT
  5
6D
330
50
100
AcDbEntity
 67
     1
  8
0
100
AcDbViewport
 10
194.6747247325147
 20
118.9168694143202
 30
0.0
 40
506.9942499588641
 41
411.2802053937703
 68
     2
 69
     2
 12
200.9197229890301
 22
122.5631282670758
 13
0.0
 23
0.0
 14
10.0
 24
10.0
 15
10.0
 25
10.0
 16
0.0
 26
0.0
 36
1.0
 17
0.0
 27
0.0
 37
0.0
 42
50.0
 43
0.0
 44
0.0
 45
411.2802071812528
 50
0.0
 51
0.0
 72
   100
 90
    32864
  1

281
     0
 71
     1
 74
     0
110
0.0
120
0.0
130
0.0
111
1.0
121
0.0
131
0.0
112
0.0
122
1.0
132
0.0
 79
     0
146
0.0
170
     0
 61
     5
348
276B
292
     1
282
     1
141
0.0
142
0.0
 63
   250
421
  3355443
  0
ENDSEC
  0
SECTION
  2
OBJECTS
  0
DICTIONARY
  5
C
330
0
100
AcDbDictionary
281
     1
  3
ACAD_CIP_PREVIOUS_PRODUCT_INFO
350
2D688
  3
ACAD_COLOR
350
2776
  3
ACAD_DETAILVIEWSTYLE
350
2D678
  3
ACAD_GROUP
350
D
  3
ACAD_LAYOUT
350
1A
  3
ACAD_MATERIAL
350
2761
  3
ACAD_MLEADERSTYLE
350
247F1
  3
ACAD_MLINESTYLE
350
17
  3
ACAD_PLOTSETTINGS
350
19
  3
ACAD_PLOTSTYLENAME
350
E
  3
ACAD_SCALELIST
350
247DF
  3
ACAD_SECTIONVIEWSTYLE
350
2D676
  3
ACAD_TABLESTYLE
350
2777
  3
ACAD_VISUALSTYLE
350
2765
  3
ACDB_RECOMPOSE_DATA
350
2D69D
  3
AcDbVariableDictionary
350
5E
  0
DICTIONARY
  5
279F
330
2
100
AcDbDictionary
280
     1
281
     1
  3
ACAD_LAYERFILTERS
360
2DF9
  3
ACAD_LAYERSTATES
360
2E2E
  3
ACLYDICTIONARY
360
2DF8
  0
DICTIONARY
  5
24E13
330
10
100
AcDbDictionary
280
     1
281
     1
  3
ADSK_XREC_LAYER_RECONCILED
360
24E14
  0
DICTIONARY
  5
24E15
330
A7
100
AcDbDictionary
280
     1
281
     1
  3
ADSK_XREC_LAYER_RECONCILED
360
24E16
  0
DICTIONARY
  5
24E17
330
A8
100
AcDbDictionary
280
     1
281
     1
  3
ADSK_XREC_LAYER_RECONCILED
360
24E18
  0
DICTIONARY
  5
24E19
330
A9
100
AcDbDictionary
280
     1
281
     1
  3
ADSK_XREC_LAYER_RECONCILED
360
24E1A
  0
DICTIONARY
  5
24E1B
330
AA
100
AcDbDictionary
280
     1
281
     1
  3
ADSK_XREC_LAYER_RECONCILED
360
24E1C
  0
DICTIONARY
  5
24E1D
330
AB
100
AcDbDictionary
280
     1
281
     1
  3
ADSK_XREC_LAYER_RECONCILED
360
24E1E
  0
DICTIONARY
  5
24E1F
330
AC
100
AcDbDictionary
280
     1
281
     1
  3
ADSK_XREC_LAYER_RECONCILED
360
24E20
  0
DICTIONARY
  5
24E21
330
58C
100
AcDbDictionary
280
     1
281
     1
  3
ADSK_XREC_LAYER_RECONCILED
360
24E22
  0
DICTIONARY
  5
24E23
330
1023
100
AcDbDictionary
280
     1
281
     1
  3
ADSK_XREC_LAYER_RECONCILED
360
24E24
  0
DICTIONARY
  5
24E25
330
2366
100
AcDbDictionary
280
     1
281
     1
  3
ADSK_XREC_LAYER_RECONCILED
360
24E26
  0
DICTIONARY
  5
2D98
330
1F
100
AcDbDictionary
280
     1
281
     1
  3
ACAD_SORTENTS
360
2D99
  0
DICTIONARY
  5
29CF
330
341
100
AcDbDictionary
280
     1
281
     1
  3
ACAD_SORTENTS
360
29D1
  0
DICTIONARY
  5
2D4EE
330
2D4E1
100
AcDbDictionary
280
     1
281
     1
  3
ACAD_DIMASSOC
360
2D4F8
  0
DICTIONARY
  5
2D52A
330
2D51D
100
AcDbDictionary
280
     1
281
     1
  3
ACAD_DIMASSOC
360
2D534
  0
DICTIONARY
  5
2D594
330
2D587
100
AcDbDictionary
280
     1
281
     1
  3
ACAD_DIMASSOC
360
2D59E
  0
DICTIONARY
  5
2D602
330
2D5F5
100
AcDbDictionary
280
     1
281
     1
  3
ACAD_DIMASSOC
360
2D60C
  0
XRECORD
  5
2D688
102
{ACAD_REACTORS
330
C
102
}
330
C
100
AcDbXrecord
280
     1
300
ACDLT
300
2014
300
ACDLT_F_S
  0
DICTIONARY
  5
2776
102
{ACAD_REACTORS
330
C
102
}
330
C
100
AcDbDictionary
281
     1
  0
DICTIONARY
  5
2D678
102
{ACAD_REACTORS
330
C
102
}
330
C
100
AcDbDictionary
281
     1
  3
Metric50
350
2D679
  0
DICTIONARY
  5
D
102
{ACAD_REACTORS
330
C
102
}
330
C
100
AcDbDictionary
281
     1
  3
*A1
350
29F6
  0
DICTIONARY
  5
1A
102
{ACAD_REACTORS
330
C
102
}
330
C
100
AcDbDictionary
281
     1
  3
Model
350
22
  3
ﾚｲｱｳﾄ1
350
51
  3
ﾚｲｱｳﾄ2
350
56
  0
DICTIONARY
  5
2761
102
{ACAD_REACTORS
330
C
102
}
330
C
100
AcDbDictionary
281
     1
  3
ByBlock
350
2763
  3
ByLayer
350
2762
  3
Global
350
2764
  0
DICTIONARY
  5
247F1
102
{ACAD_REACTORS
330
C
102
}
330
C
100
AcDbDictionary
281
     1
  3
Standard
350
247F2
  0
DICTIONARY
  5
17
102
{ACAD_REACTORS
330
C
102
}
330
C
100
AcDbDictionary
281
     1
  3
Standard
350
18
  0
DICTIONARY
  5
19
102
{ACAD_REACTORS
330
C
102
}
330
C
100
AcDbDictionary
281
     1
  3
印刷
350
E74
  0
ACDBDICTIONARYWDFLT
  5
E
102
{ACAD_REACTORS
330
C
102
}
330
C
100
AcDbDictionary
281
     1
  3
Normal
350
F
100
AcDbDictionaryWithDefault
340
F
  0
DICTIONARY
  5
247DF
102
{ACAD_REACTORS
330
C
102
}
330
C
100
AcDbDictionary
281
     1
  3
A0
350
247E0
  3
A1
350
247E1
  3
A2
350
247E2
  3
A3
350
247E3
  3
A4
350
247E4
  3
A5
350
247E5
  3
A6
350
247E6
  3
A7
350
247E7
  3
A8
350
247E8
  3
A9
350
247E9
  3
B0
350
247EA
  3
B1
350
247EB
  3
B2
350
247EC
  3
B3
350
247ED
  3
B4
350
247EE
  3
B5
350
247EF
  3
B6
350
247F0
  0
DICTIONARY
  5
2D676
102
{ACAD_REACTORS
330
C
102
}
330
C
100
AcDbDictionary
281
     1
  3
Metric50
350
2D677
  0
DICTIONARY
  5
2777
102
{ACAD_REACTORS
330
C
102
}
330
C
100
AcDbDictionary
281
     1
  3
Standard
350
2778
  3
コピー - Standard
350
2688B
  0
DICTIONARY
  5
2765
102
{ACAD_REACTORS
330
C
102
}
330
C
100
AcDbDictionary
281
     1
  3
2dWireframe
350
276B
  3
3D Hidden
350
276D
  3
3dWireframe
350
276C
  3
Basic
350
276A
  3
Brighten
350
2771
  3
ColorChange
350
2775
  3
Conceptual
350
276E
  3
Dim
350
2770
  3
EdgeColorOff
350
247DE
  3
Facepattern
350
2774
  3
Flat
350
2766
  3
FlatWithEdges
350
2767
  3
Gouraud
350
2768
  3
GouraudWithEdges
350
2769
  3
Hidden
350
2D670
  3
JitterOff
350
247DC
  3
Linepattern
350
2773
  3
OverhangOff
350
247DD
  3
Realistic
350
276F
  3
Shaded
350
2D675
  3
Shaded with edges
350
2D674
  3
Shades of Gray
350
2D671
  3
Sketchy
350
2D672
  3
Thicken
350
2772
  3
Wireframe
350
2D66F
  3
X-Ray
350
2D673
  0
XRECORD
  5
2D69D
102
{ACAD_REACTORS
330
C
102
}
330
C
100
AcDbXrecord
280
     1
 90
        1
330
2778
330
2688B
330
2D677
330
2D679
  0
DICTIONARY
  5
5E
102
{ACAD_REACTORS
330
C
102
}
330
C
100
AcDbDictionary
281
     1
  3
CANNOSCALE
350
24E32
  3
CMLEADERSTYLE
350
24E30
  3
CTABLESTYLE
350
2792
  3
CVIEWDETAILSTYLE
350
2D692
  3
CVIEWSECTIONSTYLE
350
2D693
  3
DIMASSOC
350
5F
  3
HIDETEXT
350
63
  3
LAYEREVAL
350
24E34
  3
LAYERNOTIFY
350
24E35
  3
LIGHTINGUNITS
350
24E33
  3
MSLTSCALE
350
24E31
  0
DICTIONARY
  5
2DF9
102
{ACAD_REACTORS
330
279F
102
}
330
279F
100
AcDbDictionary
281
     1
  0
DICTIONARY
  5
2E2E
102
{ACAD_REACTORS
330
279F
102
}
330
279F
100
AcDbDictionary
281
     1
  0
DICTIONARY
  5
2DF8
102
{ACAD_REACTORS
330
279F
102
}
330
279F
100
AcDbDictionary
281
     1
1001
ACAD
1000
<All
  0
XRECORD
  5
24E14
102
{ACAD_REACTORS
330
24E13
102
}
330
24E13
100
AcDbXrecord
280
     1
290
     1
  0
XRECORD
  5
24E16
102
{ACAD_REACTORS
330
24E15
102
}
330
24E15
100
AcDbXrecord
280
     1
290
     1
  0
XRECORD
  5
24E18
102
{ACAD_REACTORS
330
24E17
102
}
330
24E17
100
AcDbXrecord
280
     1
290
     1
  0
XRECORD
  5
24E1A
102
{ACAD_REACTORS
330
24E19
102
}
330
24E19
100
AcDbXrecord
280
     1
290
     1
  0
XRECORD
  5
24E1C
102
{ACAD_REACTORS
330
24E1B
102
}
330
24E1B
100
AcDbXrecord
280
     1
290
     1
  0
XRECORD
  5
24E1E
102
{ACAD_REACTORS
330
24E1D
102
}
330
24E1D
100
AcDbXrecord
280
     1
290
     1
  0
XRECORD
  5
24E20
102
{ACAD_REACTORS
330
24E1F
102
}
330
24E1F
100
AcDbXrecord
280
     1
290
     1
  0
XRECORD
  5
24E22
102
{ACAD_REACTORS
330
24E21
102
}
330
24E21
100
AcDbXrecord
280
     1
290
     1
  0
XRECORD
  5
24E24
102
{ACAD_REACTORS
330
24E23
102
}
330
24E23
100
AcDbXrecord
280
     1
290
     1
  0
XRECORD
  5
24E26
102
{ACAD_REACTORS
330
24E25
102
}
330
24E25
100
AcDbXrecord
280
     1
290
     1
  0
SORTENTSTABLE
  5
2D99
102
{ACAD_REACTORS
330
2D98
102
}
330
2D98
100
AcDbSortentsTable
330
1F
331
2D398
  5
2D39E
331
2D3B7
  5
2D3BD
331
2D3D6
  5
2D3DC
331
2D3FD
  5
2D403
331
2D2DE
  5
2D2E4
331
2D289
  5
2D28D
331
2D24B
  5
2D24F
331
2D215
  5
2D219
331
2D1B8
  5
2D1BC
331
2D0EF
  5
2D0F3
331
2D10E
  5
2D112
331
2D144
  5
2D148
331
2D163
  5
2D167
331
2D182
  5
2D186
331
2D1D7
  5
2D1DB
331
2D1F6
  5
2D1FA
331
2D22C
  5
2D230
331
2D26A
  5
2D26E
331
2D2A0
  5
2D2A4
331
2D2BF
  5
2D2C3
331
2D2FD
  5
2D303
331
2D314
  5
2D31A
331
2D333
  5
2D33A
331
2D352
  5
2D358
331
2D381
  5
2D387
331
1581D
  5
29B3D
331
2D399
  5
2D39F
331
2D3B8
  5
2D3BE
331
2D3D7
  5
2D3DD
331
2D3FE
  5
2D404
331
2D2DF
  5
2D2E5
331
2D28A
  5
2D28E
331
2D24C
  5
2D250
331
2D216
  5
2D21A
331
2D1B9
  5
2D1BD
331
2D1D8
  5
2D1DC
331
2D10F
  5
2D113
331
2D145
  5
2D149
331
2D164
  5
2D168
331
2D183
  5
2D187
331
2D1F7
  5
2D1FB
331
2D22D
  5
2D231
331
2D26B
  5
2D26F
331
2D2A1
  5
2D2A5
331
2D2C0
  5
2D2C4
331
2D2FE
  5
2D304
331
2D315
  5
2D31B
331
2D334
  5
2D33B
331
2D353
  5
2D359
331
2D382
  5
2D388
331
2D39A
  5
2D3A0
331
2D3B9
  5
2D3BF
331
2D3D8
  5
2D3DE
331
2D3FF
  5
2D405
331
2D5F1
  5
108F
331
2D2C1
  5
2D2C5
331
2D28B
  5
2D28F
331
2D24D
  5
2D251
331
2D217
  5
2D21B
331
2D1BA
  5
2D1BE
331
2D1D9
  5
2D1DD
331
2D1F8
  5
2D1FC
331
2D146
  5
2D14A
331
2D165
  5
2D169
331
2D184
  5
2D188
331
2D22E
  5
2D232
331
2D26C
  5
2D270
331
2D2A2
  5
2D2A6
331
2D2E0
  5
2D2E6
331
2D2FF
  5
2D305
331
2D316
  5
2D31C
331
2D354
  5
2D35A
331
2D383
  5
2D389
331
2D39B
  5
2D3A1
331
2D3BA
  5
2D3C0
331
2D3D9
  5
2D3DF
331
2D400
  5
2D406
331
2D57C
  5
2D5F1
331
2D5F2
  5
24DC1
331
2D300
  5
2D306
331
2D2C2
  5
2D2C6
331
2D28C
  5
2D290
331
2D24E
  5
2D252
331
2D1BB
  5
2D1BF
331
2D1DA
  5
2D1DE
331
2D1F9
  5
2D1FD
331
2D147
  5
2D14B
331
2D166
  5
2D16A
331
2D185
  5
2D189
331
2D22F
  5
2D233
331
2D26D
  5
2D271
331
2D2A3
  5
2D2A7
331
2D2E1
  5
2D2E7
331
2D317
  5
2D31D
331
2D336
  5
2D33C
331
2D355
  5
2D35B
331
2D384
  5
2D38A
331
2D5F3
  5
24DBD
331
2D301
  5
2D307
331
2D2C3
  5
2D2C7
331
2D28D
  5
2D291
331
2D26E
  5
2D272
331
2D1BC
  5
2D1C0
331
2D1DB
  5
2D1DF
331
2D1FA
  5
2D1FE
331
2D230
  5
2D234
331
2D167
  5
2D16B
331
2D186
  5
2D18A
331
2D24F
  5
2D253
331
2D2A4
  5
2D2A8
331
2D2E2
  5
2D2E8
331
2D318
  5
2D31E
331
2D337
  5
2D33D
331
2D356
  5
2D35C
331
2D385
  5
2D38B
331
2D39C
  5
2D3A2
331
2D3BB
  5
2D3C1
331
2D3DA
  5
2D3E0
331
2D401
  5
2D407
331
2D5F4
  5
24DB9
331
2D302
  5
2D308
331
2D28E
  5
2D292
331
2D1BD
  5
2D1C1
331
2D1DC
  5
2D1E0
331
2D1FB
  5
2D1FF
331
2D231
  5
2D235
331
2D250
  5
2D254
331
2D187
  5
2D18B
331
2D26F
  5
2D273
331
2D2A5
  5
2D2A9
331
2D2C4
  5
2D2C8
331
2D2E3
  5
2D2E9
331
2D319
  5
2D31F
331
2D338
  5
2D33F
331
2D357
  5
2D35D
331
2D386
  5
2D38C
331
2D39D
  5
2D3A3
331
2D3BC
  5
2D3C2
331
2D3DB
  5
2D3E1
331
2D402
  5
2D408
331
2D303
  5
2D309
331
2D28F
  5
2D293
331
2D1BE
  5
2D1C2
331
2D1DD
  5
2D1E1
331
2D1FC
  5
2D200
331
2D232
  5
2D236
331
2D251
  5
2D255
331
2D270
  5
2D274
331
2D2A6
  5
2D2AA
331
2D2C5
  5
2D2C9
331
2D2E4
  5
2D2EA
331
2D31A
  5
2D320
331
2D339
  5
2D340
331
2D358
  5
2D35E
331
2D387
  5
2D38D
331
2D39E
  5
2D3A4
331
2D3BD
  5
2D3C3
331
2D3DC
  5
2D3E2
331
2D403
  5
2D409
331
29B88
  5
29B8C
331
2D388
  5
2D38E
331
2D304
  5
2D30A
331
2D1BF
  5
2D1C3
331
2D1DE
  5
2D1E2
331
2D1FD
  5
2D201
331
2D233
  5
2D237
331
2D252
  5
2D256
331
2D271
  5
2D275
331
2D2A7
  5
2D2AB
331
2D2C6
  5
2D2CA
331
2D2E5
  5
2D2EB
331
2D31B
  5
2D321
331
2D33A
  5
2D341
331
2D359
  5
2D35F
331
2D39F
  5
2D3A5
331
2D3BE
  5
2D3C4
331
2D3DD
  5
2D3E3
331
2D404
  5
2D40A
331
29B89
  5
29B8D
331
2D389
  5
2D38F
331
2D305
  5
2D30B
331
2D1DF
  5
2D1E3
331
2D1FE
  5
2D202
331
2D234
  5
2D238
331
2D253
  5
2D257
331
2D272
  5
2D276
331
2D2A8
  5
2D2AC
331
2D2C7
  5
2D2CB
331
2D2E6
  5
2D2EC
331
2D31C
  5
2D322
331
2D33B
  5
2D342
331
2D35A
  5
2D360
331
2D3A0
  5
2D3A6
331
2D3BF
  5
2D3C5
331
2D3DE
  5
2D3E4
331
2D405
  5
2D410
331
29B8A
  5
29B8E
331
2A351
  5
2A362
331
2A370
  5
2A3C7
331
2D38A
  5
2D390
331
2D306
  5
2D30C
331
2D1FF
  5
2D203
331
2D235
  5
2D239
331
2D254
  5
2D258
331
2D273
  5
2D277
331
2D2A9
  5
2D2AD
331
2D2C8
  5
2D2CC
331
2D2E7
  5
2D2ED
331
2D31D
  5
2D323
331
2D35B
  5
2D378
331
2D3A1
  5
2D3A7
331
2D3C0
  5
2D3C6
331
2D3DF
  5
2D3E5
331
2D406
  5
2D411
331
2A371
  5
2A3EC
331
29B3C
  5
24DBE
331
29B8B
  5
29B8F
331
2A352
  5
2A363
331
2D38B
  5
2D391
331
2D31E
  5
2D324
331
2D33D
  5
2D343
331
2D35C
  5
2D379
331
2D3A2
  5
2D3A8
331
2D3C1
  5
2D3C7
331
2D3E0
  5
2D3E6
331
2D407
  5
2D412
331
2D236
  5
2D23A
331
2D255
  5
2D259
331
2D274
  5
2D278
331
2D2AA
  5
2D2AE
331
2D2C9
  5
2D2CD
331
2D2E8
  5
2D2EE
331
2D307
  5
2D30D
331
2A372
  5
2A3ED
331
29B3D
  5
24DB4
331
29B8C
  5
29B90
331
2A353
  5
2A364
331
2D408
  5
2D488
331
2D38C
  5
2D392
331
2D237
  5
2D23B
331
2D256
  5
2D25A
331
2D275
  5
2D279
331
2D2AB
  5
2D2AF
331
2D2CA
  5
2D2CE
331
2D2E9
  5
2D2EF
331
2D31F
  5
2D325
331
2D33E
  5
2D344
331
2D35D
  5
2D37A
331
2D3A3
  5
2D3A9
331
2D3C2
  5
2D3C8
331
2D3E1
  5
2D3E7
331
2D021
  5
2D025
331
29B3E
  5
24DC2
331
29B8D
  5
29B91
331
2A354
  5
2A365
331
2A373
  5
2A3EE
331
2D409
  5
2D4E1
331
2D38D
  5
2D393
331
2D257
  5
2D25B
331
2D276
  5
2D27A
331
2D2AC
  5
2D2B0
331
2D2CB
  5
2D2CF
331
2D2EA
  5
2D2F0
331
2D320
  5
2D326
331
2D33F
  5
2D345
331
2D35E
  5
2D37B
331
2D3A4
  5
2D3AA
331
2D3C3
  5
2D3C9
331
2D3E2
  5
2D3E8
331
2D022
  5
2D026
331
29B3F
  5
24DBB
331
29B8E
  5
2A35E
331
2A355
  5
2A366
331
2A374
  5
2A3EF
331
2D4E1
  5
2D587
331
2D40A
  5
2D51D
331
2D38E
  5
2D394
331
2D277
  5
2D27B
331
2D2AD
  5
2D2B1
331
2D2CC
  5
2D2D0
331
2D2EB
  5
2D2F1
331
2D321
  5
2D327
331
2D340
  5
2D346
331
2D35F
  5
2D37C
331
2D3A5
  5
2D3AB
331
2D3C4
  5
2D3CA
331
2D3E3
  5
2D3E9
331
2D023
  5
2D027
331
29B58
  5
29B85
331
29B8F
  5
2A35F
331
2A356
  5
2A367
331
2A375
  5
2A3F0
331
2D2AE
  5
2D2B2
331
2D2CD
  5
2D2D1
331
2D2EC
  5
2D2F2
331
2D322
  5
2D328
331
2D341
  5
2D347
331
2D360
  5
2D37D
331
2D38F
  5
2D395
331
2D3A6
  5
2D3AC
331
2D3C5
  5
2D3CB
331
2D3E4
  5
2D3EA
331
2D587
  5
2D5F2
331
29B59
  5
29B84
331
29B90
  5
2A360
331
2A357
  5
2A368
331
2A376
  5
2A3F1
331
2D024
  5
2D028
331
2D2AF
  5
2D2B3
331
2D2CE
  5
2D2D2
331
2D2ED
  5
2D2F3
331
2D323
  5
2D329
331
2D342
  5
2D348
331
2D3A7
  5
2D3AD
331
2D3C6
  5
2D3CC
331
2D3E5
  5
2D3EB
331
29B5A
  5
29B74
331
29B91
  5
2A361
331
2A358
  5
2A369
331
2A377
  5
2A3F2
331
2D025
  5
2D029
331
29A83
  5
29B40
331
2D2CF
  5
2D2D3
331
2D2EE
  5
2D2F4
331
2D324
  5
2D32A
331
2D343
  5
2D349
331
2D3A8
  5
2D3AE
331
2D3C7
  5
2D3CD
331
2D3E6
  5
2D3EC
331
29B5B
  5
29B5C
331
2A359
  5
2A36A
331
2A378
  5
2A3F3
331
2D026
  5
2D02A
331
2D2EF
  5
2D2F5
331
2D325
  5
2D32B
331
2D344
  5
2D34A
331
2D3A9
  5
2D3AF
331
2D3C8
  5
2D3CE
331
2D3E7
  5
2D3ED
331
2A35A
  5
2A36B
331
2A379
  5
2A3F4
331
2D027
  5
2D02B
331
2D3AA
  5
2D3B0
331
2D3C9
  5
2D3CF
331
2D3E8
  5
2D3EE
331
2D326
  5
2D32C
331
2D345
  5
2D34B
331
2A35B
  5
2A36C
331
2A37A
  5
2A3F5
331
2D028
  5
2D02C
331
2D3AB
  5
2D3B1
331
2D3CA
  5
2D3D0
331
2D3E9
  5
2D3EF
331
2D327
  5
2D32D
331
2D346
  5
2D34C
331
2A35C
  5
2A36D
331
2A37B
  5
2A3F6
331
2D029
  5
2D02D
331
2D3AC
  5
2D3B6
331
2D3CB
  5
2D3D1
331
2D3EA
  5
2D3F6
331
2D347
  5
2D34D
331
2A35D
  5
2A36E
331
2A37C
  5
2A3F7
331
2D02A
  5
2D02E
331
2D3AD
  5
2D3B7
331
2D3CC
  5
2D3D2
331
2D3EB
  5
2D3F9
331
2A35E
  5
2A36F
331
2A37D
  5
2A77A
331
2BF6C
  5
2D021
331
2D02B
  5
2D02F
331
2D3AE
  5
2D3B8
331
2D3CD
  5
2D3D3
331
2D3EC
  5
2D3FB
331
2A35F
  5
2A370
331
2A37E
  5
2A77B
331
2D02C
  5
2D030
331
2D3AF
  5
2D3B9
331
2D3CE
  5
2D3D4
331
2D3ED
  5
2D3FC
331
2D5AF
  5
2D5F3
331
2A360
  5
2A371
331
2A37F
  5
2BF7F
331
2D02D
  5
2D031
331
29ABB
  5
29B5A
331
2D3CF
  5
2D3D5
331
2D3EE
  5
2D3FD
331
2D572
  5
2D5CF
331
2A361
  5
2A372
331
2A380
  5
2CB94
331
2D02E
  5
2D032
331
2D3EF
  5
2D3FE
331
29B74
  5
29B59
331
2A362
  5
2A373
331
2D02F
  5
2D033
331
27C66
  5
29B3E
331
2D51D
  5
2D5AF
331
29B75
  5
29B58
331
2A363
  5
2A374
331
27C67
  5
29B3F
331
2D030
  5
2D034
331
2D038
  5
2D03C
331
29B76
  5
29B81
331
2A364
  5
2A376
331
2D031
  5
2D035
331
2D039
  5
2D03D
331
2D058
  5
2D05C
331
29B77
  5
29B76
331
2A365
  5
2A377
331
2D032
  5
2D036
331
2D03A
  5
2D03E
331
2D059
  5
2D05D
331
2D078
  5
2D07C
331
2A366
  5
2A378
331
2D033
  5
2D037
331
2D03B
  5
2D03F
331
2D05A
  5
2D05E
331
2D079
  5
2D07D
331
2D098
  5
2D09C
331
2A367
  5
2A379
331
2D034
  5
2D038
331
29B81
  5
29B86
331
2D5CF
  5
2D5F4
331
2D03C
  5
2D040
331
2D05B
  5
2D05F
331
2D07A
  5
2D07E
331
2D099
  5
2D09D
331
2D0B0
  5
2D0B4
331
2D035
  5
2D039
331
2D03D
  5
2D041
331
2D05C
  5
2D060
331
2D07B
  5
2D07F
331
2D09A
  5
2D09E
331
2D0B1
  5
2D0B5
331
2D0D0
  5
2D0D4
331
2D036
  5
2D03A
331
29B24
  5
29B75
331
29B83
  5
29B87
331
2A369
  5
2A37A
331
2D03E
  5
2D042
331
2D05D
  5
2D061
331
2D07C
  5
2D080
331
2D09B
  5
2D09F
331
2D0B2
  5
2D0B6
331
2D0D1
  5
2D0D5
331
2D0F0
  5
2D0F4
331
2D037
  5
2D03B
331
29B84
  5
29B88
331
2A36A
  5
2A37B
331
2D03F
  5
2D043
331
2D05E
  5
2D062
331
2D07D
  5
2D081
331
2D09C
  5
2D0A0
331
2D0B3
  5
2D0B7
331
2D0D2
  5
2D0D6
331
2D0F1
  5
2D0F5
331
2D110
  5
2D114
331
29B85
  5
29B89
331
2A36B
  5
2A37C
331
2A77A
  5
2CB96
331
2D040
  5
2D044
331
2D05F
  5
2D063
331
2D07E
  5
2D082
331
2D09D
  5
2D0A1
331
2D0B4
  5
2D0B8
331
2D0D3
  5
2D0D7
331
2D0F2
  5
2D0F6
331
2D111
  5
2D115
331
2D128
  5
2D12C
331
29B27
  5
29B83
331
29B86
  5
29B8A
331
2A36C
  5
2A37D
331
2A77B
  5
2CB97
331
2D041
  5
2D045
331
2D060
  5
2D064
331
2D07F
  5
2D083
331
2D09E
  5
2D0A2
331
2D0B5
  5
2D0B9
331
2D0D4
  5
2D0D8
331
2D0F3
  5
2D0F7
331
2D112
  5
2D116
331
2D129
  5
2D12D
331
2D148
  5
2D14C
331
29B87
  5
29B8B
331
2A36D
  5
2A37E
331
2CB93
  5
2D022
331
2D042
  5
2D046
331
2D061
  5
2D065
331
2D080
  5
2D084
331
2D09F
  5
2D0A3
331
2D0B6
  5
2D0BA
331
2D0D5
  5
2D0D9
331
2D0F4
  5
2D0F8
331
2D113
  5
2D117
331
2D12A
  5
2D12E
331
2D149
  5
2D14D
331
2D168
  5
2D16C
331
2A36E
  5
2A37F
331
2D0B7
  5
2D0BB
331
2D043
  5
2D047
331
2D062
  5
2D066
331
2D081
  5
2D085
331
2D0A0
  5
2D0A4
331
2D0D6
  5
2D0DA
331
2D0F5
  5
2D0F9
331
2D114
  5
2D118
331
2D12B
  5
2D12F
331
2D14A
  5
2D14E
331
2D169
  5
2D16D
331
2D188
  5
2D18C
331
2CB95
  5
2D023
331
2A36F
  5
2A380
331
2D1A0
  5
2D1A4
331
2D0B8
  5
2D0BC
331
2D044
  5
2D048
331
2D063
  5
2D067
331
2D082
  5
2D086
331
2D0A1
  5
2D0A5
331
2D0D7
  5
2D0DB
331
2D0F6
  5
2D0FA
331
2D115
  5
2D119
331
2D12C
  5
2D130
331
2D14B
  5
2D14F
331
2D16A
  5
2D16E
331
2D189
  5
2D18D
331
2CB96
  5
2D024
331
2D1A1
  5
2D1A5
331
2D1C0
  5
2D1C4
331
2D0B9
  5
2D0BD
331
2D045
  5
2D049
331
2D064
  5
2D068
331
2D083
  5
2D087
331
2D0A2
  5
2D0A6
331
2D0D8
  5
2D0DC
331
2D0F7
  5
2D0FB
331
2D116
  5
2D11A
331
2D12D
  5
2D131
331
2D14C
  5
2D150
331
2D16B
  5
2D16F
331
2D18A
  5
2D18E
331
2D1A2
  5
2D1A6
331
2D1C1
  5
2D1C5
331
2D1E0
  5
2D1E4
331
2D0BA
  5
2D0BE
331
2D046
  5
2D04A
331
2D065
  5
2D069
331
2D084
  5
2D088
331
2D0A3
  5
2D0A7
331
2D0D9
  5
2D0DD
331
2D0F8
  5
2D0FC
331
2D117
  5
2D11B
331
2D12E
  5
2D132
331
2D14D
  5
2D151
331
2D16C
  5
2D170
331
2D18B
  5
2D18F
331
2D1A3
  5
2D1A7
331
2D1C2
  5
2D1C6
331
2D1E1
  5
2D1E5
331
2D200
  5
2D204
331
2D0BB
  5
2D0BF
331
2D047
  5
2D04B
331
2D066
  5
2D06A
331
2D085
  5
2D089
331
2D0A4
  5
2D0A8
331
2D0DA
  5
2D0DE
331
2D0F9
  5
2D0FD
331
2D118
  5
2D11C
331
2D12F
  5
2D133
331
2D14E
  5
2D152
331
2D16D
  5
2D171
331
2D18C
  5
2D190
331
2D218
  5
2D21C
331
2D1A4
  5
2D1A8
331
2D1C3
  5
2D1C7
331
2D1E2
  5
2D1E6
331
2D201
  5
2D205
331
2D0BC
  5
2D0C0
331
2D048
  5
2D04C
331
2D067
  5
2D06B
331
2D086
  5
2D08A
331
2D0A5
  5
2D0A9
331
2D0DB
  5
2D0DF
331
2D0FA
  5
2D0FE
331
2D119
  5
2D11D
331
2D130
  5
2D134
331
2D14F
  5
2D153
331
2D16E
  5
2D172
331
2D18D
  5
2D191
331
2D219
  5
2D21D
331
2D1A5
  5
2D1A9
331
2D1C4
  5
2D1C8
331
2D1E3
  5
2D1E7
331
2D202
  5
2D206
331
2D238
  5
2D23C
331
2D0BD
  5
2D0C1
331
2D049
  5
2D04D
331
2D068
  5
2D06C
331
2D087
  5
2D08B
331
2D0A6
  5
2D0AA
331
2D0DC
  5
2D0E0
331
2D0FB
  5
2D0FF
331
2D11A
  5
2D11E
331
2D131
  5
2D135
331
2D150
  5
2D154
331
2D16F
  5
2D173
331
2D18E
  5
2D192
331
2D21A
  5
2D21E
331
2D1A6
  5
2D1AA
331
2D1C5
  5
2D1C9
331
2D1E4
  5
2D1E8
331
2D203
  5
2D207
331
2D239
  5
2D23D
331
2D258
  5
2D25C
331
2D0BE
  5
2D0C2
331
2D04A
  5
2D04E
331
2D069
  5
2D06D
331
2D088
  5
2D08C
331
2D0A7
  5
2D0AB
331
2D0DD
  5
2D0E1
331
2D0FC
  5
2D100
331
2D11B
  5
2D11F
331
2D132
  5
2D136
331
2D151
  5
2D155
331
2D170
  5
2D174
331
2D18F
  5
2D193
331
2D21B
  5
2D21F
331
2D1A7
  5
2D1AB
331
2D1C6
  5
2D1CA
331
2D1E5
  5
2D1E9
331
2D204
  5
2D208
331
2D23A
  5
2D23E
331
2D259
  5
2D25D
331
2D278
  5
2D27C
331
2D0BF
  5
2D0C3
331
2D0DE
  5
2D0E2
331
2D0FD
  5
2D101
331
2D11C
  5
2D120
331
2D133
  5
2D137
331
2D152
  5
2D156
331
2D171
  5
2D175
331
2D190
  5
2D194
331
2D04B
  5
2D04F
331
2D06A
  5
2D06E
331
2D089
  5
2D08D
331
2D0A8
  5
2D0AC
331
2D290
  5
2D294
331
2D21C
  5
2D220
331
2D1A8
  5
2D1AC
331
2D1C7
  5
2D1CB
331
2D1E6
  5
2D1EA
331
2D205
  5
2D209
331
2D23B
  5
2D23F
331
2D25A
  5
2D25E
331
2D279
  5
2D27D
331
2D0C0
  5
2D0C4
331
2D0DF
  5
2D0E3
331
2D0FE
  5
2D102
331
2D11D
  5
2D121
331
2D134
  5
2D138
331
2D153
  5
2D157
331
2D172
  5
2D176
331
2D191
  5
2D195
331
2D04C
  5
2D050
331
2D06B
  5
2D06F
331
2D08A
  5
2D08E
331
2D0A9
  5
2D0AD
331
2D291
  5
2D295
331
2D21D
  5
2D221
331
2D1A9
  5
2D1AD
331
2D1C8
  5
2D1CC
331
2D1E7
  5
2D1EB
331
2D206
  5
2D20A
331
2D23C
  5
2D240
331
2D25B
  5
2D25F
331
2D27A
  5
2D27E
331
2D2B0
  5
2D2B4
331
2D11E
  5
2D122
331
2D0C1
  5
2D0C5
331
2D0E0
  5
2D0E4
331
2D0FF
  5
2D103
331
2D135
  5
2D139
331
2D154
  5
2D158
331
2D173
  5
2D177
331
2D192
  5
2D196
331
2D04D
  5
2D051
331
2D06C
  5
2D070
331
2D08B
  5
2D08F
331
2D0AA
  5
2D0AE
331
2D292
  5
2D296
331
2D21E
  5
2D222
331
2D1AA
  5
2D1AE
331
2D1C9
  5
2D1CD
331
2D1E8
  5
2D1EC
331
2D207
  5
2D20B
331
2D23D
  5
2D241
331
2D25C
  5
2D260
331
2D27B
  5
2D27F
331
2D2B1
  5
2D2B5
331
2D2D0
  5
2D2D4
331
2D11F
  5
2D123
331
2D0C2
  5
2D0C6
331
2D0E1
  5
2D0E5
331
2D100
  5
2D104
331
2D136
  5
2D13A
331
2D155
  5
2D159
331
2D174
  5
2D178
331
2D193
  5
2D197
331
2D04E
  5
2D052
331
2D06D
  5
2D071
331
2D08C
  5
2D090
331
2D0AB
  5
2D0AF
331
2D293
  5
2D297
331
2D21F
  5
2D223
331
2D137
  5
2D13B
331
2D156
  5
2D15A
331
2D175
  5
2D179
331
2D194
  5
2D198
331
2D101
  5
2D105
331
2D0C3
  5
2D0C7
331
2D0E2
  5
2D0E6
331
2D08D
  5
2D091
331
2D04F
  5
2D053
331
2D06E
  5
2D072
331
2D0AC
  5
2D0B0
331
2D120
  5
2D124
331
2D1AB
  5
2D1AF
331
2D1CA
  5
2D1CE
331
2D1E9
  5
2D1ED
331
2D208
  5
2D20C
331
2D23E
  5
2D242
331
2D25D
  5
2D261
331
2D27C
  5
2D280
331
2D2B2
  5
2D2B6
331
2D2D1
  5
2D2D5
331
2D2F0
  5
2D2F6
331
2D294
  5
2D298
331
2D220
  5
2D224
331
2D1AC
  5
2D1B0
331
2D1CB
  5
2D1CF
331
2D1EA
  5
2D1EE
331
2D209
  5
2D20D
331
2D23F
  5
2D243
331
2D25E
  5
2D262
331
2D27D
  5
2D281
331
2D2B3
  5
2D2B7
331
2D2D2
  5
2D2D6
331
2D2F1
  5
2D2F7
331
2D308
  5
2D30E
331
2D121
  5
2D125
331
2D0AD
  5
2D0B1
331
2D0C4
  5
2D0C8
331
2D050
  5
2D054
331
2D06F
  5
2D073
331
2D08E
  5
2D092
331
2D0E3
  5
2D0E7
331
2D102
  5
2D106
331
2D138
  5
2D13C
331
2D157
  5
2D15B
331
2D176
  5
2D17A
331
2D195
  5
2D199
331
2D295
  5
2D299
331
2D221
  5
2D225
331
2D1AD
  5
2D1B1
331
2D1CC
  5
2D1D0
331
2D1EB
  5
2D1EF
331
2D20A
  5
2D20E
331
2D240
  5
2D244
331
2D25F
  5
2D263
331
2D27E
  5
2D282
331
2D2B4
  5
2D2B8
331
2D2D3
  5
2D2D7
331
2D2F2
  5
2D2F8
331
2D309
  5
2D30F
331
2D328
  5
2D32E
331
2D122
  5
2D126
331
2D0AE
  5
2D0B2
331
2D051
  5
2D055
331
2D070
  5
2D074
331
2D08F
  5
2D093
331
2D0C5
  5
2D0C9
331
2D0E4
  5
2D0E8
331
2D103
  5
2D107
331
2D139
  5
2D13D
331
2D158
  5
2D15C
331
2D177
  5
2D17B
331
2D196
  5
2D19A
331
2D296
  5
2D29A
331
2D222
  5
2D226
331
2D1AE
  5
2D1B2
331
2D1CD
  5
2D1D1
331
2D1EC
  5
2D1F0
331
2D20B
  5
2D20F
331
2D241
  5
2D245
331
2D260
  5
2D264
331
2D27F
  5
2D283
331
2D2B5
  5
2D2B9
331
2D2D4
  5
2D2D8
331
2D2F3
  5
2D2F9
331
2D30A
  5
2D310
331
2D329
  5
2D32F
331
2D348
  5
2D34E
331
2D123
  5
2D127
331
2D0AF
  5
2D0B3
331
2D052
  5
2D056
331
2D071
  5
2D075
331
2D090
  5
2D094
331
2D0C6
  5
2D0CA
331
2D0E5
  5
2D0E9
331
2D104
  5
2D108
331
2D13A
  5
2D13E
331
2D159
  5
2D15D
331
2D178
  5
2D17C
331
2D197
  5
2D19B
331
2D297
  5
2D29B
331
2D223
  5
2D227
331
2D198
  5
2D19C
331
2D1AF
  5
2D1B3
331
2D1CE
  5
2D1D2
331
2D1ED
  5
2D1F1
331
2D20C
  5
2D210
331
2D242
  5
2D246
331
2D261
  5
2D265
331
2D280
  5
2D284
331
2D2B6
  5
2D2BA
331
2D2D5
  5
2D2D9
331
2D2F4
  5
2D2FA
331
2D30B
  5
2D311
331
2D32A
  5
2D330
331
2D349
  5
2D34F
331
2D378
  5
2D37E
331
2D124
  5
2D128
331
2D053
  5
2D057
331
2D072
  5
2D076
331
2D091
  5
2D095
331
2D0C7
  5
2D0CB
331
2D0E6
  5
2D0EA
331
2D105
  5
2D109
331
2D13B
  5
2D13F
331
2D15A
  5
2D15E
331
2D179
  5
2D17D
331
2D390
  5
2D396
331
2D298
  5
2D29C
331
2D224
  5
2D228
331
2D199
  5
2D19D
331
2D1B0
  5
2D1B4
331
2D1CF
  5
2D1D3
331
2D1EE
  5
2D1F2
331
2D20D
  5
2D211
331
2D243
  5
2D247
331
2D262
  5
2D266
331
2D281
  5
2D285
331
2D2B7
  5
2D2BB
331
2D2D6
  5
2D2DA
331
2D2F5
  5
2D2FB
331
2D30C
  5
2D312
331
2D32B
  5
2D331
331
2D34A
  5
2D350
331
2D379
  5
2D37F
331
2D125
  5
2D129
331
2D054
  5
2D058
331
2D073
  5
2D077
331
2D092
  5
2D096
331
2D0C8
  5
2D0CC
331
2D0E7
  5
2D0EB
331
2D106
  5
2D10A
331
2D13C
  5
2D140
331
2D15B
  5
2D15F
331
2D17A
  5
2D17E
331
2D391
  5
2D397
331
2D3B0
  5
2D3BA
331
2D299
  5
2D29D
331
2D225
  5
2D229
331
2D19A
  5
2D19E
331
2D1B1
  5
2D1B5
331
2D1D0
  5
2D1D4
331
2D1EF
  5
2D1F3
331
2D20E
  5
2D212
331
2D244
  5
2D248
331
2D263
  5
2D267
331
2D282
  5
2D286
331
2D2B8
  5
2D2BC
331
2D2D7
  5
2D2DB
331
2D2F6
  5
2D2FC
331
2D30D
  5
2D313
331
2D32C
  5
2D332
331
2D34B
  5
2D351
331
2D37A
  5
2D380
331
2D126
  5
2D12A
331
2D055
  5
2D059
331
2D074
  5
2D078
331
2D093
  5
2D097
331
2D0C9
  5
2D0CD
331
2D0E8
  5
2D0EC
331
2D107
  5
2D10B
331
2D13D
  5
2D141
331
2D15C
  5
2D160
331
2D17B
  5
2D17F
331
108D
  5
29563
331
2D392
  5
2D398
331
2D3B1
  5
2D3BB
331
2D3D0
  5
2D3D6
331
2D29A
  5
2D29E
331
2D264
  5
2D268
331
2D226
  5
2D22A
331
2D19B
  5
2D19F
331
2D1B2
  5
2D1B6
331
2D1D1
  5
2D1D5
331
2D1F0
  5
2D1F4
331
2D20F
  5
2D213
331
2D245
  5
2D249
331
2D283
  5
2D287
331
2D2B9
  5
2D2BD
331
2D2D8
  5
2D2DC
331
2D2F7
  5
2D2FD
331
2D30E
  5
2D314
331
2D32D
  5
2D333
331
2D34C
  5
2D352
331
2D37B
  5
2D381
331
2D127
  5
2D12B
331
2D056
  5
2D05A
331
2D075
  5
2D079
331
2D094
  5
2D098
331
2D0CA
  5
2D0CE
331
2D0E9
  5
2D0ED
331
2D108
  5
2D10C
331
2D13E
  5
2D142
331
2D15D
  5
2D161
331
2D17C
  5
2D180
331
2D393
  5
2D399
331
2D3D1
  5
2D3D7
331
2D284
  5
2D288
331
2D210
  5
2D214
331
2D227
  5
2D22B
331
2D19C
  5
2D1A0
331
2D1B3
  5
2D1B7
331
2D1D2
  5
2D1D6
331
2D1F1
  5
2D1F5
331
2D246
  5
2D24A
331
2D265
  5
2D269
331
2D29B
  5
2D29F
331
2D2BA
  5
2D2BE
331
2D2D9
  5
2D2DF
331
2D2F8
  5
2D2FE
331
2D30F
  5
2D315
331
2D32E
  5
2D334
331
2D34D
  5
2D353
331
2D37C
  5
2D382
331
2D057
  5
2D05B
331
2D076
  5
2D07A
331
2D095
  5
2D099
331
2D0CB
  5
2D0CF
331
2D0EA
  5
2D0EE
331
2D109
  5
2D10D
331
2D13F
  5
2D143
331
2D15E
  5
2D162
331
2D17D
  5
2D181
331
108F
  5
29564
331
2D394
  5
2D39A
331
2D3D2
  5
2D3D8
331
2D3F9
  5
2D3FF
331
2D410
  5
2D535
331
2D285
  5
2D289
331
2D211
  5
2D215
331
2D228
  5
2D22C
331
2D19D
  5
2D1A1
331
2D1B4
  5
2D1B8
331
2D1D3
  5
2D1D7
331
2D1F2
  5
2D1F6
331
2D247
  5
2D24B
331
2D266
  5
2D26A
331
2D29C
  5
2D2A0
331
2D2BB
  5
2D2BF
331
2D2DA
  5
2D2E0
331
2D2F9
  5
2D2FF
331
2D310
  5
2D316
331
2D32F
  5
2D335
331
2D34E
  5
2D354
331
2D37D
  5
2D383
331
2D077
  5
2D07B
331
2D096
  5
2D09A
331
2D0CC
  5
2D0D0
331
2D0EB
  5
2D0EF
331
2D10A
  5
2D10E
331
2D140
  5
2D144
331
2D15F
  5
2D163
331
2D17E
  5
2D182
331
1090
  5
29B3C
331
2D395
  5
2D39B
331
2D3D3
  5
2D3D9
331
2D3FA
  5
2D400
331
2D411
  5
2D570
331
2D286
  5
2D28A
331
2D212
  5
2D216
331
2D229
  5
2D22D
331
2D19E
  5
2D1A2
331
2D1B5
  5
2D1B9
331
2D1D4
  5
2D1D8
331
2D1F3
  5
2D1F7
331
2D248
  5
2D24C
331
2D267
  5
2D26B
331
2D29D
  5
2D2A1
331
2D2BC
  5
2D2C0
331
2D2DB
  5
2D2E1
331
2D2FA
  5
2D300
331
2D311
  5
2D317
331
2D330
  5
2D336
331
2D34F
  5
2D355
331
2D37E
  5
2D384
331
2D097
  5
2D09B
331
2D0CD
  5
2D0D1
331
2D0EC
  5
2D0F0
331
2D10B
  5
2D10F
331
2D141
  5
2D145
331
2D160
  5
2D164
331
2D17F
  5
2D183
331
2D396
  5
2D39C
331
2D3D4
  5
2D3DA
331
2D3FB
  5
2D401
331
2D412
  5
2D572
331
2D2DC
  5
2D2E2
331
2D287
  5
2D28B
331
2D213
  5
2D217
331
2D1F4
  5
2D1F8
331
2D19F
  5
2D1A3
331
2D0CE
  5
2D0D2
331
2D0ED
  5
2D0F1
331
2D10C
  5
2D110
331
2D142
  5
2D146
331
2D161
  5
2D165
331
2D180
  5
2D184
331
2D1B6
  5
2D1BA
331
2D1D5
  5
2D1D9
331
2D22A
  5
2D22E
331
2D249
  5
2D24D
331
2D268
  5
2D26C
331
2D29E
  5
2D2A2
331
2D2BD
  5
2D2C1
331
2D2FB
  5
2D301
331
2D312
  5
2D318
331
2D331
  5
2D338
331
2D350
  5
2D356
331
2D37F
  5
2D385
331
2D397
  5
2D39D
331
2D3B6
  5
2D3BC
331
2D3D5
  5
2D3DB
331
2D3FC
  5
2D402
331
2D2DD
  5
2D2E3
331
2D288
  5
2D28C
331
2D24A
  5
2D24E
331
2D214
  5
2D218
331
2D1D6
  5
2D1DA
331
2D0CF
  5
2D0D3
331
2D0EE
  5
2D0F2
331
2D10D
  5
2D111
331
2D143
  5
2D147
331
2D162
  5
2D166
331
2D181
  5
2D185
331
2D1B7
  5
2D1BB
331
2D1F5
  5
2D1F9
331
2D22B
  5
2D22F
331
2D269
  5
2D26D
331
2D29F
  5
2D2A3
331
2D2BE
  5
2D2C2
331
2D2FC
  5
2D302
331
2D313
  5
2D319
331
2D332
  5
2D339
331
2D351
  5
2D357
331
2D380
  5
2D386
  0
SORTENTSTABLE
  5
29D1
102
{ACAD_REACTORS
330
29CF
102
}
330
29CF
100
AcDbSortentsTable
330
341
  0
DIMASSOC
  5
2D4F8
102
{ACAD_REACTORS
330
2D4EE
102
}
330
2D4EE
100
AcDbDimAssoc
330
2D4E1
 90
        3
 70
     0
 71
     0
  1
AcDbOsnapPointRef
 72
    13
331
2D392
 73
     2
 91
        0
 40
0.0
 10
0.0
 20
0.0
 30
2.000000000000000E+50
 75
     0
  1
AcDbOsnapPointRef
 72
    13
331
2D3B1
 73
     2
 91
        0
 40
0.0
 10
0.0
 20
0.0
 30
2.000000000000000E+50
 75
     0
  0
DIMASSOC
  5
2D534
102
{ACAD_REACTORS
330
2D52A
102
}
330
2D52A
100
AcDbDimAssoc
330
2D51D
 90
        1
 70
     0
 71
     0
  1
AcDbOsnapPointRef
 72
    13
331
2D33D
 73
     2
 91
        0
 40
4.769023023927196
 10
0.0
 20
0.0
 30
2.000000000000000E+50
 75
     0
  0
DIMASSOC
  5
2D59E
102
{ACAD_REACTORS
330
2D594
102
}
330
2D594
100
AcDbDimAssoc
330
2D587
 90
        3
 70
     0
 71
     0
  1
AcDbOsnapPointRef
 72
    13
331
2D392
 73
     2
 91
        0
 40
0.0
 10
0.0
 20
0.0
 30
2.000000000000000E+50
 75
     0
  1
AcDbOsnapPointRef
 72
     1
331
2D3ED
 73
     2
 91
        0
 40
1.570796326794896
 10
0.0
 20
0.0
 30
2.000000000000000E+50
 75
     0
  0
DIMASSOC
  5
2D60C
102
{ACAD_REACTORS
330
2D602
102
}
330
2D602
100
AcDbDimAssoc
330
2D5F5
 90
        3
 70
     0
 71
     0
  1
AcDbOsnapPointRef
 72
     2
331
2D379
 73
     2
 91
        0
 40
0.5
 10
0.0
 20
0.0
 30
0.0
 75
     0
  1
AcDbOsnapPointRef
 72
     2
331
2D39D
 73
     2
 91
        0
 40
0.5
 10
0.0
 20
0.0
 30
0.0
 75
     0
  0
ACDBDETAILVIEWSTYLE
  5
2D679
102
{ACAD_XDICTIONARY
360
2D69B
102
}
102
{ACAD_REACTORS
330
2D678
102
}
330
2D678
100
AcDbModelDocViewStyle
 70
     0
  3
Metric50
290
     0
100
AcDbDetailViewStyle
 70
     0
 71
     0
 90
        3
 71
     1
340
11
 62
   256
 40
5.0
340
0
 62
   256
 40
5.0
300

 40
0.0
280
     1
 71
     2
340
16
 90
       25
 62
   256
 71
     3
340
11
 62
   256
 40
5.0
 90
        0
 40
15.0
 90
        1
300
%<\AcVar ViewDetailId>% (%<\AcVar ViewScale \f "%sn">%)
 71
     4
340
16
 90
       25
 62
   256
340
16
 90
       25
 62
   256
280
     0
  0
GROUP
  5
29F6
102
{ACAD_REACTORS
330
D
102
}
330
D
100
AcDbGroup
300

 70
     1
 71
     1
340
29CE
340
29CD
340
29CC
340
29CB
340
29CA
340
29C9
340
29C8
340
29C7
340
29C6
340
29C5
340
29C4
340
29C3
340
29C2
340
29C1
340
29C0
340
29BF
340
29BE
340
29BD
340
29BC
340
29BB
340
29BA
340
29B9
340
29B8
340
29B7
  0
LAYOUT
  5
22
102
{ACAD_XDICTIONARY
360
24E2E
102
}
102
{ACAD_REACTORS
330
1A
102
}
330
1A
100
AcDbPlotSettings
  1

  2
Canon TS8130 series
  4
A4
  6

 40
4.180416584014892
 41
5.831417560577392
 42
4.180404663085937
 43
3.757080078125
 44
209.9733276367187
 45
296.9683227539062
 46
-0.0062006872036022
 47
1.756521382387688
 48
4.0
 49
2.0
140
82.0
141
57.4
142
1.0
143
1.374
 70
  3748
 72
     1
 73
     1
 74
     1
  7
monochrome.ctb
 75
     0
147
0.7277572728131227
 76
     1
 77
     2
 78
   300
148
-19.98230080583869
149
-9.983689057621745
100
AcDbLayout
  1
Model
 70
     1
 71
     0
 10
0.0
 20
0.0
 11
12.0
 21
9.0
 12
0.0
 22
0.0
 32
0.0
 14
0.0
 24
0.0
 34
0.0
 15
0.0
 25
0.0
 35
0.0
146
0.0
 13
0.0
 23
0.0
 33
0.0
 16
1.0
 26
0.0
 36
0.0
 17
0.0
 27
1.0
 37
0.0
 76
     0
330
1F
331
275F
1001
ACAD_PSEXT
1000
Canon TS8130 series
1000
Canon TS8130 series
1000
USB001
1000

1070
     0
  0
LAYOUT
  5
51
102
{ACAD_XDICTIONARY
360
2E30
102
}
102
{ACAD_REACTORS
330
1A
102
}
330
1A
100
AcDbPlotSettings
  1

  2
\\KASHIKEI2\EPSON PX-1001
  4
A3
  6

 40
3.757083415985107
 41
3.757076740264892
 42
3.757080078125
 43
3.757080078125
 44
296.9683227539062
 45
420.0172119140624
 46
0.0
 47
0.0
 48
0.0
 49
0.0
140
0.0
141
0.0
142
1.0
143
1.0
 70
   672
 72
     1
 73
     1
 74
     5
  7
monochrome.ctb
 75
    16
147
1.0
 76
     1
 77
     2
 78
   300
148
0.0
149
0.0
100
AcDbLayout
  1
ﾚｲｱｳﾄ1
 70
     1
 71
     1
 10
-3.757080078125
 20
-3.757083415985107
 11
416.2601318359374
 21
293.2112393379211
 12
0.0
 22
0.0
 32
0.0
 14
-58.82240024691737
 24
-86.72323328256494
 34
0.0
 15
448.1718497119468
 25
324.5569721112054
 35
0.0
146
0.0
 13
0.0
 23
0.0
 33
0.0
 16
1.0
 26
0.0
 36
0.0
 17
0.0
 27
1.0
 37
0.0
 76
     0
330
50
331
6B
1001
ACAD_PSEXT
1000
\\KASHIKEI2\EPSON PX-1001
1000
EPSON PX-1001
1000
\\KASHIKEI2
1000

1070
     0
  0
LAYOUT
  5
56
102
{ACAD_REACTORS
330
1A
102
}
330
1A
100
AcDbPlotSettings
  1

  2
none_device
  4
Letter_(8.50_x_11.00_Inches)
  6

 40
6.349999904632567
 41
6.349999904632567
 42
6.350006103515625
 43
6.350006103515625
 44
215.8999938964843
 45
279.3999938964843
 46
0.0
 47
0.0
 48
0.0
 49
0.0
140
0.0
141
0.0
142
1.0
143
1.0
 70
   688
 72
     1
 73
     1
 74
     5
  7
monochrome.ctb
 75
    16
147
1.0
 76
     0
 77
     2
 78
   300
148
0.0
149
0.0
100
AcDbLayout
  1
ﾚｲｱｳﾄ2
 70
     1
 71
     2
 10
-6.350006103515625
 20
-6.349999904632567
 11
273.0499877929687
 21
209.5499939918517
 12
0.0
 22
0.0
 32
0.0
 14
26.66076962115562
 24
20.31135699206657
 34
-0.0015258207003583
 15
240.039213369355
 25
182.8886381005154
 35
0.0000000349246037
146
0.0
 13
0.0
 23
0.0
 33
0.0
 16
1.0
 26
0.0
 36
0.0
 17
0.0
 27
1.0
 37
0.0
 76
     0
330
55
331
71
  0
MATERIAL
  5
2763
102
{ACAD_REACTORS
330
2761
102
}
330
2761
100
AcDbMaterial
  1
ByBlock
 73
     1
 78
     1
172
     1
176
     1
270
     1
274
     1
 94
       63
  0
MATERIAL
  5
2762
102
{ACAD_REACTORS
330
2761
102
}
330
2761
100
AcDbMaterial
  1
ByLayer
 73
     1
 78
     1
172
     1
176
     1
270
     1
274
     1
 94
       63
  0
MATERIAL
  5
2764
102
{ACAD_REACTORS
330
2761
102
}
330
2761
100
AcDbMaterial
  1
Global
 73
     1
 78
     1
172
     1
176
     1
270
     1
274
     1
 94
       63
  0
MLEADERSTYLE
  5
247F2
102
{ACAD_REACTORS
330
247F1
102
}
330
247F1
100
AcDbMLeaderStyle
179
     2
170
     2
171
     1
172
     0
 90
        2
 40
0.0
 41
0.0
173
     1
 91
-1056964608
340
14
 92
       -2
290
     1
 42
2.0
291
     1
 43
0.36
  3
Standard
 44
4.0
300

342
11
174
     1
178
     6
175
     1
176
     0
 93
-1056964608
 45
4.0
292
     0
297
     0
 46
4.0
 94
-1056964608
 47
1.0
 49
1.0
140
1.0
293
     1
141
0.0
294
     1
177
     0
142
1.0
295
     1
296
     0
143
0.125
271
     0
272
     9
273
     9
298
     0
  0
MLINESTYLE
  5
18
102
{ACAD_REACTORS
330
17
102
}
330
17
100
AcDbMlineStyle
  2
STANDARD
 70
     0
  3

 62
   256
 51
90.0
 52
90.0
 71
     2
 49
0.5
 62
   256
  6
BYLAYER
 49
-0.5
 62
   256
  6
BYLAYER
  0
PLOTSETTINGS
  5
E74
102
{ACAD_REACTORS
330
19
102
}
330
19
100
AcDbPlotSettings
  1
印刷
  2
EPSON PM-930C.pc3
  4
A4
  6

 40
3.757083177566528
 41
14.7637300491333
 42
3.757080078125
 43
3.757080078125
 44
209.9733276367186
 45
296.9683227539062
 46
-3.77
 47
-9.279999999999999
 48
0.0
 49
0.0
140
0.0
141
0.0
142
1.0
143
1.0
 70
  1716
 72
     1
 73
     0
 74
     2
  7
黒.ctb
 75
    16
147
1.0
 76
     0
 77
     2
 78
   300
148
0.0
149
0.0
  0
ACDBPLACEHOLDER
  5
F
102
{ACAD_REACTORS
330
E
102
}
330
E
  0
SCALE
  5
247E0
102
{ACAD_REACTORS
330
247DF
102
}
330
247DF
100
AcDbScale
 70
     0
300
1:1
140
1.0
141
1.0
290
     1
  0
SCALE
  5
247E1
102
{ACAD_REACTORS
330
247DF
102
}
330
247DF
100
AcDbScale
 70
     0
300
1:2
140
1.0
141
2.0
290
     0
  0
SCALE
  5
247E2
102
{ACAD_REACTORS
330
247DF
102
}
330
247DF
100
AcDbScale
 70
     0
300
1:4
140
1.0
141
4.0
290
     0
  0
SCALE
  5
247E3
102
{ACAD_REACTORS
330
247DF
102
}
330
247DF
100
AcDbScale
 70
     0
300
1:5
140
1.0
141
5.0
290
     0
  0
SCALE
  5
247E4
102
{ACAD_REACTORS
330
247DF
102
}
330
247DF
100
AcDbScale
 70
     0
300
1:8
140
1.0
141
8.0
290
     0
  0
SCALE
  5
247E5
102
{ACAD_REACTORS
330
247DF
102
}
330
247DF
100
AcDbScale
 70
     0
300
1:10
140
1.0
141
10.0
290
     0
  0
SCALE
  5
247E6
102
{ACAD_REACTORS
330
247DF
102
}
330
247DF
100
AcDbScale
 70
     0
300
1:16
140
1.0
141
16.0
290
     0
  0
SCALE
  5
247E7
102
{ACAD_REACTORS
330
247DF
102
}
330
247DF
100
AcDbScale
 70
     0
300
1:20
140
1.0
141
20.0
290
     0
  0
SCALE
  5
247E8
102
{ACAD_REACTORS
330
247DF
102
}
330
247DF
100
AcDbScale
 70
     0
300
1:30
140
1.0
141
30.0
290
     0
  0
SCALE
  5
247E9
102
{ACAD_REACTORS
330
247DF
102
}
330
247DF
100
AcDbScale
 70
     0
300
1:40
140
1.0
141
40.0
290
     0
  0
SCALE
  5
247EA
102
{ACAD_REACTORS
330
247DF
102
}
330
247DF
100
AcDbScale
 70
     0
300
1:50
140
1.0
141
50.0
290
     0
  0
SCALE
  5
247EB
102
{ACAD_REACTORS
330
247DF
102
}
330
247DF
100
AcDbScale
 70
     0
300
1:100
140
1.0
141
100.0
290
     0
  0
SCALE
  5
247EC
102
{ACAD_REACTORS
330
247DF
102
}
330
247DF
100
AcDbScale
 70
     0
300
2:1
140
2.0
141
1.0
290
     0
  0
SCALE
  5
247ED
102
{ACAD_REACTORS
330
247DF
102
}
330
247DF
100
AcDbScale
 70
     0
300
4:1
140
4.0
141
1.0
290
     0
  0
SCALE
  5
247EE
102
{ACAD_REACTORS
330
247DF
102
}
330
247DF
100
AcDbScale
 70
     0
300
8:1
140
8.0
141
1.0
290
     0
  0
SCALE
  5
247EF
102
{ACAD_REACTORS
330
247DF
102
}
330
247DF
100
AcDbScale
 70
     0
300
10:1
140
10.0
141
1.0
290
     0
  0
SCALE
  5
247F0
102
{ACAD_REACTORS
330
247DF
102
}
330
247DF
100
AcDbScale
 70
     0
300
100:1
140
100.0
141
1.0
290
     0
  0
ACDBSECTIONVIEWSTYLE
  5
2D677
102
{ACAD_XDICTIONARY
360
2D699
102
}
102
{ACAD_REACTORS
330
2D676
102
}
330
2D676
100
AcDbModelDocViewStyle
 70
     0
  3
Metric50
290
     0
100
AcDbSectionViewStyle
 70
     0
 71
     0
 90
      102
 71
     1
340
11
 62
   256
 40
5.0
340
0
340
0
 62
   256
 40
5.0
300
I, O, Q, S, X, Z
 40
10.0
 90
        0
 40
2.5
 90
        0
 71
     2
340
16
 90
       25
 62
   256
340
16
 90
       50
 62
   256
 40
5.0
 40
2.5
 40
5.0
 71
     3
340
11
 62
   256
 40
5.0
 90
        0
 40
15.0
 90
        1
300
%<\AcVar ViewSectionStartId>%-%<\AcVar ViewSectionEndId>% (%<\AcVar ViewScale \f "%sn">%)
 71
     4
 62
   256
 62
   257
300
ANSI31
 40
1.0
 90
        0
290
     0
290
     0
 90
        6
 40
0.0
 40
1.570796326794896
 40
0.2617993877991494
 40
1.308996938995747
 40
-0.2617993877991494
 40
1.832595714594046
  0
TABLESTYLE
  5
2778
102
{ACAD_XDICTIONARY
360
2D695
102
}
102
{ACAD_REACTORS
330
2777
102
}
330
2777
100
AcDbTableStyle
280
     0
  3
Standard
 70
     0
 71
     0
 40
1.5
 41
1.5
280
     0
281
     0
  7
Standard
140
4.5
170
     2
 62
     0
 63
     7
283
     0
 90
      512
 91
        0
  1

274
    -2
284
     1
 64
     0
275
    -2
285
     1
 65
     0
276
    -2
286
     1
 66
     0
277
    -2
287
     1
 67
     0
278
    -2
288
     1
 68
     0
279
    -2
289
     1
 69
     0
  7
Standard
140
6.0
170
     5
 62
     0
 63
     7
283
     0
 90
      512
 91
        0
  1

274
    -2
284
     1
 64
     0
275
    -2
285
     1
 65
     0
276
    -2
286
     1
 66
     0
277
    -2
287
     1
 67
     0
278
    -2
288
     1
 68
     0
279
    -2
289
     1
 69
     0
  7
Standard
140
4.5
170
     5
 62
     0
 63
     7
283
     0
 90
      512
 91
        0
  1

274
    -2
284
     1
 64
     0
275
    -2
285
     1
 65
     0
276
    -2
286
     1
 66
     0
277
    -2
287
     1
 67
     0
278
    -2
288
     1
 68
     0
279
    -2
289
     1
 69
     0
  0
TABLESTYLE
  5
2688B
102
{ACAD_XDICTIONARY
360
2D697
102
}
102
{ACAD_REACTORS
330
2777
102
}
330
2777
100
AcDbTableStyle
280
     0
  3
Standard
 70
     0
 71
     0
 40
1.5
 41
1.5
280
     0
281
     0
  7
ｽﾀｲﾙ1
140
4.5
170
     2
 62
     2
 63
     7
283
     0
 90
      512
 91
        0
  1

274
    -2
284
     1
 64
     0
275
    -2
285
     1
 65
     0
276
    -2
286
     1
 66
     0
277
    -2
287
     1
 67
     0
278
    -2
288
     1
 68
     0
279
    -2
289
     1
 69
     0
  7
Standard
140
6.0
170
     5
 62
     0
 63
     7
283
     0
 90
      512
 91
        0
  1

274
    -2
284
     1
 64
     0
275
    -2
285
     1
 65
     0
276
    -2
286
     1
 66
     0
277
    -2
287
     1
 67
     0
278
    -2
288
     1
 68
     0
279
    -2
289
     1
 69
     0
  7
ｽﾀｲﾙ1
140
4.5
170
     5
 62
     2
 63
     7
283
     0
 90
      512
 91
        0
  1

274
    -2
284
     1
 64
     0
275
    -2
285
     1
 65
     0
276
    -2
286
     1
 66
     0
277
    -2
287
     1
 67
     0
278
    -2
288
     1
 68
     0
279
    -2
289
     1
 69
     0
  0
VISUALSTYLE
  5
276B
102
{ACAD_REACTORS
330
2765
102
}
330
2765
100
AcDbVisualStyle
  2
2dWireframe
 70
     4
177
     3
291
     0
 70
    58
 90
        0
176
     1
 90
        2
176
     1
 90
        0
176
     1
 90
        0
176
     1
 40
0.6
176
     1
 40
30.0
176
     1
 62
     7
420
 16777215
176
     1
 90
        1
176
     1
 90
        4
176
     1
 62
     7
176
     1
 62
   257
176
     1
 90
        1
176
     1
 90
        1
176
     1
 40
1.0
176
     1
 90
        0
176
     1
 62
   257
176
     1
 40
1.0
176
     1
 90
        1
176
     1
 90
        6
176
     1
 90
        2
176
     1
 62
     7
176
     1
 90
        5
176
     1
 90
        0
176
     1
 90
        0
176
     1
290
     0
176
     1
 90
        1
176
     1
 40
0.0
176
     1
 90
        0
176
     1
290
     1
176
     1
290
     1
176
     1
290
     0
176
     1
290
     0
176
     1
290
     0
176
     1
290
     0
176
     1
290
     0
176
     1
290
     0
176
     1
290
     0
176
     1
 90
       50
176
     1
 40
0.0
176
     1
 40
1.0
176
     1
 90
        0
176
     1
 62
    18
420
        0
176
     1
 90
       50
176
     1
 90
        3
176
     1
 62
     5
420
      255
176
     1
290
     0
176
     1
 90
       50
176
     1
 90
       50
176
     1
 90
       50
176
     1
290
     0
176
     1
 90
       50
176
     1
 62
   256
176
     0
 40
1.0
176
     0
 90
        2
176
     1
  1
strokes_ogs.tif
176
     1
290
     0
176
     1
 40
1.0
176
     1
 40
1.0
176
     1
  0
VISUALSTYLE
  5
276D
102
{ACAD_REACTORS
330
2765
102
}
330
2765
100
AcDbVisualStyle
  2
3D Hidden
 70
     6
177
     3
291
     0
 70
    58
 90
        1
176
     1
 90
        2
176
     1
 90
        2
176
     1
 90
        0
176
     1
 40
0.6
176
     1
 40
30.0
176
     1
 62
     7
420
 16777215
176
     1
 90
        2
176
     1
 90
        2
176
     1
 62
     7
176
     1
 62
   257
176
     1
 90
        2
176
     1
 90
        1
176
     1
 40
40.0
176
     1
 90
        0
176
     1
 62
   257
176
     1
 40
1.0
176
     1
 90
        1
176
     1
 90
        6
176
     1
 90
        2
176
     1
 62
     7
176
     1
 90
        3
176
     1
 90
        0
176
     1
 90
        0
176
     1
290
     0
176
     1
 90
        1
176
     1
 40
0.0
176
     1
 90
        0
176
     1
290
     0
176
     1
290
     1
176
     1
290
     1
176
     1
290
     0
176
     1
290
     0
176
     1
290
     0
176
     1
290
     0
176
     1
290
     0
176
     1
290
     0
176
     1
 90
       50
176
     1
 40
0.0
176
     1
 40
1.0
176
     1
 90
        0
176
     1
 62
    18
420
        0
176
     1
 90
       50
176
     1
 90
        3
176
     1
 62
     5
420
      255
176
     1
290
     0
176
     1
 90
       50
176
     1
 90
       50
176
     1
 90
       50
176
     1
290
     0
176
     1
 90
       50
176
     1
 62
   256
176
     0
 40
1.0
176
     0
 90
        2
176
     1
  1
strokes_ogs.tif
176
     1
290
     0
176
     1
 40
1.0
176
     1
 40
1.0
176
     1
  0
VISUALSTYLE
  5
276C
102
{ACAD_REACTORS
330
2765
102
}
330
2765
100
AcDbVisualStyle
  2
3dWireframe
 70
     5
177
     3
291
     0
 70
    58
 90
        0
176
     1
 90
        2
176
     1
 90
        0
176
     1
 90
        0
176
     1
 40
0.6
176
     1
 40
30.0
176
     1
 62
     7
420
 16777215
176
     1
 90
        1
176
     1
 90
        4
176
     1
 62
     7
176
     1
 62
   257
176
     1
 90
        1
176
     1
 90
        1
176
     1
 40
1.0
176
     1
 90
        0
176
     1
 62
   257
176
     1
 40
1.0
176
     1
 90
        1
176
     1
 90
        6
176
     1
 90
        2
176
     1
 62
     7
176
     1
 90
        5
176
     1
 90
        0
176
     1
 90
        0
176
     1
290
     0
176
     1
 90
        1
176
     1
 40
0.0
176
     1
 90
        0
176
     1
290
     0
176
     1
290
     1
176
     1
290
     1
176
     1
290
     0
176
     1
290
     0
176
     1
290
     0
176
     1
290
     0
176
     1
290
     0
176
     1
290
     0
176
     1
 90
       50
176
     1
 40
0.0
176
     1
 40
1.0
176
     1
 90
        0
176
     1
 62
    18
420
        0
176
     1
 90
       50
176
     1
 90
        3
176
     1
 62
     5
420
      255
176
     1
290
     0
176
     1
 90
       50
176
     1
 90
       50
176
     1
 90
       50
176
     1
290
     0
176
     1
 90
       50
176
     1
 62
   256
176
     0
 40
1.0
176
     0
 90
        2
176
     1
  1
strokes_ogs.tif
176
     1
290
     0
176
     1
 40
1.0
176
     1
 40
1.0
176
     1
  0
VISUALSTYLE
  5
276A
102
{ACAD_REACTORS
330
2765
102
}
330
2765
100
AcDbVisualStyle
  2
Basic
 70
     7
177
     3
291
     1
 70
    58
 90
        1
176
     1
 90
        0
176
     1
 90
        1
176
     1
 90
        0
176
     1
 40
0.6
176
     1
 40
30.0
176
     1
 62
     7
420
 16777215
176
     1
 90
        0
176
     1
 90
        4
176
     1
 62
     7
176
     1
 62
   257
176
     1
 90
        1
176
     1
 90
        1
176
     1
 40
1.0
176
     1
 90
        8
176
     1
 62
     7
176
     1
 40
1.0
176
     1
 90
        1
176
     1
 90
        6
176
     1
 90
        2
176
     1
 62
     7
176
     1
 90
        5
176
     1
 90
        0
176
     1
 90
        0
176
     1
290
     0
176
     1
 90
        1
176
     1
 40
0.0
176
     1
 90
        0
176
     1
290
     0
176
     1
290
     1
176
     1
290
     1
176
     1
290
     0
176
     1
290
     0
176
     1
290
     0
176
     1
290
     0
176
     1
290
     0
176
     1
290
     0
176
     1
 90
       50
176
     1
 40
0.0
176
     1
 40
1.0
176
     1
 90
        0
176
     1
 62
    18
420
        0
176
     1
 90
       50
176
     1
 90
        3
176
     1
 62
     5
420
      255
176
     1
290
     0
176
     1
 90
       50
176
     1
 90
       50
176
     1
 90
       50
176
     1
290
     0
176
     1
 90
       50
176
     1
 62
   256
176
     0
 40
1.0
176
     0
 90
        2
176
     1
  1
strokes_ogs.tif
176
     1
290
     0
176
     1
 40
1.0
176
     1
 40
1.0
176
     1
  0
VISUALSTYLE
  5
2771
102
{ACAD_REACTORS
330
2765
102
}
330
2765
100
AcDbVisualStyle
  2
Brighten
 70
    12
177
     3
291
     1
 70
    58
 90
        2
176
     1
 90
        2
176
     1
 90
        0
176
     1
 90
        0
176
     1
 40
0.6
176
     1
 40
30.0
176
     1
 62
     7
420
 16777215
176
     1
 90
        1
176
     1
 90
        4
176
     1
 62
     7
176
     1
 62
   257
176
     1
 90
        1
176
     1
 90
        1
176
     1
 40
1.0
176
     1
 90
        8
176
     1
 62
     7
176
     1
 40
1.0
176
     1
 90
        1
176
     1
 90
        6
176
     1
 90
        2
176
     1
 62
     7
176
     1
 90
        5
176
     1
 90
        0
176
     1
 90
        0
176
     1
290
     0
176
     1
 90
        1
176
     1
 40
50.0
176
     1
 90
        0
176
     1
290
     0
176
     1
290
     1
176
     1
290
     1
176
     1
290
     0
176
     1
290
     0
176
     1
290
     0
176
     1
290
     0
176
     1
290
     0
176
     1
290
     0
176
     1
 90
       50
176
     1
 40
0.0
176
     1
 40
1.0
176
     1
 90
        0
176
     1
 62
    18
420
        0
176
     1
 90
       50
176
     1
 90
        3
176
     1
 62
     5
420
      255
176
     1
290
     0
176
     1
 90
       50
176
     1
 90
       50
176
     1
 90
       50
176
     1
290
     0
176
     1
 90
       50
176
     1
 62
   256
176
     0
 40
1.0
176
     0
 90
        2
176
     1
  1
strokes_ogs.tif
176
     1
290
     0
176
     1
 40
1.0
176
     1
 40
1.0
176
     1
  0
VISUALSTYLE
  5
2775
102
{ACAD_REACTORS
330
2765
102
}
330
2765
100
AcDbVisualStyle
  2
ColorChange
 70
    16
177
     3
291
     1
 70
    58
 90
        2
176
     1
 90
        2
176
     1
 90
        3
176
     1
 90
        0
176
     1
 40
0.6
176
     1
 40
30.0
176
     1
 62
     8
420
  8421504
176
     1
 90
        1
176
     1
 90
        4
176
     1
 62
     7
176
     1
 62
   257
176
     1
 90
        1
176
     1
 90
        1
176
     1
 40
1.0
176
     1
 90
        8
176
     1
 62
     8
420
  8421504
176
     1
 40
1.0
176
     1
 90
        1
176
     1
 90
        6
176
     1
 90
        2
176
     1
 62
     7
176
     1
 90
        5
176
     1
 90
        0
176
     1
 90
        0
176
     1
290
     0
176
     1
 90
        1
176
     1
 40
0.0
176
     1
 90
        0
176
     1
290
     0
176
     1
290
     1
176
     1
290
     1
176
     1
290
     0
176
     1
290
     0
176
     1
290
     0
176
     1
290
     0
176
     1
290
     0
176
     1
290
     0
176
     1
 90
       50
176
     1
 40
0.0
176
     1
 40
1.0
176
     1
 90
        0
176
     1
 62
    18
420
        0
176
     1
 90
       50
176
     1
 90
        3
176
     1
 62
     5
420
      255
176
     1
290
     0
176
     1
 90
       50
176
     1
 90
       50
176
     1
 90
       50
176
     1
290
     0
176
     1
 90
       50
176
     1
 62
   256
176
     0
 40
1.0
176
     0
 90
        2
176
     1
  1
strokes_ogs.tif
176
     1
290
     0
176
     1
 40
1.0
176
     1
 40
1.0
176
     1
  0
VISUALSTYLE
  5
276E
102
{ACAD_REACTORS
330
2765
102
}
330
2765
100
AcDbVisualStyle
  2
Conceptual
 70
     9
177
     3
291
     0
 70
    58
 90
        3
176
     1
 90
        2
176
     1
 90
        0
176
     1
 90
        0
176
     1
 40
0.6
176
     1
 40
30.0
176
     1
 62
     7
420
 16777215
176
     1
 90
        2
176
     1
 90
        2
176
     1
 62
     7
176
     1
 62
   257
176
     1
 90
        1
176
     1
 90
        1
176
     1
 40
40.0
176
     1
 90
        8
176
     1
 62
     7
176
     1
 40
1.0
176
     1
 90
        1
176
     1
 90
        6
176
     1
 90
        2
176
     1
 62
     7
176
     1
 90
        3
176
     1
 90
        0
176
     1
 90
        0
176
     1
290
     0
176
     1
 90
        1
176
     1
 40
0.0
176
     1
 90
        0
176
     1
290
     0
176
     1
290
     1
176
     1
290
     1
176
     1
290
     0
176
     1
290
     0
176
     1
290
     0
176
     1
290
     0
176
     1
290
     0
176
     1
290
     0
176
     1
 90
       50
176
     1
 40
0.0
176
     1
 40
1.0
176
     1
 90
        0
176
     1
 62
    18
420
        0
176
     1
 90
       50
176
     1
 90
        3
176
     1
 62
     5
420
      255
176
     1
290
     0
176
     1
 90
       50
176
     1
 90
       50
176
     1
 90
       50
176
     1
290
     0
176
     1
 90
       50
176
     1
 62
   256
176
     0
 40
1.0
176
     0
 90
        2
176
     1
  1
strokes_ogs.tif
176
     1
290
     0
176
     1
 40
1.0
176
     1
 40
1.0
176
     1
  0
VISUALSTYLE
  5
2770
102
{ACAD_REACTORS
330
2765
102
}
330
2765
100
AcDbVisualStyle
  2
Dim
 70
    11
177
     3
291
     1
 70
    58
 90
        2
176
     1
 90
        2
176
     1
 90
        0
176
     1
 90
        0
176
     1
 40
0.6
176
     1
 40
30.0
176
     1
 62
     7
420
 16777215
176
     1
 90
        1
176
     1
 90
        4
176
     1
 62
     7
176
     1
 62
   257
176
     1
 90
        1
176
     1
 90
        1
176
     1
 40
1.0
176
     1
 90
        8
176
     1
 62
     7
176
     1
 40
1.0
176
     1
 90
        1
176
     1
 90
        6
176
     1
 90
        2
176
     1
 62
     7
176
     1
 90
        5
176
     1
 90
        0
176
     1
 90
        0
176
     1
290
     0
176
     1
 90
        1
176
     1
 40
-50.0
176
     1
 90
        0
176
     1
290
     0
176
     1
290
     1
176
     1
290
     1
176
     1
290
     0
176
     1
290
     0
176
     1
290
     0
176
     1
290
     0
176
     1
290
     0
176
     1
290
     0
176
     1
 90
       50
176
     1
 40
0.0
176
     1
 40
1.0
176
     1
 90
        0
176
     1
 62
    18
420
        0
176
     1
 90
       50
176
     1
 90
        3
176
     1
 62
     5
420
      255
176
     1
290
     0
176
     1
 90
       50
176
     1
 90
       50
176
     1
 90
       50
176
     1
290
     0
176
     1
 90
       50
176
     1
 62
   256
176
     0
 40
1.0
176
     0
 90
        2
176
     1
  1
strokes_ogs.tif
176
     1
290
     0
176
     1
 40
1.0
176
     1
 40
1.0
176
     1
  0
VISUALSTYLE
  5
247DE
102
{ACAD_REACTORS
330
2765
102
}
330
2765
100
AcDbVisualStyle
  2
EdgeColorOff
 70
    22
177
     3
291
     1
 70
    58
 90
        2
176
     0
 90
        2
176
     0
 90
        0
176
     0
 90
        0
176
     0
 40
0.6
176
     0
 40
30.0
176
     0
 62
     7
420
 16777215
176
     0
 90
        1
176
     0
 90
        4
176
     0
 62
     7
176
     0
 62
   257
176
     0
 90
        1
176
     0
 90
        1
176
     0
 40
1.0
176
     0
 90
        8
176
     2
 62
     7
176
     0
 40
1.0
176
     0
 90
        1
176
     0
 90
        6
176
     0
 90
        2
176
     0
 62
     7
176
     0
 90
        5
176
     0
 90
        0
176
     0
 90
        0
176
     0
290
     0
176
     0
 90
        1
176
     0
 40
0.0
176
     0
 90
        0
176
     0
290
     0
176
     1
290
     1
176
     1
290
     1
176
     1
290
     0
176
     1
290
     0
176
     1
290
     0
176
     1
290
     0
176
     1
290
     0
176
     1
290
     0
176
     1
 90
       50
176
     1
 40
0.0
176
     1
 40
1.0
176
     1
 90
        0
176
     1
 62
    18
420
        0
176
     1
 90
       50
176
     1
 90
        3
176
     1
 62
     5
420
      255
176
     1
290
     0
176
     1
 90
       50
176
     1
 90
       50
176
     1
 90
       50
176
     1
290
     0
176
     1
 90
       50
176
     1
 62
   256
176
     0
 40
1.0
176
     0
 90
        2
176
     1
  1
strokes_ogs.tif
176
     1
290
     0
176
     1
 40
1.0
176
     1
 40
1.0
176
     1
  0
VISUALSTYLE
  5
2774
102
{ACAD_REACTORS
330
2765
102
}
330
2765
100
AcDbVisualStyle
  2
Facepattern
 70
    15
177
     3
291
     1
 70
    58
 90
        2
176
     1
 90
        2
176
     1
 90
        0
176
     1
 90
        0
176
     1
 40
0.6
176
     1
 40
30.0
176
     1
 62
     7
420
 16777215
176
     1
 90
        1
176
     1
 90
        4
176
     1
 62
     7
176
     1
 62
   257
176
     1
 90
        1
176
     1
 90
        1
176
     1
 40
1.0
176
     1
 90
        8
176
     1
 62
     7
176
     1
 40
1.0
176
     1
 90
        1
176
     1
 90
        6
176
     1
 90
        2
176
     1
 62
     7
176
     1
 90
        5
176
     1
 90
        0
176
     1
 90
        0
176
     1
290
     0
176
     1
 90
        1
176
     1
 40
0.0
176
     1
 90
        0
176
     1
290
     0
176
     1
290
     1
176
     1
290
     1
176
     1
290
     0
176
     1
290
     0
176
     1
290
     0
176
     1
290
     0
176
     1
290
     0
176
     1
290
     0
176
     1
 90
       50
176
     1
 40
0.0
176
     1
 40
1.0
176
     1
 90
        0
176
     1
 62
    18
420
        0
176
     1
 90
       50
176
     1
 90
        3
176
     1
 62
     5
420
      255
176
     1
290
     0
176
     1
 90
       50
176
     1
 90
       50
176
     1
 90
       50
176
     1
290
     0
176
     1
 90
       50
176
     1
 62
   256
176
     0
 40
1.0
176
     0
 90
        2
176
     1
  1
strokes_ogs.tif
176
     1
290
     0
176
     1
 40
1.0
176
     1
 40
1.0
176
     1
  0
VISUALSTYLE
  5
2766
102
{ACAD_REACTORS
330
2765
102
}
330
2765
100
AcDbVisualStyle
  2
Flat
 70
     0
177
     3
291
     1
 70
    58
 90
        2
176
     1
 90
        1
176
     1
 90
        1
176
     1
 90
        2
176
     1
 40
0.6
176
     1
 40
30.0
176
     1
 62
     7
420
 16777215
176
     1
 90
        0
176
     1
 90
        4
176
     1
 62
     7
176
     1
 62
   257
176
     1
 90
        1
176
     1
 90
        1
176
     1
 40
1.0
176
     1
 90
        8
176
     1
 62
     7
176
     1
 40
1.0
176
     1
 90
        1
176
     1
 90
        6
176
     1
 90
        2
176
     1
 62
     7
176
     1
 90
        5
176
     1
 90
        0
176
     1
 90
        0
176
     1
290
     0
176
     1
 90
       13
176
     1
 40
0.0
176
     1
 90
        0
176
     1
290
     0
176
     1
290
     1
176
     1
290
     1
176
     1
290
     0
176
     1
290
     0
176
     1
290
     0
176
     1
290
     0
176
     1
290
     0
176
     1
290
     0
176
     1
 90
       50
176
     1
 40
0.0
176
     1
 40
1.0
176
     1
 90
        0
176
     1
 62
    18
420
        0
176
     1
 90
       50
176
     1
 90
        3
176
     1
 62
     5
420
      255
176
     1
290
     0
176
     1
 90
       50
176
     1
 90
       50
176
     1
 90
       50
176
     1
290
     0
176
     1
 90
       50
176
     1
 62
   256
176
     0
 40
1.0
176
     0
 90
        2
176
     1
  1
strokes_ogs.tif
176
     1
290
     0
176
     1
 40
1.0
176
     1
 40
1.0
176
     1
  0
VISUALSTYLE
  5
2767
102
{ACAD_REACTORS
330
2765
102
}
330
2765
100
AcDbVisualStyle
  2
FlatWithEdges
 70
     1
177
     3
291
     1
 70
    58
 90
        2
176
     1
 90
        1
176
     1
 90
        1
176
     1
 90
        2
176
     1
 40
0.6
176
     1
 40
30.0
176
     1
 62
     7
420
 16777215
176
     1
 90
        1
176
     1
 90
        4
176
     1
 62
     7
176
     1
 62
   257
176
     1
 90
        1
176
     1
 90
        1
176
     1
 40
1.0
176
     1
 90
        0
176
     1
 62
   257
176
     1
 40
1.0
176
     1
 90
        1
176
     1
 90
        6
176
     1
 90
        2
176
     1
 62
     7
176
     1
 90
        5
176
     1
 90
        0
176
     1
 90
        0
176
     1
290
     0
176
     1
 90
       13
176
     1
 40
0.0
176
     1
 90
        0
176
     1
290
     0
176
     1
290
     1
176
     1
290
     1
176
     1
290
     0
176
     1
290
     0
176
     1
290
     0
176
     1
290
     0
176
     1
290
     0
176
     1
290
     0
176
     1
 90
       50
176
     1
 40
0.0
176
     1
 40
1.0
176
     1
 90
        0
176
     1
 62
    18
420
        0
176
     1
 90
       50
176
     1
 90
        3
176
     1
 62
     5
420
      255
176
     1
290
     0
176
     1
 90
       50
176
     1
 90
       50
176
     1
 90
       50
176
     1
290
     0
176
     1
 90
       50
176
     1
 62
   256
176
     0
 40
1.0
176
     0
 90
        2
176
     1
  1
strokes_ogs.tif
176
     1
290
     0
176
     1
 40
1.0
176
     1
 40
1.0
176
     1
  0
VISUALSTYLE
  5
2768
102
{ACAD_REACTORS
330
2765
102
}
330
2765
100
AcDbVisualStyle
  2
Gouraud
 70
     2
177
     3
291
     1
 70
    58
 90
        2
176
     1
 90
        2
176
     1
 90
        1
176
     1
 90
        2
176
     1
 40
0.6
176
     1
 40
30.0
176
     1
 62
     7
420
 16777215
176
     1
 90
        0
176
     1
 90
        4
176
     1
 62
     7
176
     1
 62
   257
176
     1
 90
        1
176
     1
 90
        1
176
     1
 40
1.0
176
     1
 90
        0
176
     1
 62
     7
176
     1
 40
1.0
176
     1
 90
        1
176
     1
 90
        6
176
     1
 90
        2
176
     1
 62
     7
176
     1
 90
        5
176
     1
 90
        0
176
     1
 90
        0
176
     1
290
     0
176
     1
 90
       13
176
     1
 40
0.0
176
     1
 90
        0
176
     1
290
     0
176
     1
290
     1
176
     1
290
     1
176
     1
290
     0
176
     1
290
     0
176
     1
290
     0
176
     1
290
     0
176
     1
290
     0
176
     1
290
     0
176
     1
 90
       50
176
     1
 40
0.0
176
     1
 40
1.0
176
     1
 90
        0
176
     1
 62
    18
420
        0
176
     1
 90
       50
176
     1
 90
        3
176
     1
 62
     5
420
      255
176
     1
290
     0
176
     1
 90
       50
176
     1
 90
       50
176
     1
 90
       50
176
     1
290
     0
176
     1
 90
       50
176
     1
 62
   256
176
     0
 40
1.0
176
     0
 90
        2
176
     1
  1
strokes_ogs.tif
176
     1
290
     0
176
     1
 40
1.0
176
     1
 40
1.0
176
     1
  0
VISUALSTYLE
  5
2769
102
{ACAD_REACTORS
330
2765
102
}
330
2765
100
AcDbVisualStyle
  2
GouraudWithEdges
 70
     3
177
     3
291
     1
 70
    58
 90
        2
176
     1
 90
        2
176
     1
 90
        1
176
     1
 90
        2
176
     1
 40
0.6
176
     1
 40
30.0
176
     1
 62
     7
420
 16777215
176
     1
 90
        1
176
     1
 90
        4
176
     1
 62
     7
176
     1
 62
   257
176
     1
 90
        1
176
     1
 90
        1
176
     1
 40
1.0
176
     1
 90
        0
176
     1
 62
   257
176
     1
 40
1.0
176
     1
 90
        1
176
     1
 90
        6
176
     1
 90
        2
176
     1
 62
     7
176
     1
 90
        5
176
     1
 90
        0
176
     1
 90
        0
176
     1
290
     0
176
     1
 90
       13
176
     1
 40
0.0
176
     1
 90
        0
176
     1
290
     0
176
     1
290
     1
176
     1
290
     1
176
     1
290
     0
176
     1
290
     0
176
     1
290
     0
176
     1
290
     0
176
     1
290
     0
176
     1
290
     0
176
     1
 90
       50
176
     1
 40
0.0
176
     1
 40
1.0
176
     1
 90
        0
176
     1
 62
    18
420
        0
176
     1
 90
       50
176
     1
 90
        3
176
     1
 62
     5
420
      255
176
     1
290
     0
176
     1
 90
       50
176
     1
 90
       50
176
     1
 90
       50
176
     1
290
     0
176
     1
 90
       50
176
     1
 62
   256
176
     0
 40
1.0
176
     0
 90
        2
176
     1
  1
strokes_ogs.tif
176
     1
290
     0
176
     1
 40
1.0
176
     1
 40
1.0
176
     1
  0
VISUALSTYLE
  5
2D670
102
{ACAD_REACTORS
330
2765
102
}
330
2765
100
AcDbVisualStyle
  2
Hidden
 70
     6
177
     3
291
     0
 70
    58
 90
        1
176
     1
 90
        2
176
     1
 90
        2
176
     1
 90
        0
176
     1
 40
0.6
176
     1
 40
30.0
176
     1
 62
     7
420
 16777215
176
     1
 90
        2
176
     1
 90
        2
176
     1
 62
     7
176
     1
 62
   257
176
     1
 90
        2
176
     1
 90
        1
176
     1
 40
40.0
176
     1
 90
        0
176
     1
 62
   257
176
     1
 40
1.0
176
     1
 90
        1
176
     1
 90
        6
176
     1
 90
        2
176
     1
 62
     7
176
     1
 90
        3
176
     1
 90
        0
176
     1
 90
        0
176
     1
290
     0
176
     1
 90
        1
176
     1
 40
0.0
176
     1
 90
        0
176
     1
290
     0
176
     1
290
     1
176
     1
290
     1
176
     1
290
     0
176
     1
290
     0
176
     1
290
     0
176
     1
290
     0
176
     1
290
     0
176
     1
290
     0
176
     1
 90
       50
176
     1
 40
0.0
176
     1
 40
1.0
176
     1
 90
        0
176
     1
 62
    18
420
        0
176
     1
 90
       50
176
     1
 90
        3
176
     1
 62
     5
420
      255
176
     1
290
     0
176
     1
 90
       50
176
     1
 90
       50
176
     1
 90
       50
176
     1
290
     0
176
     1
 90
       50
176
     1
 62
   256
176
     0
 40
1.0
176
     0
 90
        2
176
     1
  1
strokes_ogs.tif
176
     1
290
     0
176
     1
 40
1.0
176
     1
 40
1.0
176
     1
  0
VISUALSTYLE
  5
247DC
102
{ACAD_REACTORS
330
2765
102
}
330
2765
100
AcDbVisualStyle
  2
JitterOff
 70
    20
177
     3
291
     1
 70
    58
 90
        2
176
     0
 90
        2
176
     0
 90
        0
176
     0
 90
        0
176
     0
 40
0.6
176
     0
 40
30.0
176
     0
 62
     7
420
 16777215
176
     0
 90
        1
176
     0
 90
        4
176
     0
 62
     7
176
     0
 62
   257
176
     0
 90
        1
176
     0
 90
        1
176
     0
 40
1.0
176
     0
 90
       10
176
     2
 62
     7
176
     0
 40
1.0
176
     0
 90
        1
176
     0
 90
        6
176
     0
 90
        2
176
     0
 62
     7
176
     0
 90
        5
176
     0
 90
        0
176
     0
 90
        0
176
     0
290
     0
176
     0
 90
        1
176
     0
 40
0.0
176
     0
 90
        0
176
     0
290
     0
176
     1
290
     1
176
     1
290
     1
176
     1
290
     0
176
     1
290
     0
176
     1
290
     0
176
     1
290
     0
176
     1
290
     0
176
     1
290
     0
176
     1
 90
       50
176
     1
 40
0.0
176
     1
 40
1.0
176
     1
 90
        0
176
     1
 62
    18
420
        0
176
     1
 90
       50
176
     1
 90
        3
176
     1
 62
     5
420
      255
176
     1
290
     0
176
     1
 90
       50
176
     1
 90
       50
176
     1
 90
       50
176
     1
290
     0
176
     1
 90
       50
176
     1
 62
   256
176
     0
 40
1.0
176
     0
 90
        2
176
     1
  1
strokes_ogs.tif
176
     1
290
     0
176
     1
 40
1.0
176
     1
 40
1.0
176
     1
  0
VISUALSTYLE
  5
2773
102
{ACAD_REACTORS
330
2765
102
}
330
2765
100
AcDbVisualStyle
  2
Linepattern
 70
    14
177
     3
291
     1
 70
    58
 90
        2
176
     1
 90
        2
176
     1
 90
        0
176
     1
 90
        0
176
     1
 40
0.6
176
     1
 40
30.0
176
     1
 62
     7
420
 16777215
176
     1
 90
        1
176
     1
 90
        4
176
     1
 62
     7
176
     1
 62
   257
176
     1
 90
        7
176
     1
 90
        7
176
     1
 40
1.0
176
     1
 90
        8
176
     1
 62
     7
176
     1
 40
1.0
176
     1
 90
        1
176
     1
 90
        6
176
     1
 90
        2
176
     1
 62
     7
176
     1
 90
        5
176
     1
 90
        0
176
     1
 90
        0
176
     1
290
     0
176
     1
 90
        1
176
     1
 40
0.0
176
     1
 90
        0
176
     1
290
     0
176
     1
290
     1
176
     1
290
     1
176
     1
290
     0
176
     1
290
     0
176
     1
290
     0
176
     1
290
     0
176
     1
290
     0
176
     1
290
     0
176
     1
 90
       50
176
     1
 40
0.0
176
     1
 40
1.0
176
     1
 90
        0
176
     1
 62
    18
420
        0
176
     1
 90
       50
176
     1
 90
        3
176
     1
 62
     5
420
      255
176
     1
290
     0
176
     1
 90
       50
176
     1
 90
       50
176
     1
 90
       50
176
     1
290
     0
176
     1
 90
       50
176
     1
 62
   256
176
     0
 40
1.0
176
     0
 90
        2
176
     1
  1
strokes_ogs.tif
176
     1
290
     0
176
     1
 40
1.0
176
     1
 40
1.0
176
     1
  0
VISUALSTYLE
  5
247DD
102
{ACAD_REACTORS
330
2765
102
}
330
2765
100
AcDbVisualStyle
  2
OverhangOff
 70
    21
177
     3
291
     1
 70
    58
 90
        2
176
     0
 90
        2
176
     0
 90
        0
176
     0
 90
        0
176
     0
 40
0.6
176
     0
 40
30.0
176
     0
 62
     7
420
 16777215
176
     0
 90
        1
176
     0
 90
        4
176
     0
 62
     7
176
     0
 62
   257
176
     0
 90
        1
176
     0
 90
        1
176
     0
 40
1.0
176
     0
 90
        9
176
     2
 62
     7
176
     0
 40
1.0
176
     0
 90
        1
176
     0
 90
        6
176
     0
 90
        2
176
     0
 62
     7
176
     0
 90
        5
176
     0
 90
        0
176
     0
 90
        0
176
     0
290
     0
176
     0
 90
        1
176
     0
 40
0.0
176
     0
 90
        0
176
     0
290
     0
176
     1
290
     1
176
     1
290
     1
176
     1
290
     0
176
     1
290
     0
176
     1
290
     0
176
     1
290
     0
176
     1
290
     0
176
     1
290
     0
176
     1
 90
       50
176
     1
 40
0.0
176
     1
 40
1.0
176
     1
 90
        0
176
     1
 62
    18
420
        0
176
     1
 90
       50
176
     1
 90
        3
176
     1
 62
     5
420
      255
176
     1
290
     0
176
     1
 90
       50
176
     1
 90
       50
176
     1
 90
       50
176
     1
290
     0
176
     1
 90
       50
176
     1
 62
   256
176
     0
 40
1.0
176
     0
 90
        2
176
     1
  1
strokes_ogs.tif
176
     1
290
     0
176
     1
 40
1.0
176
     1
 40
1.0
176
     1
  0
VISUALSTYLE
  5
276F
102
{ACAD_REACTORS
330
2765
102
}
330
2765
100
AcDbVisualStyle
  2
Realistic
 70
     8
177
     3
291
     0
 70
    58
 90
        2
176
     1
 90
        2
176
     1
 90
        0
176
     1
 90
        0
176
     1
 40
0.6
176
     1
 40
30.0
176
     1
 62
     7
420
 16777215
176
     1
 90
        1
176
     1
 90
        0
176
     1
 62
     7
176
     1
 62
   257
176
     1
 90
        1
176
     1
 90
        1
176
     1
 40
1.0
176
     1
 90
        8
176
     1
 62
     8
420
  7895160
176
     1
 40
1.0
176
     1
 90
        1
176
     1
 90
        6
176
     1
 90
        2
176
     1
 62
     7
176
     1
 90
        5
176
     1
 90
        0
176
     1
 90
        0
176
     1
290
     0
176
     1
 90
       13
176
     1
 40
0.0
176
     1
 90
        0
176
     1
290
     0
176
     1
290
     1
176
     1
290
     1
176
     1
290
     0
176
     1
290
     0
176
     1
290
     0
176
     1
290
     0
176
     1
290
     0
176
     1
290
     0
176
     1
 90
       50
176
     1
 40
0.0
176
     1
 40
1.0
176
     1
 90
        0
176
     1
 62
    18
420
        0
176
     1
 90
       50
176
     1
 90
        3
176
     1
 62
     5
420
      255
176
     1
290
     0
176
     1
 90
       50
176
     1
 90
       50
176
     1
 90
       50
176
     1
290
     0
176
     1
 90
       50
176
     1
 62
   256
176
     0
 40
1.0
176
     0
 90
        2
176
     1
  1
strokes_ogs.tif
176
     1
290
     0
176
     1
 40
1.0
176
     1
 40
1.0
176
     1
  0
VISUALSTYLE
  5
2D675
102
{ACAD_REACTORS
330
2765
102
}
330
2765
100
AcDbVisualStyle
  2
Shaded
 70
    27
177
     3
291
     0
 70
    58
 90
        2
176
     1
 90
        2
176
     1
 90
        1
176
     1
 90
        2
176
     1
 40
0.6
176
     1
 40
30.0
176
     1
 62
     7
420
 16777215
176
     1
 90
        0
176
     1
 90
        4
176
     1
 62
     7
176
     1
 62
   257
176
     1
 90
        1
176
     1
 90
        1
176
     1
 40
1.0
176
     1
 90
        8
176
     1
 62
   257
176
     1
 40
1.0
176
     1
 90
        1
176
     1
 90
        6
176
     1
 90
        2
176
     1
 62
     8
420
  7895160
176
     1
 90
        3
176
     1
 90
        0
176
     1
 90
        0
176
     1
290
     0
176
     1
 90
        5
176
     1
 40
0.0
176
     1
 90
        0
176
     1
290
     0
176
     1
290
     1
176
     1
290
     1
176
     1
290
     0
176
     1
290
     0
176
     1
290
     0
176
     1
290
     0
176
     1
290
     0
176
     1
290
     0
176
     1
 90
       50
176
     1
 40
0.0
176
     1
 40
1.0
176
     1
 90
        0
176
     1
 62
    18
420
        0
176
     1
 90
       50
176
     1
 90
        3
176
     1
 62
     5
420
      255
176
     1
290
     0
176
     1
 90
       50
176
     1
 90
       50
176
     1
 90
       50
176
     1
290
     0
176
     1
 90
       50
176
     1
 62
   256
176
     0
 40
1.0
176
     0
 90
        2
176
     1
  1
strokes_ogs.tif
176
     1
290
     0
176
     1
 40
1.0
176
     1
 40
1.0
176
     1
  0
VISUALSTYLE
  5
2D674
102
{ACAD_REACTORS
330
2765
102
}
330
2765
100
AcDbVisualStyle
  2
Shaded with edges
 70
    26
177
     3
291
     0
 70
    58
 90
        2
176
     1
 90
        2
176
     1
 90
        1
176
     1
 90
        2
176
     1
 40
0.6
176
     1
 40
30.0
176
     1
 62
     7
420
 16777215
176
     1
 90
        1
176
     1
 90
       10
176
     1
 62
     7
176
     1
 62
   257
176
     1
 90
        2
176
     1
 90
        1
176
     1
 40
1.0
176
     1
 90
        8
176
     1
 62
   257
176
     1
 40
1.0
176
     1
 90
        1
176
     1
 90
        6
176
     1
 90
        2
176
     1
 62
     7
176
     1
 90
        3
176
     1
 90
        0
176
     1
 90
        0
176
     1
290
     0
176
     1
 90
        5
176
     1
 40
0.0
176
     1
 90
        0
176
     1
290
     0
176
     1
290
     1
176
     1
290
     1
176
     1
290
     0
176
     1
290
     0
176
     1
290
     0
176
     1
290
     0
176
     1
290
     0
176
     1
290
     0
176
     1
 90
       50
176
     1
 40
0.0
176
     1
 40
1.0
176
     1
 90
        0
176
     1
 62
    18
420
        0
176
     1
 90
       50
176
     1
 90
        3
176
     1
 62
     5
420
      255
176
     1
290
     0
176
     1
 90
       50
176
     1
 90
       50
176
     1
 90
       50
176
     1
290
     0
176
     1
 90
       50
176
     1
 62
   256
176
     0
 40
1.0
176
     0
 90
        2
176
     1
  1
strokes_ogs.tif
176
     1
290
     0
176
     1
 40
1.0
176
     1
 40
1.0
176
     1
  0
VISUALSTYLE
  5
2D671
102
{ACAD_REACTORS
330
2765
102
}
330
2765
100
AcDbVisualStyle
  2
Shades of Gray
 70
    23
177
     3
291
     0
 70
    58
 90
        2
176
     1
 90
        2
176
     1
 90
        3
176
     1
 90
        0
176
     1
 40
0.6
176
     1
 40
30.0
176
     1
 62
     7
420
 16777215
176
     1
 90
        2
176
     1
 90
        2
176
     1
 62
     7
176
     1
 62
     7
176
     1
 90
        1
176
     1
 90
        1
176
     1
 40
40.0
176
     1
 90
        8
176
     1
 62
     7
176
     1
 40
1.0
176
     1
 90
        1
176
     1
 90
        6
176
     1
 90
        2
176
     1
 62
     7
176
     1
 90
        3
176
     1
 90
        0
176
     1
 90
        0
176
     1
290
     0
176
     1
 90
        1
176
     1
 40
0.0
176
     1
 90
        0
176
     1
290
     0
176
     1
290
     1
176
     1
290
     1
176
     1
290
     0
176
     1
290
     0
176
     1
290
     0
176
     1
290
     0
176
     1
290
     0
176
     1
290
     0
176
     1
 90
       50
176
     1
 40
0.0
176
     1
 40
1.0
176
     1
 90
        0
176
     1
 62
    18
420
        0
176
     1
 90
       50
176
     1
 90
        3
176
     1
 62
     5
420
      255
176
     1
290
     0
176
     1
 90
       50
176
     1
 90
       50
176
     1
 90
       50
176
     1
290
     0
176
     1
 90
       50
176
     1
 62
   256
176
     0
 40
1.0
176
     0
 90
        2
176
     1
  1
strokes_ogs.tif
176
     1
290
     0
176
     1
 40
1.0
176
     1
 40
1.0
176
     1
  0
VISUALSTYLE
  5
2D672
102
{ACAD_REACTORS
330
2765
102
}
330
2765
100
AcDbVisualStyle
  2
Sketchy
 70
    24
177
     3
291
     0
 70
    58
 90
        1
176
     1
 90
        2
176
     1
 90
        2
176
     1
 90
        0
176
     1
 40
0.6
176
     1
 40
30.0
176
     1
 62
     7
420
 16777215
176
     1
 90
        2
176
     1
 90
        2
176
     1
 62
     7
176
     1
 62
     7
176
     1
 90
        1
176
     1
 90
        1
176
     1
 40
40.0
176
     1
 90
       11
176
     1
 62
     7
176
     1
 40
1.0
176
     1
 90
        1
176
     1
 90
        6
176
     1
 90
        2
176
     1
 62
     7
176
     1
 90
        6
176
     1
 90
        0
176
     1
 90
        0
176
     1
290
     0
176
     1
 90
        1
176
     1
 40
0.0
176
     1
 90
        0
176
     1
290
     0
176
     1
290
     1
176
     1
290
     1
176
     1
290
     0
176
     1
290
     0
176
     1
290
     0
176
     1
290
     0
176
     1
290
     0
176
     1
290
     0
176
     1
 90
       50
176
     1
 40
0.0
176
     1
 40
1.0
176
     1
 90
        0
176
     1
 62
    18
420
        0
176
     1
 90
       50
176
     1
 90
        3
176
     1
 62
     5
420
      255
176
     1
290
     0
176
     1
 90
       50
176
     1
 90
       50
176
     1
 90
       50
176
     1
290
     0
176
     1
 90
       50
176
     1
 62
   256
176
     0
 40
1.0
176
     0
 90
        2
176
     1
  1
strokes_ogs.tif
176
     1
290
     0
176
     1
 40
1.0
176
     1
 40
1.0
176
     1
  0
VISUALSTYLE
  5
2772
102
{ACAD_REACTORS
330
2765
102
}
330
2765
100
AcDbVisualStyle
  2
Thicken
 70
    13
177
     3
291
     1
 70
    58
 90
        2
176
     1
 90
        2
176
     1
 90
        0
176
     1
 90
        0
176
     1
 40
0.6
176
     1
 40
30.0
176
     1
 62
     7
420
 16777215
176
     1
 90
        1
176
     1
 90
        4
176
     1
 62
     7
176
     1
 62
   257
176
     1
 90
        1
176
     1
 90
        1
176
     1
 40
1.0
176
     1
 90
       12
176
     1
 62
     7
176
     1
 40
1.0
176
     1
 90
        1
176
     1
 90
        6
176
     1
 90
        2
176
     1
 62
     7
176
     1
 90
        5
176
     1
 90
        0
176
     1
 90
        0
176
     1
290
     0
176
     1
 90
        1
176
     1
 40
0.0
176
     1
 90
        0
176
     1
290
     0
176
     1
290
     1
176
     1
290
     1
176
     1
290
     0
176
     1
290
     0
176
     1
290
     0
176
     1
290
     0
176
     1
290
     0
176
     1
290
     0
176
     1
 90
       50
176
     1
 40
0.0
176
     1
 40
1.0
176
     1
 90
        0
176
     1
 62
    18
420
        0
176
     1
 90
       50
176
     1
 90
        3
176
     1
 62
     5
420
      255
176
     1
290
     0
176
     1
 90
       50
176
     1
 90
       50
176
     1
 90
       50
176
     1
290
     0
176
     1
 90
       50
176
     1
 62
   256
176
     0
 40
1.0
176
     0
 90
        2
176
     1
  1
strokes_ogs.tif
176
     1
290
     0
176
     1
 40
1.0
176
     1
 40
1.0
176
     1
  0
VISUALSTYLE
  5
2D66F
102
{ACAD_REACTORS
330
2765
102
}
330
2765
100
AcDbVisualStyle
  2
Wireframe
 70
     5
177
     3
291
     0
 70
    58
 90
        0
176
     1
 90
        2
176
     1
 90
        0
176
     1
 90
        0
176
     1
 40
0.6
176
     1
 40
30.0
176
     1
 62
     7
420
 16777215
176
     1
 90
        1
176
     1
 90
        4
176
     1
 62
     7
176
     1
 62
   257
176
     1
 90
        1
176
     1
 90
        1
176
     1
 40
1.0
176
     1
 90
        0
176
     1
 62
   257
176
     1
 40
1.0
176
     1
 90
        1
176
     1
 90
        6
176
     1
 90
        2
176
     1
 62
     7
176
     1
 90
        3
176
     1
 90
        0
176
     1
 90
        0
176
     1
290
     0
176
     1
 90
        1
176
     1
 40
0.0
176
     1
 90
        0
176
     1
290
     0
176
     1
290
     1
176
     1
290
     1
176
     1
290
     0
176
     1
290
     0
176
     1
290
     0
176
     1
290
     0
176
     1
290
     0
176
     1
290
     0
176
     1
 90
       50
176
     1
 40
0.0
176
     1
 40
1.0
176
     1
 90
        0
176
     1
 62
    18
420
        0
176
     1
 90
       50
176
     1
 90
        3
176
     1
 62
     5
420
      255
176
     1
290
     0
176
     1
 90
       50
176
     1
 90
       50
176
     1
 90
       50
176
     1
290
     0
176
     1
 90
       50
176
     1
 62
   256
176
     0
 40
1.0
176
     0
 90
        2
176
     1
  1
strokes_ogs.tif
176
     1
290
     0
176
     1
 40
1.0
176
     1
 40
1.0
176
     1
  0
VISUALSTYLE
  5
2D673
102
{ACAD_REACTORS
330
2765
102
}
330
2765
100
AcDbVisualStyle
  2
X-Ray
 70
    25
177
     3
291
     0
 70
    58
 90
        2
176
     1
 90
        2
176
     1
 90
        1
176
     1
 90
        1
176
     1
 40
0.5
176
     1
 40
30.0
176
     1
 62
     7
420
 16777215
176
     1
 90
        1
176
     1
 90
        0
176
     1
 62
     7
176
     1
 62
   257
176
     1
 90
        1
176
     1
 90
        1
176
     1
 40
1.0
176
     1
 90
        8
176
     1
 62
     7
176
     1
 40
1.0
176
     1
 90
        1
176
     1
 90
        6
176
     1
 90
        2
176
     1
 62
     7
176
     1
 90
        3
176
     1
 90
        0
176
     1
 90
        0
176
     1
290
     0
176
     1
 90
       13
176
     1
 40
0.0
176
     1
 90
        0
176
     1
290
     0
176
     1
290
     1
176
     1
290
     1
176
     1
290
     0
176
     1
290
     0
176
     1
290
     0
176
     1
290
     0
176
     1
290
     0
176
     1
290
     0
176
     1
 90
       50
176
     1
 40
0.0
176
     1
 40
1.0
176
     1
 90
        0
176
     1
 62
    18
420
        0
176
     1
 90
       50
176
     1
 90
        3
176
     1
 62
     5
420
      255
176
     1
290
     0
176
     1
 90
       50
176
     1
 90
       50
176
     1
 90
       50
176
     1
290
     0
176
     1
 90
       50
176
     1
 62
   256
176
     0
 40
1.0
176
     0
 90
        2
176
     1
  1
strokes_ogs.tif
176
     1
290
     0
176
     1
 40
1.0
176
     1
 40
1.0
176
     1
  0
DICTIONARYVAR
  5
24E32
102
{ACAD_REACTORS
330
5E
102
}
330
5E
100
DictionaryVariables
280
     0
  1
1:1
  0
DICTIONARYVAR
  5
24E30
102
{ACAD_REACTORS
330
5E
102
}
330
5E
100
DictionaryVariables
280
     0
  1
STANDARD
  0
DICTIONARYVAR
  5
2792
102
{ACAD_REACTORS
330
5E
102
}
330
5E
100
DictionaryVariables
280
     0
  1
STANDARD
  0
DICTIONARYVAR
  5
2D692
102
{ACAD_REACTORS
330
5E
102
}
330
5E
100
DictionaryVariables
280
     0
  1
Metric50
  0
DICTIONARYVAR
  5
2D693
102
{ACAD_REACTORS
330
5E
102
}
330
5E
100
DictionaryVariables
280
     0
  1
Metric50
  0
DICTIONARYVAR
  5
5F
102
{ACAD_REACTORS
330
5E
102
}
330
5E
100
DictionaryVariables
280
     0
  1
2
  0
DICTIONARYVAR
  5
63
102
{ACAD_REACTORS
330
5E
102
}
330
5E
100
DictionaryVariables
280
     0
  1
1
  0
DICTIONARYVAR
  5
24E34
102
{ACAD_REACTORS
330
5E
102
}
330
5E
100
DictionaryVariables
280
     0
  1
1
  0
DICTIONARYVAR
  5
24E35
102
{ACAD_REACTORS
330
5E
102
}
330
5E
100
DictionaryVariables
280
     0
  1
15
  0
DICTIONARYVAR
  5
24E33
102
{ACAD_REACTORS
330
5E
102
}
330
5E
100
DictionaryVariables
280
     0
  1
0
  0
DICTIONARYVAR
  5
24E31
102
{ACAD_REACTORS
330
5E
102
}
330
5E
100
DictionaryVariables
280
     0
  1
0
  0
DICTIONARY
  5
2D69B
330
2D679
100
AcDbDictionary
280
     1
281
     1
  3
ACAD_XREC_ROUNDTRIP
360
2D69C
  0
DICTIONARY
  5
24E2E
330
22
100
AcDbDictionary
280
     1
281
     1
  0
DICTIONARY
  5
2E30
330
51
100
AcDbDictionary
280
     1
281
     1
  0
DICTIONARY
  5
2D699
330
2D677
100
AcDbDictionary
280
     1
281
     1
  3
ACAD_XREC_ROUNDTRIP
360
2D69A
  0
DICTIONARY
  5
2D695
330
2778
100
AcDbDictionary
280
     1
281
     1
  3
ACAD_ROUNDTRIP_2008_TABLESTYLE_CELLSTYLEMAP
360
2D696
  0
DICTIONARY
  5
2D697
330
2688B
100
AcDbDictionary
280
     1
281
     1
  3
ACAD_ROUNDTRIP_2008_TABLESTYLE_CELLSTYLEMAP
360
2D698
  0
XRECORD
  5
2D69C
102
{ACAD_REACTORS
330
2D69B
102
}
330
2D69B
100
AcDbXrecord
280
     1
102
DISPLAYNAME
  1
Metric50
102
FLAGS
 90
        0
  0
XRECORD
  5
2D69A
102
{ACAD_REACTORS
330
2D699
102
}
330
2D699
100
AcDbXrecord
280
     1
102
DISPLAYNAME
  1
Metric50
102
FLAGS
 90
        0
  0
CELLSTYLEMAP
  5
2D696
102
{ACAD_REACTORS
330
2D695
102
}
330
2D695
100
AcDbCellStyleMap
 90
        3
300
CELLSTYLE
  1
TABLEFORMAT_BEGIN
 90
        5
170
     1
 91
        0
 92
    32768
 62
   257
 93
        1
300
CONTENTFORMAT
  1
CONTENTFORMAT_BEGIN
 90
        0
 91
        0
 92
      512
 93
        0
300

 40
0.0
140
1.0
 94
        5
 62
     0
340
11
144
6.0
309
CONTENTFORMAT_END
171
     1
301
MARGIN
  1
CELLMARGIN_BEGIN
 40
1.5
 40
1.5
 40
1.5
 40
1.5
 40
0.18
 40
0.18
309
CELLMARGIN_END
 94
        6
 95
        1
302
GRIDFORMAT
  1
GRIDFORMAT_BEGIN
 90
        0
 91
        1
 62
     0
 92
       -2
340
0
 93
        0
 40
0.045
309
GRIDFORMAT_END
 95
        2
302
GRIDFORMAT
  1
GRIDFORMAT_BEGIN
 90
        0
 91
        1
 62
     0
 92
       -2
340
0
 93
        0
 40
0.045
309
GRIDFORMAT_END
 95
        4
302
GRIDFORMAT
  1
GRIDFORMAT_BEGIN
 90
        0
 91
        1
 62
     0
 92
       -2
340
0
 93
        0
 40
0.045
309
GRIDFORMAT_END
 95
        8
302
GRIDFORMAT
  1
GRIDFORMAT_BEGIN
 90
        0
 91
        1
 62
     0
 92
       -2
340
0
 93
        0
 40
0.045
309
GRIDFORMAT_END
 95
       16
302
GRIDFORMAT
  1
GRIDFORMAT_BEGIN
 90
        0
 91
        1
 62
     0
 92
       -2
340
0
 93
        0
 40
0.045
309
GRIDFORMAT_END
 95
       32
302
GRIDFORMAT
  1
GRIDFORMAT_BEGIN
 90
        0
 91
        1
 62
     0
 92
       -2
340
0
 93
        0
 40
0.045
309
GRIDFORMAT_END
309
TABLEFORMAT_END
  1
CELLSTYLE_BEGIN
 90
        1
 91
        1
300
_TITLE
309
CELLSTYLE_END
300
CELLSTYLE
  1
TABLEFORMAT_BEGIN
 90
        5
170
     1
 91
        0
 92
        0
 62
   257
 93
        1
300
CONTENTFORMAT
  1
CONTENTFORMAT_BEGIN
 90
        0
 91
        0
 92
      512
 93
        0
300

 40
0.0
140
1.0
 94
        5
 62
     0
340
11
144
4.5
309
CONTENTFORMAT_END
171
     1
301
MARGIN
  1
CELLMARGIN_BEGIN
 40
1.5
 40
1.5
 40
1.5
 40
1.5
 40
0.18
 40
0.18
309
CELLMARGIN_END
 94
        6
 95
        1
302
GRIDFORMAT
  1
GRIDFORMAT_BEGIN
 90
        0
 91
        1
 62
     0
 92
       -2
340
0
 93
        0
 40
0.045
309
GRIDFORMAT_END
 95
        2
302
GRIDFORMAT
  1
GRIDFORMAT_BEGIN
 90
        0
 91
        1
 62
     0
 92
       -2
340
0
 93
        0
 40
0.045
309
GRIDFORMAT_END
 95
        4
302
GRIDFORMAT
  1
GRIDFORMAT_BEGIN
 90
        0
 91
        1
 62
     0
 92
       -2
340
0
 93
        0
 40
0.045
309
GRIDFORMAT_END
 95
        8
302
GRIDFORMAT
  1
GRIDFORMAT_BEGIN
 90
        0
 91
        1
 62
     0
 92
       -2
340
0
 93
        0
 40
0.045
309
GRIDFORMAT_END
 95
       16
302
GRIDFORMAT
  1
GRIDFORMAT_BEGIN
 90
        0
 91
        1
 62
     0
 92
       -2
340
0
 93
        0
 40
0.045
309
GRIDFORMAT_END
 95
       32
302
GRIDFORMAT
  1
GRIDFORMAT_BEGIN
 90
        0
 91
        1
 62
     0
 92
       -2
340
0
 93
        0
 40
0.045
309
GRIDFORMAT_END
309
TABLEFORMAT_END
  1
CELLSTYLE_BEGIN
 90
        2
 91
        1
300
_HEADER
309
CELLSTYLE_END
300
CELLSTYLE
  1
TABLEFORMAT_BEGIN
 90
        5
170
     1
 91
        0
 92
        0
 62
   257
 93
        1
300
CONTENTFORMAT
  1
CONTENTFORMAT_BEGIN
 90
        0
 91
        0
 92
      512
 93
        0
300

 40
0.0
140
1.0
 94
        2
 62
     0
340
11
144
4.5
309
CONTENTFORMAT_END
171
     1
301
MARGIN
  1
CELLMARGIN_BEGIN
 40
1.5
 40
1.5
 40
1.5
 40
1.5
 40
0.18
 40
0.18
309
CELLMARGIN_END
 94
        6
 95
        1
302
GRIDFORMAT
  1
GRIDFORMAT_BEGIN
 90
        0
 91
        1
 62
     0
 92
       -2
340
0
 93
        0
 40
0.045
309
GRIDFORMAT_END
 95
        2
302
GRIDFORMAT
  1
GRIDFORMAT_BEGIN
 90
        0
 91
        1
 62
     0
 92
       -2
340
0
 93
        0
 40
0.045
309
GRIDFORMAT_END
 95
        4
302
GRIDFORMAT
  1
GRIDFORMAT_BEGIN
 90
        0
 91
        1
 62
     0
 92
       -2
340
0
 93
        0
 40
0.045
309
GRIDFORMAT_END
 95
        8
302
GRIDFORMAT
  1
GRIDFORMAT_BEGIN
 90
        0
 91
        1
 62
     0
 92
       -2
340
0
 93
        0
 40
0.045
309
GRIDFORMAT_END
 95
       16
302
GRIDFORMAT
  1
GRIDFORMAT_BEGIN
 90
        0
 91
        1
 62
     0
 92
       -2
340
0
 93
        0
 40
0.045
309
GRIDFORMAT_END
 95
       32
302
GRIDFORMAT
  1
GRIDFORMAT_BEGIN
 90
        0
 91
        1
 62
     0
 92
       -2
340
0
 93
        0
 40
0.045
309
GRIDFORMAT_END
309
TABLEFORMAT_END
  1
CELLSTYLE_BEGIN
 90
        3
 91
        2
300
_DATA
309
CELLSTYLE_END
  0
CELLSTYLEMAP
  5
2D698
102
{ACAD_REACTORS
330
2D697
102
}
330
2D697
100
AcDbCellStyleMap
 90
        3
300
CELLSTYLE
  1
TABLEFORMAT_BEGIN
 90
        5
170
     1
 91
        0
 92
    32768
 62
   257
 93
        1
300
CONTENTFORMAT
  1
CONTENTFORMAT_BEGIN
 90
        0
 91
        0
 92
      512
 93
        0
300

 40
0.0
140
1.0
 94
        5
 62
     0
340
11
144
6.0
309
CONTENTFORMAT_END
171
     1
301
MARGIN
  1
CELLMARGIN_BEGIN
 40
1.5
 40
1.5
 40
1.5
 40
1.5
 40
0.18
 40
0.18
309
CELLMARGIN_END
 94
        6
 95
        1
302
GRIDFORMAT
  1
GRIDFORMAT_BEGIN
 90
        0
 91
        1
 62
     0
 92
       -2
340
0
 93
        0
 40
0.045
309
GRIDFORMAT_END
 95
        2
302
GRIDFORMAT
  1
GRIDFORMAT_BEGIN
 90
        0
 91
        1
 62
     0
 92
       -2
340
0
 93
        0
 40
0.045
309
GRIDFORMAT_END
 95
        4
302
GRIDFORMAT
  1
GRIDFORMAT_BEGIN
 90
        0
 91
        1
 62
     0
 92
       -2
340
0
 93
        0
 40
0.045
309
GRIDFORMAT_END
 95
        8
302
GRIDFORMAT
  1
GRIDFORMAT_BEGIN
 90
        0
 91
        1
 62
     0
 92
       -2
340
0
 93
        0
 40
0.045
309
GRIDFORMAT_END
 95
       16
302
GRIDFORMAT
  1
GRIDFORMAT_BEGIN
 90
        0
 91
        1
 62
     0
 92
       -2
340
0
 93
        0
 40
0.045
309
GRIDFORMAT_END
 95
       32
302
GRIDFORMAT
  1
GRIDFORMAT_BEGIN
 90
        0
 91
        1
 62
     0
 92
       -2
340
0
 93
        0
 40
0.045
309
GRIDFORMAT_END
309
TABLEFORMAT_END
  1
CELLSTYLE_BEGIN
 90
        1
 91
        1
300
_TITLE
309
CELLSTYLE_END
300
CELLSTYLE
  1
TABLEFORMAT_BEGIN
 90
        5
170
     1
 91
        0
 92
        0
 62
   257
 93
        1
300
CONTENTFORMAT
  1
CONTENTFORMAT_BEGIN
 90
        0
 91
        0
 92
      512
 93
        0
300

 40
0.0
140
1.0
 94
        5
 62
     2
340
10EC
144
4.5
309
CONTENTFORMAT_END
171
     1
301
MARGIN
  1
CELLMARGIN_BEGIN
 40
1.5
 40
1.5
 40
1.5
 40
1.5
 40
0.18
 40
0.18
309
CELLMARGIN_END
 94
        6
 95
        1
302
GRIDFORMAT
  1
GRIDFORMAT_BEGIN
 90
        0
 91
        1
 62
     0
 92
       -2
340
0
 93
        0
 40
0.045
309
GRIDFORMAT_END
 95
        2
302
GRIDFORMAT
  1
GRIDFORMAT_BEGIN
 90
        0
 91
        1
 62
     0
 92
       -2
340
0
 93
        0
 40
0.045
309
GRIDFORMAT_END
 95
        4
302
GRIDFORMAT
  1
GRIDFORMAT_BEGIN
 90
        0
 91
        1
 62
     0
 92
       -2
340
0
 93
        0
 40
0.045
309
GRIDFORMAT_END
 95
        8
302
GRIDFORMAT
  1
GRIDFORMAT_BEGIN
 90
        0
 91
        1
 62
     0
 92
       -2
340
0
 93
        0
 40
0.045
309
GRIDFORMAT_END
 95
       16
302
GRIDFORMAT
  1
GRIDFORMAT_BEGIN
 90
        0
 91
        1
 62
     0
 92
       -2
340
0
 93
        0
 40
0.045
309
GRIDFORMAT_END
 95
       32
302
GRIDFORMAT
  1
GRIDFORMAT_BEGIN
 90
        0
 91
        1
 62
     0
 92
       -2
340
0
 93
        0
 40
0.045
309
GRIDFORMAT_END
309
TABLEFORMAT_END
  1
CELLSTYLE_BEGIN
 90
        2
 91
        1
300
_HEADER
309
CELLSTYLE_END
300
CELLSTYLE
  1
TABLEFORMAT_BEGIN
 90
        5
170
     1
 91
        0
 92
        0
 62
   257
 93
        1
300
CONTENTFORMAT
  1
CONTENTFORMAT_BEGIN
 90
        0
 91
        0
 92
      512
 93
        0
300

 40
0.0
140
1.0
 94
        2
 62
     2
340
10EC
144
4.5
309
CONTENTFORMAT_END
171
     1
301
MARGIN
  1
CELLMARGIN_BEGIN
 40
1.5
 40
1.5
 40
1.5
 40
1.5
 40
0.18
 40
0.18
309
CELLMARGIN_END
 94
        6
 95
        1
302
GRIDFORMAT
  1
GRIDFORMAT_BEGIN
 90
        0
 91
        1
 62
     0
 92
       -2
340
0
 93
        0
 40
0.045
309
GRIDFORMAT_END
 95
        2
302
GRIDFORMAT
  1
GRIDFORMAT_BEGIN
 90
        0
 91
        1
 62
     0
 92
       -2
340
0
 93
        0
 40
0.045
309
GRIDFORMAT_END
 95
        4
302
GRIDFORMAT
  1
GRIDFORMAT_BEGIN
 90
        0
 91
        1
 62
     0
 92
       -2
340
0
 93
        0
 40
0.045
309
GRIDFORMAT_END
 95
        8
302
GRIDFORMAT
  1
GRIDFORMAT_BEGIN
 90
        0
 91
        1
 62
     0
 92
       -2
340
0
 93
        0
 40
0.045
309
GRIDFORMAT_END
 95
       16
302
GRIDFORMAT
  1
GRIDFORMAT_BEGIN
 90
        0
 91
        1
 62
     0
 92
       -2
340
0
 93
        0
 40
0.045
309
GRIDFORMAT_END
 95
       32
302
GRIDFORMAT
  1
GRIDFORMAT_BEGIN
 90
        0
 91
        1
 62
     0
 92
       -2
340
0
 93
        0
 40
0.045
309
GRIDFORMAT_END
309
TABLEFORMAT_END
  1
CELLSTYLE_BEGIN
 90
        3
 91
        2
300
_DATA
309
CELLSTYLE_END
  0
ENDSEC
  0
SECTION
  2
ACDSDATA
 70
     2
 71
     6
  0
ACDSSCHEMA
 90
        0
  1
AcDb_Thumbnail_Schema
  2
AcDbDs::ID
280
    10
 91
        8
  2
Thumbnail_Data
280
    15
 91
        0
101
ACDSRECORD
 95
        0
 90
        1
  2
AcDbDs::TreatedAsObjectData
280
     1
291
     1
101
ACDSRECORD
 95
        0
 90
        2
  2
AcDbDs::Legacy
280
     1
291
     1
101
ACDSRECORD
  1
AcDbDs::ID
 90
        3
  2
AcDs:Indexable
280
     1
291
     1
101
ACDSRECORD
  1
AcDbDs::ID
 90
        4
  2
AcDbDs::HandleAttribute
280
     7
282
     1
  0
ACDSSCHEMA
 90
        1
  1
AcDbDs::TreatedAsObjectDataSchema
  2
AcDbDs::TreatedAsObjectData
280
     1
 91
        0
  0
ACDSSCHEMA
 90
        2
  1
AcDbDs::LegacySchema
  2
AcDbDs::Legacy
280
     1
 91
        0
  0
ACDSSCHEMA
 90
        3
  1
AcDbDs::IndexedPropertySchema
  2
AcDs:Indexable
280
     1
 91
        0
  0
ACDSSCHEMA
 90
        4
  1
AcDbDs::HandleAttributeSchema
  2
AcDbDs::HandleAttribute
280
     7
 91
        1
284
     1
  0
ACDSRECORD
 90
        0
  2
AcDbDs::ID
280
    10
320
22
  2
Thumbnail_Data
280
    15
 94
     2417
310
89504E470D0A1A0A0000000D49484452000001000000007F080300000037AFECF400000300504C5445000000000000FFFFFF0000000000000000000000000000000000000000000000000000330000660000990000CC0000FF0033000033330033660033990033CC0033FF0066000066330066660066990066CC0066FF0099
310
000099330099660099990099CC0099FF00CC0000CC3300CC6600CC9900CCCC00CCFF00FF0000FF3300FF6600FF9900FFCC00FFFF3300003300333300663300993300CC3300FF3333003333333333663333993333CC3333FF3366003366333366663366993366CC3366FF3399003399333399663399993399CC3399FF33CC00
310
33CC3333CC6633CC9933CCCC33CCFF33FF0033FF3333FF6633FF9933FFCC33FFFF6600006600336600666600996600CC6600FF6633006633336633666633996633CC6633FF6666006666336666666666996666CC6666FF6699006699336699666699996699CC6699FF66CC0066CC3366CC6666CC9966CCCC66CCFF66FF0066
310
FF3366FF6666FF9966FFCC66FFFF9900009900339900669900999900CC9900FF9933009933339933669933999933CC9933FF9966009966339966669966999966CC9966FF9999009999339999669999999999CC9999FF99CC0099CC3399CC6699CC9999CCCC99CCFF99FF0099FF3399FF6699FF9999FFCC99FFFFCC0000CC00
310
33CC0066CC0099CC00CCCC00FFCC3300CC3333CC3366CC3399CC33CCCC33FFCC6600CC6633CC6666CC6699CC66CCCC66FFCC9900CC9933CC9966CC9999CC99CCCC99FFCCCC00CCCC33CCCC66CCCC99CCCCCCCCCCFFCCFF00CCFF33CCFF66CCFF99CCFFCCCCFFFFFF0000FF0033FF0066FF0099FF00CCFF00FFFF3300FF3333
310
FF3366FF3399FF33CCFF33FFFF6600FF6633FF6666FF6699FF66CCFF66FFFF9900FF9933FF9966FF9999FF99CCFF99FFFFCC00FFCC33FFCC66FFCC99FFCCCCFFCCFFFFFF00FFFF33FFFF66FFFF99FFFFCCFFFFFF0000000D0D0D1A1A1A2828283535354343435050505D5D5D6B6B6B787878868686939393A1A1A1AEAEAEBB
310
BBBBC9C9C9D6D6D6E4E4E4F1F1F1FFFFFF000000000000000000000000000000000000000000000000000000000000C11FEF660000062C4944415478DAED9D4B82AB2A1086CF0ED886FBDF426F8311E33BFDE7372A6F0A2C346A61A44F77FA24261D3E7F8A7A40FC677EBCFDE31EF8DF70EDDB00463BB52F8017C09D0070C6
310
A1100800E0BED7DA91D4A1878FBC50016C00E614001807005F0190AD00886F6703D86793D5974C1BDF54BE002401989539F5B70701F828A0FB899379013C05001600F84900F414F53B00606CAF95E7313600740158CE79A6003E82DD007026801E15AFFD4DFC80F8AEF30040000077BE0B47085618E701C099003836C06BDD
310
1EAC534F707D88C160442318597A38293A00FE31F7C89610C60290CF72B0B648CF6D05109EECD93421C80590CDE9E4046FF5AFE7AF994002202290D895D45B100BC0BE41A0D2F7A8FFAB000A05987C2E702F9974413E80C6105E00E895809D056200A904F2F9711400ED37B10C006D4DE0368018E883001877FA2300CB98A0
310
FDA12701C0227E7FFA73006B90802702F0965C1B3BFC01050200F1128F02A0FD002001A426E181005C3F5F00F31DEAF38F0490CF85D18DE72709C0DC17A5961F9F1B4536F7A056F3BFF9E805009607E6EF1980FD15D98B20DCB401B47C10E79CDDA600FBD329C001A087C00E056C65D8A40C0163E821A0B94380B401089134
310
2A41F5FD009C020C6504B53E6004CB9093F228C54C83B41F70004038F5416628B294620044D3400EC0EC7284F2EE7B0490190B044720718575E40A77C5023E8B147A1F54203318A262016B03FA83A1B8FF7F4BB3107202520024122814D01F0EBB9A82EDFDDF9F591994C91541099188C0564608682BC009E02FEEBF4590BE
310
D81500E2320F8DC14AC0541222B100C0C9095A3E45FF3F04F24170435698C280E0F6695366852393CE4A8BAF45864800A121AB36DD561748BD5384AC5891154618D1AD363506400E2056D4A900B60B3A880B43D02B81B830D2CC263700A0022097807BE57B6B83BEB7CE25568975E8AC0D5A538F30FBB9E910EB3DB1046400
310
880C97D13180D271E10088FA4F02C06500FA96412394825534D97597C713005B6340D40A91347CE9D4D0130084894E6D3B4F5500C1E368AC8F950A208F5F3A1A0DA0F2D2820198C3CBE44A00513438048025303AB05032F7BA5100303F0500030238B6581A2063268C03A0B55C9EED5251045C66543E8063CD4BA008C50B01
310
3C52018427602016003DE1ABEF480026967ED47F23080079D4B700C024004C2180B38BA39BEE5CCFFEAE8E2D33D920C832684100E1F1BB1400FA18558D945829319F1220BCA1ACC87AF710005F04FC8C90A1EA22B7D50578B9208602BA0054095C5F19BA09809CDAE05D00C8EAB0B9A13ADC11FE1FB203C4FA8022A62EABE3
310
028C2059F554F4DEEF3E00265B1041AD8F10A000731E805260F59175E734782280C206FC20008E2BFE02B8771660CE8DDDB3806D3ABBBD12006BE768D71C68C39ECFD7644C12FFD4002CD5661D56A195D3D0990078C96D301CA1F59834F84B22C0BD006454873701B865204E01FE0707806F9703E0A6C4C05340330F30F4F6
310
79EC1A02761C98E101A0D3069878084C834F832E4FBF3B1A1C1B406D0D3B9914250F9C067084A8C4E45688A238D983394F3AC2DEE12816659749142787227ECF500A80372190D59BB616860160BA0090DB3BC8F7FE5C005B23E69900668F35FB44150E80018C20F389DAAE15E6BF77E9003A9779CC0076AD0C1108601DC653
310
9702D6B855F728E02080D38BA355005490BAFC57332DDA77009C3C04949A5465EFB00740DEE7BEB7DBFC07E2A868182348A629FC7DF51406650427F31000FA05E06CC00E00423F57B8D30FD80E86EA005CCC8C7ADC193E984CAA23544F88505BCD7200DE87DC5C2D8F74F3E10800CA7C00A1802C0951CB3C8C0A207AF30900
310
FD0B3600B511B17E08D30AA0923E0B19A97CBFE99519A19E1D20ACA4681B40963C2B5272B7E404D90C7800C22B4F6C00D72A00D4F510F02D0051CB016CCE20C5FBB9B236C8180C7B01EC3783571747374C82EAEB7FAE80624574FE6932894770ED1020063107007A0114D37E2DEF28A03A4C70501C4A0D0086A780E80CDDBD
310
63A4EDBC71F6CEF38D60C8B8431080B4A9AE8D02B6FDC65566F810CB5D42E157F88F267A1480F007917A438D01F67C00F9B6B97C039D4C00DB29ACDD00ACED17AE802F02E03CC9BCD71A7BAF3738EEF506F15E6F702405F45BB6FD874ABCE6A8E0F60278017C19C0AF5F7BFCA9ED7F33DCECA8B8F896410000000049454E44
310
AE426082
  0
ACDSRECORD
 90
        0
  2
AcDbDs::ID
280
    10
320
51
  2
Thumbnail_Data
280
    15
 94
     4181
310
89504E470D0A1A0A0000000D4948445200000100000000B5080300000087DCD12600000300504C5445000000000000FFFFFF0000000000000000000000000000000000000000000000000000330000660000990000CC0000FF0033000033330033660033990033CC0033FF0066000066330066660066990066CC0066FF0099
310
000099330099660099990099CC0099FF00CC0000CC3300CC6600CC9900CCCC00CCFF00FF0000FF3300FF6600FF9900FFCC00FFFF3300003300333300663300993300CC3300FF3333003333333333663333993333CC3333FF3366003366333366663366993366CC3366FF3399003399333399663399993399CC3399FF33CC00
310
33CC3333CC6633CC9933CCCC33CCFF33FF0033FF3333FF6633FF9933FFCC33FFFF6600006600336600666600996600CC6600FF6633006633336633666633996633CC6633FF6666006666336666666666996666CC6666FF6699006699336699666699996699CC6699FF66CC0066CC3366CC6666CC9966CCCC66CCFF66FF0066
310
FF3366FF6666FF9966FFCC66FFFF9900009900339900669900999900CC9900FF9933009933339933669933999933CC9933FF9966009966339966669966999966CC9966FF9999009999339999669999999999CC9999FF99CC0099CC3399CC6699CC9999CCCC99CCFF99FF0099FF3399FF6699FF9999FFCC99FFFFCC0000CC00
310
33CC0066CC0099CC00CCCC00FFCC3300CC3333CC3366CC3399CC33CCCC33FFCC6600CC6633CC6666CC6699CC66CCCC66FFCC9900CC9933CC9966CC9999CC99CCCC99FFCCCC00CCCC33CCCC66CCCC99CCCCCCCCCCFFCCFF00CCFF33CCFF66CCFF99CCFFCCCCFFFFFF0000FF0033FF0066FF0099FF00CCFF00FFFF3300FF3333
310
FF3366FF3399FF33CCFF33FFFF6600FF6633FF6666FF6699FF66CCFF66FFFF9900FF9933FF9966FF9999FF99CCFF99FFFFCC00FFCC33FFCC66FFCC99FFCCCCFFCCFFFFFF00FFFF33FFFF66FFFF99FFFFCCFFFFFF0000000D0D0D1A1A1A2828283535354343435050505D5D5D6B6B6B787878868686939393A1A1A1AEAEAEBB
310
BBBBC9C9C9D6D6D6E4E4E4F1F1F1FFFFFF000000000000000000000000000000000000000000000000000000000000C11FEF6600000D104944415478DAED9D4992B33A0C80FF1B700D367DFF03F81A5E694DD55B69FFF02CD93218830319A8EAA44348823E24599207FEE1776FFFFD43F8E6ED07C00088EA907667DBC7BEE1
310
017CEFF5FF01E000BEC9FBCB00BEE9DAFF007C10800E03F830004085B2FFD85D51A6D80026DBA700E0E300F8D86617007C0C80FAE957767E18805E1FF0411A80083C9EC9B58305C39F680214007C23809F0FF8F900F78448F27B62172C1FFE70007814007EAD0FF8E5029FA3014CDB6D6C4C6512EA00D70228F0324FFB7200
310
DCDCF9090E01B05F7A7935004103BC8F7C8106D02AF34BE4BFDB0734D6DF5E170AB35FA4F131AD048D7082ECCA23DEE7040B1F30DC09CABEF0AE64E88656809177AAF66A00F7074237B500439DE04B2FE3653E204FFD37728106006F81400000570040CC3E77E3A6A56DB40F2061CDC3018C0B845E1AD06D6CB3BC6D1445B1
310
AC09D2CE82F68E11DECD701B802381106C2543D8531112110C8562F57BFDD32201A6FF4D3EA01208ED00C83F55D4DB8655104A3BBF054030808A93516E1B6EF10580D90298EFD1003ECEC8887F3182D2CD1704E65C0FC695C5F31C5F3EE72B09CC0CC02C019819A9866CB08CCF8F39C1FDC05E8DF5FEB308809B00C21800C8
310
E3CA0701980F67835846827B009CF8F37E73F74A02A5029CF6017BB9C03CC3E300CCD540C87BAC54FD1253C4C650387C669EF3F0FB050092FED98719C90EFF5801C05BBC130088EAE7E177F2C2E64F85E88DFC69FABA3BC94D00564564F253AF9785C252B5A8AB1ED01CADA9D82CB356BCCCDB8E030804C002002B7A01E096
310
B23891522974AFA5AC15FAE5AF86A180750DF0DDC4909B00F4F8801D02609315BD4684F6939AFD4DEC752F00AAB748DBE51A80B2C93FE304F71038D9561340FFFA6A001BEEB1AA0162BAE635E0800F98F7375CAFBD1550270009C2445F9E28F68BF31DB2D06F48496CDE3FC3695501732E5A231015180F00A4D8F76A27D806
310
C010C060025EDE6B008034E82539335601F2E14F2517E8F401FB00D64D1B33209BF6BB747C81D9117816401AFB8395925866EEE300C0DAFC192330AD00251001D81642739F3408C0581FA02B1AA050398557AC65D0D63626E21184D0B289C0769FFB89A93EC700F048860639A211440D20D690E5609700C09DAE31E432F101
310
C4470108BD114E038CC6E7C10168A701CE1F6A210B3FD010D4CA65F05A00D2E9FDFDA9BF3F63E905010AA06A010D1132B3ED3CD1C0A30591BA0F804E27A82665BC9F330562045A1313D05213E072046822103E5828E07505913E00F1BBB4FD42A5D646415500D8FAB976EF05299A7224AC02C07ACF507B1C701280EB165825
310
53A997C0FE443401E70202804C647DC411E600B0C4340E807CAD56B140F98BAE54DE1278632016E08FE9890793E5FFFDFD09963D66BEC02CFB5ED661B87A016E8053103CDA822600265431686E2E131823CB0060B507678C0F20A7CA5BC42070BE1100C4336E74F0EF22A0A7556A515E0FA01591FEF9020D9160E040D2A304
310
805F196D32A689DAC0914211E99E9BB1E62ACB82C86500EA6735A16C025AD40C06E06896182BD415004103E07A0DA85C2B0A20B345AB15DCD65697B9360C570C2998E1B23142D01409D64CD688376539EE943FF10BA0A8027456CB2500AF4A863217E84514184F85FF3AE3040B02C218A157A7C3986442DCB90AB1841C4B47
310
18C3E18BFA905E5F130C15390C00B0A20140E76FAF7E8001803701209C2AE669A70C005B0EBEAA1771980FD0DB1B0A05FC893980543DA100DE4903A0A601C6A6950880951F6CB3ACB8FB7C271F209B80114405B346316EA300DCA1884CA7DED409C64E4F8C8E3D2B3C4DF9D11ED42813785DC748B86EC9049206908868AAE4
310
732145E8098577CB26BB6385BBFB05FCB85521F6B2971F4BAD2F007813D0472B428F00A02BFECAE5F8152728F5F2814A61D15BF980DA996626B003201C7A3A17B8C107E88D8A1D3402880D466F3ABC67026C9418101985E97CD7F40D5AB17C91ABD5040669C0CE28B1A10000B67201A20199095CEC031A4789C900A017801D
310
1CA4845EDFA9A8E8211FA774A90FBCA963C4EA3431ECED99D3B609304A902EFDB6FC470835CC193A5E16D7FBE363516145F3A6323132AC42F2D4920DA2AE5516A5C1DFBB71C061005A370C904067DB9B0068CB6FEDA515C05E5B9E79D83B00142B58C996E064B7A0FC5962BB5A036065D1D3BCE47271CF503B80BCC7CB7806
310
D3610418AF3B19D07144033600F0E9F13739C150E5320364E897D8FAB7423F8AC1FD9A390AB9605779766E029571343D93A6CAA939420C60474A190474B886520680F3F20E003DC406D0D8A6016C4D1A69BC30E63E80CDEB236B66F402881305E68A1D19D956E18827B41A106B1FAE3B806B49130284431A30AC6364DED07F
310
FFDB668C0091C8751728121D38F9156669149E0700451FE4E5C9D05CCD03431E6CC5B302C64BC27ACD272F7F3EA6416D23909B4171D870EBE4E9BE7AC02C5F7DE525C2287F7C5E3562726A61F778FD2FA71E9B6FC0EB003415448ED7038A09534EA54335C8696A90DB3F00DBE3FE13A6DEA13BF49A56604C41249F34E70C5A
310
01C9A842690CA8260415890FC612FEA4710DC179940389E900313E4E1ACB4911837C006F4F9DF02AADC7A5BC09A8861358ADE20F6BB6549B12C001486B75D138A0AAEDFD3E009365FB8B5C8EB6C4DCBD21B045ABA2B64B00BC41117BA90090E383F833DC0788ABC87402609EAD98B1105A01D5A0721500BEF148C6F3281FB0
310
A7D658E85B1973C57D35001142610245E05E29340CF401324429D22C5434DF075B0040F8298452D62A00960B40889EF1021FC0CF0E451FC0BF5E74CF5D00BAEA01B549052300280A800E8570A3E5D2D9F501389A0DB21972500E97A7C1D8000D60F861E215D8F5E9AF430342DBBF1F098EF001D33C85CD8E475A9F7D6CEF37
310
9C26360430EEC7F4384D2B0B7B9801403E9C6FF48D0E00B419F43E80BB273C6D0273A901180303B5A701CA6A40DE3574A90F48424933464E039825002E08F249CDB609A8BF09F39C78900FC8D6F46C01007D1A90BE366980D789C945374C03FCAED65AB010096E3583971745250020B528BC0D021980F501E03A8837579E6C
310
0500D704427B00C83697D56E1EFC9B5120E86BC4AE4723247ABE1924E5131A6267E9D0D9A22854678D756980CFF1FD9A15BC842302705758E71A403AC9E5CC215695C4A48A4C0440CC123E09005C0540A5CACF9CAD589D08F061902A4FA1D999AAAC8B3C2D7CA9A0282EF3981B2A9633D207CCE487E604B7001007BE00B3F1
310
242BE91751955BA1044B1300C03E80413E608ED58C541667B3FF421F7918F8C6D6EF20B2B2017258484FC49B1FE50366B1A34CA511E0B11F40816402B44E9C7AC6A01C4E207547895D634D45517959DDEB00A4C290F640BC2BD7DE65BA0268A871D845765C59340DABAC4603DD0086748CCCF59E423F679455C9759C160271
310
4581150B907E136B165BDD012D00E035C9D0360023914EA140DB0AFB886A6FD2D0153EE0C0F880130056041A9566F3E0CABC9BEF4D03259B34405C298094C92F1820710A0068656703C69F4BB32B5398E8E70E87B868B753781B00D60748ECDD6C6D08000866EF82591DDA4C304B6878303A268D4DA302E6BE74F8061F1009
310
C431224E1D20AD1C6383488D52717F840F60992F40B69658368BF13080790B407CE94128A3015EEF75D3656CF5012D2650594A0B3A3A471B340034144ED09A00163E10CE03C076008082065CBD965858522C2D21149F75BE138F033854121BD033B43F4C2A1BEFA9A5DD0787C376FA80410B2A1E0340FF992E0070AC244684
310
3A900C7D2C002856951D024056760D04C0D101E1DDCDE02D3E60288023DB5D3EC08BA7EF07D05B0F38EB03B48E8FFC698A6FE97700007D00FC625805004DDF7A15800145D1260D88730AD374481720BE16C0A01B2CF49B00BCD604FA95E61C8001DB0FC00FC02700383125F04334E06300F46E668649E7760B00FC5A1FF029
310
F71EFF01F801F801F801787300CB82576E4BDA369735780E005C119C3C0B22F442BE28EC126F52F92400EBA9A6BB07D6026C722F232FF4FA1F13BA5A0BD1FCC82702D09B00A495FC96EDC5488A550CA8813C1480393114D5BB5C8E54132ED05C0D73DFF6480D88EEB066D31D5F4A0A7681D2434DA074E1A257AF797C797F09
310
803BC8476A40E9B3E8492FD451109B61FB21ED8F355AFF7D8F6E0598DAEBCA4AAE4110844510DAED5FC8A287CCF01F1D08659A5C5B45C8EF77C79263E8FEB8846B4DFA1C003C440388C68BBE1D9917378FBAB23F3FBEB322749B0F088D5E76E6482EA6FB5F2FF2FEF2FFF702903480B9C1F2EAEA8DABCEF73F1D8033DD30DD
310
C6FA31DA9EAD0FBA9ADA48BBED473633ACC76940B87B94BF89127F5AC2AD959AA22273DCDE91CF04A06B00D8BDA57663C31518C623DFC504B8362FC22BF4C2847C7009B921A40E79DF2A90DB9EBC8D136411EA820B7F455FB27430BFC9710900E8714F368125F800084A1FDA311BD2423481CAAD9DF51600BD0DE019A1B068
310
FCE0627A7B0D330050BD674709005201E1B1B980DC0A2C91CEA2B74F8F264D0C4071D48393A1A530FE94044170ED7B148CD16C4AB26C14446EDF968D57B8B456845B0E12017CDDF603F003E000EC4EDEFFD837B240E81B75E007E01F7EF7F6DFFFC74965CB58BC5AB50000000049454E44AE426082
  0
ENDSEC
  0
EOF
