  0
SECTION
  2
HEADER
  9
$ACADVER
  1
AC1027
  9
$ACADMAINTVER
 70
    57
  9
$DWGCODEPAGE
  3
ANSI_932
  9
$LASTSAVEDBY
  1
kashikeiQC
  9
$REQUIREDVERSIONS
160
                 0
  9
$INSBASE
 10
0.0
 20
0.0
 30
0.0
  9
$EXTMIN
 10
5.0
 20
0.0
 30
0.0
  9
$EXTMAX
 10
425.0
 20
297.0
 30
0.0
  9
$LIMMIN
 10
0.0
 20
0.0
  9
$LIMMAX
 10
420.0
 20
297.0
  9
$ORTHOMODE
 70
     0
  9
$REGENMODE
 70
     1
  9
$FILLMODE
 70
     1
  9
$QTEXTMODE
 70
     0
  9
$MIRRTEXT
 70
     1
  9
$LTSCALE
 40
0.3
  9
$ATTMODE
 70
     1
  9
$TEXTSIZE
 40
2.5
  9
$TRACEWID
 40
1.0
  9
$TEXTSTYLE
  7
Standard
  9
$CLAYER
  8
寸法
  9
$CELTYPE
  6
ByLayer
  9
$CECOLOR
 62
   256
  9
$CELTSCALE
 40
1.0
  9
$DISPSILH
 70
     0
  9
$DIMSCALE
 40
1.0
  9
$DIMASZ
 40
2.5
  9
$DIMEXO
 40
0.625
  9
$DIMDLI
 40
3.75
  9
$DIMRND
 40
0.0
  9
$DIMDLE
 40
0.0
  9
$DIMEXE
 40
1.25
  9
$DIMTP
 40
0.0
  9
$DIMTM
 40
0.0
  9
$DIMTXT
 40
3.5
  9
$DIMCEN
 40
2.5
  9
$DIMTSZ
 40
0.0
  9
$DIMTOL
 70
     0
  9
$DIMLIM
 70
     0
  9
$DIMTIH
 70
     0
  9
$DIMTOH
 70
     0
  9
$DIMSE1
 70
     0
  9
$DIMSE2
 70
     0
  9
$DIMTAD
 70
     1
  9
$DIMZIN
 70
     8
  9
$DIMBLK
  1

  9
$DIMASO
 70
     1
  9
$DIMSHO
 70
     1
  9
$DIMPOST
  1

  9
$DIMAPOST
  1

  9
$DIMALT
 70
     0
  9
$DIMALTD
 70
     3
  9
$DIMALTF
 40
0.03937007874016
  9
$DIMLFAC
 40
1.0
  9
$DIMTOFL
 70
     1
  9
$DIMTVP
 40
0.0
  9
$DIMTIX
 70
     0
  9
$DIMSOXD
 70
     0
  9
$DIMSAH
 70
     0
  9
$DIMBLK1
  1

  9
$DIMBLK2
  1

  9
$DIMSTYLE
  2
ｺﾋﾟｰ - ISO-25
  9
$DIMCLRD
 70
     0
  9
$DIMCLRE
 70
     0
  9
$DIMCLRT
 70
     2
  9
$DIMTFAC
 40
1.0
  9
$DIMGAP
 40
1.0
  9
$DIMJUST
 70
     0
  9
$DIMSD1
 70
     0
  9
$DIMSD2
 70
     0
  9
$DIMTOLJ
 70
     0
  9
$DIMTZIN
 70
     8
  9
$DIMALTZ
 70
     0
  9
$DIMALTTZ
 70
     0
  9
$DIMUPT
 70
     0
  9
$DIMDEC
 70
     1
  9
$DIMTDEC
 70
     1
  9
$DIMALTU
 70
     2
  9
$DIMALTTD
 70
     3
  9
$DIMTXSTY
  7
寸法
  9
$DIMAUNIT
 70
     0
  9
$DIMADEC
 70
     0
  9
$DIMALTRND
 40
0.0
  9
$DIMAZIN
 70
     0
  9
$DIMDSEP
 70
    46
  9
$DIMATFIT
 70
     3
  9
$DIMFRAC
 70
     0
  9
$DIMLDRBLK
  1

  9
$DIMLUNIT
 70
     2
  9
$DIMLWD
 70
    -2
  9
$DIMLWE
 70
    -2
  9
$DIMTMOVE
 70
     0
  9
$DIMFXL
 40
1.0
  9
$DIMFXLON
 70
     0
  9
$DIMJOGANG
 40
0.7853981633974483
  9
$DIMTFILL
 70
     0
  9
$DIMTFILLCLR
 70
     0
  9
$DIMARCSYM
 70
     0
  9
$DIMLTYPE
  6

  9
$DIMLTEX1
  6

  9
$DIMLTEX2
  6

  9
$DIMTXTDIRECTION
 70
     0
  9
$LUNITS
 70
     2
  9
$LUPREC
 70
     4
  9
$SKETCHINC
 40
1.0
  9
$FILLETRAD
 40
1.0
  9
$AUNITS
 70
     0
  9
$AUPREC
 70
     0
  9
$MENU
  1
.
  9
$ELEVATION
 40
0.0
  9
$PELEVATION
 40
0.0
  9
$THICKNESS
 40
0.0
  9
$LIMCHECK
 70
     0
  9
$CHAMFERA
 40
0.0
  9
$CHAMFERB
 40
0.0
  9
$CHAMFERC
 40
20.0
  9
$CHAMFERD
 40
0.0
  9
$SKPOLY
 70
     0
  9
$TDCREATE
 40
2452970.700528056
  9
$TDUCREATE
 40
2452970.325528056
  9
$TDUPDATE
 40
2458814.680921193
  9
$TDUUPDATE
 40
2458814.305921193
  9
$TDINDWG
 40
1.8862341551
  9
$TDUSRTIMER
 40
1.8862332176
  9
$USRTIMER
 70
     1
  9
$ANGBASE
 50
0.0
  9
$ANGDIR
 70
     0
  9
$PDMODE
 70
     3
  9
$PDSIZE
 40
-3.0
  9
$PLINEWID
 40
0.0
  9
$SPLFRAME
 70
     0
  9
$SPLINETYPE
 70
     6
  9
$SPLINESEGS
 70
     8
  9
$HANDSEED
  5
2B583
  9
$SURFTAB1
 70
     6
  9
$SURFTAB2
 70
     6
  9
$SURFTYPE
 70
     6
  9
$SURFU
 70
     6
  9
$SURFV
 70
     6
  9
$UCSBASE
  2

  9
$UCSNAME
  2

  9
$UCSORG
 10
0.0
 20
0.0
 30
0.0
  9
$UCSXDIR
 10
1.0
 20
0.0
 30
0.0
  9
$UCSYDIR
 10
0.0
 20
1.0
 30
0.0
  9
$UCSORTHOREF
  2

  9
$UCSORTHOVIEW
 70
     0
  9
$UCSORGTOP
 10
0.0
 20
0.0
 30
0.0
  9
$UCSORGBOTTOM
 10
0.0
 20
0.0
 30
0.0
  9
$UCSORGLEFT
 10
0.0
 20
0.0
 30
0.0
  9
$UCSORGRIGHT
 10
0.0
 20
0.0
 30
0.0
  9
$UCSORGFRONT
 10
0.0
 20
0.0
 30
0.0
  9
$UCSORGBACK
 10
0.0
 20
0.0
 30
0.0
  9
$PUCSBASE
  2

  9
$PUCSNAME
  2

  9
$PUCSORG
 10
0.0
 20
0.0
 30
0.0
  9
$PUCSXDIR
 10
1.0
 20
0.0
 30
0.0
  9
$PUCSYDIR
 10
0.0
 20
1.0
 30
0.0
  9
$PUCSORTHOREF
  2

  9
$PUCSORTHOVIEW
 70
     0
  9
$PUCSORGTOP
 10
0.0
 20
0.0
 30
0.0
  9
$PUCSORGBOTTOM
 10
0.0
 20
0.0
 30
0.0
  9
$PUCSORGLEFT
 10
0.0
 20
0.0
 30
0.0
  9
$PUCSORGRIGHT
 10
0.0
 20
0.0
 30
0.0
  9
$PUCSORGFRONT
 10
0.0
 20
0.0
 30
0.0
  9
$PUCSORGBACK
 10
0.0
 20
0.0
 30
0.0
  9
$USERI1
 70
     0
  9
$USERI2
 70
     0
  9
$USERI3
 70
     0
  9
$USERI4
 70
     0
  9
$USERI5
 70
     0
  9
$USERR1
 40
0.0
  9
$USERR2
 40
0.0
  9
$USERR3
 40
0.0
  9
$USERR4
 40
0.0
  9
$USERR5
 40
0.0
  9
$WORLDVIEW
 70
     1
  9
$SHADEDGE
 70
     3
  9
$SHADEDIF
 70
    70
  9
$TILEMODE
 70
     1
  9
$MAXACTVP
 70
    64
  9
$PINSBASE
 10
0.0
 20
0.0
 30
0.0
  9
$PLIMCHECK
 70
     0
  9
$PEXTMIN
 10
-58.82240024691737
 20
-86.72323328256494
 30
0.0
  9
$PEXTMAX
 10
448.1718497119468
 20
324.5569721112054
 30
0.0
  9
$PLIMMIN
 10
-3.757080078125
 20
-3.757083415985107
  9
$PLIMMAX
 10
416.2601318359374
 20
293.2112393379211
  9
$UNITMODE
 70
     0
  9
$VISRETAIN
 70
     1
  9
$PLINEGEN
 70
     0
  9
$PSLTSCALE
 70
     1
  9
$TREEDEPTH
 70
  3020
  9
$CMLSTYLE
  2
Standard
  9
$CMLJUST
 70
     0
  9
$CMLSCALE
 40
20.0
  9
$PROXYGRAPHICS
 70
     1
  9
$MEASUREMENT
 70
     1
  9
$CELWEIGHT
370
    -1
  9
$ENDCAPS
280
     0
  9
$JOINSTYLE
280
     0
  9
$LWDISPLAY
290
     0
  9
$INSUNITS
 70
     4
  9
$HYPERLINKBASE
  1

  9
$STYLESHEET
  1
monochrome.ctb
  9
$XEDIT
290
     1
  9
$CEPSNTYPE
380
     0
  9
$PSTYLEMODE
290
     1
  9
$FINGERPRINTGUID
  2
{FDEAD578-A652-11D2-9A35-0060089B3A3F}
  9
$VERSIONGUID
  2
{E783D93E-D302-4D61-B2F2-6DD3C230771E}
  9
$EXTNAMES
290
     1
  9
$PSVPSCALE
 40
0.0
  9
$OLESTARTUP
290
     0
  9
$SORTENTS
280
   127
  9
$INDEXCTL
280
     0
  9
$HIDETEXT
280
     1
  9
$XCLIPFRAME
280
     0
  9
$HALOGAP
280
     0
  9
$OBSCOLOR
 70
   257
  9
$OBSLTYPE
280
     0
  9
$INTERSECTIONDISPLAY
280
     0
  9
$INTERSECTIONCOLOR
 70
   257
  9
$DIMASSOC
280
     2
  9
$PROJECTNAME
  1

  9
$CAMERADISPLAY
290
     0
  9
$LENSLENGTH
 40
50.0
  9
$CAMERAHEIGHT
 40
0.0
  9
$STEPSPERSEC
 40
2.0
  9
$STEPSIZE
 40
6.0
  9
$3DDWFPREC
 40
2.0
  9
$PSOLWIDTH
 40
0.25
  9
$PSOLHEIGHT
 40
4.0
  9
$LOFTANG1
 40
1.570796326794896
  9
$LOFTANG2
 40
1.570796326794896
  9
$LOFTMAG1
 40
0.0
  9
$LOFTMAG2
 40
0.0
  9
$LOFTPARAM
 70
     7
  9
$LOFTNORMALS
280
     1
  9
$LATITUDE
 40
37.795
  9
$LONGITUDE
 40
-122.394
  9
$NORTHDIRECTION
 40
0.0
  9
$TIMEZONE
 70
 -8000
  9
$LIGHTGLYPHDISPLAY
280
     1
  9
$TILEMODELIGHTSYNCH
280
     1
  9
$CMATERIAL
347
2762
  9
$SOLIDHIST
280
     1
  9
$SHOWHIST
280
     1
  9
$DWFFRAME
280
     2
  9
$DGNFRAME
280
     0
  9
$REALWORLDSCALE
290
     1
  9
$INTERFERECOLOR
 62
     1
  9
$INTERFEREOBJVS
345
276F
  9
$INTERFEREVPVS
346
276C
  9
$CSHADOW
280
     0
  9
$SHADOWPLANELOCATION
 40
0.0
  0
ENDSEC
  0
SECTION
  2
CLASSES
  0
CLASS
  1
ACDBDICTIONARYWDFLT
  2
AcDbDictionaryWithDefault
  3
ObjectDBX Classes
 90
        0
 91
        1
280
     0
281
     0
  0
CLASS
  1
DICTIONARYVAR
  2
AcDbDictionaryVar
  3
ObjectDBX Classes
 90
        0
 91
       11
280
     0
281
     0
  0
CLASS
  1
DIMASSOC
  2
AcDbDimAssoc
  3
"AcDbDimAssoc|Product Desc:     AcDim ARX App For Dimension|Company:          Autodesk, Inc.|WEB Address:      www.autodesk.com"
 90
        0
 91
        4
280
     0
281
     0
  0
CLASS
  1
PLOTSETTINGS
  2
AcDbPlotSettings
  3
ObjectDBX Classes
 90
        0
 91
        1
280
     0
281
     0
  0
CLASS
  1
MATERIAL
  2
AcDbMaterial
  3
ObjectDBX Classes
 90
     1153
 91
        3
280
     0
281
     0
  0
CLASS
  1
VISUALSTYLE
  2
AcDbVisualStyle
  3
ObjectDBX Classes
 90
     4095
 91
       26
280
     0
281
     0
  0
CLASS
  1
TABLESTYLE
  2
AcDbTableStyle
  3
ObjectDBX Classes
 90
     4095
 91
        2
280
     0
281
     0
  0
CLASS
  1
SORTENTSTABLE
  2
AcDbSortentsTable
  3
ObjectDBX Classes
 90
        0
 91
        2
280
     0
281
     0
  0
CLASS
  1
ACAD_EVALUATION_GRAPH
  2
AcDbEvalGraph
  3
ObjectDBX Classes
 90
     1153
 91
        0
280
     0
281
     0
  0
CLASS
  1
ACAECUSTOBJ
  2
AcAeEditorObj
  3
AcAeEditorObj
 90
     1024
 91
        0
280
     0
281
     0
  0
CLASS
  1
ACDB_DYNAMICBLOCKPURGEPREVENTER_VERSION
  2
AcDbDynamicBlockPurgePreventer
  3
ObjectDBX Classes
 90
     1153
 91
        0
280
     0
281
     0
  0
CLASS
  1
ACAD_TABLE
  2
AcDbTable
  3
ObjectDBX Classes
 90
     1025
 91
        0
280
     0
281
     1
  0
CLASS
  1
SCALE
  2
AcDbScale
  3
ObjectDBX Classes
 90
     1153
 91
       17
280
     0
281
     0
  0
CLASS
  1
MLEADERSTYLE
  2
AcDbMLeaderStyle
  3
ACDB_MLEADERSTYLE_CLASS
 90
     4095
 91
        1
280
     0
281
     0
  0
CLASS
  1
TABLECONTENT
  2
AcDbTableContent
  3
ObjectDBX Classes
 90
     1152
 91
        0
280
     0
281
     0
  0
CLASS
  1
TABLEGEOMETRY
  2
AcDbTableGeometry
  3
ObjectDBX Classes
 90
     1152
 91
        0
280
     0
281
     0
  0
CLASS
  1
ACDBSECTIONVIEWSTYLE
  2
AcDbSectionViewStyle
  3
ObjectDBX Classes
 90
     1025
 91
        1
280
     0
281
     0
  0
CLASS
  1
ACDBDETAILVIEWSTYLE
  2
AcDbDetailViewStyle
  3
ObjectDBX Classes
 90
     1025
 91
        1
280
     0
281
     0
  0
CLASS
  1
CELLSTYLEMAP
  2
AcDbCellStyleMap
  3
ObjectDBX Classes
 90
     1152
 91
        2
280
     0
281
     0
  0
ENDSEC
  0
SECTION
  2
TABLES
  0
TABLE
  2
VPORT
  5
8
330
0
100
AcDbSymbolTable
 70
     1
  0
VPORT
  5
275F
330
8
100
AcDbSymbolTableRecord
100
AcDbViewportTableRecord
  2
*Active
 70
     0
 10
0.0
 20
0.0
 11
1.0
 21
1.0
 12
219.5737380684798
 22
148.50000864446
 13
0.0
 23
0.0
 14
10.0
 24
10.0
 15
10.0
 25
10.0
 16
0.0
 26
0.0
 36
1.0
 17
0.0
 27
0.0
 37
0.0
 40
260.9319174337734
 41
2.367088607594936
 42
50.0
 43
0.0
 44
0.0
 50
0.0
 51
0.0
 71
     0
 72
   100
 73
     1
 74
     3
 75
     0
 76
     0
 77
     0
 78
     0
281
     0
 65
     1
110
0.0
120
0.0
130
0.0
111
1.0
121
0.0
131
0.0
112
0.0
122
1.0
132
0.0
 79
     0
146
0.0
348
276B
 60
     3
 61
     5
292
     1
282
     1
141
0.0
142
0.0
 63
   250
421
  3355443
1001
ACAD_NAV_VCDISPLAY
1070
     3
  0
ENDTAB
  0
TABLE
  2
LTYPE
  5
5
330
0
100
AcDbSymbolTable
 70
     4
  0
LTYPE
  5
14
330
5
100
AcDbSymbolTableRecord
100
AcDbLinetypeTableRecord
  2
ByBlock
 70
     0
  3

 72
    65
 73
     0
 40
0.0
  0
LTYPE
  5
15
330
5
100
AcDbSymbolTableRecord
100
AcDbLinetypeTableRecord
  2
ByLayer
 70
     0
  3

 72
    65
 73
     0
 40
0.0
  0
LTYPE
  5
16
330
5
100
AcDbSymbolTableRecord
100
AcDbLinetypeTableRecord
  2
Continuous
 70
     0
  3
Solid line
 72
    65
 73
     0
 40
0.0
  0
LTYPE
  5
A5
330
5
100
AcDbSymbolTableRecord
100
AcDbLinetypeTableRecord
  2
CENTER
 70
     0
  3
Center ____ _ ____ _ ____ _ ____ _ ____ _ ____
 72
    65
 73
     4
 40
50.8
 49
31.75
 74
     0
 49
-6.349999999999998
 74
     0
 49
6.349999999999998
 74
     0
 49
-6.349999999999998
 74
     0
  0
LTYPE
  5
A6
330
5
100
AcDbSymbolTableRecord
100
AcDbLinetypeTableRecord
  2
HIDDEN
 70
     0
  3
Hidden __ __ __ __ __ __ __ __ __ __ __ __ __ _
 72
    65
 73
     2
 40
9.524999999999996
 49
6.349999999999998
 74
     0
 49
-3.174999999999998
 74
     0
  0
LTYPE
  5
2365
330
5
100
AcDbSymbolTableRecord
100
AcDbLinetypeTableRecord
  2
DIVIDE
 70
     0
  3
Divide ____ . . ____ . . ____ . . ____ . . ____
 72
    65
 73
     6
 40
31.74999999999999
 49
12.7
 74
     0
 49
-6.349999999999998
 74
     0
 49
0.0
 74
     0
 49
-6.349999999999998
 74
     0
 49
0.0
 74
     0
 49
-6.349999999999998
 74
     0
  0
ENDTAB
  0
TABLE
  2
LAYER
  5
2
102
{ACAD_XDICTIONARY
360
279F
102
}
330
0
100
AcDbSymbolTable
 70
    11
  0
LAYER
  5
10
102
{ACAD_XDICTIONARY
360
24E13
102
}
330
2
100
AcDbSymbolTableRecord
100
AcDbLayerTableRecord
  2
0
 70
     0
 62
     7
  6
Continuous
370
    -3
390
F
347
2764
348
0
  0
LAYER
  5
A7
102
{ACAD_XDICTIONARY
360
24E15
102
}
330
2
100
AcDbSymbolTableRecord
100
AcDbLayerTableRecord
  2
破線
 70
     0
 62
     4
  6
HIDDEN
370
    20
390
F
347
2764
348
0
  0
LAYER
  5
A8
102
{ACAD_XDICTIONARY
360
24E17
102
}
330
2
100
AcDbSymbolTableRecord
100
AcDbLayerTableRecord
  2
一点鎖線
 70
     0
 62
     5
  6
CENTER
370
    15
390
F
347
2764
348
0
  0
LAYER
  5
A9
102
{ACAD_XDICTIONARY
360
24E19
102
}
330
2
100
AcDbSymbolTableRecord
100
AcDbLayerTableRecord
  2
補助線
 70
     0
 62
     8
  6
Continuous
290
     0
370
    -3
390
F
347
2764
348
0
  0
LAYER
  5
AA
102
{ACAD_XDICTIONARY
360
24E1B
102
}
330
2
100
AcDbSymbolTableRecord
100
AcDbLayerTableRecord
  2
実線
 70
     0
 62
     7
  6
Continuous
370
    -3
390
F
347
2764
348
0
  0
LAYER
  5
AB
102
{ACAD_XDICTIONARY
360
24E1D
102
}
330
2
100
AcDbSymbolTableRecord
100
AcDbLayerTableRecord
  2
寸法
 70
     0
 62
     3
  6
Continuous
370
    15
390
F
347
2764
348
0
  0
LAYER
  5
AC
102
{ACAD_XDICTIONARY
360
24E1F
102
}
330
2
100
AcDbSymbolTableRecord
100
AcDbLayerTableRecord
  2
文字
 70
     0
 62
     2
  6
Continuous
370
    15
390
F
347
2764
348
0
  0
LAYER
  5
185
330
2
100
AcDbSymbolTableRecord
100
AcDbLayerTableRecord
  2
Defpoints
 70
     0
 62
     7
  6
Continuous
290
     0
370
    -3
390
F
347
2764
348
0
  0
LAYER
  5
58C
102
{ACAD_XDICTIONARY
360
24E21
102
}
330
2
100
AcDbSymbolTableRecord
100
AcDbLayerTableRecord
  2
細線
 70
     0
 62
     6
  6
Continuous
370
     9
390
F
347
2764
348
0
  0
LAYER
  5
1023
102
{ACAD_XDICTIONARY
360
24E23
102
}
330
2
100
AcDbSymbolTableRecord
100
AcDbLayerTableRecord
  2
太線
 70
     0
 62
     3
  6
Continuous
370
    40
390
F
347
2764
348
0
  0
LAYER
  5
2366
102
{ACAD_XDICTIONARY
360
24E25
102
}
330
2
100
AcDbSymbolTableRecord
100
AcDbLayerTableRecord
  2
二点鎖線
 70
     0
 62
     1
  6
DIVIDE
370
    20
390
F
347
2764
348
0
  0
ENDTAB
  0
TABLE
  2
STYLE
  5
3
330
0
100
AcDbSymbolTable
 70
    17
  0
STYLE
  5
11
330
3
100
AcDbSymbolTableRecord
100
AcDbTextStyleTableRecord
  2
Standard
 70
     0
 40
2.5
 41
0.8
 50
0.0
 71
     0
 42
2.5
  3
romans.shx
  4
bigfont.shx
  0
STYLE
  5
A4
330
3
100
AcDbSymbolTableRecord
100
AcDbTextStyleTableRecord
  2

 70
     1
 40
0.0
 41
1.0
 50
0.0
 71
     0
 42
2.5
  3
ltypeshp.shx
  4

  0
STYLE
  5
2A5
330
3
100
AcDbSymbolTableRecord
100
AcDbTextStyleTableRecord
  2
寸法
 70
     0
 40
0.0
 41
0.75
 50
0.0
 71
     0
 42
2.5
  3
romans.shx
  4
bigfont.shx
  0
STYLE
  5
109D
330
3
100
AcDbSymbolTableRecord
100
AcDbTextStyleTableRecord
  2
縦書き
 70
     4
 40
3.0
 41
0.8
 50
0.0
 71
     0
 42
3.0
  3
romans.shx
  4
bigfont.shx
  0
STYLE
  5
10EC
330
3
100
AcDbSymbolTableRecord
100
AcDbTextStyleTableRecord
  2
ｽﾀｲﾙ1
 70
     0
 40
3.0
 41
0.8
 50
0.0
 71
     0
 42
3.0
  3
romans.shx
  4
bigfont.shx
  0
STYLE
  5
114D
330
3
100
AcDbSymbolTableRecord
100
AcDbTextStyleTableRecord
  2
ｽﾀｲﾙ2
 70
     0
 40
9.0
 41
1.0
 50
0.0
 71
     0
 42
9.0
  3
swisscbo.ttf
  4

1001
ACAD
1000
Swis721 BdCnOul BT
1071
       82
  0
STYLE
  5
2367
330
3
100
AcDbSymbolTableRecord
100
AcDbTextStyleTableRecord
  2
ｽﾀｲﾙ3
 70
     0
 40
2.0
 41
1.0
 50
0.0
 71
     0
 42
2.0
  3
isocp.shx
  4
bigfont.shx
  0
STYLE
  5
2368
330
3
100
AcDbSymbolTableRecord
100
AcDbTextStyleTableRecord
  2
ｽﾀｲﾙ4
 70
     0
 40
4.5
 41
1.0
 50
0.0
 71
     0
 42
4.5
  3
swisscbo.ttf
  4

1001
ACAD
1000
Swis721 BdCnOul BT
1071
       82
  0
STYLE
  5
3AB5
330
3
100
AcDbSymbolTableRecord
100
AcDbTextStyleTableRecord
  2
スタイル1
 70
     0
 40
3.0
 41
0.8
 50
0.0
 71
     0
 42
3.0
  3
romans.shx
  4
bigfont.shx
  0
STYLE
  5
3E4F
330
3
100
AcDbSymbolTableRecord
100
AcDbTextStyleTableRecord
  2
hhhhhhhhhhhhhhhhhh
 70
     0
 40
1.5
 41
0.8
 50
0.0
 71
     0
 42
1.0
  3
bold.shx
  4
bigfont.shx
  0
STYLE
  5
3E50
330
3
100
AcDbSymbolTableRecord
100
AcDbTextStyleTableRecord
  2
書き込み
 70
     0
 40
2.5
 41
0.75
 50
0.0
 71
     0
 42
1.0
  3
romand.shx
  4
bigfont.shx
  0
STYLE
  5
24822
330
3
100
AcDbSymbolTableRecord
100
AcDbTextStyleTableRecord
  2
ﾛｺﾞ
 70
     0
 40
14.0
 41
0.7
 50
0.0
 71
     0
 42
2.5
  3
swisscbo.ttf
  4

1001
ACAD
1000
Swis721 BdCnOul BT
1071
       82
  0
STYLE
  5
264FC
330
3
100
AcDbSymbolTableRecord
100
AcDbTextStyleTableRecord
  2
寸法２
 70
     0
 40
1.8
 41
0.8
 50
0.0
 71
     0
 42
1.8
  3
romans.shx
  4
bigfont.shx
  0
STYLE
  5
264FD
330
3
100
AcDbSymbolTableRecord
100
AcDbTextStyleTableRecord
  2
カシケイ
 70
     0
 40
3.0
 41
0.8
 50
0.0
 71
     0
 42
2.5
  3
swisscbo.ttf
  4

1001
ACAD
1000
Swis721 BdCnOul BT
1071
       82
  0
STYLE
  5
29418
330
3
100
AcDbSymbolTableRecord
100
AcDbTextStyleTableRecord
  2
スタイル6
 70
     0
 40
3.0
 41
1.0
 50
0.0
 71
     0
 42
3.0
  3
swissc.ttf
  4

1001
ACAD
1000
Swis721 Cn BT
1071
       34
  0
STYLE
  5
29419
330
3
100
AcDbSymbolTableRecord
100
AcDbTextStyleTableRecord
  2
スタイル3
 70
     0
 40
9.0
 41
1.0
 50
0.0
 71
     0
 42
2.5
  3
swisscbo.ttf
  4

1001
ACAD
1000
Swis721 BdCnOul BT
1071
       82
  0
STYLE
  5
2A7F0
330
3
100
AcDbSymbolTableRecord
100
AcDbTextStyleTableRecord
  2
BIGFONT
 70
     0
 40
0.0
 41
1.0
 50
0.0
 71
     0
 42
20.0
  3
txt.shx
  4
bigfont
  0
ENDTAB
  0
TABLE
  2
VIEW
  5
6
330
0
100
AcDbSymbolTable
 70
     0
  0
ENDTAB
  0
TABLE
  2
UCS
  5
7
330
0
100
AcDbSymbolTable
 70
     0
  0
ENDTAB
  0
TABLE
  2
APPID
  5
9
330
0
100
AcDbSymbolTable
 70
    12
  0
APPID
  5
12
330
9
100
AcDbSymbolTableRecord
100
AcDbRegAppTableRecord
  2
ACAD
 70
     0
  0
APPID
  5
2789
330
9
100
AcDbSymbolTableRecord
100
AcDbRegAppTableRecord
  2
ACAD_PSEXT
 70
     0
  0
APPID
  5
28B6
330
9
100
AcDbSymbolTableRecord
100
AcDbRegAppTableRecord
  2
ACAD_EXEMPT_FROM_CAD_STANDARDS
 70
     0
  0
APPID
  5
2977
330
9
100
AcDbSymbolTableRecord
100
AcDbRegAppTableRecord
  2
ACAUTHENVIRON
 70
     0
  0
APPID
  5
29B0
330
9
100
AcDbSymbolTableRecord
100
AcDbRegAppTableRecord
  2
AcDbDynamicBlockTrueName
 70
     0
  0
APPID
  5
29B1
330
9
100
AcDbSymbolTableRecord
100
AcDbRegAppTableRecord
  2
AcDbDynamicBlockGUID
 70
     0
  0
APPID
  5
29B3
330
9
100
AcDbSymbolTableRecord
100
AcDbRegAppTableRecord
  2
AcDbBlockRepETag
 70
     0
  0
APPID
  5
24823
330
9
100
AcDbSymbolTableRecord
100
AcDbRegAppTableRecord
  2
ACAD_DSTYLE_DIMJAG
 70
     0
  0
APPID
  5
24824
330
9
100
AcDbSymbolTableRecord
100
AcDbRegAppTableRecord
  2
ACAD_DSTYLE_DIMTALN
 70
     0
  0
APPID
  5
2867E
330
9
100
AcDbSymbolTableRecord
100
AcDbRegAppTableRecord
  2
ACAD_DSTYLE_DIMRADIAL_EXTENSION
 70
     0
  0
APPID
  5
2A28D
330
9
100
AcDbSymbolTableRecord
100
AcDbRegAppTableRecord
  2
AcadAnnoPO
 70
     0
  0
APPID
  5
2B579
330
9
100
AcDbSymbolTableRecord
100
AcDbRegAppTableRecord
  2
ACAD_NAV_VCDISPLAY
 70
     0
  0
ENDTAB
  0
TABLE
  2
DIMSTYLE
  5
A
330
0
100
AcDbSymbolTable
 70
     2
100
AcDbDimStyleTable
 71
     2
340
FF
340
27
  0
DIMSTYLE
105
27
330
A
100
AcDbSymbolTableRecord
100
AcDbDimStyleTableRecord
  2
ISO-25
 70
     0
 41
2.5
 42
0.625
 43
3.75
 44
1.25
 73
     0
 74
     0
 77
     1
 78
     8
140
2.5
141
2.5
143
0.03937007874016
147
0.625
171
     3
172
     1
271
     2
272
     2
274
     3
278
    44
283
     0
284
     8
340
11
  0
DIMSTYLE
105
FF
102
{ACAD_REACTORS
330
2B3AA
330
2B3C2
330
2B3DA
330
2B3F2
102
}
330
A
100
AcDbSymbolTableRecord
100
AcDbDimStyleTableRecord
  2
ｺﾋﾟｰ - ISO-25
 70
     0
 41
2.5
 42
0.625
 43
3.75
 44
1.25
 73
     0
 74
     0
 77
     1
 78
     8
140
3.5
141
2.5
143
0.03937007874016
147
1.0
171
     3
172
     1
178
     2
271
     1
272
     1
274
     3
283
     0
284
     8
340
2A5
1001
ACAD_DSTYLE_DIMJAG
1070
   388
1040
1.5
1001
ACAD_DSTYLE_DIMTALN
1070
   392
1070
     0
  0
ENDTAB
  0
TABLE
  2
BLOCK_RECORD
  5
1
330
0
100
AcDbSymbolTable
 70
    11
  0
BLOCK_RECORD
  5
1F
102
{ACAD_XDICTIONARY
360
2D98
102
}
330
1
100
AcDbSymbolTableRecord
100
AcDbBlockTableRecord
  2
*Model_Space
340
22
 70
     0
280
     1
281
     0
  0
BLOCK_RECORD
  5
50
330
1
100
AcDbSymbolTableRecord
100
AcDbBlockTableRecord
  2
*Paper_Space
340
51
 70
     0
280
     1
281
     0
  0
BLOCK_RECORD
  5
55
330
1
100
AcDbSymbolTableRecord
100
AcDbBlockTableRecord
  2
*Paper_Space0
340
56
 70
     0
280
     1
281
     0
  0
BLOCK_RECORD
  5
341
102
{ACAD_XDICTIONARY
360
29CF
102
}
330
1
100
AcDbSymbolTableRecord
100
AcDbBlockTableRecord
  2
_None
340
0
 70
     0
280
     1
281
     0
1001
AcDbDynamicBlockGUID
1000
{FDCFC2F5-9095-49BF-99B6-274B4C3B84BC}
1001
AcDbBlockRepETag
1070
     1
1071
       24
  0
BLOCK_RECORD
  5
429
330
1
100
AcDbSymbolTableRecord
100
AcDbBlockTableRecord
  2
_DotSmall
340
0
 70
     0
280
     1
281
     0
  0
BLOCK_RECORD
  5
10CB
330
1
100
AcDbSymbolTableRecord
100
AcDbBlockTableRecord
  2
mark
340
0
310
2800000020000000200000000100080000000000000400000000000000000000000000000000000000000000000080000080000000808000800000008000800080800000C0C0C000C0DCC000F0CAA6000020400000206000002080000020A0000020C0000020E00000400000004020000040400000406000004080000040A0
310
000040C0000040E00000600000006020000060400000606000006080000060A0000060C0000060E00000800000008020000080400000806000008080000080A0000080C0000080E00000A0000000A0200000A0400000A0600000A0800000A0A00000A0C00000A0E00000C0000000C0200000C0400000C0600000C0800000C0
310
A00000C0C00000C0E00000E0000000E0200000E0400000E0600000E0800000E0A00000E0C00000E0E00040000000400020004000400040006000400080004000A0004000C0004000E00040200000402020004020400040206000402080004020A0004020C0004020E000404000004040200040404000404060004040800040
310
40A0004040C0004040E00040600000406020004060400040606000406080004060A0004060C0004060E00040800000408020004080400040806000408080004080A0004080C0004080E00040A0000040A0200040A0400040A0600040A0800040A0A00040A0C00040A0E00040C0000040C0200040C0400040C0600040C08000
310
40C0A00040C0C00040C0E00040E0000040E0200040E0400040E0600040E0800040E0A00040E0C00040E0E00080000000800020008000400080006000800080008000A0008000C0008000E00080200000802020008020400080206000802080008020A0008020C0008020E00080400000804020008040400080406000804080
310
008040A0008040C0008040E00080600000806020008060400080606000806080008060A0008060C0008060E00080800000808020008080400080806000808080008080A0008080C0008080E00080A0000080A0200080A0400080A0600080A0800080A0A00080A0C00080A0E00080C0000080C0200080C0400080C0600080C0
310
800080C0A00080C0C00080C0E00080E0000080E0200080E0400080E0600080E0800080E0A00080E0C00080E0E000C0000000C0002000C0004000C0006000C0008000C000A000C000C000C000E000C0200000C0202000C0204000C0206000C0208000C020A000C020C000C020E000C0400000C0402000C0404000C0406000C0
310
408000C040A000C040C000C040E000C0600000C0602000C0604000C0606000C0608000C060A000C060C000C060E000C0800000C0802000C0804000C0806000C0808000C080A000C080C000C080E000C0A00000C0A02000C0A04000C0A06000C0A08000C0A0A000C0A0C000C0A0E000C0C00000C0C02000C0C04000C0C06000
310
C0C08000C0C0A000F0FBFF00A4A0A000808080000000FF0000FF000000FFFF00FF000000FF00FF00FFFF0000FFFFFF0000000000000000000000000000000000000000000000000000000000000000000000000000000000000000000000000000000000000000000000000000000000000000000000000000000000000000
310
00000000000000000000000000000000000000000000000000000000000000000000000000000000000000000000000000000000000000000000000000000000000000000000000000000000000000000000000000000000000000000000000000000000000000000000000000000000000000000000000000000000000000
310
FF0000FF0000000000000000000000000000000000000000000000000000FFFFFF0000FFFFFF0000000000000000000000000000000000000000000000FF0000FF0000FF0000FF0000000000000000000000000000000000000000FFFF0000FF00000000FF0000FFFF0000000000000000000000000000000000FF0000FFFF
310
000000FF0000FFFF0000FF000000000000000000FFFFFFFF0000FF0000FF000000FFFF00FF000000FF0000FF0000FFFFFFFF0000FF0000FFFFFF0000FF000000FF00000000FF000000FF0000FFFFFF0000FF0000FF0000FF000000FF000000FF00FFFFFFFF00FF000000FF000000FF0000FF0000FF00000000FFFF00000000
310
FF00FF0000FF00FF00000000FFFF00000000FF0000FF000000FF000000000000FF00FF0000FF00FF000000000000FF000000FF0000FF0000FF00000000000000FF00FF0000FF00FF00000000000000FF0000FF0000FF000000FFFF0000000000FF00FF0000FF00FF0000000000FFFF000000FF0000FF0000FF0000FF000000
310
00FF00FFFFFFFF00FF00000000FF0000FF0000FF0000FF0000FFFFFF00FF00000000FFFF000000FF00000000FF00FFFFFF0000FF0000FFFFFFFF0000FF00FFFF00000000FF00FF000000FFFF00FF0000FFFFFFFF000000000000000000FF0000FF00000000FF000000FF0000FF0000000000000000000000000000000000FF
310
FF00FFFF00000000FFFF00FFFF0000000000000000000000000000000000000000FF0000FF0000FF0000FF0000000000000000000000000000000000000000000000FFFFFF0000FFFFFF0000000000000000000000000000000000000000000000000000FF0000FF0000000000000000000000000000000000000000000000
310
00000000000000000000000000000000000000000000000000000000000000000000000000000000000000000000000000000000000000000000000000000000000000000000000000000000000000000000000000000000000000000000000000000000000000000000000000000000000000000000000000000000000000
310
0000000000000000000000000000000000000000000000000000000000000000000000000000000000000000000000000000000000000000
102
{BLKREFS
331
2B33A
102
}
 70
     4
280
     1
281
     0
  0
BLOCK_RECORD
  5
2D20
330
1
100
AcDbSymbolTableRecord
100
AcDbBlockTableRecord
  2
A$C34DA08B7
340
0
 70
     4
280
     1
281
     0
  0
BLOCK_RECORD
  5
2D24
330
1
100
AcDbSymbolTableRecord
100
AcDbBlockTableRecord
  2
A$C04A47E41
340
0
 70
     4
280
     1
281
     0
  0
BLOCK_RECORD
  5
2D46
330
1
100
AcDbSymbolTableRecord
100
AcDbBlockTableRecord
  2
A$C2FFA21FC
340
0
 70
     4
280
     1
281
     0
  0
BLOCK_RECORD
  5
2B3AB
330
1
100
AcDbSymbolTableRecord
100
AcDbBlockTableRecord
  2
*D7
340
0
 70
     0
280
     1
281
     0
  0
BLOCK_RECORD
  5
2B3C3
330
1
100
AcDbSymbolTableRecord
100
AcDbBlockTableRecord
  2
*D8
340
0
 70
     0
280
     1
281
     0
  0
BLOCK_RECORD
  5
2B3DB
330
1
100
AcDbSymbolTableRecord
100
AcDbBlockTableRecord
  2
*D9
340
0
 70
     0
280
     1
281
     0
  0
BLOCK_RECORD
  5
2B3F3
330
1
100
AcDbSymbolTableRecord
100
AcDbBlockTableRecord
  2
*D10
340
0
 70
     0
280
     1
281
     0
  0
ENDTAB
  0
ENDSEC
  0
SECTION
  2
BLOCKS
  0
BLOCK
  5
20
330
1F
100
AcDbEntity
  8
0
100
AcDbBlockBegin
  2
*Model_Space
 70
     0
 10
0.0
 20
0.0
 30
0.0
  3
*Model_Space
  1

  0
ENDBLK
  5
21
330
1F
100
AcDbEntity
  8
0
100
AcDbBlockEnd
  0
BLOCK
  5
52
330
50
100
AcDbEntity
 67
     1
  8
0
100
AcDbBlockBegin
  2
*Paper_Space
 70
     0
 10
0.0
 20
0.0
 30
0.0
  3
*Paper_Space
  1

  0
ENDBLK
  5
53
330
50
100
AcDbEntity
 67
     1
  8
0
100
AcDbBlockEnd
  0
BLOCK
  5
57
330
55
100
AcDbEntity
 67
     1
  8
0
100
AcDbBlockBegin
  2
*Paper_Space0
 70
     0
 10
0.0
 20
0.0
 30
0.0
  3
*Paper_Space0
  1

  0
VIEWPORT
  5
71
330
55
100
AcDbEntity
 67
     1
  8
0
100
AcDbViewport
 10
133.3499908447265
 20
101.5999970436096
 30
0.0
 40
381.3957395593834
 41
218.2856291881582
 68
     0
 69
     0
 12
133.3499908447265
 22
101.5999970436096
 13
0.0
 23
0.0
 14
10.0
 24
10.0
 15
10.0
 25
10.0
 16
0.0
 26
0.0
 36
1.0
 17
0.0
 27
0.0
 37
0.0
 42
50.0
 43
0.0
 44
0.0
 45
218.2856291881582
 50
0.0
 51
0.0
 72
   100
 90
    32800
  1

281
     0
 71
     1
 74
     0
110
0.0
120
0.0
130
0.0
111
1.0
121
0.0
131
0.0
112
0.0
122
1.0
132
0.0
 79
     0
146
0.0
170
     0
 61
     5
348
276B
292
     1
282
     1
141
0.0
142
0.0
 63
   250
421
  3355443
  0
VIEWPORT
  5
73
330
55
100
AcDbEntity
 67
     1
  8
0
100
AcDbViewport
 10
133.349993944168
 20
101.599993944168
 30
0.0
 40
213.3599903106689
 41
162.5599903106689
 68
     0
 69
     0
 12
210.0
 22
148.5
 13
0.0
 23
0.0
 14
10.0
 24
10.0
 15
10.0
 25
10.0
 16
0.0
 26
0.0
 36
1.0
 17
0.0
 27
0.0
 37
0.0
 42
50.0
 43
0.0
 44
0.0
 45
324.0677920111345
 50
0.0
 51
0.0
 72
   100
 90
    32864
  1

281
     0
 71
     1
 74
     0
110
0.0
120
0.0
130
0.0
111
1.0
121
0.0
131
0.0
112
0.0
122
1.0
132
0.0
 79
     0
146
0.0
170
     0
 61
     5
348
276B
292
     1
282
     1
141
0.0
142
0.0
 63
   250
421
  3355443
  0
ENDBLK
  5
58
330
55
100
AcDbEntity
 67
     1
  8
0
100
AcDbBlockEnd
  0
BLOCK
  5
342
330
341
100
AcDbEntity
  8
0
100
AcDbBlockBegin
  2
_None
 70
     0
 10
0.0
 20
0.0
 30
0.0
  3
_None
  1

  0
LINE
  5
29B7
102
{ACAD_REACTORS
330
29F6
102
}
330
341
100
AcDbEntity
  8
0
100
AcDbLine
 10
7.618927466172911
 20
14.9090276980656
 30
0.0
 11
13.53608213148402
 21
23.35960033891454
 31
0.0
1001
AcDbBlockRepETag
1070
     1
1071
        0
1005
29B7
  0
LINE
  5
29B8
102
{ACAD_REACTORS
330
29F6
102
}
330
341
100
AcDbEntity
  8
0
100
AcDbLine
 10
7.618927466172911
 20
14.9090276980656
 30
0.0
 11
8.516181951946554
 21
13.62761549266754
 31
0.0
1001
AcDbBlockRepETag
1070
     1
1071
        1
1005
29B8
  0
LINE
  5
29B9
102
{ACAD_REACTORS
330
29F6
102
}
330
341
100
AcDbEntity
  8
0
100
AcDbLine
 10
21.97323679679512
 20
14.90902769806559
 30
0.0
 11
21.07598231102148
 21
16.19043990346365
 31
0.0
1001
AcDbBlockRepETag
1070
     1
1071
        2
1005
29B9
  0
LINE
  5
29BA
102
{ACAD_REACTORS
330
29F6
102
}
330
341
100
AcDbEntity
  8
0
100
AcDbLine
 10
21.97323679679512
 20
14.90902769806559
 30
0.0
 11
16.056082131484
 21
6.458455057216698
 31
0.0
1001
AcDbBlockRepETag
1070
     1
1071
        3
1005
29BA
  0
LINE
  5
29BB
102
{ACAD_REACTORS
330
29F6
102
}
330
341
100
AcDbEntity
  8
0
100
AcDbLine
 10
15.556082131484
 20
21.42363521294153
 30
0.0
 11
19.54408298552672
 21
15.72817974235458
 31
0.0
1001
AcDbBlockRepETag
1070
     1
1071
        4
1005
29BB
  0
LINE
  5
29BC
102
{ACAD_REACTORS
330
29F6
102
}
330
341
100
AcDbEntity
  8
0
100
AcDbLine
 10
9.761293059265803
 20
14.49945167592111
 30
0.0
 11
8.516181951946544
 21
13.62761549266753
 31
0.0
1001
AcDbBlockRepETag
1070
     1
1071
        5
1005
29BC
  0
LINE
  5
29BD
102
{ACAD_REACTORS
330
29F6
102
}
330
341
100
AcDbEntity
  8
0
100
AcDbLine
 10
10.04808127744132
 20
14.08987565377662
 30
0.0
 11
8.802970170122067
 21
13.21803947052303
 31
0.0
1001
AcDbBlockRepETag
1070
     1
1071
        6
1005
29BD
  0
LINE
  5
29BE
102
{ACAD_REACTORS
330
29F6
102
}
330
341
100
AcDbEntity
  8
0
100
AcDbLine
 10
14.03608213148402
 20
5.744381053845643
 30
0.0
 11
14.03608213148402
 21
24.07367434228561
 31
0.0
1001
AcDbBlockRepETag
1070
     1
1071
        7
1005
29BE
  0
LINE
  5
29BF
102
{ACAD_REACTORS
330
29F6
102
}
330
341
100
AcDbEntity
  8
0
100
AcDbLine
 10
15.556082131484
 20
5.744381053845648
 30
0.0
 11
15.556082131484
 21
21.42363521294153
 31
0.0
1001
AcDbBlockRepETag
1070
     1
1071
        8
1005
29BF
  0
LINE
  5
29C0
102
{ACAD_REACTORS
330
29F6
102
}
330
341
100
AcDbEntity
  8
0
100
AcDbLine
 10
13.53608213148402
 20
6.458455057216702
 30
0.0
 11
13.53608213148402
 21
9.108494186560758
 31
0.0
1001
AcDbBlockRepETag
1070
     1
1071
        9
1005
29C0
  0
LINE
  5
29C1
102
{ACAD_REACTORS
330
29F6
102
}
330
341
100
AcDbEntity
  8
0
100
AcDbLine
 10
16.056082131484
 20
6.458455057216702
 30
0.0
 11
16.056082131484
 21
9.108494186560749
 31
0.0
1001
AcDbBlockRepETag
1070
     1
1071
       10
1005
29C1
  0
LINE
  5
29C2
102
{ACAD_REACTORS
330
29F6
102
}
330
341
100
AcDbEntity
  8
0
100
AcDbLine
 10
14.03608213148402
 20
24.0736743422856
 30
0.0
 11
14.79608213148402
 21
25.15906682740961
 31
0.0
1001
AcDbBlockRepETag
1070
     1
1071
       11
1005
29C2
  0
LINE
  5
29C3
102
{ACAD_REACTORS
330
29F6
102
}
330
341
100
AcDbEntity
  8
0
100
AcDbLine
 10
13.53608213148402
 20
20.70956120957047
 30
0.0
 11
9.474504841090279
 21
14.90902769806561
 31
0.0
1001
AcDbBlockRepETag
1070
     1
1071
       12
1005
29C3
  0
LINE
  5
29C4
102
{ACAD_REACTORS
330
29F6
102
}
330
341
100
AcDbEntity
  8
0
100
AcDbLine
 10
16.056082131484
 20
9.108494186560754
 30
0.0
 11
20.11765942187774
 21
14.90902769806561
 31
0.0
1001
AcDbBlockRepETag
1070
     1
1071
       13
1005
29C4
  0
LINE
  5
29C5
102
{ACAD_REACTORS
330
29F6
102
}
330
341
100
AcDbEntity
  8
0
100
AcDbLine
 10
15.556082131484
 20
5.744381053845644
 30
0.0
 11
14.79608213148401
 21
4.658988568721649
 31
0.0
1001
AcDbBlockRepETag
1070
     1
1071
       14
1005
29C5
  0
LINE
  5
29C6
102
{ACAD_REACTORS
330
29F6
102
}
330
341
100
AcDbEntity
  8
0
100
AcDbLine
 10
14.03608213148402
 20
5.744381053845645
 30
0.0
 11
14.79608213148401
 21
4.658988568721649
 31
0.0
1001
AcDbBlockRepETag
1070
     1
1071
       15
1005
29C6
  0
LINE
  5
29C7
102
{ACAD_REACTORS
330
29F6
102
}
330
341
100
AcDbEntity
  8
0
100
AcDbLine
 10
8.802970170122078
 20
13.21803947052304
 30
0.0
 11
13.53608213148402
 21
6.458455057216703
 31
0.0
1001
AcDbBlockRepETag
1070
     1
1071
       16
1005
29C7
  0
LINE
  5
29C8
102
{ACAD_REACTORS
330
29F6
102
}
330
341
100
AcDbEntity
  8
0
100
AcDbLine
 10
10.04808127744132
 20
14.08987565377662
 30
0.0
 11
13.53608213148402
 21
9.10849418656076
 31
0.0
1001
AcDbBlockRepETag
1070
     1
1071
       17
1005
29C8
  0
LINE
  5
29C9
102
{ACAD_REACTORS
330
29F6
102
}
330
341
100
AcDbEntity
  8
0
100
AcDbLine
 10
13.53608213148402
 20
20.70956120957048
 30
0.0
 11
13.53608213148402
 21
23.35960033891454
 31
0.0
1001
AcDbBlockRepETag
1070
     1
1071
       18
1005
29C9
  0
LINE
  5
29CA
102
{ACAD_REACTORS
330
29F6
102
}
330
341
100
AcDbEntity
  8
0
100
AcDbLine
 10
19.83087120370222
 20
15.31860372021007
 30
0.0
 11
21.07598231102148
 21
16.19043990346365
 31
0.0
1001
AcDbBlockRepETag
1070
     1
1071
       19
1005
29CA
  0
LINE
  5
29CB
102
{ACAD_REACTORS
330
29F6
102
}
330
341
100
AcDbEntity
  8
0
100
AcDbLine
 10
19.54408298552669
 20
15.72817974235456
 30
0.0
 11
20.78919409284595
 21
16.60001592560815
 31
0.0
1001
AcDbBlockRepETag
1070
     1
1071
       20
1005
29CB
  0
LINE
  5
29CC
102
{ACAD_REACTORS
330
29F6
102
}
330
341
100
AcDbEntity
  8
0
100
AcDbLine
 10
19.83087120370224
 20
15.31860372021007
 30
0.0
 11
20.11765942187774
 21
14.90902769806561
 31
0.0
1001
AcDbBlockRepETag
1070
     1
1071
       21
1005
29CC
  0
LINE
  5
29CD
102
{ACAD_REACTORS
330
29F6
102
}
330
341
100
AcDbEntity
  8
0
100
AcDbLine
 10
20.78919409284596
 20
16.60001592560815
 30
0.0
 11
14.79608213148402
 21
25.15906682740961
 31
0.0
1001
AcDbBlockRepETag
1070
     1
1071
       22
1005
29CD
  0
LINE
  5
29CE
102
{ACAD_REACTORS
330
29F6
102
}
330
341
100
AcDbEntity
  8
0
100
AcDbLine
 10
9.761293059265803
 20
14.49945167592111
 30
0.0
 11
9.474504841090279
 21
14.90902769806561
 31
0.0
1001
AcDbBlockRepETag
1070
     1
1071
       23
1005
29CE
  0
ENDBLK
  5
343
330
341
100
AcDbEntity
  8
0
100
AcDbBlockEnd
  0
BLOCK
  5
42B
330
429
100
AcDbEntity
  8
0
100
AcDbBlockBegin
  2
_DotSmall
 70
     0
 10
0.0
 20
0.0
 30
0.0
  3
_DotSmall
  1

  0
LWPOLYLINE
  5
42A
330
429
100
AcDbEntity
  8
0
  6
ByBlock
 62
     0
100
AcDbPolyline
 90
        2
 70
     1
 43
0.5
 10
-0.0625
 20
0.0
 42
1.0
 10
0.0625
 20
0.0
 42
1.0
  0
ENDBLK
  5
42C
330
429
100
AcDbEntity
  8
0
100
AcDbBlockEnd
  0
BLOCK
  5
10EA
330
10CB
100
AcDbEntity
  8
0
100
AcDbBlockBegin
  2
mark
 70
     0
 10
0.0
 20
0.0
 30
0.0
  3
mark
  1

  4
柏原計器(株)マーク
  0
LINE
  5
10CC
330
10CB
100
AcDbEntity
  8
実線
100
AcDbLine
 10
45.0
 20
-8.5
 30
0.0
 11
27.0
 21
-21.10373568777475
 31
0.0
  0
LINE
  5
10CD
330
10CB
100
AcDbEntity
  8
実線
100
AcDbLine
 10
45.0
 20
-8.5
 30
0.0
 11
27.0
 21
4.103735687774785
 31
0.0
  0
LINE
  5
10CE
330
10CB
100
AcDbEntity
  8
実線
100
AcDbLine
 10
46.0
 20
-4.317109183163836
 30
0.0
 11
27.0
 21
8.986834042820532
 31
0.0
  0
LINE
  5
10CF
330
10CB
100
AcDbEntity
  8
実線
100
AcDbLine
 10
46.0
 20
-12.6828908168361
 30
0.0
 11
27.0
 21
-25.9868340428206
 31
0.0
  0
LINE
  5
10D0
330
10CB
100
AcDbEntity
  8
実線
100
AcDbLine
 10
5.0
 20
-8.5
 30
0.0
 11
23.0
 21
-21.10373568777475
 31
0.0
  0
LINE
  5
10D1
330
10CB
100
AcDbEntity
  8
実線
100
AcDbLine
 10
4.0
 20
-12.6828908168361
 30
0.0
 11
22.99999999999994
 21
-25.98683404282056
 31
0.0
  0
LINE
  5
10D2
330
10CB
100
AcDbEntity
  8
実線
100
AcDbLine
 10
5.0
 20
-8.5
 30
0.0
 11
23.0
 21
4.103735687774785
 31
0.0
  0
LINE
  5
10D3
330
10CB
100
AcDbEntity
  8
実線
100
AcDbLine
 10
4.0
 20
-4.317109183163863
 30
0.0
 11
23.0
 21
8.986834042820587
 31
0.0
  0
LINE
  5
10D4
330
10CB
100
AcDbEntity
  8
実線
100
AcDbLine
 10
4.0
 20
-4.317109183163863
 30
0.0
 11
4.0
 21
0.0
 31
0.0
  0
LINE
  5
10D5
330
10CB
100
AcDbEntity
  8
実線
100
AcDbLine
 10
0.0
 20
0.0
 30
0.0
 11
0.0
 21
-17.0
 31
0.0
  0
LINE
  5
10D6
330
10CB
100
AcDbEntity
  8
実線
100
AcDbLine
 10
0.0
 20
-17.0
 30
0.0
 11
4.0
 21
-17.0
 31
0.0
  0
LINE
  5
10D7
330
10CB
100
AcDbEntity
  8
実線
100
AcDbLine
 10
4.0
 20
-17.0
 30
0.0
 11
4.0
 21
-12.6828908168361
 31
0.0
  0
LINE
  5
10D8
330
10CB
100
AcDbEntity
  8
実線
100
AcDbLine
 10
4.0
 20
0.0
 30
0.0
 11
0.0
 21
0.0
 31
0.0
  0
LINE
  5
10D9
330
10CB
100
AcDbEntity
  8
実線
100
AcDbLine
 10
27.0
 20
-21.10373568777475
 30
0.0
 11
27.0
 21
-25.9868340428206
 31
0.0
  0
LINE
  5
10DA
330
10CB
100
AcDbEntity
  8
実線
100
AcDbLine
 10
23.0
 20
-21.1037356877747
 30
0.0
 11
22.99999999999994
 21
-25.98683404282056
 31
0.0
  0
ARC
  5
10DB
330
10CB
100
AcDbEntity
  8
実線
100
AcDbCircle
 10
25.0
 20
-12.5
 30
0.0
 40
6.0
100
AcDbArc
 50
180.0
 51
0.0
  0
ARC
  5
10DC
330
10CB
100
AcDbEntity
  8
実線
100
AcDbCircle
 10
25.0
 20
-12.5
 30
0.0
 40
3.0
100
AcDbArc
 50
180.0
 51
0.0
  0
ARC
  5
10DD
330
10CB
100
AcDbEntity
  8
実線
100
AcDbCircle
 10
25.0
 20
-4.5
 30
0.0
 40
6.0
100
AcDbArc
 50
0.0
 51
180.0
  0
ARC
  5
10DE
330
10CB
100
AcDbEntity
  8
実線
100
AcDbCircle
 10
25.0
 20
-4.5
 30
0.0
 40
3.0
100
AcDbArc
 50
0.0
 51
180.0
  0
LINE
  5
10DF
330
10CB
100
AcDbEntity
  8
実線
100
AcDbLine
 10
22.0
 20
-4.499999999999943
 30
0.0
 11
22.0
 21
-12.50000000000005
 31
0.0
  0
LINE
  5
10E0
330
10CB
100
AcDbEntity
  8
実線
100
AcDbLine
 10
19.0
 20
-4.499999999999943
 30
0.0
 11
19.0
 21
-12.50000000000005
 31
0.0
  0
LINE
  5
10E1
330
10CB
100
AcDbEntity
  8
実線
100
AcDbLine
 10
23.0
 20
8.986834042820587
 30
0.0
 11
23.0
 21
4.103735687774785
 31
0.0
  0
LINE
  5
10E2
330
10CB
100
AcDbEntity
  8
実線
100
AcDbLine
 10
28.0
 20
-4.499999999999971
 30
0.0
 11
28.0
 21
-12.50000000000005
 31
0.0
  0
LINE
  5
10E3
330
10CB
100
AcDbEntity
  8
実線
100
AcDbLine
 10
31.0
 20
-4.499999999999943
 30
0.0
 11
31.0
 21
-12.50000000000005
 31
0.0
  0
LINE
  5
10E4
330
10CB
100
AcDbEntity
  8
実線
100
AcDbLine
 10
27.0
 20
8.986834042820532
 30
0.0
 11
27.0
 21
4.103735687774785
 31
0.0
  0
LINE
  5
10E5
330
10CB
100
AcDbEntity
  8
実線
100
AcDbLine
 10
50.0
 20
0.0
 30
0.0
 11
50.0
 21
-17.0
 31
0.0
  0
LINE
  5
10E6
330
10CB
100
AcDbEntity
  8
実線
100
AcDbLine
 10
46.0
 20
0.0
 30
0.0
 11
46.0
 21
-4.317109183163836
 31
0.0
  0
LINE
  5
10E7
330
10CB
100
AcDbEntity
  8
実線
100
AcDbLine
 10
46.0
 20
-17.0
 30
0.0
 11
50.0
 21
-17.0
 31
0.0
  0
LINE
  5
10E8
330
10CB
100
AcDbEntity
  8
実線
100
AcDbLine
 10
46.0
 20
-12.6828908168361
 30
0.0
 11
46.0
 21
-17.0
 31
0.0
  0
LINE
  5
10E9
330
10CB
100
AcDbEntity
  8
実線
100
AcDbLine
 10
50.0
 20
0.0
 30
0.0
 11
46.0
 21
0.0
 31
0.0
  0
ENDBLK
  5
10EB
330
10CB
100
AcDbEntity
  8
0
100
AcDbBlockEnd
  0
BLOCK
  5
2D22
330
2D20
100
AcDbEntity
  8
0
100
AcDbBlockBegin
  2
A$C34DA08B7
 70
     0
 10
0.0
 20
0.0
 30
0.0
  3
A$C34DA08B7
  1

  0
LINE
  5
2D21
330
2D20
100
AcDbEntity
  8
実線
100
AcDbLine
 10
3.443694327872606
 20
-0.000000348593062
 30
0.0
 11
0.0000000833857712
 21
3.443693895893829
 31
0.0
  0
ENDBLK
  5
2D23
330
2D20
100
AcDbEntity
  8
0
100
AcDbBlockEnd
  0
BLOCK
  5
2D26
330
2D24
100
AcDbEntity
  8
0
100
AcDbBlockBegin
  2
A$C04A47E41
 70
     0
 10
0.0
 20
0.0
 30
0.0
  3
A$C04A47E41
  1

  0
LINE
  5
2D25
330
2D24
100
AcDbEntity
  8
実線
100
AcDbLine
 10
0.0
 20
0.0
 30
0.0
 11
-3.443694244486835
 21
3.443694244486891
 31
0.0
  0
ENDBLK
  5
2D27
330
2D24
100
AcDbEntity
  8
0
100
AcDbBlockEnd
  0
BLOCK
  5
2D4F
330
2D46
100
AcDbEntity
  8
0
100
AcDbBlockBegin
  2
A$C2FFA21FC
 70
     0
 10
0.0
 20
0.0
 30
0.0
  3
A$C2FFA21FC
  1

  0
LINE
  5
2D47
330
2D46
100
AcDbEntity
  8
実線
100
AcDbLine
 10
1.673649195882092
 20
5.714196736163046
 30
0.0
 11
4.040546862123335
 21
5.714196736163046
 31
0.0
  0
LINE
  5
2D48
330
2D46
100
AcDbEntity
  8
実線
100
AcDbLine
 10
-0.0000001942917152
 20
1.673649679747882
 30
0.0
 11
-0.0000001942917152
 21
4.040547345989125
 31
0.0
  0
LINE
  5
2D49
330
2D46
100
AcDbEntity
  8
実線
100
AcDbLine
 10
-0.0000001942917152
 20
4.040547345989239
 30
0.0
 11
1.673649195882092
 21
5.714196736162989
 31
0.0
  0
LINE
  5
2D4A
330
2D46
100
AcDbEntity
  8
実線
100
AcDbLine
 10
1.673649195882092
 20
0.0000002895740749
 30
0.0
 11
4.040546862123335
 21
0.0000002895740749
 31
0.0
  0
LINE
  5
2D4B
330
2D46
100
AcDbEntity
  8
実線
100
AcDbLine
 10
-0.0000001942917152
 20
1.673649679747882
 30
0.0
 11
1.673649195882035
 21
0.0000002895740749
 31
0.0
  0
LINE
  5
2D4C
330
2D46
100
AcDbEntity
  8
実線
100
AcDbLine
 10
5.714196252297256
 20
1.673649679747882
 30
0.0
 11
5.714196252297256
 21
4.040547345989125
 31
0.0
  0
LINE
  5
2D4D
330
2D46
100
AcDbEntity
  8
実線
100
AcDbLine
 10
5.714196252297256
 20
4.040547345989239
 30
0.0
 11
4.040546862123449
 21
5.714196736162989
 31
0.0
  0
LINE
  5
2D4E
330
2D46
100
AcDbEntity
  8
実線
100
AcDbLine
 10
5.714196252297256
 20
1.673649679747882
 30
0.0
 11
4.040546862123505
 21
0.0000002895740749
 31
0.0
  0
ENDBLK
  5
2D50
330
2D46
100
AcDbEntity
  8
0
100
AcDbBlockEnd
  0
BLOCK
  5
2B3AC
330
2B3AB
100
AcDbEntity
  8
0
100
AcDbBlockBegin
  2
*D7
 70
     1
 10
0.0
 20
0.0
 30
0.0
  3
*D7
  1

  0
LINE
  5
2B4BF
330
2B3AB
100
AcDbEntity
  8
寸法
 62
     0
440
 16777216
370
    -2
100
AcDbLine
 10
129.5784597599779
 20
54.12399899448764
 30
0.0
 11
47.69958518601697
 21
54.12399899448766
 31
0.0
  0
LINE
  5
2B4C0
330
2B3AB
100
AcDbEntity
  8
寸法
 62
     0
440
 16777216
370
    -2
100
AcDbLine
 10
58.2433119748423
 20
77.12399899448763
 30
0.0
 11
47.69958518601697
 21
77.12399899448763
 31
0.0
  0
LINE
  5
2B4C1
330
2B3AB
100
AcDbEntity
  8
寸法
 62
     0
440
 16777216
370
    -2
100
AcDbLine
 10
48.94958518601697
 20
56.62399899448765
 30
0.0
 11
48.94958518601697
 21
74.62399899448763
 31
0.0
  0
SOLID
  5
2B4C2
330
2B3AB
100
AcDbEntity
  8
寸法
 62
     0
440
 16777216
100
AcDbTrace
 10
48.53291851935031
 20
56.62399899448765
 30
0.0
 11
49.36625185268364
 21
56.62399899448765
 31
0.0
 12
48.94958518601697
 22
54.12399899448765
 32
0.0
 13
48.94958518601697
 23
54.12399899448765
 33
0.0
  0
SOLID
  5
2B4C3
330
2B3AB
100
AcDbEntity
  8
寸法
 62
     0
440
 16777216
100
AcDbTrace
 10
48.53291851935031
 20
74.62399899448763
 30
0.0
 11
49.36625185268364
 21
74.62399899448763
 31
0.0
 12
48.94958518601697
 22
77.12399899448763
 32
0.0
 13
48.94958518601697
 23
77.12399899448763
 33
0.0
  0
MTEXT
  5
2B4C4
330
2B3AB
100
AcDbEntity
  8
寸法
 62
     2
440
 16777216
100
AcDbMText
 10
46.19958518601697
 20
65.62399899448767
 30
0.0
 40
3.5
 41
0.0
 46
0.0
 71
     5
 72
     1
  1
23
  7
寸法
 11
0.0000000000000001
 21
1.0
 31
0.0
 73
     1
 44
1.0
  0
POINT
  5
2B4C5
330
2B3AB
100
AcDbEntity
  8
Defpoints
 62
     0
440
 16777216
100
AcDbPoint
 10
130.2034597599779
 20
54.12399899448764
 30
0.0
  0
POINT
  5
2B4C6
330
2B3AB
100
AcDbEntity
  8
Defpoints
 62
     0
440
 16777216
100
AcDbPoint
 10
58.8683119748423
 20
77.12399899448763
 30
0.0
  0
POINT
  5
2B4C7
330
2B3AB
100
AcDbEntity
  8
Defpoints
 62
     0
440
 16777216
100
AcDbPoint
 10
48.94958518601697
 20
77.12399899448763
 30
0.0
  0
ENDBLK
  5
2B3AD
330
2B3AB
100
AcDbEntity
  8
0
100
AcDbBlockEnd
  0
BLOCK
  5
2B3C4
330
2B3C3
100
AcDbEntity
  8
0
100
AcDbBlockBegin
  2
*D8
 70
     1
 10
0.0
 20
0.0
 30
0.0
  3
*D8
  1

  0
LINE
  5
2B53C
330
2B3C3
100
AcDbEntity
  8
寸法
 62
     0
440
 16777216
370
    -2
100
AcDbLine
 10
70.82044413485289
 20
65.0989989944876
 30
0.0
 11
70.82044413485289
 21
30.74214576642305
 31
0.0
  0
LINE
  5
2B53D
330
2B3C3
100
AcDbEntity
  8
寸法
 62
     0
440
 16777216
370
    -2
100
AcDbLine
 10
235.8204441348529
 20
65.09899899448763
 30
0.0
 11
235.8204441348529
 21
30.74214576642305
 31
0.0
  0
LINE
  5
2B53E
330
2B3C3
100
AcDbEntity
  8
寸法
 62
     0
440
 16777216
370
    -2
100
AcDbLine
 10
73.32044413485289
 20
31.99214576642305
 30
0.0
 11
233.3204441348529
 21
31.99214576642305
 31
0.0
  0
SOLID
  5
2B53F
330
2B3C3
100
AcDbEntity
  8
寸法
 62
     0
440
 16777216
100
AcDbTrace
 10
73.32044413485289
 20
32.40881243308971
 30
0.0
 11
73.32044413485289
 21
31.57547909975638
 31
0.0
 12
70.82044413485289
 22
31.99214576642305
 32
0.0
 13
70.82044413485289
 23
31.99214576642305
 33
0.0
  0
SOLID
  5
2B540
330
2B3C3
100
AcDbEntity
  8
寸法
 62
     0
440
 16777216
100
AcDbTrace
 10
233.3204441348529
 20
32.40881243308971
 30
0.0
 11
233.3204441348529
 21
31.57547909975638
 31
0.0
 12
235.8204441348529
 22
31.99214576642305
 32
0.0
 13
235.8204441348529
 23
31.99214576642305
 33
0.0
  0
MTEXT
  5
2B541
330
2B3C3
100
AcDbEntity
  8
寸法
 62
     2
440
 16777216
100
AcDbMText
 10
153.3204441348529
 20
34.74214576642305
 30
0.0
 40
3.5
 41
0.0
 46
0.0
 71
     5
 72
     1
  1
165
  7
寸法
 73
     1
 44
1.0
  0
POINT
  5
2B542
330
2B3C3
100
AcDbEntity
  8
Defpoints
 62
     0
440
 16777216
100
AcDbPoint
 10
70.82044413485289
 20
65.7239989944876
 30
0.0
  0
POINT
  5
2B543
330
2B3C3
100
AcDbEntity
  8
Defpoints
 62
     0
440
 16777216
100
AcDbPoint
 10
235.8204441348529
 20
65.72399899448763
 30
0.0
  0
POINT
  5
2B544
330
2B3C3
100
AcDbEntity
  8
Defpoints
 62
     0
440
 16777216
100
AcDbPoint
 10
235.8204441348529
 20
31.99214576642305
 30
0.0
  0
ENDBLK
  5
2B3C5
330
2B3C3
100
AcDbEntity
  8
0
100
AcDbBlockEnd
  0
BLOCK
  5
2B3DC
330
2B3DB
100
AcDbEntity
  8
0
100
AcDbBlockBegin
  2
*D9
 70
     1
 10
0.0
 20
0.0
 30
0.0
  3
*D9
  1

  0
LINE
  5
2B4D1
330
2B3DB
100
AcDbEntity
  8
寸法
 62
     0
440
 16777216
370
    -2
100
AcDbLine
 10
129.5784597599779
 20
54.12399899448764
 30
0.0
 11
38.37456048809962
 21
54.12399899448766
 31
0.0
  0
LINE
  5
2B4D2
330
2B3DB
100
AcDbEntity
  8
寸法
 62
     0
440
 16777216
370
    -2
100
AcDbLine
 10
108.9954441348527
 20
145.1239989944876
 30
0.0
 11
38.37456048809964
 21
145.1239989944877
 31
0.0
  0
LINE
  5
2B4D3
330
2B3DB
100
AcDbEntity
  8
寸法
 62
     0
440
 16777216
370
    -2
100
AcDbLine
 10
39.62456048809961
 20
56.62399899448766
 30
0.0
 11
39.62456048809963
 21
142.6239989944877
 31
0.0
  0
SOLID
  5
2B4D4
330
2B3DB
100
AcDbEntity
  8
寸法
 62
     0
440
 16777216
100
AcDbTrace
 10
39.20789382143295
 20
56.62399899448766
 30
0.0
 11
40.04122715476627
 21
56.62399899448766
 31
0.0
 12
39.62456048809961
 22
54.12399899448766
 32
0.0
 13
39.62456048809961
 23
54.12399899448766
 33
0.0
  0
SOLID
  5
2B4D5
330
2B3DB
100
AcDbEntity
  8
寸法
 62
     0
440
 16777216
100
AcDbTrace
 10
39.20789382143296
 20
142.6239989944877
 30
0.0
 11
40.04122715476628
 21
142.6239989944877
 31
0.0
 12
39.62456048809963
 22
145.1239989944877
 32
0.0
 13
39.62456048809963
 23
145.1239989944877
 33
0.0
  0
MTEXT
  5
2B4D6
330
2B3DB
100
AcDbEntity
  8
寸法
 62
     2
440
 16777216
100
AcDbMText
 10
36.87456048809961
 20
99.62399899448769
 30
0.0
 40
3.5
 41
0.0
 46
0.0
 71
     5
 72
     1
  1
91
  7
寸法
 11
0.0000000000000001
 21
1.0
 31
0.0
 73
     1
 44
1.0
  0
POINT
  5
2B4D7
330
2B3DB
100
AcDbEntity
  8
Defpoints
 62
     0
440
 16777216
100
AcDbPoint
 10
130.2034597599779
 20
54.12399899448764
 30
0.0
  0
POINT
  5
2B4D8
330
2B3DB
100
AcDbEntity
  8
Defpoints
 62
     0
440
 16777216
100
AcDbPoint
 10
109.6204441348527
 20
145.1239989944876
 30
0.0
  0
POINT
  5
2B4D9
330
2B3DB
100
AcDbEntity
  8
Defpoints
 62
     0
440
 16777216
100
AcDbPoint
 10
39.62456048809963
 20
145.1239989944877
 30
0.0
  0
ENDBLK
  5
2B3DD
330
2B3DB
100
AcDbEntity
  8
0
100
AcDbBlockEnd
  0
BLOCK
  5
2B3F4
330
2B3F3
100
AcDbEntity
  8
0
100
AcDbBlockBegin
  2
*D10
 70
     1
 10
0.0
 20
0.0
 30
0.0
  3
*D10
  1

  0
LINE
  5
2B4B6
330
2B3F3
100
AcDbEntity
  8
寸法
 62
     0
440
 16777216
370
    -2
100
AcDbLine
 10
155.9454441348528
 20
163.8276230338381
 30
0.0
 11
252.693458295201
 21
163.827623033838
 31
0.0
  0
LINE
  5
2B4B7
330
2B3F3
100
AcDbEntity
  8
寸法
 62
     0
440
 16777216
370
    -2
100
AcDbLine
 10
155.9454441348528
 20
252.827623033838
 30
0.0
 11
252.693458295201
 21
252.827623033838
 31
0.0
  0
LINE
  5
2B4B8
330
2B3F3
100
AcDbEntity
  8
寸法
 62
     0
440
 16777216
370
    -2
100
AcDbLine
 10
251.443458295201
 20
166.327623033838
 30
0.0
 11
251.443458295201
 21
250.3276230338379
 31
0.0
  0
SOLID
  5
2B4B9
330
2B3F3
100
AcDbEntity
  8
寸法
 62
     0
440
 16777216
100
AcDbTrace
 10
251.0267916285343
 20
166.327623033838
 30
0.0
 11
251.8601249618677
 21
166.327623033838
 31
0.0
 12
251.443458295201
 22
163.827623033838
 32
0.0
 13
251.443458295201
 23
163.827623033838
 33
0.0
  0
SOLID
  5
2B4BA
330
2B3F3
100
AcDbEntity
  8
寸法
 62
     0
440
 16777216
100
AcDbTrace
 10
251.0267916285344
 20
250.3276230338379
 30
0.0
 11
251.8601249618677
 21
250.3276230338379
 31
0.0
 12
251.443458295201
 22
252.827623033838
 32
0.0
 13
251.443458295201
 23
252.827623033838
 33
0.0
  0
MTEXT
  5
2B4BB
330
2B3F3
100
AcDbEntity
  8
寸法
 62
     2
440
 16777216
100
AcDbMText
 10
248.6934582952009
 20
208.327623033838
 30
0.0
 40
3.5
 41
0.0
 46
0.0
 71
     5
 72
     1
  1
89
  7
寸法
 11
0.0000000000000001
 21
1.0
 31
0.0
 73
     1
 44
1.0
  0
POINT
  5
2B4BC
330
2B3F3
100
AcDbEntity
  8
Defpoints
 62
     0
440
 16777216
100
AcDbPoint
 10
155.3204441348527
 20
163.8276230338381
 30
0.0
  0
POINT
  5
2B4BD
330
2B3F3
100
AcDbEntity
  8
Defpoints
 62
     0
440
 16777216
100
AcDbPoint
 10
155.3204441348527
 20
252.827623033838
 30
0.0
  0
POINT
  5
2B4BE
330
2B3F3
100
AcDbEntity
  8
Defpoints
 62
     0
440
 16777216
100
AcDbPoint
 10
251.443458295201
 20
252.827623033838
 30
0.0
  0
ENDBLK
  5
2B3F5
330
2B3F3
100
AcDbEntity
  8
0
100
AcDbBlockEnd
  0
ENDSEC
  0
SECTION
  2
ENTITIES
  0
TEXT
  5
108D
330
1F
100
AcDbEntity
  8
文字
100
AcDbText
 10
293.0
 20
27.25
 30
0.0
 40
3.0
  1

 41
0.8
 72
     1
 11
293.0
 21
28.75
 31
0.0
100
AcDbText
 73
     2
  0
TEXT
  5
108F
330
1F
100
AcDbEntity
  8
文字
100
AcDbText
 10
333.0
 20
27.5
 30
0.0
 40
3.0
  1

 41
0.8
 72
     1
 11
333.0
 21
29.0
 31
0.0
100
AcDbText
 73
     2
  0
TEXT
  5
1090
330
1F
100
AcDbEntity
  8
文字
100
AcDbText
 10
353.0
 20
27.5
 30
0.0
 40
3.0
  1

 41
0.8
 72
     1
 11
353.0
 21
29.0
 31
0.0
100
AcDbText
 73
     2
  0
MTEXT
  5
1581D
330
1F
100
AcDbEntity
  8
実線
 62
     2
100
AcDbMText
 10
196.5671900572592
 20
248.2436849630891
 30
0.0
 40
2.5
 41
0.0
 46
0.0
 71
     9
 72
     1
  1

  7
寸法
 73
     1
 44
1.0
  0
TEXT
  5
27C66
330
1F
100
AcDbEntity
  8
文字
100
AcDbText
 10
322.4894517118774
 20
126.9595429095345
 30
0.0
 40
4.5
  1
表　示　部
 41
0.9
 72
     1
 11
334.0994517118775
 21
129.2095429095345
 31
0.0
100
AcDbText
 73
     2
  0
LINE
  5
27C67
330
1F
100
AcDbEntity
  8
文字
100
AcDbLine
 10
320.915351149785
 20
125.7587224517295
 30
0.0
 11
347.8874810399513
 21
125.7587224517295
 31
0.0
  0
LINE
  5
29A83
330
1F
100
AcDbEntity
  8
0
100
AcDbLine
 10
215.0
 20
272.0
 30
0.0
 11
215.0
 21
287.0
 31
0.0
  0
LINE
  5
29ABB
330
1F
100
AcDbEntity
  8
0
100
AcDbLine
 10
400.0
 20
148.5
 30
0.0
 11
415.0
 21
148.5
 31
0.0
  0
LINE
  5
29B24
330
1F
100
AcDbEntity
  8
0
100
AcDbLine
 10
215.0
 20
25.0
 30
0.0
 11
215.0
 21
10.0
 31
0.0
  0
LINE
  5
29B27
330
1F
100
AcDbEntity
  8
0
100
AcDbLine
 10
29.99999999999926
 20
148.4999999999989
 30
0.0
 11
15.0
 21
148.4999999999988
 31
0.0
  0
LINE
  5
29B3C
330
1F
100
AcDbEntity
  8
補助線
100
AcDbLine
 10
5.0
 20
297.0
 30
0.0
 11
5.0
 21
0.0
 31
0.0
  0
LINE
  5
29B3D
330
1F
100
AcDbEntity
  8
補助線
100
AcDbLine
 10
425.0
 20
297.0
 30
0.0
 11
5.0
 21
297.0
 31
0.0
  0
LINE
  5
29B3E
330
1F
100
AcDbEntity
  8
補助線
100
AcDbLine
 10
425.0
 20
0.0
 30
0.0
 11
425.0
 21
297.0
 31
0.0
  0
LINE
  5
29B3F
330
1F
100
AcDbEntity
  8
補助線
100
AcDbLine
 10
5.0
 20
0.0
 30
0.0
 11
425.0
 21
0.0
 31
0.0
  0
LINE
  5
29B58
330
1F
100
AcDbEntity
  8
0
100
AcDbLine
 10
24.99999999999926
 20
217.7499999999989
 30
0.0
 11
14.9999999999996
 21
217.7499999999988
 31
0.0
  0
LINE
  5
29B59
330
1F
100
AcDbEntity
  8
0
100
AcDbLine
 10
24.99999999999926
 20
79.24999999999887
 30
0.0
 11
15.00000000000039
 21
79.24999999999883
 31
0.0
  0
LINE
  5
29B5A
330
1F
100
AcDbEntity
  8
0
100
AcDbLine
 10
405.0
 20
217.75
 30
0.0
 11
415.0
 21
217.75
 31
0.0
  0
LINE
  5
29B5B
330
1F
100
AcDbEntity
  8
0
100
AcDbLine
 10
405.0
 20
79.25
 30
0.0
 11
415.0
 21
79.25
 31
0.0
  0
LINE
  5
29B74
330
1F
100
AcDbEntity
  8
0
100
AcDbLine
 10
115.0
 20
277.0
 30
0.0
 11
114.9999999999999
 21
286.9999999999998
 31
0.0
  0
LINE
  5
29B75
330
1F
100
AcDbEntity
  8
0
100
AcDbLine
 10
315.0
 20
277.0
 30
0.0
 11
315.0
 21
287.0000000000002
 31
0.0
  0
LINE
  5
29B76
330
1F
100
AcDbEntity
  8
0
100
AcDbLine
 10
114.9999999999999
 20
20.0
 30
0.0
 11
114.9999999999999
 21
10.0
 31
0.0
  0
LINE
  5
29B77
330
1F
100
AcDbEntity
  8
0
100
AcDbLine
 10
315.0
 20
20.0
 30
0.0
 11
315.0
 21
10.0
 31
0.0
  0
TEXT
  5
29B81
330
1F
100
AcDbEntity
  8
0
100
AcDbText
 10
56.87381033117557
 20
279.47215302696
 30
0.0
 40
5.0
  1
1
 41
0.8
 72
     1
 11
58.4928579502232
 21
281.97215302696
 31
0.0
100
AcDbText
 73
     2
  0
TEXT
  5
29B83
330
1F
100
AcDbEntity
  8
0
100
AcDbText
 10
156.5880960454613
 20
279.4721530269602
 30
0.0
 40
5.0
  1
2
 41
0.8
 72
     1
 11
158.4928579502232
 21
281.9721530269601
 31
0.0
100
AcDbText
 73
     2
  0
TEXT
  5
29B84
330
1F
100
AcDbEntity
  8
0
100
AcDbText
 10
256.5880960454613
 20
279.47215302696
 30
0.0
 40
5.0
  1
3
 41
0.8
 72
     1
 11
258.4928579502232
 21
281.97215302696
 31
0.0
100
AcDbText
 73
     2
  0
TEXT
  5
29B85
330
1F
100
AcDbEntity
  8
0
100
AcDbText
 10
356.4928579502232
 20
279.47215302696
 30
0.0
 40
5.0
  1
4
 41
0.8
 72
     1
 11
358.4928579502232
 21
281.97215302696
 31
0.0
100
AcDbText
 73
     2
  0
TEXT
  5
29B86
330
1F
100
AcDbEntity
  8
0
100
AcDbText
 10
56.87381033117557
 20
12.84246760572546
 30
0.0
 40
5.0
  1
1
 41
0.8
 72
     1
 11
58.4928579502232
 21
15.34246760572546
 31
0.0
100
AcDbText
 73
     2
  0
TEXT
  5
29B87
330
1F
100
AcDbEntity
  8
0
100
AcDbText
 10
156.5880960454613
 20
12.84246760572563
 30
0.0
 40
5.0
  1
2
 41
0.8
 72
     1
 11
158.4928579502232
 21
15.34246760572563
 31
0.0
100
AcDbText
 73
     2
  0
TEXT
  5
29B88
330
1F
100
AcDbEntity
  8
0
100
AcDbText
 10
256.5880960454613
 20
12.84246760572546
 30
0.0
 40
5.0
  1
3
 41
0.8
 72
     1
 11
258.4928579502232
 21
15.34246760572546
 31
0.0
100
AcDbText
 73
     2
  0
TEXT
  5
29B89
330
1F
100
AcDbEntity
  8
0
100
AcDbText
 10
356.4928579502232
 20
12.84246760572546
 30
0.0
 40
5.0
  1
4
 41
0.8
 72
     1
 11
358.4928579502232
 21
15.34246760572546
 31
0.0
100
AcDbText
 73
     2
  0
TEXT
  5
29B8A
330
1F
100
AcDbEntity
  8
0
100
AcDbText
 10
18.58632463146319
 20
250.0319149255158
 30
0.0
 40
5.0
  1
A
 41
0.8
 72
     1
 11
20.30061034574891
 21
252.5319149255158
 31
0.0
100
AcDbText
 73
     2
  0
TEXT
  5
29B8B
330
1F
100
AcDbEntity
  8
0
100
AcDbText
 10
18.2053722505112
 20
180.7819149255158
 30
0.0
 40
5.0
  1
B
 41
0.8
 72
     1
 11
20.3006103457493
 21
183.2819149255158
 31
0.0
100
AcDbText
 73
     2
  0
TEXT
  5
29B8C
330
1F
100
AcDbEntity
  8
0
100
AcDbText
 10
18.30061034574891
 20
111.5319149255158
 30
0.0
 40
5.0
  1
C
 41
0.8
 72
     1
 11
20.30061034574891
 21
114.0319149255158
 31
0.0
100
AcDbText
 73
     2
  0
TEXT
  5
29B8D
330
1F
100
AcDbEntity
  8
0
100
AcDbText
 10
18.20537225051081
 20
42.28191492551693
 30
0.0
 40
5.0
  1
D
 41
0.8
 72
     1
 11
20.30061034574891
 21
44.78191492551693
 31
0.0
100
AcDbText
 73
     2
  0
TEXT
  5
29B8E
330
1F
100
AcDbEntity
  8
0
100
AcDbText
 10
408.0524664877939
 20
250.0319149255158
 30
0.0
 40
5.0
  1
A
 41
0.8
 72
     1
 11
409.7667522020797
 21
252.5319149255158
 31
0.0
100
AcDbText
 73
     2
  0
TEXT
  5
29B8F
330
1F
100
AcDbEntity
  8
0
100
AcDbText
 10
407.671514106842
 20
180.7819149255158
 30
0.0
 40
5.0
  1
B
 41
0.8
 72
     1
 11
409.7667522020801
 21
183.2819149255158
 31
0.0
100
AcDbText
 73
     2
  0
TEXT
  5
29B90
330
1F
100
AcDbEntity
  8
0
100
AcDbText
 10
407.7667522020797
 20
111.5319149255158
 30
0.0
 40
5.0
  1
C
 41
0.8
 72
     1
 11
409.7667522020797
 21
114.0319149255158
 31
0.0
100
AcDbText
 73
     2
  0
TEXT
  5
29B91
330
1F
100
AcDbEntity
  8
0
100
AcDbText
 10
407.6715141068416
 20
42.28191492551693
 30
0.0
 40
5.0
  1
D
 41
0.8
 72
     1
 11
409.7667522020797
 21
44.78191492551693
 31
0.0
100
AcDbText
 73
     2
  0
TEXT
  5
2A158
330
1F
100
AcDbEntity
  8
寸法
100
AcDbText
 10
243.07907497822
 20
106.3611156212899
 30
0.0
 40
3.5
  1
φ26.4～山14　上水
 41
0.9
  7
寸法
100
AcDbText
  0
SOLID
  5
2A159
330
1F
100
AcDbEntity
  8
寸法
100
AcDbTrace
 10
230.6985466554325
 20
92.2935795315413
 30
0.0
 11
229.5704441348529
 21
90.02399899448761
 31
0.0
 12
231.3736483149862
 22
91.80502841475577
 32
0.0
 13
231.3736483149862
 23
91.80502841475577
 33
0.0
1001
ACAD
1000
DSTYLE
1002
{
1070
   147
1040
1.0
1070
    77
1070
     0
1002
}
  0
LWPOLYLINE
  5
2A15A
330
1F
100
AcDbEntity
  8
寸法
100
AcDbPolyline
 90
        3
 70
     0
 43
0.0
 10
231.0360974852093
 20
92.04930397314853
 10
240.4650955355247
 20
105.0787127964851
 10
286.2528538007896
 20
105.0787127964851
1001
ACAD
1000
DSTYLE
1002
{
1070
   147
1040
1.0
1070
    77
1070
     0
1002
}
  0
TEXT
  5
2A15B
330
1F
100
AcDbEntity
  8
寸法
100
AcDbText
 10
243.2387472235855
 20
100.6186414728145
 30
0.0
 40
3.5
  1
φ25.8～山14　金門
 41
0.9
  7
寸法
100
AcDbText
  0
LINE
  5
2A351
330
1F
100
AcDbEntity
  8
0
100
AcDbLine
 10
280.0
 20
20.0
 30
0.0
 11
280.0
 21
68.0
 31
0.0
  0
LINE
  5
2A352
330
1F
100
AcDbEntity
  8
0
100
AcDbLine
 10
280.0
 20
35.0
 30
0.0
 11
405.0
 21
35.0
 31
0.0
  0
LINE
  5
2A353
330
1F
100
AcDbEntity
  8
0
100
AcDbLine
 10
280.0
 20
58.0
 30
0.0
 11
405.0
 21
58.0
 31
0.0
  0
LINE
  5
2A354
330
1F
100
AcDbEntity
  8
0
100
AcDbLine
 10
280.0
 20
68.0
 30
0.0
 11
405.0
 21
68.0
 31
0.0
  0
LINE
  5
2A355
330
1F
100
AcDbEntity
  8
0
100
AcDbLine
 10
292.5
 20
35.0
 30
0.0
 11
292.5
 21
20.0
 31
0.0
  0
LINE
  5
2A356
330
1F
100
AcDbEntity
  8
0
100
AcDbLine
 10
305.0
 20
35.0
 30
0.0
 11
305.0
 21
20.0
 31
0.0
  0
LINE
  5
2A357
330
1F
100
AcDbEntity
  8
0
100
AcDbLine
 10
317.5
 20
35.0
 30
0.0
 11
317.5
 21
20.0
 31
0.0
  0
LINE
  5
2A358
330
1F
100
AcDbEntity
  8
0
100
AcDbLine
 10
330.0
 20
35.0
 30
0.0
 11
330.0
 21
20.0
 31
0.0
  0
LINE
  5
2A359
330
1F
100
AcDbEntity
  8
0
100
AcDbLine
 10
342.5
 20
58.0
 30
0.0
 11
342.5
 21
20.0
 31
0.0
  0
LINE
  5
2A35A
330
1F
100
AcDbEntity
  8
0
100
AcDbLine
 10
373.7499999999999
 20
46.49999999999999
 30
0.0
 11
373.7499999999999
 21
35.0
 31
0.0
  0
LINE
  5
2A35B
330
1F
100
AcDbEntity
  8
0
100
AcDbLine
 10
301.5
 20
68.0
 30
0.0
 11
301.5
 21
58.0
 31
0.0
  0
LINE
  5
2A35C
330
1F
100
AcDbEntity
  8
0
100
AcDbLine
 10
280.0
 20
31.0
 30
0.0
 11
342.5
 21
31.0
 31
0.0
  0
TEXT
  5
2A35D
330
1F
100
AcDbEntity
  8
0
100
AcDbText
 10
287.96
 20
61.5
 30
0.0
 40
3.0
  1
品名
 41
0.9
 72
     1
 11
290.75
 21
63.0
 31
0.0
100
AcDbText
 73
     2
  0
TEXT
  5
2A35E
330
1F
100
AcDbEntity
  8
0
100
AcDbText
 10
283.37
 20
31.5
 30
0.0
 40
3.0
  1
承認
 41
0.9
 72
     1
 11
286.25
 21
33.0
 31
0.0
100
AcDbText
 73
     2
  0
TEXT
  5
2A35F
330
1F
100
AcDbEntity
  8
0
100
AcDbText
 10
295.96
 20
31.5
 30
0.0
 40
3.0
  1
検図
 41
0.9
 72
     1
 11
298.75
 21
33.0
 31
0.0
100
AcDbText
 73
     2
  0
TEXT
  5
2A360
330
1F
100
AcDbEntity
  8
0
100
AcDbText
 10
308.46
 20
31.5
 30
0.0
 40
3.0
  1
製図
 41
0.9
 72
     1
 11
311.25
 21
33.0
 31
0.0
100
AcDbText
 73
     2
  0
TEXT
  5
2A361
330
1F
100
AcDbEntity
  8
0
100
AcDbText
 10
319.43
 20
31.5
 30
0.0
 40
3.0
  1
年月日
 41
0.9
 72
     1
 11
323.75
 21
33.0
 31
0.0
100
AcDbText
 73
     2
  0
TEXT
  5
2A362
330
1F
100
AcDbEntity
  8
0
100
AcDbText
 10
333.37
 20
31.5
 30
0.0
 40
3.0
  1
尺度
 41
0.9
 72
     1
 11
336.25
 21
33.0
 31
0.0
100
AcDbText
 73
     2
  0
TEXT
  5
2A363
330
1F
100
AcDbEntity
  8
0
100
AcDbText
 10
347.5141191097013
 20
25.47732717604083
 30
0.0
 40
5.0
  1
柏原計器工業株式会社
 41
0.9
 72
     1
 11
373.9141191097012
 21
27.97732717604083
 31
0.0
100
AcDbText
 73
     2
  0
TEXT
  5
2A364
330
1F
100
AcDbEntity
  8
0
100
AcDbText
 10
331.75
 20
23.75
 30
0.0
 40
3.5
  1
free
 41
0.9
 72
     1
 11
336.25
 21
25.5
 31
0.0
100
AcDbText
 73
     2
  0
TEXT
  5
2A365
330
1F
100
AcDbEntity
  8
0
100
AcDbText
 10
306.5860329945233
 20
50.90516497261692
 30
0.0
 40
3.5
  1
外観図
 41
0.9
 72
     1
 11
311.7310329945233
 21
52.65516497261692
 31
0.0
100
AcDbText
 73
     2
  0
TEXT
  5
2A366
330
1F
100
AcDbEntity
  8
0
100
AcDbText
 10
309.2835983023972
 20
61.25
 30
0.0
 40
3.5
  1
接線流羽根車式乾式直読式水道メーター　13mm
 41
0.9
 72
     1
 11
352.3935983023971
 21
63.0
 31
0.0
100
AcDbText
 73
     2
  0
LINE
  5
2A367
330
1F
100
AcDbEntity
  8
0
100
AcDbLine
 10
404.9999999999998
 20
46.49999999999999
 30
0.0
 11
280.0
 21
46.5
 31
0.0
  0
LINE
  5
2A369
330
1F
100
AcDbEntity
  8
0
100
AcDbLine
 10
347.5
 20
57.99999999999999
 30
0.0
 11
347.5
 21
46.5
 31
0.0
  0
TEXT
  5
2A36A
330
1F
100
AcDbEntity
  8
0
100
AcDbText
 10
343.8012444219987
 20
53.78915733104803
 30
0.0
 40
3.0
  1
図
 41
0.9
 72
     1
 11
345.0612444219987
 21
55.28915733104803
 31
0.0
100
AcDbText
 73
     2
  0
TEXT
  5
2A36B
330
1F
100
AcDbEntity
  8
0
100
AcDbText
 10
343.74
 20
48.125
 30
0.0
 40
3.0
  1
番
 41
0.9
 72
     1
 11
345.0
 21
49.62499999999999
 31
0.0
100
AcDbText
 73
     2
  0
LINE
  5
2A36C
330
1F
100
AcDbEntity
  8
0
100
AcDbLine
 10
285.0
 20
46.49999999999999
 30
0.0
 11
285.0
 21
35.0
 31
0.0
  0
TEXT
  5
2A36D
330
1F
100
AcDbEntity
  8
0
100
AcDbText
 10
281.3012444219987
 20
42.28915733104803
 30
0.0
 40
3.0
  1
摘
 41
0.9
 72
     1
 11
282.5612444219987
 21
43.78915733104803
 31
0.0
100
AcDbText
 73
     2
  0
TEXT
  5
2A36E
330
1F
100
AcDbEntity
  8
0
100
AcDbText
 10
281.24
 20
36.625
 30
0.0
 40
3.0
  1
要
 41
0.9
 72
     1
 11
282.5
 21
38.125
 31
0.0
100
AcDbText
 73
     2
  0
LINE
  5
2A36F
330
1F
100
AcDbEntity
  8
0
100
AcDbLine
 10
285.0
 20
57.99999999999999
 30
0.0
 11
285.0
 21
46.5
 31
0.0
  0
TEXT
  5
2A370
330
1F
100
AcDbEntity
  8
0
100
AcDbText
 10
281.3912444219987
 20
53.78915733104803
 30
0.0
 40
3.0
  1
名
 41
0.9
 72
     1
 11
282.5612444219987
 21
55.28915733104803
 31
0.0
100
AcDbText
 73
     2
  0
TEXT
  5
2A371
330
1F
100
AcDbEntity
  8
0
100
AcDbText
 10
281.24
 20
48.125
 30
0.0
 40
3.0
  1
称
 41
0.9
 72
     1
 11
282.5
 21
49.62499999999999
 31
0.0
100
AcDbText
 73
     2
  0
LINE
  5
2A372
330
1F
100
AcDbEntity
  8
0
  6
CENTER
 48
0.2
370
    15
100
AcDbLine
 10
380.3743237194039
 20
40.70717840942182
 30
0.0
 11
402.3661932218493
 21
40.70717840942182
 31
0.0
  0
LINE
  5
2A373
330
1F
100
AcDbEntity
  8
0
  6
CENTER
 48
0.2
370
    15
100
AcDbLine
 10
385.6829979138538
 20
45.02275052681983
 30
0.0
 11
385.6829979138538
 21
36.39160629202382
 31
0.0
  0
CIRCLE
  5
2A374
330
1F
100
AcDbEntity
  8
0
100
AcDbCircle
 10
385.6829979138538
 20
40.70717840942182
 30
0.0
 40
3.616483184024218
  0
CIRCLE
  5
2A375
330
1F
100
AcDbEntity
  8
0
100
AcDbCircle
 10
385.6829979138538
 20
40.70717840942182
 30
0.0
 40
2.153012167676263
  0
LINE
  5
2A376
330
1F
100
AcDbEntity
  8
0
100
AcDbLine
 10
391.435352056124
 20
42.86019057709808
 30
0.0
 11
391.435352056124
 21
38.5377720924151
 31
0.0
  0
LINE
  5
2A377
330
1F
100
AcDbEntity
  8
0
100
AcDbLine
 10
391.435352056124
 20
38.5377720924151
 30
0.0
 11
400.8293035353753
 21
37.0906952253976
 31
0.0
  0
LINE
  5
2A378
330
1F
100
AcDbEntity
  8
0
100
AcDbLine
 10
400.8293035353753
 20
37.0906952253976
 30
0.0
 11
400.8293035353753
 21
44.32366159344604
 31
0.0
  0
LINE
  5
2A379
330
1F
100
AcDbEntity
  8
0
100
AcDbLine
 10
400.8293035353753
 20
44.32366159344604
 30
0.0
 11
391.435352056124
 21
42.86019057709808
 31
0.0
  0
TEXT
  5
2A37A
330
1F
100
AcDbEntity
  8
0
100
AcDbText
 10
343.8012444219987
 20
42.28915733104803
 30
0.0
 40
3.0
  1
材
 41
0.9
 72
     1
 11
345.0612444219987
 21
43.78915733104803
 31
0.0
100
AcDbText
 73
     2
  0
TEXT
  5
2A37B
330
1F
100
AcDbEntity
  8
0
100
AcDbText
 10
343.74
 20
36.625
 30
0.0
 40
3.0
  1
質
 41
0.9
 72
     1
 11
345.0
 21
38.125
 31
0.0
100
AcDbText
 73
     2
  0
LINE
  5
2A37C
330
1F
100
AcDbEntity
  8
0
100
AcDbLine
 10
347.5
 20
46.49999999999999
 30
0.0
 11
347.5
 21
35.0
 31
0.0
  0
TEXT
  5
2A37D
330
1F
100
AcDbEntity
  8
0
100
AcDbText
 10
375.0512444219985
 20
42.72828299788964
 30
0.0
 40
3.0
  1
投
 41
0.9
 72
     1
 11
376.3112444219985
 21
44.22828299788965
 31
0.0
100
AcDbText
 73
     2
  0
TEXT
  5
2A37E
330
1F
100
AcDbEntity
  8
0
100
AcDbText
 10
374.9899999999998
 20
35.74674936600604
 30
0.0
 40
3.0
  1
法
 41
0.9
 72
     1
 11
376.2499999999998
 21
37.24674936600604
 31
0.0
100
AcDbText
 73
     2
  0
LINE
  5
2A37F
330
1F
100
AcDbEntity
  8
0
100
AcDbLine
 10
378.7499999999998
 20
46.49999999999999
 30
0.0
 11
378.7499999999998
 21
35.0
 31
0.0
  0
TEXT
  5
2A380
330
1F
100
AcDbEntity
  8
0
100
AcDbText
 10
375.0512444219985
 20
39.32506030432352
 30
0.0
 40
3.0
  1
影
 41
0.9
 72
     1
 11
376.3112444219985
 21
40.82506030432351
 31
0.0
100
AcDbText
 73
     2
  0
TEXT
  5
2A77A
330
1F
100
AcDbEntity
  8
0
100
AcDbText
 10
317.8166666666667
 20
26.58703627890884
 30
0.0
 40
3.5
  1
2019.
 41
0.8
 72
     1
 11
323.75
 21
28.33703627890884
 31
0.0
100
AcDbText
 73
     2
  0
TEXT
  5
2A77B
330
1F
100
AcDbEntity
  8
0
100
AcDbText
 10
317.55
 20
21.53356531963254
 30
0.0
 40
3.5
  1
11.20
 41
0.8
 72
     1
 11
323.75
 21
23.28356531963255
 31
0.0
100
AcDbText
 73
     2
  0
HATCH
  5
2AC03
330
1F
100
AcDbEntity
  8
細線
100
AcDbHatch
 10
0.0
 20
0.0
 30
0.0
210
0.0
220
0.0
230
1.0
  2
SOLID
 70
     1
 71
     0
 91
        2
 92
        7
 72
     1
 73
     1
 93
       15
 10
341.8254669472499
 20
219.6531020001807
 42
0.0
 10
341.8254669472499
 20
217.0281020001807
 42
0.0
 10
342.5254669472499
 20
217.0281020001807
 42
0.0
 10
342.5254669472499
 20
219.6531020001807
 42
0.7071067811865488
 10
339.7254669472498
 20
220.6430514938419
 42
0.3879073040668111
 10
337.6254669472498
 20
220.9626820855516
 42
0.0
 10
337.6254669472498
 20
221.2281020001808
 42
0.0
 10
336.9254669472498
 20
221.2281020001808
 42
0.0
 10
336.9254669472498
 20
217.0281020001807
 42
0.0
 10
337.6254669472498
 20
217.0281020001807
 42
0.0
 10
337.6254669472498
 20
219.6531020001807
 42
-1.0
 10
339.3754669472498
 20
219.6531020001807
 42
0.0
 10
339.3754669472498
 20
217.0281020001807
 42
0.0
 10
340.0754669472499
 20
217.0281020001807
 42
0.0
 10
340.0754669472499
 20
219.6531020001807
 42
-1.0
 97
        0
 92
        7
 72
     0
 73
     1
 93
       53
 10
344.5485173472496
 20
223.2569148001807
 10
344.0385883472495
 20
223.2569148001807
 10
343.6054143472495
 20
223.1167272001808
 10
343.38139054725
 20
222.9988962001808
 10
343.1570125472494
 20
222.7629024001808
 10
343.0538829472496
 20
222.5459752001807
 10
343.4331989472496
 20
222.3656440001807
 10
343.5075613472498
 20
222.5220590001809
 10
343.6381169472499
 20
222.6593738001808
 10
343.7690295472496
 20
222.7282314001807
 10
344.1048587472496
 20
222.8369148001807
 10
344.4822469472499
 20
222.8369148001807
 10
344.8180761472497
 20
222.7282314001807
 10
344.9489887472496
 20
222.6593738001808
 10
345.0795373472495
 20
222.5220674001807
 10
345.1335409472497
 20
222.4084434001806
 10
345.1335409472497
 20
222.2169458001808
 10
345.0752995472499
 20
222.0739848001808
 10
344.96625774725
 20
221.9592870001809
 10
344.6952681472496
 20
221.8880340001808
 10
343.8055107472496
 20
221.8880340001808
 10
343.8055107472496
 20
221.4680340001808
 10
344.6705609472497
 20
221.4680340001808
 10
344.9489915472498
 20
221.3215982001808
 10
345.0795373472495
 20
221.1842946001808
 10
345.1335409472497
 20
221.0706692001809
 10
345.1335409472497
 20
220.8542950001807
 10
345.0795345472497
 20
220.7406668001809
 10
344.9489901472498
 20
220.6033506001809
 10
344.8251195472499
 20
220.5382100001807
 10
344.49026054725
 20
220.4569316001807
 10
344.09684514725
 20
220.4569316001807
 10
343.7753071472498
 20
220.5349774001809
 10
343.5587481472499
 20
220.6868298001808
 10
343.3957307472497
 20
220.8582850001808
 10
343.09135114725
 20
220.5688854001808
 10
343.2832701472498
 20
220.3670306001809
 10
343.5991367472496
 20
220.1455422001809
 10
344.0466019472494
 20
220.0369316001809
 10
344.5405037472499
 20
220.0369316001809
 10
344.9746479472497
 20
220.1423096001808
 10
345.2057137472495
 20
220.2638212001807
 10
345.4301029472499
 20
220.4998500001809
 10
345.55354094725
 20
220.7595626001809
 10
345.55354094725
 20
221.1654016001808
 10
345.4301001472495
 20
221.4251198001807
 10
345.2340119472499
 20
221.6313622001808
 10
345.4343379472498
 20
221.8420776001808
 10
345.55354094725
 20
222.1346762001808
 10
345.55354094725
 20
222.5031758001808
 10
345.4301001472495
 20
222.7628940001807
 10
345.20571514725
 20
222.9988962001808
 10
344.9816913472498
 20
223.1167272001808
 97
        0
 75
     0
 76
     1
 47
0.0539619229675026
 98
        2
 10
340.364845270344
 20
220.5258898857069
 10
344.5780339665591
 20
223.1700238664255
450
        0
451
        0
460
0.0
461
0.0
452
        1
462
1.0
453
        2
463
0.0
 63
     5
421
      255
463
1.0
 63
     7
421
 16777215
470
LINEAR
1001
ACAD
1010
0.0
1020
0.0
1030
0.0
  0
LINE
  5
2AC04
330
1F
100
AcDbEntity
  8
実線
100
AcDbLine
 10
337.6254669472498
 20
217.0281020001807
 30
0.0
 11
337.6254669472498
 21
219.6531020001807
 31
0.0
  0
LINE
  5
2AC05
330
1F
100
AcDbEntity
  8
実線
100
AcDbLine
 10
337.6254669472498
 20
220.9626816001809
 30
0.0
 11
337.6254669472498
 21
221.2281020001808
 31
0.0
  0
LINE
  5
2AC06
330
1F
100
AcDbEntity
  8
実線
100
AcDbLine
 10
336.9254669472498
 20
217.0281020001807
 30
0.0
 11
336.9254669472498
 21
221.2281020001808
 31
0.0
  0
ARC
  5
2AC07
330
1F
100
AcDbEntity
  8
実線
100
AcDbCircle
 10
338.5004669472498
 20
219.6531020001807
 30
0.0
 40
0.875
100
AcDbArc
 50
0.0
 51
180.0
  0
ARC
  5
2AC08
330
1F
100
AcDbEntity
  8
実線
100
AcDbCircle
 10
338.5004669472498
 20
219.6531020001807
 30
0.0
 40
1.575
100
AcDbArc
 50
38.94244099999887
 51
123.7489890000025
  0
LINE
  5
2AC09
330
1F
100
AcDbEntity
  8
実線
100
AcDbLine
 10
339.3754669472498
 20
217.0281020001807
 30
0.0
 11
339.3754669472498
 21
219.6531020001807
 31
0.0
  0
LINE
  5
2AC0A
330
1F
100
AcDbEntity
  8
実線
100
AcDbLine
 10
340.0754669472499
 20
217.0281020001807
 30
0.0
 11
340.0754669472499
 21
219.6531020001807
 31
0.0
  0
ARC
  5
2AC0B
330
1F
100
AcDbEntity
  8
実線
100
AcDbCircle
 10
340.9504669472499
 20
219.6531020001807
 30
0.0
 40
1.575
100
AcDbArc
 50
0.0
 51
141.0575590000011
  0
ARC
  5
2AC0C
330
1F
100
AcDbEntity
  8
実線
100
AcDbCircle
 10
340.9504669472499
 20
219.6531020001807
 30
0.0
 40
0.875
100
AcDbArc
 50
0.0
 51
180.0
  0
LINE
  5
2AC0D
330
1F
100
AcDbEntity
  8
実線
100
AcDbLine
 10
341.8254669472499
 20
217.0281020001807
 30
0.0
 11
341.8254669472499
 21
219.6531020001807
 31
0.0
  0
LINE
  5
2AC0E
330
1F
100
AcDbEntity
  8
実線
100
AcDbLine
 10
342.5254669472499
 20
217.0281020001807
 30
0.0
 11
342.5254669472499
 21
219.6531020001807
 31
0.0
  0
LINE
  5
2AC0F
330
1F
100
AcDbEntity
  8
実線
100
AcDbLine
 10
336.9254669472498
 20
221.2281020001808
 30
0.0
 11
337.6254669472498
 21
221.2281020001808
 31
0.0
  0
LINE
  5
2AC10
330
1F
100
AcDbEntity
  8
実線
100
AcDbLine
 10
336.9254669472498
 20
217.0281020001807
 30
0.0
 11
337.6254669472498
 21
217.0281020001807
 31
0.0
  0
LINE
  5
2AC11
330
1F
100
AcDbEntity
  8
実線
100
AcDbLine
 10
339.3754669472498
 20
217.0281020001807
 30
0.0
 11
340.0754669472499
 21
217.0281020001807
 31
0.0
  0
LINE
  5
2AC12
330
1F
100
AcDbEntity
  8
実線
100
AcDbLine
 10
341.8254669472499
 20
217.0281020001807
 30
0.0
 11
342.5254669472499
 21
217.0281020001807
 31
0.0
  0
LINE
  5
2AC13
330
1F
100
AcDbEntity
  8
実線
100
AcDbLine
 10
343.2832701472498
 20
220.3670306001809
 30
0.0
 11
343.09135114725
 21
220.5688854001808
 31
0.0
  0
LINE
  5
2AC14
330
1F
100
AcDbEntity
  8
実線
100
AcDbLine
 10
343.5991367472496
 20
220.1455422001809
 30
0.0
 11
343.2832701472498
 21
220.3670306001809
 31
0.0
  0
LINE
  5
2AC15
330
1F
100
AcDbEntity
  8
実線
100
AcDbLine
 10
344.0466019472494
 20
220.0369316001809
 30
0.0
 11
343.5991367472496
 21
220.1455422001809
 31
0.0
  0
LINE
  5
2AC16
330
1F
100
AcDbEntity
  8
実線
100
AcDbLine
 10
344.5405037472499
 20
220.0369316001809
 30
0.0
 11
344.0466019472494
 21
220.0369316001809
 31
0.0
  0
LINE
  5
2AC17
330
1F
100
AcDbEntity
  8
実線
100
AcDbLine
 10
344.9746479472497
 20
220.1423096001808
 30
0.0
 11
344.5405037472499
 21
220.0369316001809
 31
0.0
  0
LINE
  5
2AC18
330
1F
100
AcDbEntity
  8
実線
100
AcDbLine
 10
345.2057137472495
 20
220.2638212001807
 30
0.0
 11
344.9746479472497
 21
220.1423096001808
 31
0.0
  0
LINE
  5
2AC19
330
1F
100
AcDbEntity
  8
実線
100
AcDbLine
 10
345.4301029472499
 20
220.4998500001809
 30
0.0
 11
345.2057137472495
 21
220.2638212001807
 31
0.0
  0
LINE
  5
2AC1A
330
1F
100
AcDbEntity
  8
実線
100
AcDbLine
 10
345.55354094725
 20
220.7595626001809
 30
0.0
 11
345.4301029472499
 21
220.4998500001809
 31
0.0
  0
LINE
  5
2AC1B
330
1F
100
AcDbEntity
  8
実線
100
AcDbLine
 10
345.55354094725
 20
221.1654016001808
 30
0.0
 11
345.55354094725
 21
220.7595626001809
 31
0.0
  0
LINE
  5
2AC1C
330
1F
100
AcDbEntity
  8
実線
100
AcDbLine
 10
345.4301001472495
 20
221.4251198001807
 30
0.0
 11
345.55354094725
 21
221.1654016001808
 31
0.0
  0
LINE
  5
2AC1D
330
1F
100
AcDbEntity
  8
実線
100
AcDbLine
 10
345.2340119472499
 20
221.6313622001808
 30
0.0
 11
345.4301001472495
 21
221.4251198001807
 31
0.0
  0
LINE
  5
2AC1E
330
1F
100
AcDbEntity
  8
実線
100
AcDbLine
 10
343.0538829472496
 20
222.5459752001807
 30
0.0
 11
343.1570125472494
 21
222.7629024001808
 31
0.0
  0
LINE
  5
2AC1F
330
1F
100
AcDbEntity
  8
実線
100
AcDbLine
 10
343.1570125472494
 20
222.7629024001808
 30
0.0
 11
343.38139054725
 21
222.9988962001808
 31
0.0
  0
LINE
  5
2AC20
330
1F
100
AcDbEntity
  8
実線
100
AcDbLine
 10
343.38139054725
 20
222.9988962001808
 30
0.0
 11
343.6054143472495
 21
223.1167272001808
 31
0.0
  0
LINE
  5
2AC21
330
1F
100
AcDbEntity
  8
実線
100
AcDbLine
 10
343.6054143472495
 20
223.1167272001808
 30
0.0
 11
344.0385883472495
 21
223.2569148001807
 31
0.0
  0
LINE
  5
2AC22
330
1F
100
AcDbEntity
  8
実線
100
AcDbLine
 10
344.0385883472495
 20
223.2569148001807
 30
0.0
 11
344.5485173472496
 21
223.2569148001807
 31
0.0
  0
LINE
  5
2AC23
330
1F
100
AcDbEntity
  8
実線
100
AcDbLine
 10
344.5485173472496
 20
223.2569148001807
 30
0.0
 11
344.9816913472498
 21
223.1167272001808
 31
0.0
  0
LINE
  5
2AC24
330
1F
100
AcDbEntity
  8
実線
100
AcDbLine
 10
344.9816913472498
 20
223.1167272001808
 30
0.0
 11
345.20571514725
 21
222.9988962001808
 31
0.0
  0
LINE
  5
2AC25
330
1F
100
AcDbEntity
  8
実線
100
AcDbLine
 10
345.20571514725
 20
222.9988962001808
 30
0.0
 11
345.4301001472495
 21
222.7628940001807
 31
0.0
  0
LINE
  5
2AC26
330
1F
100
AcDbEntity
  8
実線
100
AcDbLine
 10
345.4301001472495
 20
222.7628940001807
 30
0.0
 11
345.55354094725
 21
222.5031758001808
 31
0.0
  0
LINE
  5
2AC27
330
1F
100
AcDbEntity
  8
実線
100
AcDbLine
 10
345.55354094725
 20
222.5031758001808
 30
0.0
 11
345.55354094725
 21
222.1346762001808
 31
0.0
  0
LINE
  5
2AC28
330
1F
100
AcDbEntity
  8
実線
100
AcDbLine
 10
345.55354094725
 20
222.1346762001808
 30
0.0
 11
345.4343379472498
 21
221.8420776001808
 31
0.0
  0
LINE
  5
2AC29
330
1F
100
AcDbEntity
  8
実線
100
AcDbLine
 10
345.4343379472498
 20
221.8420776001808
 30
0.0
 11
345.2340119472499
 21
221.6313622001808
 31
0.0
  0
LINE
  5
2AC2A
330
1F
100
AcDbEntity
  8
実線
100
AcDbLine
 10
343.5587481472499
 20
220.6868298001808
 30
0.0
 11
343.3957307472497
 21
220.8582850001808
 31
0.0
  0
LINE
  5
2AC2B
330
1F
100
AcDbEntity
  8
実線
100
AcDbLine
 10
343.7753071472498
 20
220.5349774001809
 30
0.0
 11
343.5587481472499
 21
220.6868298001808
 31
0.0
  0
LINE
  5
2AC2C
330
1F
100
AcDbEntity
  8
実線
100
AcDbLine
 10
344.09684514725
 20
220.4569316001807
 30
0.0
 11
343.7753071472498
 21
220.5349774001809
 31
0.0
  0
LINE
  5
2AC2D
330
1F
100
AcDbEntity
  8
実線
100
AcDbLine
 10
344.49026054725
 20
220.4569316001807
 30
0.0
 11
344.09684514725
 21
220.4569316001807
 31
0.0
  0
LINE
  5
2AC2E
330
1F
100
AcDbEntity
  8
実線
100
AcDbLine
 10
344.8251195472499
 20
220.5382100001807
 30
0.0
 11
344.49026054725
 21
220.4569316001807
 31
0.0
  0
LINE
  5
2AC2F
330
1F
100
AcDbEntity
  8
実線
100
AcDbLine
 10
344.9489901472498
 20
220.6033506001809
 30
0.0
 11
344.8251195472499
 21
220.5382100001807
 31
0.0
  0
LINE
  5
2AC30
330
1F
100
AcDbEntity
  8
実線
100
AcDbLine
 10
345.0795345472497
 20
220.7406668001809
 30
0.0
 11
344.9489901472498
 21
220.6033506001809
 31
0.0
  0
LINE
  5
2AC31
330
1F
100
AcDbEntity
  8
実線
100
AcDbLine
 10
345.1335409472497
 20
220.8542950001807
 30
0.0
 11
345.0795345472497
 21
220.7406668001809
 31
0.0
  0
LINE
  5
2AC32
330
1F
100
AcDbEntity
  8
実線
100
AcDbLine
 10
345.1335409472497
 20
221.0706692001809
 30
0.0
 11
345.1335409472497
 21
220.8542950001807
 31
0.0
  0
LINE
  5
2AC33
330
1F
100
AcDbEntity
  8
実線
100
AcDbLine
 10
345.0795373472495
 20
221.1842946001808
 30
0.0
 11
345.1335409472497
 21
221.0706692001809
 31
0.0
  0
LINE
  5
2AC34
330
1F
100
AcDbEntity
  8
実線
100
AcDbLine
 10
344.9489915472498
 20
221.3215982001808
 30
0.0
 11
345.0795373472495
 21
221.1842946001808
 31
0.0
  0
LINE
  5
2AC35
330
1F
100
AcDbEntity
  8
実線
100
AcDbLine
 10
344.6705609472497
 20
221.4680340001808
 30
0.0
 11
344.9489915472498
 21
221.3215982001808
 31
0.0
  0
LINE
  5
2AC36
330
1F
100
AcDbEntity
  8
実線
100
AcDbLine
 10
344.6705609472497
 20
221.4680340001808
 30
0.0
 11
343.8055107472496
 21
221.4680340001808
 31
0.0
  0
LINE
  5
2AC37
330
1F
100
AcDbEntity
  8
実線
100
AcDbLine
 10
344.6952681472496
 20
221.8880340001808
 30
0.0
 11
343.8055107472496
 21
221.8880340001808
 31
0.0
  0
LINE
  5
2AC38
330
1F
100
AcDbEntity
  8
実線
100
AcDbLine
 10
344.96625774725
 20
221.9592870001809
 30
0.0
 11
344.6952681472496
 21
221.8880340001808
 31
0.0
  0
LINE
  5
2AC39
330
1F
100
AcDbEntity
  8
実線
100
AcDbLine
 10
345.0752995472499
 20
222.0739848001808
 30
0.0
 11
344.96625774725
 21
221.9592870001809
 31
0.0
  0
LINE
  5
2AC3A
330
1F
100
AcDbEntity
  8
実線
100
AcDbLine
 10
345.1335409472497
 20
222.2169458001808
 30
0.0
 11
345.0752995472499
 21
222.0739848001808
 31
0.0
  0
LINE
  5
2AC3B
330
1F
100
AcDbEntity
  8
実線
100
AcDbLine
 10
345.1335409472497
 20
222.4084434001806
 30
0.0
 11
345.1335409472497
 21
222.2169458001808
 31
0.0
  0
LINE
  5
2AC3C
330
1F
100
AcDbEntity
  8
実線
100
AcDbLine
 10
345.0795373472495
 20
222.5220674001807
 30
0.0
 11
345.1335409472497
 21
222.4084434001806
 31
0.0
  0
LINE
  5
2AC3D
330
1F
100
AcDbEntity
  8
実線
100
AcDbLine
 10
344.9489887472496
 20
222.6593738001808
 30
0.0
 11
345.0795373472495
 21
222.5220674001807
 31
0.0
  0
LINE
  5
2AC3E
330
1F
100
AcDbEntity
  8
実線
100
AcDbLine
 10
344.8180761472497
 20
222.7282314001807
 30
0.0
 11
344.9489887472496
 21
222.6593738001808
 31
0.0
  0
LINE
  5
2AC3F
330
1F
100
AcDbEntity
  8
実線
100
AcDbLine
 10
344.4822469472499
 20
222.8369148001807
 30
0.0
 11
344.8180761472497
 21
222.7282314001807
 31
0.0
  0
LINE
  5
2AC40
330
1F
100
AcDbEntity
  8
実線
100
AcDbLine
 10
344.1048587472496
 20
222.8369148001807
 30
0.0
 11
344.4822469472499
 21
222.8369148001807
 31
0.0
  0
LINE
  5
2AC41
330
1F
100
AcDbEntity
  8
実線
100
AcDbLine
 10
343.7690295472496
 20
222.7282314001807
 30
0.0
 11
344.1048587472496
 21
222.8369148001807
 31
0.0
  0
LINE
  5
2AC42
330
1F
100
AcDbEntity
  8
実線
100
AcDbLine
 10
343.6381169472499
 20
222.6593738001808
 30
0.0
 11
343.7690295472496
 21
222.7282314001807
 31
0.0
  0
LINE
  5
2AC43
330
1F
100
AcDbEntity
  8
実線
100
AcDbLine
 10
343.5075613472498
 20
222.5220590001809
 30
0.0
 11
343.6381169472499
 21
222.6593738001808
 31
0.0
  0
LINE
  5
2AC44
330
1F
100
AcDbEntity
  8
実線
100
AcDbLine
 10
343.4331989472496
 20
222.3656440001807
 30
0.0
 11
343.5075613472498
 21
222.5220590001809
 31
0.0
  0
LINE
  5
2AC45
330
1F
100
AcDbEntity
  8
実線
100
AcDbLine
 10
343.3957307472497
 20
220.8582850001808
 30
0.0
 11
343.09135114725
 21
220.5688854001808
 31
0.0
  0
LINE
  5
2AC46
330
1F
100
AcDbEntity
  8
実線
100
AcDbLine
 10
343.8055107472496
 20
221.4680340001808
 30
0.0
 11
343.8055107472496
 21
221.8880340001808
 31
0.0
  0
LINE
  5
2AC47
330
1F
100
AcDbEntity
  8
実線
100
AcDbLine
 10
343.4331989472496
 20
222.3656440001807
 30
0.0
 11
343.0538829472496
 21
222.5459752001807
 31
0.0
  0
HATCH
  5
2AC48
330
1F
100
AcDbEntity
  8
細線
100
AcDbHatch
 10
0.0
 20
0.0
 30
0.0
210
0.0
220
0.0
230
1.0
  2
SOLID
 70
     1
 71
     1
 91
        1
 92
        7
 72
     0
 73
     1
 93
        3
 10
356.8754669472498
 20
211.7781020001808
 10
352.2554669472497
 20
210.3781020001808
 10
356.8754669472498
 20
208.9781020001808
 97
        3
330
2AC4A
330
2AC4B
330
2AC49
 75
     0
 76
     1
 47
0.0980320577308063
 98
        1
 10
356.1992672965091
 20
209.9773336094493
450
        0
451
        0
460
0.0
461
0.0
452
        1
462
1.0
453
        2
463
0.0
 63
     5
421
      255
463
1.0
 63
     7
421
 16777215
470
LINEAR
1001
ACAD
1010
0.0
1020
0.0
1030
0.0
  0
LINE
  5
2AC49
102
{ACAD_REACTORS
330
2AC48
102
}
330
1F
100
AcDbEntity
  8
実線
100
AcDbLine
 10
356.8754669472498
 20
211.7781020001808
 30
0.0
 11
356.8754669472498
 21
208.9781020001808
 31
0.0
  0
LINE
  5
2AC4A
102
{ACAD_REACTORS
330
2AC48
102
}
330
1F
100
AcDbEntity
  8
実線
100
AcDbLine
 10
352.2554669472497
 20
210.3781020001808
 30
0.0
 11
356.8754669472498
 21
211.7781020001808
 31
0.0
  0
LINE
  5
2AC4B
102
{ACAD_REACTORS
330
2AC48
102
}
330
1F
100
AcDbEntity
  8
実線
100
AcDbLine
 10
352.2554669472497
 20
210.3781020001808
 30
0.0
 11
356.8754669472498
 21
208.9781020001808
 31
0.0
  0
CIRCLE
  5
2AC4C
330
1F
100
AcDbEntity
  8
実線
100
AcDbCircle
 10
345.3954669472496
 20
204.2181020001808
 30
0.0
 40
1.399999999999999
  0
HATCH
  5
2AC4D
330
1F
100
AcDbEntity
  8
細線
 62
     7
100
AcDbHatch
 10
0.0
 20
0.0
 30
0.0
210
0.0
220
0.0
230
1.0
  2
SOLID
 70
     1
 71
     0
 91
        1
 92
        7
 72
     0
 73
     1
 93
        7
 10
332.3754669472498
 20
189.7281020001808
 10
331.3254669472499
 20
189.7281020001808
 10
332.72546694725
 20
184.8281020001807
 10
334.1254669472498
 20
189.7281020001808
 10
333.0754669472499
 20
189.7281020001808
 10
333.0754669472499
 20
194.6281020001807
 10
332.3754669472498
 20
194.6281020001807
 97
        0
 75
     0
 76
     1
 47
0.0699067823574675
 98
        1
 10
332.6507633418887
 20
189.265961257229
450
        0
451
        0
460
0.0
461
0.0
452
        1
462
1.0
453
        2
463
0.0
 63
     5
421
      255
463
1.0
 63
     7
421
 16777215
470
LINEAR
1001
ACAD
1010
0.0
1020
0.0
1030
0.0
  0
LINE
  5
2AC4E
330
1F
100
AcDbEntity
  8
実線
100
AcDbLine
 10
332.72546694725
 20
184.8281020001807
 30
0.0
 11
334.1254669472498
 21
189.7281020001808
 31
0.0
  0
LINE
  5
2AC4F
330
1F
100
AcDbEntity
  8
実線
100
AcDbLine
 10
333.0754669472499
 20
189.7281020001808
 30
0.0
 11
334.1254669472498
 21
189.7281020001808
 31
0.0
  0
LINE
  5
2AC50
330
1F
100
AcDbEntity
  8
実線
100
AcDbLine
 10
333.0754669472499
 20
189.7281020001808
 30
0.0
 11
333.0754669472499
 21
194.6281020001807
 31
0.0
  0
LINE
  5
2AC51
330
1F
100
AcDbEntity
  8
実線
100
AcDbLine
 10
332.3754669472498
 20
189.7281020001808
 30
0.0
 11
332.3754669472498
 21
194.6281020001807
 31
0.0
  0
LINE
  5
2AC52
330
1F
100
AcDbEntity
  8
実線
100
AcDbLine
 10
333.0754669472499
 20
194.6281020001807
 30
0.0
 11
332.3754669472498
 21
194.6281020001807
 31
0.0
  0
LINE
  5
2AC53
330
1F
100
AcDbEntity
  8
実線
100
AcDbLine
 10
331.3254669472499
 20
189.7281020001808
 30
0.0
 11
332.3754669472498
 21
189.7281020001808
 31
0.0
  0
LINE
  5
2AC54
330
1F
100
AcDbEntity
  8
実線
100
AcDbLine
 10
331.3254669472499
 20
189.7281020001808
 30
0.0
 11
332.72546694725
 21
184.8281020001807
 31
0.0
  0
HATCH
  5
2AC55
330
1F
100
AcDbEntity
  8
細線
 62
     7
100
AcDbHatch
 10
0.0
 20
0.0
 30
0.0
210
0.0
220
0.0
230
1.0
  2
SOLID
 70
     1
 71
     0
 91
        1
 92
        7
 72
     0
 73
     1
 93
        3
 10
313.1254669472498
 20
190.0081020001807
 10
313.1254669472498
 20
188.6081020001807
 10
315.9254669472498
 20
189.3081020001807
 97
        0
 75
     0
 76
     1
 47
0.0714716932413627
 98
        1
 10
314.3019205811586
 20
189.4123069859079
450
        0
451
        0
460
0.0
461
0.0
452
        1
462
1.0
453
        2
463
0.0
 63
     5
421
      255
463
1.0
 63
     7
421
 16777215
470
LINEAR
1001
ACAD
1010
0.0
1020
0.0
1030
0.0
  0
LINE
  5
2AC56
330
1F
100
AcDbEntity
  8
実線
100
AcDbLine
 10
313.1254669472498
 20
188.6081020001807
 30
0.0
 11
315.9254669472498
 21
189.3081020001807
 31
0.0
  0
LINE
  5
2AC57
330
1F
100
AcDbEntity
  8
実線
100
AcDbLine
 10
313.1254669472498
 20
188.6081020001807
 30
0.0
 11
313.1254669472498
 21
190.0081020001807
 31
0.0
  0
LINE
  5
2AC58
330
1F
100
AcDbEntity
  8
実線
100
AcDbLine
 10
313.1254669472498
 20
190.0081020001807
 30
0.0
 11
315.9254669472498
 21
189.3081020001807
 31
0.0
  0
HATCH
  5
2AC59
330
1F
100
AcDbEntity
  8
細線
 62
     7
100
AcDbHatch
 10
0.0
 20
0.0
 30
0.0
210
0.0
220
0.0
230
1.0
  2
SOLID
 70
     1
 71
     0
 91
        4
 92
        7
 72
     0
 73
     1
 93
       11
 10
307.1894669472495
 20
195.3455306001808
 10
307.1894669472495
 20
196.1658900001807
 10
303.9974669472499
 20
193.9308278001808
 10
303.9974669472499
 20
194.6561020001809
 10
303.3254669472499
 20
194.6561020001809
 10
303.3254669472499
 20
191.8001020001808
 10
303.9974669472499
 20
191.8001020001808
 10
303.9974669472499
 20
192.5253762001807
 10
307.1894669472495
 20
190.2903140001807
 10
307.1894669472495
 20
191.1106734001807
 10
304.1654669472498
 20
193.2281020001808
 97
        0
 92
        7
 72
     0
 73
     1
 93
       11
 10
307.8614669472495
 20
196.1658900001807
 10
307.8614669472495
 20
195.3455306001808
 10
310.8854669472498
 20
193.2281020001808
 10
307.8614669472495
 20
191.1106734001807
 10
307.8614669472495
 20
190.2903140001807
 10
311.05346694725
 20
192.5253762001807
 10
311.05346694725
 20
191.8001020001808
 10
311.72546694725
 20
191.8001020001808
 10
311.72546694725
 20
194.6561020001809
 10
311.05346694725
 20
194.6561020001809
 10
311.05346694725
 20
193.9308278001808
 97
        0
 92
        7
 72
     1
 73
     1
 93
        4
 10
308.53346694725
 20
193.9001020001808
 42
1.0
 10
306.5174669472499
 20
193.9001020001808
 42
0.0
 10
306.5174669472499
 20
192.556102000181
 42
1.0
 10
308.53346694725
 20
192.556102000181
 42
0.0
 97
        0
 92
       22
 72
     1
 73
     1
 93
        4
 10
308.0294669472498
 20
192.5561020001808
 42
-1.0
 10
307.0214669472498
 20
192.5561020001808
 42
0.0
 10
307.0214669472498
 20
193.9001020001807
 42
-1.0
 10
308.0294669472498
 20
193.9001020001808
 42
0.0
 97
        0
 75
     0
 76
     1
 47
0.05013249737451
 98
        4
 10
305.5339043042422
 20
194.5069967281923
 10
309.4678696815529
 20
194.6473678535146
 10
308.3438795737497
 20
193.6647708791765
 10
308.3438795737497
 20
193.6647708791765
450
        0
451
        0
460
0.0
461
0.0
452
        1
462
1.0
453
        2
463
0.0
 63
     5
421
      255
463
1.0
 63
     7
421
 16777215
470
LINEAR
1001
ACAD
1010
0.0
1020
0.0
1030
0.0
  0
LINE
  5
2AC5A
330
1F
100
AcDbEntity
  8
実線
100
AcDbLine
 10
303.9974669472499
 20
194.6561020001809
 30
0.0
 11
303.9974669472499
 21
193.9308278001808
 31
0.0
  0
LINE
  5
2AC5B
330
1F
100
AcDbEntity
  8
実線
100
AcDbLine
 10
308.0294669472496
 20
193.9001020001808
 30
0.0
 11
308.0294669472496
 21
192.5561020001808
 31
0.0
  0
LINE
  5
2AC5C
330
1F
100
AcDbEntity
  8
実線
100
AcDbLine
 10
307.8614669472495
 20
191.1106734001807
 30
0.0
 11
307.8614669472495
 21
190.2903140001807
 31
0.0
  0
LINE
  5
2AC5D
330
1F
100
AcDbEntity
  8
実線
100
AcDbLine
 10
307.8614669472495
 20
196.1658900001807
 30
0.0
 11
307.8614669472495
 21
195.3455306001808
 31
0.0
  0
LINE
  5
2AC5E
330
1F
100
AcDbEntity
  8
実線
100
AcDbLine
 10
307.1894669472495
 20
191.1106734001807
 30
0.0
 11
307.1894669472495
 21
190.2903140001807
 31
0.0
  0
LINE
  5
2AC5F
330
1F
100
AcDbEntity
  8
実線
100
AcDbLine
 10
304.1654669472498
 20
193.2281020001808
 30
0.0
 11
307.1894669472495
 21
191.1106734001807
 31
0.0
  0
LINE
  5
2AC60
330
1F
100
AcDbEntity
  8
実線
100
AcDbLine
 10
311.05346694725
 20
192.5253762001807
 30
0.0
 11
307.8614669472495
 21
190.2903140001807
 31
0.0
  0
LINE
  5
2AC61
330
1F
100
AcDbEntity
  8
実線
100
AcDbLine
 10
310.8854669472498
 20
193.2281020001808
 30
0.0
 11
307.8614669472495
 21
191.1106734001807
 31
0.0
  0
LINE
  5
2AC62
330
1F
100
AcDbEntity
  8
実線
100
AcDbLine
 10
311.72546694725
 20
191.8001020001808
 30
0.0
 11
311.05346694725
 21
191.8001020001808
 31
0.0
  0
LINE
  5
2AC63
330
1F
100
AcDbEntity
  8
実線
100
AcDbLine
 10
311.05346694725
 20
193.9308278001808
 30
0.0
 11
311.05346694725
 21
194.6561020001809
 31
0.0
  0
LINE
  5
2AC64
330
1F
100
AcDbEntity
  8
実線
100
AcDbLine
 10
303.9974669472499
 20
192.5253762001807
 30
0.0
 11
303.9974669472499
 21
191.8001020001808
 31
0.0
  0
LINE
  5
2AC65
330
1F
100
AcDbEntity
  8
実線
100
AcDbLine
 10
303.3254669472499
 20
194.6561020001809
 30
0.0
 11
303.9974669472499
 21
194.6561020001809
 31
0.0
  0
LINE
  5
2AC66
330
1F
100
AcDbEntity
  8
実線
100
AcDbLine
 10
310.8854669472498
 20
193.2281020001808
 30
0.0
 11
307.8614669472495
 21
195.3455306001808
 31
0.0
  0
LINE
  5
2AC67
330
1F
100
AcDbEntity
  8
実線
100
AcDbLine
 10
311.05346694725
 20
193.9308278001808
 30
0.0
 11
307.8614669472495
 21
196.1658900001807
 31
0.0
  0
LINE
  5
2AC68
330
1F
100
AcDbEntity
  8
実線
100
AcDbLine
 10
307.0214669472498
 20
193.9001020001808
 30
0.0
 11
307.0214669472498
 21
192.5561020001808
 31
0.0
  0
LINE
  5
2AC69
330
1F
100
AcDbEntity
  8
実線
100
AcDbLine
 10
311.05346694725
 20
194.6561020001809
 30
0.0
 11
311.72546694725
 21
194.6561020001809
 31
0.0
  0
LINE
  5
2AC6A
330
1F
100
AcDbEntity
  8
実線
100
AcDbLine
 10
303.9974669472499
 20
191.8001020001808
 30
0.0
 11
303.3254669472499
 21
191.8001020001808
 31
0.0
  0
LINE
  5
2AC6B
330
1F
100
AcDbEntity
  8
実線
100
AcDbLine
 10
308.5334669472495
 20
193.9001020001808
 30
0.0
 11
308.5334669472495
 21
192.5561020001808
 31
0.0
  0
LINE
  5
2AC6C
330
1F
100
AcDbEntity
  8
実線
100
AcDbLine
 10
303.9974669472499
 20
193.9308278001808
 30
0.0
 11
307.1894669472495
 21
196.1658900001807
 31
0.0
  0
LINE
  5
2AC6D
330
1F
100
AcDbEntity
  8
実線
100
AcDbLine
 10
303.3254669472499
 20
194.6561020001809
 30
0.0
 11
303.3254669472499
 21
191.8001020001808
 31
0.0
  0
LINE
  5
2AC6E
330
1F
100
AcDbEntity
  8
実線
100
AcDbLine
 10
311.05346694725
 20
191.8001020001808
 30
0.0
 11
311.05346694725
 21
192.5253762001807
 31
0.0
  0
LINE
  5
2AC6F
330
1F
100
AcDbEntity
  8
実線
100
AcDbLine
 10
303.9974669472499
 20
192.5253762001807
 30
0.0
 11
307.1894669472495
 21
190.2903140001807
 31
0.0
  0
LINE
  5
2AC70
330
1F
100
AcDbEntity
  8
実線
100
AcDbLine
 10
304.1654669472498
 20
193.2281020001808
 30
0.0
 11
307.1894669472495
 21
195.3455306001808
 31
0.0
  0
LINE
  5
2AC71
330
1F
100
AcDbEntity
  8
実線
100
AcDbLine
 10
311.72546694725
 20
194.6561020001809
 30
0.0
 11
311.72546694725
 21
191.8001020001808
 31
0.0
  0
LINE
  5
2AC72
330
1F
100
AcDbEntity
  8
実線
100
AcDbLine
 10
306.5174669472494
 20
193.9001020001808
 30
0.0
 11
306.5174669472494
 21
192.5561020001808
 31
0.0
  0
LINE
  5
2AC73
330
1F
100
AcDbEntity
  8
実線
100
AcDbLine
 10
307.1894669472495
 20
196.1658900001807
 30
0.0
 11
307.1894669472495
 21
195.3455306001808
 31
0.0
  0
ARC
  5
2AC74
330
1F
100
AcDbEntity
  8
実線
100
AcDbCircle
 10
307.5254669472499
 20
193.9001020001808
 30
0.0
 40
1.008
100
AcDbArc
 50
0.0
 51
180.0
  0
ARC
  5
2AC75
330
1F
100
AcDbEntity
  8
実線
100
AcDbCircle
 10
307.5254669472499
 20
192.5561020001808
 30
0.0
 40
1.008
100
AcDbArc
 50
180.0
 51
0.0
  0
ARC
  5
2AC76
330
1F
100
AcDbEntity
  8
実線
100
AcDbCircle
 10
307.5254669472499
 20
193.9001020001808
 30
0.0
 40
0.504
100
AcDbArc
 50
0.0
 51
180.0
  0
ARC
  5
2AC77
330
1F
100
AcDbEntity
  8
実線
100
AcDbCircle
 10
307.5254669472499
 20
192.5561020001808
 30
0.0
 40
0.504
100
AcDbArc
 50
180.0
 51
0.0
  0
TEXT
  5
2AC78
330
1F
100
AcDbEntity
  8
実線
100
AcDbText
 10
304.72546694725
 20
183.4281020001808
 30
0.0
 40
3.5
  1
H
100
AcDbText
  0
TEXT
  5
2AC79
330
1F
100
AcDbEntity
  8
実線
100
AcDbText
 10
310.901220923188
 20
177.8281020001807
 30
0.0
 40
3.5
  1
     148
 41
0.7
  7
BIGFONT
100
AcDbText
  0
TEXT
  5
2AC7A
330
1F
100
AcDbEntity
  8
実線
100
AcDbText
 10
309.1588007472499
 20
177.8281020001807
 30
0.0
 40
3.5
  1
型承L
 41
0.7
  7
BIGFONT
100
AcDbText
  0
TEXT
  5
2AC7B
330
1F
100
AcDbEntity
  8
実線
100
AcDbText
 10
313.3729763342692
 20
177.8281020001807
 30
0.0
 40
3.5
  1
        号
 41
0.7
  7
BIGFONT
100
AcDbText
  0
TEXT
  5
2AC7C
330
1F
100
AcDbEntity
  8
実線
100
AcDbText
 10
314.8093639746821
 20
177.8281020001807
 30
0.0
 40
3.5
  1
         27
 41
0.7
  7
BIGFONT
100
AcDbText
  0
TEXT
  5
2AC7D
330
1F
100
AcDbEntity
  8
実線
100
AcDbText
 10
313.8254669472499
 20
173.6281020001807
 30
0.0
 40
2.911999999999999
  1
Q3=2.5
 41
0.8
100
AcDbText
  0
TEXT
  5
2AC7E
330
1F
100
AcDbEntity
  8
実線
100
AcDbText
 10
316.0654669472497
 20
169.4281020001808
 30
0.0
 40
2.911999999999999
  1
R=100
 41
0.8
100
AcDbText
  0
TEXT
  5
2AC7F
330
1F
100
AcDbEntity
  8
実線
100
AcDbText
 10
338.6623811565455
 20
186.1874987309363
 30
0.0
 40
2.799999999999999
  1
10L
 41
0.8
100
AcDbText
  0
LINE
  5
2AC80
330
1F
100
AcDbEntity
  8
実線
100
AcDbLine
 10
336.07867414725
 20
180.6145710001808
 30
0.0
 11
336.49012434725
 21
180.0482584001807
 31
0.0
  0
LINE
  5
2AC81
330
1F
100
AcDbEntity
  8
実線
100
AcDbLine
 10
333.0271963472501
 20
171.2230854001807
 30
0.0
 11
333.6929355472498
 21
171.4393966001807
 31
0.0
  0
LINE
  5
2AC82
330
1F
100
AcDbEntity
  8
実線
100
AcDbLine
 10
336.07867414725
 20
167.0230854001808
 30
0.0
 11
336.49012434725
 21
167.5893980001808
 31
0.0
  0
LINE
  5
2AC83
330
1F
100
AcDbEntity
  8
実線
100
AcDbLine
 10
341.0160709472498
 20
165.4188282001807
 30
0.0
 11
341.0160709472498
 21
166.1188282001808
 31
0.0
  0
LINE
  5
2AC84
330
1F
100
AcDbEntity
  8
実線
100
AcDbLine
 10
345.9534677472495
 20
167.0230854001808
 30
0.0
 11
345.5420175472495
 21
167.5893980001808
 31
0.0
  0
LINE
  5
2AC85
330
1F
100
AcDbEntity
  8
実線
100
AcDbLine
 10
349.0049455472495
 20
171.2230854001807
 30
0.0
 11
348.3392063472497
 21
171.4393966001807
 31
0.0
  0
LINE
  5
2AC86
330
1F
100
AcDbEntity
  8
実線
100
AcDbLine
 10
345.9534677472495
 20
180.6145710001808
 30
0.0
 11
345.5420175472495
 21
180.0482584001807
 31
0.0
  0
LINE
  5
2AC87
330
1F
100
AcDbEntity
  8
実線
100
AcDbLine
 10
333.0271963472501
 20
176.4145710001808
 30
0.0
 11
333.6929355472498
 21
176.1982598001807
 31
0.0
  0
LINE
  5
2AC88
330
1F
100
AcDbEntity
  8
実線
100
AcDbLine
 10
349.0049455472495
 20
176.4145710001808
 30
0.0
 11
348.3392063472497
 21
176.1982598001807
 31
0.0
  0
ARC
  5
2AC89
330
1F
100
AcDbEntity
  8
実線
100
AcDbCircle
 10
341.0160709472498
 20
173.8188282001808
 30
0.0
 40
8.399999999999998
100
AcDbArc
 50
91.77334006125553
 51
88.22665993874446
  0
LINE
  5
2AC8A
330
1F
100
AcDbEntity
  8
実線
100
AcDbLine
 10
344.7118623472497
 20
179.9971024001809
 30
0.0
 11
344.0020147472501
 21
179.1415470001807
 31
0.0
  0
LINE
  5
2AC8B
330
1F
100
AcDbEntity
  8
実線
100
AcDbLine
 10
344.7118623472497
 20
176.9171206001808
 30
0.0
 11
344.7118623472497
 21
179.9971024001809
 31
0.0
  0
LINE
  5
2AC8C
330
1F
100
AcDbEntity
  8
実線
100
AcDbLine
 10
347.9250961472498
 20
175.9577524001807
 30
0.0
 11
347.7476279472496
 21
175.7524326001808
 31
0.0
  0
LINE
  5
2AC8D
330
1F
100
AcDbEntity
  8
実線
100
AcDbLine
 10
346.4757881472497
 20
177.0186444001807
 30
0.0
 11
346.8307231472497
 21
177.1555252001808
 31
0.0
  0
LINE
  5
2AC8E
330
1F
100
AcDbEntity
  8
実線
100
AcDbLine
 10
346.0025629472498
 20
174.3835406001808
 30
0.0
 11
345.9138183472498
 21
174.0755434001808
 31
0.0
  0
LINE
  5
2AC8F
330
1F
100
AcDbEntity
  8
実線
100
AcDbLine
 10
346.0025629472498
 20
176.6079866001807
 30
0.0
 11
346.1800311472493
 21
176.8133064001808
 31
0.0
  0
LINE
  5
2AC90
330
1F
100
AcDbEntity
  8
実線
100
AcDbLine
 10
346.4757881472497
 20
175.0337580001808
 30
0.0
 11
346.1800311472493
 21
174.6915392001808
 31
0.0
  0
LINE
  5
2AC91
330
1F
100
AcDbEntity
  8
実線
100
AcDbLine
 10
347.5701611472498
 20
177.0186444001807
 30
0.0
 11
347.8363725472495
 21
176.8133064001808
 31
0.0
  0
LINE
  5
2AC92
330
1F
100
AcDbEntity
  8
実線
100
AcDbLine
 10
347.7476279472496
 20
175.7524326001808
 30
0.0
 11
346.8307231472497
 21
175.3417552001808
 31
0.0
  0
LINE
  5
2AC93
330
1F
100
AcDbEntity
  8
実線
100
AcDbLine
 10
346.8307231472497
 20
177.1555252001808
 30
0.0
 11
347.1856581472498
 21
177.1555252001808
 31
0.0
  0
LINE
  5
2AC94
330
1F
100
AcDbEntity
  8
実線
100
AcDbLine
 10
345.9138183472498
 20
174.0755434001808
 30
0.0
 11
348.01381834725
 21
174.0755434001808
 31
0.0
  0
LINE
  5
2AC95
330
1F
100
AcDbEntity
  8
実線
100
AcDbLine
 10
348.01381834725
 20
176.1973106001808
 30
0.0
 11
347.9250961472498
 21
175.9577524001807
 31
0.0
  0
LINE
  5
2AC96
330
1F
100
AcDbEntity
  8
実線
100
AcDbLine
 10
346.1800311472493
 20
176.8133064001808
 30
0.0
 11
346.4757881472497
 21
177.0186444001807
 31
0.0
  0
LINE
  5
2AC97
330
1F
100
AcDbEntity
  8
実線
100
AcDbLine
 10
346.1800311472493
 20
174.6915392001808
 30
0.0
 11
346.0025629472498
 21
174.3835406001808
 31
0.0
  0
LINE
  5
2AC98
330
1F
100
AcDbEntity
  8
実線
100
AcDbLine
 10
347.8363725472495
 20
176.8133064001808
 30
0.0
 11
348.01381834725
 21
176.5053092001808
 31
0.0
  0
LINE
  5
2AC99
330
1F
100
AcDbEntity
  8
実線
100
AcDbLine
 10
345.9138183472498
 20
176.4026486001808
 30
0.0
 11
346.0025629472498
 21
176.6079866001807
 31
0.0
  0
LINE
  5
2AC9A
330
1F
100
AcDbEntity
  8
実線
100
AcDbLine
 10
348.01381834725
 20
176.5053092001808
 30
0.0
 11
348.01381834725
 21
176.1973106001808
 31
0.0
  0
LINE
  5
2AC9B
330
1F
100
AcDbEntity
  8
実線
100
AcDbLine
 10
347.1856581472498
 20
177.1555252001808
 30
0.0
 11
347.5701611472498
 21
177.0186444001807
 31
0.0
  0
LINE
  5
2AC9C
330
1F
100
AcDbEntity
  8
実線
100
AcDbLine
 10
346.8307231472497
 20
175.3417552001808
 30
0.0
 11
346.4757881472497
 21
175.0337580001808
 31
0.0
  0
LINE
  5
2AC9D
330
1F
100
AcDbEntity
  8
実線
100
AcDbLine
 10
347.37373974725
 20
171.5101442001808
 30
0.0
 11
347.7286761472499
 21
171.3048062001808
 31
0.0
  0
LINE
  5
2AC9E
330
1F
100
AcDbEntity
  8
実線
100
AcDbLine
 10
345.9836111472496
 20
172.5710362001807
 30
0.0
 11
346.1610779472498
 21
172.7763560001808
 31
0.0
  0
LINE
  5
2AC9F
330
1F
100
AcDbEntity
  8
実線
100
AcDbLine
 10
347.9061429472497
 20
170.3465916001808
 30
0.0
 11
347.7286761472499
 21
170.1412522001808
 31
0.0
  0
LINE
  5
2ACA0
330
1F
100
AcDbEntity
  8
実線
100
AcDbLine
 10
347.7286761472499
 20
171.6128034001808
 30
0.0
 11
347.37373974725
 21
171.5101442001808
 31
0.0
  0
LINE
  5
2ACA1
330
1F
100
AcDbEntity
  8
実線
100
AcDbLine
 10
347.1667063472496
 20
173.0159142001807
 30
0.0
 11
347.5512079472496
 21
172.8790348001807
 31
0.0
  0
LINE
  5
2ACA2
330
1F
100
AcDbEntity
  8
実線
100
AcDbLine
 10
347.7286761472499
 20
172.7763560001808
 30
0.0
 11
347.9061429472497
 21
172.5710362001807
 31
0.0
  0
LINE
  5
2ACA3
330
1F
100
AcDbEntity
  8
実線
100
AcDbLine
 10
347.9948651472496
 20
170.8941470001808
 30
0.0
 11
347.9948651472496
 21
170.5519296001807
 31
0.0
  0
LINE
  5
2ACA4
330
1F
100
AcDbEntity
  8
実線
100
AcDbLine
 10
347.9061429472497
 20
172.5710362001807
 30
0.0
 11
347.9948651472496
 21
172.3656982001807
 31
0.0
  0
LINE
  5
2ACA5
330
1F
100
AcDbEntity
  8
実線
100
AcDbLine
 10
346.3385461472494
 20
170.0385930001807
 30
0.0
 11
346.0723333472497
 21
170.2439310001807
 31
0.0
  0
LINE
  5
2ACA6
330
1F
100
AcDbEntity
  8
実線
100
AcDbLine
 10
347.1667063472496
 20
169.9359324001808
 30
0.0
 11
346.7230477472497
 21
169.9359324001808
 31
0.0
  0
LINE
  5
2ACA7
330
1F
100
AcDbEntity
  8
実線
100
AcDbLine
 10
347.7286761472499
 20
171.3048062001808
 30
0.0
 11
347.9061429472497
 21
171.0994850001807
 31
0.0
  0
LINE
  5
2ACA8
330
1F
100
AcDbEntity
  8
実線
100
AcDbLine
 10
347.9948651472496
 20
172.0576996001807
 30
0.0
 11
347.9061429472497
 21
171.8181414001808
 31
0.0
  0
LINE
  5
2ACA9
330
1F
100
AcDbEntity
  8
実線
100
AcDbLine
 10
347.7286761472499
 20
170.1412522001808
 30
0.0
 11
347.5512079472496
 21
170.0385930001807
 31
0.0
  0
LINE
  5
2ACAA
330
1F
100
AcDbEntity
  8
実線
100
AcDbLine
 10
347.37373974725
 20
171.5101442001808
 30
0.0
 11
346.4568349472497
 21
171.5101442001808
 31
0.0
  0
LINE
  5
2ACAB
330
1F
100
AcDbEntity
  8
実線
100
AcDbLine
 10
347.5512079472496
 20
172.8790348001807
 30
0.0
 11
347.7286761472499
 21
172.7763560001808
 31
0.0
  0
LINE
  5
2ACAC
330
1F
100
AcDbEntity
  8
実線
100
AcDbLine
 10
345.8948651472497
 20
172.3656982001807
 30
0.0
 11
345.9836111472496
 21
172.5710362001807
 31
0.0
  0
LINE
  5
2ACAD
330
1F
100
AcDbEntity
  8
実線
100
AcDbLine
 10
346.0723333472497
 20
170.2439310001807
 30
0.0
 11
345.8948651472497
 21
170.4492508001808
 31
0.0
  0
LINE
  5
2ACAE
330
1F
100
AcDbEntity
  8
実線
100
AcDbLine
 10
347.9948651472496
 20
170.5519296001807
 30
0.0
 11
347.9061429472497
 21
170.3465916001808
 31
0.0
  0
LINE
  5
2ACAF
330
1F
100
AcDbEntity
  8
実線
100
AcDbLine
 10
347.9061429472497
 20
171.8181414001808
 30
0.0
 11
347.7286761472499
 21
171.6128034001808
 31
0.0
  0
LINE
  5
2ACB0
330
1F
100
AcDbEntity
  8
実線
100
AcDbLine
 10
346.7230477472497
 20
173.0159142001807
 30
0.0
 11
347.1667063472496
 21
173.0159142001807
 31
0.0
  0
LINE
  5
2ACB1
330
1F
100
AcDbEntity
  8
実線
100
AcDbLine
 10
346.7230477472497
 20
169.9359324001808
 30
0.0
 11
346.3385461472494
 21
170.0385930001807
 31
0.0
  0
LINE
  5
2ACB2
330
1F
100
AcDbEntity
  8
実線
100
AcDbLine
 10
347.9948651472496
 20
172.3656982001807
 30
0.0
 11
347.9948651472496
 21
172.0576996001807
 31
0.0
  0
LINE
  5
2ACB3
330
1F
100
AcDbEntity
  8
実線
100
AcDbLine
 10
346.1610779472498
 20
172.7763560001808
 30
0.0
 11
346.3385461472494
 21
172.8790348001807
 31
0.0
  0
LINE
  5
2ACB4
330
1F
100
AcDbEntity
  8
実線
100
AcDbLine
 10
346.3385461472494
 20
172.8790348001807
 30
0.0
 11
346.7230477472497
 21
173.0159142001807
 31
0.0
  0
LINE
  5
2ACB5
330
1F
100
AcDbEntity
  8
実線
100
AcDbLine
 10
347.9061429472497
 20
171.0994850001807
 30
0.0
 11
347.9948651472496
 21
170.8941470001808
 31
0.0
  0
LINE
  5
2ACB6
330
1F
100
AcDbEntity
  8
実線
100
AcDbLine
 10
347.5512079472496
 20
170.0385930001807
 30
0.0
 11
347.1667063472496
 21
169.9359324001808
 31
0.0
  0
LINE
  5
2ACB7
330
1F
100
AcDbEntity
  8
実線
100
AcDbLine
 10
345.1698583472494
 20
170.6053368001808
 30
0.0
 11
343.4247709472497
 21
168.2440114001808
 31
0.0
  0
LINE
  5
2ACB8
330
1F
100
AcDbEntity
  8
実線
100
AcDbLine
 10
343.4247709472497
 20
168.2440114001808
 30
0.0
 11
345.6135155472495
 21
168.2440114001808
 31
0.0
  0
LINE
  5
2ACB9
330
1F
100
AcDbEntity
  8
実線
100
AcDbLine
 10
345.1698583472494
 20
167.5253368001808
 30
0.0
 11
345.1698583472494
 21
170.6053368001808
 31
0.0
  0
LINE
  5
2ACBA
330
1F
100
AcDbEntity
  8
実線
100
AcDbLine
 10
340.2322613472497
 20
168.3183948001808
 30
0.0
 11
339.9660709472498
 21
168.1130568001808
 31
0.0
  0
LINE
  5
2ACBB
330
1F
100
AcDbEntity
  8
実線
100
AcDbLine
 10
342.0660709472497
 20
167.8050596001808
 30
0.0
 11
341.9773263472498
 21
168.0103976001808
 31
0.0
  0
LINE
  5
2ACBC
330
1F
100
AcDbEntity
  8
実線
100
AcDbLine
 10
340.5280407472496
 20
166.6415070001808
 30
0.0
 11
340.7942311472498
 21
166.5388464001807
 31
0.0
  0
LINE
  5
2ACBD
330
1F
100
AcDbEntity
  8
実線
100
AcDbLine
 10
339.9660709472498
 20
168.1130568001808
 30
0.0
 11
339.9660709472498
 21
169.6188282001808
 31
0.0
  0
LINE
  5
2ACBE
330
1F
100
AcDbEntity
  8
実線
100
AcDbLine
 10
340.7942311472498
 20
168.5579348001809
 30
0.0
 11
340.4097281472498
 21
168.4210554001809
 31
0.0
  0
LINE
  5
2ACBF
330
1F
100
AcDbEntity
  8
実線
100
AcDbLine
 10
339.9660709472498
 20
167.0521648001807
 30
0.0
 11
340.1435391472496
 21
166.8468450001808
 31
0.0
  0
LINE
  5
2ACC0
330
1F
100
AcDbEntity
  8
実線
100
AcDbLine
 10
341.9773263472498
 20
167.0521648001807
 30
0.0
 11
342.0660709472497
 21
167.3601634001807
 31
0.0
  0
LINE
  5
2ACC1
330
1F
100
AcDbEntity
  8
実線
100
AcDbLine
 10
341.5336677472501
 20
168.4210554001809
 30
0.0
 11
341.1491661472498
 21
168.5579348001809
 31
0.0
  0
LINE
  5
2ACC2
330
1F
100
AcDbEntity
  8
実線
100
AcDbLine
 10
341.5336677472501
 20
166.6415070001808
 30
0.0
 11
341.7998581472496
 21
166.8468450001808
 31
0.0
  0
LINE
  5
2ACC3
330
1F
100
AcDbEntity
  8
実線
100
AcDbLine
 10
341.9773263472498
 20
168.0103976001808
 30
0.0
 11
341.7998581472496
 21
168.2157174001809
 31
0.0
  0
LINE
  5
2ACC4
330
1F
100
AcDbEntity
  8
実線
100
AcDbLine
 10
340.7942311472498
 20
166.5388464001807
 30
0.0
 11
341.1491661472498
 21
166.5388464001807
 31
0.0
  0
LINE
  5
2ACC5
330
1F
100
AcDbEntity
  8
実線
100
AcDbLine
 10
342.0660709472497
 20
167.3601634001807
 30
0.0
 11
342.0660709472497
 21
167.8050596001808
 31
0.0
  0
LINE
  5
2ACC6
330
1F
100
AcDbEntity
  8
実線
100
AcDbLine
 10
340.1435391472496
 20
166.8468450001808
 30
0.0
 11
340.5280407472496
 21
166.6415070001808
 31
0.0
  0
LINE
  5
2ACC7
330
1F
100
AcDbEntity
  8
実線
100
AcDbLine
 10
341.1491661472498
 20
168.5579348001809
 30
0.0
 11
340.7942311472498
 21
168.5579348001809
 31
0.0
  0
LINE
  5
2ACC8
330
1F
100
AcDbEntity
  8
実線
100
AcDbLine
 10
341.7998581472496
 20
166.8468450001808
 30
0.0
 11
341.9773263472498
 21
167.0521648001807
 31
0.0
  0
LINE
  5
2ACC9
330
1F
100
AcDbEntity
  8
実線
100
AcDbLine
 10
339.9660709472498
 20
169.6188282001808
 30
0.0
 11
342.0660709472497
 21
169.6188282001808
 31
0.0
  0
LINE
  5
2ACCA
330
1F
100
AcDbEntity
  8
実線
100
AcDbLine
 10
341.7998581472496
 20
168.2157174001809
 30
0.0
 11
341.5336677472501
 21
168.4210554001809
 31
0.0
  0
LINE
  5
2ACCB
330
1F
100
AcDbEntity
  8
実線
100
AcDbLine
 10
341.1491661472498
 20
166.5388464001807
 30
0.0
 11
341.5336677472501
 21
166.6415070001808
 31
0.0
  0
LINE
  5
2ACCC
330
1F
100
AcDbEntity
  8
実線
100
AcDbLine
 10
340.4097281472498
 20
168.4210554001809
 30
0.0
 11
340.2322613472497
 21
168.3183948001808
 31
0.0
  0
LINE
  5
2ACCD
330
1F
100
AcDbEntity
  8
実線
100
AcDbLine
 10
337.3594207472495
 20
169.5706724001809
 30
0.0
 11
337.0932303472498
 21
169.4337930001808
 31
0.0
  0
LINE
  5
2ACCE
330
1F
100
AcDbEntity
  8
実線
100
AcDbLine
 10
338.4537937472496
 20
168.0649010001808
 30
0.0
 11
338.5425159472495
 21
168.3728996001807
 31
0.0
  0
LINE
  5
2ACCF
330
1F
100
AcDbEntity
  8
実線
100
AcDbLine
 10
336.6199827472501
 20
168.0649010001808
 30
0.0
 11
336.7974509472497
 21
167.8595812001808
 31
0.0
  0
LINE
  5
2ACD0
330
1F
100
AcDbEntity
  8
実線
100
AcDbLine
 10
337.4481429472496
 20
170.6315658001808
 30
0.0
 11
337.0932303472498
 21
170.4946668001807
 31
0.0
  0
LINE
  5
2ACD1
330
1F
100
AcDbEntity
  8
実線
100
AcDbLine
 10
338.0101127472499
 20
169.4337930001808
 30
0.0
 11
337.7143557472495
 21
169.5706724001809
 31
0.0
  0
LINE
  5
2ACD2
330
1F
100
AcDbEntity
  8
実線
100
AcDbLine
 10
338.0988573472496
 20
167.6542432001807
 30
0.0
 11
338.2763255472501
 21
167.7569038001808
 31
0.0
  0
LINE
  5
2ACD3
330
1F
100
AcDbEntity
  8
実線
100
AcDbLine
 10
336.4425159472496
 20
168.7151184001807
 30
0.0
 11
336.5312381472495
 21
168.2702390001807
 31
0.0
  0
LINE
  5
2ACD4
330
1F
100
AcDbEntity
  8
実線
100
AcDbLine
 10
337.7143557472495
 20
169.5706724001809
 30
0.0
 11
337.3594207472495
 21
169.5706724001809
 31
0.0
  0
LINE
  5
2ACD5
330
1F
100
AcDbEntity
  8
実線
100
AcDbLine
 10
336.6199827472501
 20
169.0231156001807
 30
0.0
 11
336.4425159472496
 21
168.7151184001807
 31
0.0
  0
LINE
  5
2ACD6
330
1F
100
AcDbEntity
  8
実線
100
AcDbLine
 10
338.4537937472496
 20
169.0231156001807
 30
0.0
 11
338.2763255472501
 21
169.2284536001807
 31
0.0
  0
LINE
  5
2ACD7
330
1F
100
AcDbEntity
  8
実線
100
AcDbLine
 10
337.3594207472495
 20
167.5515826001808
 30
0.0
 11
337.7143557472495
 21
167.5515826001808
 31
0.0
  0
LINE
  5
2ACD8
330
1F
100
AcDbEntity
  8
実線
100
AcDbLine
 10
338.5425159472495
 20
169.9813484001808
 30
0.0
 11
338.36504774725
 21
170.2893470001808
 31
0.0
  0
LINE
  5
2ACD9
330
1F
100
AcDbEntity
  8
実線
100
AcDbLine
 10
338.36504774725
 20
170.2893470001808
 30
0.0
 11
338.0988573472496
 21
170.4946668001807
 31
0.0
  0
LINE
  5
2ACDA
330
1F
100
AcDbEntity
  8
実線
100
AcDbLine
 10
337.0932303472498
 20
169.4337930001808
 30
0.0
 11
336.7974509472497
 21
169.2284536001807
 31
0.0
  0
LINE
  5
2ACDB
330
1F
100
AcDbEntity
  8
実線
100
AcDbLine
 10
338.5425159472495
 20
168.3728996001807
 30
0.0
 11
338.5425159472495
 21
168.7151184001807
 31
0.0
  0
LINE
  5
2ACDC
330
1F
100
AcDbEntity
  8
実線
100
AcDbLine
 10
336.7974509472497
 20
167.8595812001808
 30
0.0
 11
337.0932303472498
 21
167.6542432001807
 31
0.0
  0
LINE
  5
2ACDD
330
1F
100
AcDbEntity
  8
実線
100
AcDbLine
 10
338.0988573472496
 20
170.4946668001807
 30
0.0
 11
337.7143557472495
 21
170.6315658001808
 31
0.0
  0
LINE
  5
2ACDE
330
1F
100
AcDbEntity
  8
実線
100
AcDbLine
 10
338.2763255472501
 20
167.7569038001808
 30
0.0
 11
338.4537937472496
 21
168.0649010001808
 31
0.0
  0
LINE
  5
2ACDF
330
1F
100
AcDbEntity
  8
実線
100
AcDbLine
 10
336.5312381472495
 20
168.2702390001807
 30
0.0
 11
336.6199827472501
 21
168.0649010001808
 31
0.0
  0
LINE
  5
2ACE0
330
1F
100
AcDbEntity
  8
実線
100
AcDbLine
 10
337.7143557472495
 20
170.6315658001808
 30
0.0
 11
337.4481429472496
 21
170.6315658001808
 31
0.0
  0
LINE
  5
2ACE1
330
1F
100
AcDbEntity
  8
実線
100
AcDbLine
 10
338.2763255472501
 20
169.2284536001807
 30
0.0
 11
338.0101127472499
 21
169.4337930001808
 31
0.0
  0
LINE
  5
2ACE2
330
1F
100
AcDbEntity
  8
実線
100
AcDbLine
 10
337.7143557472495
 20
167.5515826001808
 30
0.0
 11
338.0988573472496
 21
167.6542432001807
 31
0.0
  0
LINE
  5
2ACE3
330
1F
100
AcDbEntity
  8
実線
100
AcDbLine
 10
336.7974509472497
 20
170.2893470001808
 30
0.0
 11
336.6199827472501
 21
169.9813484001808
 31
0.0
  0
LINE
  5
2ACE4
330
1F
100
AcDbEntity
  8
実線
100
AcDbLine
 10
336.7974509472497
 20
169.2284536001807
 30
0.0
 11
336.6199827472501
 21
169.0231156001807
 31
0.0
  0
LINE
  5
2ACE5
330
1F
100
AcDbEntity
  8
実線
100
AcDbLine
 10
336.6199827472501
 20
169.9813484001808
 30
0.0
 11
336.4425159472496
 21
169.3311324001808
 31
0.0
  0
LINE
  5
2ACE6
330
1F
100
AcDbEntity
  8
実線
100
AcDbLine
 10
337.0932303472498
 20
167.6542432001807
 30
0.0
 11
337.3594207472495
 21
167.5515826001808
 31
0.0
  0
LINE
  5
2ACE7
330
1F
100
AcDbEntity
  8
実線
100
AcDbLine
 10
338.5425159472495
 20
168.7151184001807
 30
0.0
 11
338.4537937472496
 21
169.0231156001807
 31
0.0
  0
LINE
  5
2ACE8
330
1F
100
AcDbEntity
  8
実線
100
AcDbLine
 10
337.0932303472498
 20
170.4946668001807
 30
0.0
 11
336.7974509472497
 21
170.2893470001808
 31
0.0
  0
LINE
  5
2ACE9
330
1F
100
AcDbEntity
  8
実線
100
AcDbLine
 10
336.4425159472496
 20
169.3311324001808
 30
0.0
 11
336.4425159472496
 21
168.7151184001807
 31
0.0
  0
LINE
  5
2ACEA
330
1F
100
AcDbEntity
  8
実線
100
AcDbLine
 10
336.1567493472496
 20
172.9393636001807
 30
0.0
 11
334.8257539472497
 21
169.8593636001808
 31
0.0
  0
LINE
  5
2ACEB
330
1F
100
AcDbEntity
  8
実線
100
AcDbLine
 10
334.0567493472495
 20
172.9393636001807
 30
0.0
 11
336.1567493472496
 21
172.9393636001807
 31
0.0
  0
LINE
  5
2ACEC
330
1F
100
AcDbEntity
  8
実線
100
AcDbLine
 10
336.0557939472496
 20
176.5814888001807
 30
0.0
 11
335.9670493472497
 21
176.7868268001807
 31
0.0
  0
LINE
  5
2ACED
330
1F
100
AcDbEntity
  8
実線
100
AcDbLine
 10
335.7008589472496
 20
175.6232742001807
 30
0.0
 11
335.4050795472497
 21
175.7259334001808
 31
0.0
  0
LINE
  5
2ACEE
330
1F
100
AcDbEntity
  8
実線
100
AcDbLine
 10
335.3163573472498
 20
174.0490442001808
 30
0.0
 11
335.7008589472496
 21
174.1517230001807
 31
0.0
  0
LINE
  5
2ACEF
330
1F
100
AcDbEntity
  8
実線
100
AcDbLine
 10
334.4881747472495
 20
175.6232742001807
 30
0.0
 11
334.2219843472499
 21
175.4179348001807
 31
0.0
  0
LINE
  5
2ACF0
330
1F
100
AcDbEntity
  8
実線
100
AcDbLine
 10
334.13326214725
 20
176.2734902001807
 30
0.0
 11
334.2219843472499
 21
176.0681522001807
 31
0.0
  0
LINE
  5
2ACF1
330
1F
100
AcDbEntity
  8
実線
100
AcDbLine
 10
335.7895811472495
 20
175.8285940001808
 30
0.0
 11
336.0557939472496
 21
176.2734902001807
 31
0.0
  0
LINE
  5
2ACF2
330
1F
100
AcDbEntity
  8
実線
100
AcDbLine
 10
336.1445161472496
 20
175.1099376001808
 30
0.0
 11
335.9670493472497
 21
175.4179348001807
 31
0.0
  0
LINE
  5
2ACF3
330
1F
100
AcDbEntity
  8
実線
100
AcDbLine
 10
334.4881747472495
 20
174.1517230001807
 30
0.0
 11
334.8726987472496
 21
174.0490442001808
 31
0.0
  0
LINE
  5
2ACF4
330
1F
100
AcDbEntity
  8
実線
100
AcDbLine
 10
335.3163573472498
 20
177.1290442001807
 30
0.0
 11
334.8726987472496
 21
177.1290442001807
 31
0.0
  0
LINE
  5
2ACF5
330
1F
100
AcDbEntity
  8
実線
100
AcDbLine
 10
334.7839541472497
 20
175.7259334001808
 30
0.0
 11
335.4050795472497
 21
175.7259334001808
 31
0.0
  0
LINE
  5
2ACF6
330
1F
100
AcDbEntity
  8
実線
100
AcDbLine
 10
334.2219843472499
 20
176.7868268001807
 30
0.0
 11
334.13326214725
 21
176.5814888001807
 31
0.0
  0
LINE
  5
2ACF7
330
1F
100
AcDbEntity
  8
実線
100
AcDbLine
 10
336.0557939472496
 20
174.4597216001807
 30
0.0
 11
336.1445161472496
 21
174.7677188001808
 31
0.0
  0
LINE
  5
2ACF8
330
1F
100
AcDbEntity
  8
実線
100
AcDbLine
 10
334.13326214725
 20
174.4597216001807
 30
0.0
 11
334.3107065472498
 21
174.2543822001807
 31
0.0
  0
LINE
  5
2ACF9
330
1F
100
AcDbEntity
  8
実線
100
AcDbLine
 10
335.9670493472497
 20
176.7868268001807
 30
0.0
 11
335.7895811472495
 21
176.9921466001808
 31
0.0
  0
LINE
  5
2ACFA
330
1F
100
AcDbEntity
  8
実線
100
AcDbLine
 10
334.2219843472499
 20
176.0681522001807
 30
0.0
 11
334.3994525472494
 21
175.8285940001808
 31
0.0
  0
LINE
  5
2ACFB
330
1F
100
AcDbEntity
  8
実線
100
AcDbLine
 10
334.3107065472498
 20
174.2543822001807
 30
0.0
 11
334.4881747472495
 21
174.1517230001807
 31
0.0
  0
LINE
  5
2ACFC
330
1F
100
AcDbEntity
  8
実線
100
AcDbLine
 10
334.8726987472496
 20
177.1290442001807
 30
0.0
 11
334.3994525472494
 21
176.9921466001808
 31
0.0
  0
LINE
  5
2ACFD
330
1F
100
AcDbEntity
  8
実線
100
AcDbLine
 10
335.7008589472496
 20
174.1517230001807
 30
0.0
 11
335.8783257472501
 21
174.2543822001807
 31
0.0
  0
LINE
  5
2ACFE
330
1F
100
AcDbEntity
  8
実線
100
AcDbLine
 10
334.2219843472499
 20
175.4179348001807
 30
0.0
 11
334.0445161472496
 21
175.1099376001808
 31
0.0
  0
LINE
  5
2ACFF
330
1F
100
AcDbEntity
  8
実線
100
AcDbLine
 10
336.0557939472496
 20
176.2734902001807
 30
0.0
 11
336.0557939472496
 21
176.5814888001807
 31
0.0
  0
LINE
  5
2AD00
330
1F
100
AcDbEntity
  8
実線
100
AcDbLine
 10
335.9670493472497
 20
175.4179348001807
 30
0.0
 11
335.7008589472496
 21
175.6232742001807
 31
0.0
  0
LINE
  5
2AD01
330
1F
100
AcDbEntity
  8
実線
100
AcDbLine
 10
334.8726987472496
 20
174.0490442001808
 30
0.0
 11
335.3163573472498
 21
174.0490442001808
 31
0.0
  0
LINE
  5
2AD02
330
1F
100
AcDbEntity
  8
実線
100
AcDbLine
 10
334.7839541472497
 20
175.7259334001808
 30
0.0
 11
334.4881747472495
 21
175.6232742001807
 31
0.0
  0
LINE
  5
2AD03
330
1F
100
AcDbEntity
  8
実線
100
AcDbLine
 10
335.4050795472497
 20
175.7259334001808
 30
0.0
 11
335.7895811472495
 21
175.8285940001808
 31
0.0
  0
LINE
  5
2AD04
330
1F
100
AcDbEntity
  8
実線
100
AcDbLine
 10
334.13326214725
 20
176.5814888001807
 30
0.0
 11
334.13326214725
 21
176.2734902001807
 31
0.0
  0
LINE
  5
2AD05
330
1F
100
AcDbEntity
  8
実線
100
AcDbLine
 10
336.1445161472496
 20
174.7677188001808
 30
0.0
 11
336.1445161472496
 21
175.1099376001808
 31
0.0
  0
LINE
  5
2AD06
330
1F
100
AcDbEntity
  8
実線
100
AcDbLine
 10
335.7895811472495
 20
176.9921466001808
 30
0.0
 11
335.3163573472498
 21
177.1290442001807
 31
0.0
  0
LINE
  5
2AD07
330
1F
100
AcDbEntity
  8
実線
100
AcDbLine
 10
334.3994525472494
 20
175.8285940001808
 30
0.0
 11
334.7839541472497
 21
175.7259334001808
 31
0.0
  0
LINE
  5
2AD08
330
1F
100
AcDbEntity
  8
実線
100
AcDbLine
 10
334.0445161472496
 20
175.1099376001808
 30
0.0
 11
334.0445161472496
 21
174.7677188001808
 31
0.0
  0
LINE
  5
2AD09
330
1F
100
AcDbEntity
  8
実線
100
AcDbLine
 10
334.3994525472494
 20
176.9921466001808
 30
0.0
 11
334.2219843472499
 21
176.7868268001807
 31
0.0
  0
LINE
  5
2AD0A
330
1F
100
AcDbEntity
  8
実線
100
AcDbLine
 10
335.8783257472501
 20
174.2543822001807
 30
0.0
 11
336.0557939472496
 21
174.4597216001807
 31
0.0
  0
LINE
  5
2AD0B
330
1F
100
AcDbEntity
  8
実線
100
AcDbLine
 10
334.0445161472496
 20
174.7677188001808
 30
0.0
 11
334.13326214725
 21
174.4597216001807
 31
0.0
  0
LINE
  5
2AD0C
330
1F
100
AcDbEntity
  8
実線
100
AcDbLine
 10
336.9960535472494
 20
178.0656820001808
 30
0.0
 11
336.70027414725
 21
178.2710200001807
 31
0.0
  0
LINE
  5
2AD0D
330
1F
100
AcDbEntity
  8
実線
100
AcDbLine
 10
338.1791487472497
 20
177.2101266001807
 30
0.0
 11
337.9129583472495
 21
177.0047886001807
 31
0.0
  0
LINE
  5
2AD0E
330
1F
100
AcDbEntity
  8
実線
100
AcDbLine
 10
338.3566155472499
 20
177.5181252001807
 30
0.0
 11
338.1791487472497
 21
177.2101266001807
 31
0.0
  0
LINE
  5
2AD0F
330
1F
100
AcDbEntity
  8
実線
100
AcDbLine
 10
338.5340837472497
 20
178.7843384001808
 30
0.0
 11
338.5340837472497
 21
178.1683412001807
 31
0.0
  0
LINE
  5
2AD10
330
1F
100
AcDbEntity
  8
実線
100
AcDbLine
 10
338.4453391472498
 20
179.2292346001808
 30
0.0
 11
338.5340837472497
 21
178.7843384001808
 31
0.0
  0
LINE
  5
2AD11
330
1F
100
AcDbEntity
  8
実線
100
AcDbLine
 10
338.3566155472499
 20
179.4345544001808
 30
0.0
 11
338.4453391472498
 21
179.2292346001808
 31
0.0
  0
LINE
  5
2AD12
330
1F
100
AcDbEntity
  8
実線
100
AcDbLine
 10
337.6171789472498
 20
179.9821112001808
 30
0.0
 11
337.9129583472495
 21
179.8452304001807
 31
0.0
  0
LINE
  5
2AD13
330
1F
100
AcDbEntity
  8
実線
100
AcDbLine
 10
336.8777409472498
 20
179.8452304001807
 30
0.0
 11
337.2622439472498
 21
179.9821112001808
 31
0.0
  0
LINE
  5
2AD14
330
1F
100
AcDbEntity
  8
実線
100
AcDbLine
 10
336.70027414725
 20
179.7425530001808
 30
0.0
 11
336.8777409472498
 21
179.8452304001807
 31
0.0
  0
LINE
  5
2AD15
330
1F
100
AcDbEntity
  8
実線
100
AcDbLine
 10
336.5228059472497
 20
179.4345544001808
 30
0.0
 11
336.70027414725
 21
179.7425530001808
 31
0.0
  0
LINE
  5
2AD16
330
1F
100
AcDbEntity
  8
実線
100
AcDbLine
 10
336.4340837472496
 20
179.1265558001807
 30
0.0
 11
336.5228059472497
 21
179.4345544001808
 31
0.0
  0
LINE
  5
2AD17
330
1F
100
AcDbEntity
  8
実線
100
AcDbLine
 10
337.6171789472498
 20
177.9630032001807
 30
0.0
 11
337.2622439472498
 21
177.9630032001807
 31
0.0
  0
LINE
  5
2AD18
330
1F
100
AcDbEntity
  8
実線
100
AcDbLine
 10
337.9129583472495
 20
179.8452304001807
 30
0.0
 11
338.1791487472497
 21
179.6398924001807
 31
0.0
  0
LINE
  5
2AD19
330
1F
100
AcDbEntity
  8
実線
100
AcDbLine
 10
337.2622439472498
 20
179.9821112001808
 30
0.0
 11
337.6171789472498
 21
179.9821112001808
 31
0.0
  0
LINE
  5
2AD1A
330
1F
100
AcDbEntity
  8
実線
100
AcDbLine
 10
337.2622439472498
 20
176.9021294001808
 30
0.0
 11
336.8777409472498
 21
177.0047886001807
 31
0.0
  0
LINE
  5
2AD1B
330
1F
100
AcDbEntity
  8
実線
100
AcDbLine
 10
338.1791487472497
 20
178.2710200001807
 30
0.0
 11
337.9129583472495
 21
178.0656820001808
 31
0.0
  0
LINE
  5
2AD1C
330
1F
100
AcDbEntity
  8
実線
100
AcDbLine
 10
338.5340837472497
 20
178.1683412001807
 30
0.0
 11
338.3566155472499
 21
177.5181252001807
 31
0.0
  0
LINE
  5
2AD1D
330
1F
100
AcDbEntity
  8
実線
100
AcDbLine
 10
338.5340837472497
 20
178.7843384001808
 30
0.0
 11
338.3566155472499
 21
178.4763398001807
 31
0.0
  0
LINE
  5
2AD1E
330
1F
100
AcDbEntity
  8
実線
100
AcDbLine
 10
337.9129583472495
 20
178.0656820001808
 30
0.0
 11
337.6171789472498
 21
177.9630032001807
 31
0.0
  0
LINE
  5
2AD1F
330
1F
100
AcDbEntity
  8
実線
100
AcDbLine
 10
337.2622439472498
 20
177.9630032001807
 30
0.0
 11
336.9960535472494
 21
178.0656820001808
 31
0.0
  0
LINE
  5
2AD20
330
1F
100
AcDbEntity
  8
実線
100
AcDbLine
 10
338.1791487472497
 20
179.6398924001807
 30
0.0
 11
338.3566155472499
 21
179.4345544001808
 31
0.0
  0
LINE
  5
2AD21
330
1F
100
AcDbEntity
  8
実線
100
AcDbLine
 10
337.9129583472495
 20
177.0047886001807
 30
0.0
 11
337.5284553472497
 21
176.9021294001808
 31
0.0
  0
LINE
  5
2AD22
330
1F
100
AcDbEntity
  8
実線
100
AcDbLine
 10
336.8777409472498
 20
177.0047886001807
 30
0.0
 11
336.6115505472494
 21
177.2101266001807
 31
0.0
  0
LINE
  5
2AD23
330
1F
100
AcDbEntity
  8
実線
100
AcDbLine
 10
336.70027414725
 20
178.2710200001807
 30
0.0
 11
336.5228059472497
 21
178.4763398001807
 31
0.0
  0
LINE
  5
2AD24
330
1F
100
AcDbEntity
  8
実線
100
AcDbLine
 10
336.6115505472494
 20
177.2101266001807
 30
0.0
 11
336.4340837472496
 21
177.5181252001807
 31
0.0
  0
LINE
  5
2AD25
330
1F
100
AcDbEntity
  8
実線
100
AcDbLine
 10
337.5284553472497
 20
176.9021294001808
 30
0.0
 11
337.2622439472498
 21
176.9021294001808
 31
0.0
  0
LINE
  5
2AD26
330
1F
100
AcDbEntity
  8
実線
100
AcDbLine
 10
336.4340837472496
 20
178.7843384001808
 30
0.0
 11
336.4340837472496
 21
179.1265558001807
 31
0.0
  0
LINE
  5
2AD27
330
1F
100
AcDbEntity
  8
実線
100
AcDbLine
 10
336.5228059472497
 20
178.4763398001807
 30
0.0
 11
336.4340837472496
 21
178.7843384001808
 31
0.0
  0
LINE
  5
2AD28
330
1F
100
AcDbEntity
  8
実線
100
AcDbLine
 10
338.3566155472499
 20
178.4763398001807
 30
0.0
 11
338.1791487472497
 21
178.2710200001807
 31
0.0
  0
LINE
  5
2AD29
330
1F
100
AcDbEntity
  8
実線
100
AcDbLine
 10
349.38479354725
 20
195.4789730001807
 30
0.0
 11
349.7962437472499
 21
194.9126604001808
 31
0.0
  0
LINE
  5
2AD2A
330
1F
100
AcDbEntity
  8
実線
100
AcDbLine
 10
346.33331574725
 20
186.0874874001808
 30
0.0
 11
346.99905494725
 21
186.3037986001808
 31
0.0
  0
LINE
  5
2AD2B
330
1F
100
AcDbEntity
  8
実線
100
AcDbLine
 10
349.38479354725
 20
181.8874874001808
 30
0.0
 11
349.7962437472499
 21
182.4538000001807
 31
0.0
  0
LINE
  5
2AD2C
330
1F
100
AcDbEntity
  8
実線
100
AcDbLine
 10
354.3221903472497
 20
180.2832302001808
 30
0.0
 11
354.3221903472497
 21
180.9832302001807
 31
0.0
  0
LINE
  5
2AD2D
330
1F
100
AcDbEntity
  8
実線
100
AcDbLine
 10
359.2595871472495
 20
181.8874874001808
 30
0.0
 11
358.8481369472495
 21
182.4538000001807
 31
0.0
  0
LINE
  5
2AD2E
330
1F
100
AcDbEntity
  8
実線
100
AcDbLine
 10
362.3110649472496
 20
186.0874874001808
 30
0.0
 11
361.6453257472497
 21
186.3037986001808
 31
0.0
  0
LINE
  5
2AD2F
330
1F
100
AcDbEntity
  8
実線
100
AcDbLine
 10
359.2595871472495
 20
195.4789730001807
 30
0.0
 11
358.8481369472495
 21
194.9126604001808
 31
0.0
  0
LINE
  5
2AD30
330
1F
100
AcDbEntity
  8
実線
100
AcDbLine
 10
346.33331574725
 20
191.2789730001808
 30
0.0
 11
346.99905494725
 21
191.0626618001807
 31
0.0
  0
LINE
  5
2AD31
330
1F
100
AcDbEntity
  8
実線
100
AcDbLine
 10
362.3110649472496
 20
191.2789730001808
 30
0.0
 11
361.6453257472497
 21
191.0626618001807
 31
0.0
  0
ARC
  5
2AD32
330
1F
100
AcDbEntity
  8
実線
100
AcDbCircle
 10
354.3221903472497
 20
188.6832302001808
 30
0.0
 40
8.399999999999998
100
AcDbArc
 50
91.77334006125553
 51
88.22665993874446
  0
LINE
  5
2AD33
330
1F
100
AcDbEntity
  8
実線
100
AcDbLine
 10
358.0179817472497
 20
194.8615044001808
 30
0.0
 11
357.30813414725
 21
194.0059490001808
 31
0.0
  0
LINE
  5
2AD34
330
1F
100
AcDbEntity
  8
実線
100
AcDbLine
 10
358.0179817472497
 20
191.7815226001808
 30
0.0
 11
358.0179817472497
 21
194.8615044001808
 31
0.0
  0
LINE
  5
2AD35
330
1F
100
AcDbEntity
  8
実線
100
AcDbLine
 10
361.23121554725
 20
190.8221544001808
 30
0.0
 11
361.0537473472496
 21
190.6168346001808
 31
0.0
  0
LINE
  5
2AD36
330
1F
100
AcDbEntity
  8
実線
100
AcDbLine
 10
359.7819075472496
 20
191.8830464001807
 30
0.0
 11
360.1368425472497
 21
192.0199272001807
 31
0.0
  0
LINE
  5
2AD37
330
1F
100
AcDbEntity
  8
実線
100
AcDbLine
 10
359.3086823472497
 20
189.2479426001807
 30
0.0
 11
359.2199377472498
 21
188.9399454001808
 31
0.0
  0
LINE
  5
2AD38
330
1F
100
AcDbEntity
  8
実線
100
AcDbLine
 10
359.3086823472497
 20
191.4723886001808
 30
0.0
 11
359.4861505472497
 21
191.6777084001808
 31
0.0
  0
LINE
  5
2AD39
330
1F
100
AcDbEntity
  8
実線
100
AcDbLine
 10
359.7819075472496
 20
189.8981600001808
 30
0.0
 11
359.4861505472497
 21
189.5559412001808
 31
0.0
  0
LINE
  5
2AD3A
330
1F
100
AcDbEntity
  8
実線
100
AcDbLine
 10
360.8762805472498
 20
191.8830464001807
 30
0.0
 11
361.1424919472495
 21
191.6777084001808
 31
0.0
  0
LINE
  5
2AD3B
330
1F
100
AcDbEntity
  8
実線
100
AcDbLine
 10
361.0537473472496
 20
190.6168346001808
 30
0.0
 11
360.1368425472497
 21
190.2061572001807
 31
0.0
  0
LINE
  5
2AD3C
330
1F
100
AcDbEntity
  8
実線
100
AcDbLine
 10
360.1368425472497
 20
192.0199272001807
 30
0.0
 11
360.49177754725
 21
192.0199272001807
 31
0.0
  0
LINE
  5
2AD3D
330
1F
100
AcDbEntity
  8
実線
100
AcDbLine
 10
359.2199377472498
 20
188.9399454001808
 30
0.0
 11
361.3199377472499
 21
188.9399454001808
 31
0.0
  0
LINE
  5
2AD3E
330
1F
100
AcDbEntity
  8
実線
100
AcDbLine
 10
361.3199377472499
 20
191.0617126001807
 30
0.0
 11
361.23121554725
 21
190.8221544001808
 31
0.0
  0
LINE
  5
2AD3F
330
1F
100
AcDbEntity
  8
実線
100
AcDbLine
 10
359.4861505472497
 20
191.6777084001808
 30
0.0
 11
359.7819075472496
 21
191.8830464001807
 31
0.0
  0
LINE
  5
2AD40
330
1F
100
AcDbEntity
  8
実線
100
AcDbLine
 10
359.4861505472497
 20
189.5559412001808
 30
0.0
 11
359.3086823472497
 21
189.2479426001807
 31
0.0
  0
LINE
  5
2AD41
330
1F
100
AcDbEntity
  8
実線
100
AcDbLine
 10
361.1424919472495
 20
191.6777084001808
 30
0.0
 11
361.3199377472499
 21
191.3697112001807
 31
0.0
  0
LINE
  5
2AD42
330
1F
100
AcDbEntity
  8
実線
100
AcDbLine
 10
359.2199377472498
 20
191.2670506001808
 30
0.0
 11
359.3086823472497
 21
191.4723886001808
 31
0.0
  0
LINE
  5
2AD43
330
1F
100
AcDbEntity
  8
実線
100
AcDbLine
 10
361.3199377472499
 20
191.3697112001807
 30
0.0
 11
361.3199377472499
 21
191.0617126001807
 31
0.0
  0
LINE
  5
2AD44
330
1F
100
AcDbEntity
  8
実線
100
AcDbLine
 10
360.49177754725
 20
192.0199272001807
 30
0.0
 11
360.8762805472498
 21
191.8830464001807
 31
0.0
  0
LINE
  5
2AD45
330
1F
100
AcDbEntity
  8
実線
100
AcDbLine
 10
360.1368425472497
 20
190.2061572001807
 30
0.0
 11
359.7819075472496
 21
189.8981600001808
 31
0.0
  0
LINE
  5
2AD46
330
1F
100
AcDbEntity
  8
実線
100
AcDbLine
 10
360.67985914725
 20
186.3745462001807
 30
0.0
 11
361.0347955472498
 21
186.1692082001808
 31
0.0
  0
LINE
  5
2AD47
330
1F
100
AcDbEntity
  8
実線
100
AcDbLine
 10
359.28973054725
 20
187.4354382001808
 30
0.0
 11
359.4671973472498
 21
187.6407580001807
 31
0.0
  0
LINE
  5
2AD48
330
1F
100
AcDbEntity
  8
実線
100
AcDbLine
 10
361.2122623472497
 20
185.2109936001808
 30
0.0
 11
361.0347955472498
 21
185.0056542001807
 31
0.0
  0
LINE
  5
2AD49
330
1F
100
AcDbEntity
  8
実線
100
AcDbLine
 10
361.0347955472498
 20
186.4772054001807
 30
0.0
 11
360.67985914725
 21
186.3745462001807
 31
0.0
  0
LINE
  5
2AD4A
330
1F
100
AcDbEntity
  8
実線
100
AcDbLine
 10
360.4728257472495
 20
187.8803162001808
 30
0.0
 11
360.8573273472496
 21
187.7434368001807
 31
0.0
  0
LINE
  5
2AD4B
330
1F
100
AcDbEntity
  8
実線
100
AcDbLine
 10
361.0347955472498
 20
187.6407580001807
 30
0.0
 11
361.2122623472497
 21
187.4354382001808
 31
0.0
  0
LINE
  5
2AD4C
330
1F
100
AcDbEntity
  8
実線
100
AcDbLine
 10
361.3009845472498
 20
185.7585490001808
 30
0.0
 11
361.3009845472498
 21
185.4163316001808
 31
0.0
  0
LINE
  5
2AD4D
330
1F
100
AcDbEntity
  8
実線
100
AcDbLine
 10
361.2122623472497
 20
187.4354382001808
 30
0.0
 11
361.3009845472498
 21
187.2301002001807
 31
0.0
  0
LINE
  5
2AD4E
330
1F
100
AcDbEntity
  8
実線
100
AcDbLine
 10
359.6446655472496
 20
184.9029950001809
 30
0.0
 11
359.3784527472499
 21
185.1083330001809
 31
0.0
  0
LINE
  5
2AD4F
330
1F
100
AcDbEntity
  8
実線
100
AcDbLine
 10
360.4728257472495
 20
184.8003344001808
 30
0.0
 11
360.0291671472496
 21
184.8003344001808
 31
0.0
  0
LINE
  5
2AD50
330
1F
100
AcDbEntity
  8
実線
100
AcDbLine
 10
361.0347955472498
 20
186.1692082001808
 30
0.0
 11
361.2122623472497
 21
185.9638870001808
 31
0.0
  0
LINE
  5
2AD51
330
1F
100
AcDbEntity
  8
実線
100
AcDbLine
 10
361.3009845472498
 20
186.9221016001808
 30
0.0
 11
361.2122623472497
 21
186.6825434001807
 31
0.0
  0
LINE
  5
2AD52
330
1F
100
AcDbEntity
  8
実線
100
AcDbLine
 10
361.0347955472498
 20
185.0056542001807
 30
0.0
 11
360.8573273472496
 21
184.9029950001809
 31
0.0
  0
LINE
  5
2AD53
330
1F
100
AcDbEntity
  8
実線
100
AcDbLine
 10
360.67985914725
 20
186.3745462001807
 30
0.0
 11
359.7629543472497
 21
186.3745462001807
 31
0.0
  0
LINE
  5
2AD54
330
1F
100
AcDbEntity
  8
実線
100
AcDbLine
 10
360.8573273472496
 20
187.7434368001807
 30
0.0
 11
361.0347955472498
 21
187.6407580001807
 31
0.0
  0
LINE
  5
2AD55
330
1F
100
AcDbEntity
  8
実線
100
AcDbLine
 10
359.2009845472496
 20
187.2301002001807
 30
0.0
 11
359.28973054725
 21
187.4354382001808
 31
0.0
  0
LINE
  5
2AD56
330
1F
100
AcDbEntity
  8
実線
100
AcDbLine
 10
359.3784527472499
 20
185.1083330001809
 30
0.0
 11
359.2009845472496
 21
185.3136528001807
 31
0.0
  0
LINE
  5
2AD57
330
1F
100
AcDbEntity
  8
実線
100
AcDbLine
 10
361.3009845472498
 20
185.4163316001808
 30
0.0
 11
361.2122623472497
 21
185.2109936001808
 31
0.0
  0
LINE
  5
2AD58
330
1F
100
AcDbEntity
  8
実線
100
AcDbLine
 10
361.2122623472497
 20
186.6825434001807
 30
0.0
 11
361.0347955472498
 21
186.4772054001807
 31
0.0
  0
LINE
  5
2AD59
330
1F
100
AcDbEntity
  8
実線
100
AcDbLine
 10
360.0291671472496
 20
187.8803162001808
 30
0.0
 11
360.4728257472495
 21
187.8803162001808
 31
0.0
  0
LINE
  5
2AD5A
330
1F
100
AcDbEntity
  8
実線
100
AcDbLine
 10
360.0291671472496
 20
184.8003344001808
 30
0.0
 11
359.6446655472496
 21
184.9029950001809
 31
0.0
  0
LINE
  5
2AD5B
330
1F
100
AcDbEntity
  8
実線
100
AcDbLine
 10
361.3009845472498
 20
187.2301002001807
 30
0.0
 11
361.3009845472498
 21
186.9221016001808
 31
0.0
  0
LINE
  5
2AD5C
330
1F
100
AcDbEntity
  8
実線
100
AcDbLine
 10
359.4671973472498
 20
187.6407580001807
 30
0.0
 11
359.6446655472496
 21
187.7434368001807
 31
0.0
  0
LINE
  5
2AD5D
330
1F
100
AcDbEntity
  8
実線
100
AcDbLine
 10
359.6446655472496
 20
187.7434368001807
 30
0.0
 11
360.0291671472496
 21
187.8803162001808
 31
0.0
  0
LINE
  5
2AD5E
330
1F
100
AcDbEntity
  8
実線
100
AcDbLine
 10
361.2122623472497
 20
185.9638870001808
 30
0.0
 11
361.3009845472498
 21
185.7585490001808
 31
0.0
  0
LINE
  5
2AD5F
330
1F
100
AcDbEntity
  8
実線
100
AcDbLine
 10
360.8573273472496
 20
184.9029950001809
 30
0.0
 11
360.4728257472495
 21
184.8003344001808
 31
0.0
  0
LINE
  5
2AD60
330
1F
100
AcDbEntity
  8
実線
100
AcDbLine
 10
358.4759777472498
 20
185.4697388001808
 30
0.0
 11
356.7308903472497
 21
183.1084134001807
 31
0.0
  0
LINE
  5
2AD61
330
1F
100
AcDbEntity
  8
実線
100
AcDbLine
 10
356.7308903472497
 20
183.1084134001807
 30
0.0
 11
358.9196349472495
 21
183.1084134001807
 31
0.0
  0
LINE
  5
2AD62
330
1F
100
AcDbEntity
  8
実線
100
AcDbLine
 10
358.4759777472498
 20
182.3897388001808
 30
0.0
 11
358.4759777472498
 21
185.4697388001808
 31
0.0
  0
LINE
  5
2AD63
330
1F
100
AcDbEntity
  8
実線
100
AcDbLine
 10
353.5383807472497
 20
183.1827968001807
 30
0.0
 11
353.2721903472498
 21
182.9774588001808
 31
0.0
  0
LINE
  5
2AD64
330
1F
100
AcDbEntity
  8
実線
100
AcDbLine
 10
355.3721903472497
 20
182.6694616001807
 30
0.0
 11
355.28344574725
 21
182.8747996001807
 31
0.0
  0
LINE
  5
2AD65
330
1F
100
AcDbEntity
  8
実線
100
AcDbLine
 10
353.8341601472496
 20
181.5059090001807
 30
0.0
 11
354.1003505472497
 21
181.4032484001807
 31
0.0
  0
LINE
  5
2AD66
330
1F
100
AcDbEntity
  8
実線
100
AcDbLine
 10
353.2721903472498
 20
182.9774588001808
 30
0.0
 11
353.2721903472498
 21
184.4832302001807
 31
0.0
  0
LINE
  5
2AD67
330
1F
100
AcDbEntity
  8
実線
100
AcDbLine
 10
354.1003505472497
 20
183.4223368001808
 30
0.0
 11
353.7158475472497
 21
183.2854574001808
 31
0.0
  0
LINE
  5
2AD68
330
1F
100
AcDbEntity
  8
実線
100
AcDbLine
 10
353.2721903472498
 20
181.9165668001808
 30
0.0
 11
353.4496585472498
 21
181.7112470001808
 31
0.0
  0
LINE
  5
2AD69
330
1F
100
AcDbEntity
  8
実線
100
AcDbLine
 10
355.28344574725
 20
181.9165668001808
 30
0.0
 11
355.3721903472497
 21
182.2245654001808
 31
0.0
  0
LINE
  5
2AD6A
330
1F
100
AcDbEntity
  8
実線
100
AcDbLine
 10
354.83978714725
 20
183.2854574001808
 30
0.0
 11
354.4552855472498
 21
183.4223368001808
 31
0.0
  0
LINE
  5
2AD6B
330
1F
100
AcDbEntity
  8
実線
100
AcDbLine
 10
354.83978714725
 20
181.5059090001807
 30
0.0
 11
355.1059775472495
 21
181.7112470001808
 31
0.0
  0
LINE
  5
2AD6C
330
1F
100
AcDbEntity
  8
実線
100
AcDbLine
 10
355.28344574725
 20
182.8747996001807
 30
0.0
 11
355.1059775472495
 21
183.0801194001808
 31
0.0
  0
LINE
  5
2AD6D
330
1F
100
AcDbEntity
  8
実線
100
AcDbLine
 10
354.1003505472497
 20
181.4032484001807
 30
0.0
 11
354.4552855472498
 21
181.4032484001807
 31
0.0
  0
LINE
  5
2AD6E
330
1F
100
AcDbEntity
  8
実線
100
AcDbLine
 10
355.3721903472497
 20
182.2245654001808
 30
0.0
 11
355.3721903472497
 21
182.6694616001807
 31
0.0
  0
LINE
  5
2AD6F
330
1F
100
AcDbEntity
  8
実線
100
AcDbLine
 10
353.4496585472498
 20
181.7112470001808
 30
0.0
 11
353.8341601472496
 21
181.5059090001807
 31
0.0
  0
LINE
  5
2AD70
330
1F
100
AcDbEntity
  8
実線
100
AcDbLine
 10
354.4552855472498
 20
183.4223368001808
 30
0.0
 11
354.1003505472497
 21
183.4223368001808
 31
0.0
  0
LINE
  5
2AD71
330
1F
100
AcDbEntity
  8
実線
100
AcDbLine
 10
355.1059775472495
 20
181.7112470001808
 30
0.0
 11
355.28344574725
 21
181.9165668001808
 31
0.0
  0
LINE
  5
2AD72
330
1F
100
AcDbEntity
  8
実線
100
AcDbLine
 10
353.2721903472498
 20
184.4832302001807
 30
0.0
 11
355.3721903472497
 21
184.4832302001807
 31
0.0
  0
LINE
  5
2AD73
330
1F
100
AcDbEntity
  8
実線
100
AcDbLine
 10
355.1059775472495
 20
183.0801194001808
 30
0.0
 11
354.83978714725
 21
183.2854574001808
 31
0.0
  0
LINE
  5
2AD74
330
1F
100
AcDbEntity
  8
実線
100
AcDbLine
 10
354.4552855472498
 20
181.4032484001807
 30
0.0
 11
354.83978714725
 21
181.5059090001807
 31
0.0
  0
LINE
  5
2AD75
330
1F
100
AcDbEntity
  8
実線
100
AcDbLine
 10
353.7158475472497
 20
183.2854574001808
 30
0.0
 11
353.5383807472497
 21
183.1827968001807
 31
0.0
  0
LINE
  5
2AD76
330
1F
100
AcDbEntity
  8
実線
100
AcDbLine
 10
350.6655401472494
 20
184.4350744001808
 30
0.0
 11
350.3993497472497
 21
184.2981950001808
 31
0.0
  0
LINE
  5
2AD77
330
1F
100
AcDbEntity
  8
実線
100
AcDbLine
 10
351.7599131472496
 20
182.9293030001807
 30
0.0
 11
351.8486353472495
 21
183.2373016001808
 31
0.0
  0
LINE
  5
2AD78
330
1F
100
AcDbEntity
  8
実線
100
AcDbLine
 10
349.92610214725
 20
182.9293030001807
 30
0.0
 11
350.1035703472496
 21
182.7239832001808
 31
0.0
  0
LINE
  5
2AD79
330
1F
100
AcDbEntity
  8
実線
100
AcDbLine
 10
350.7542623472496
 20
185.4959678001808
 30
0.0
 11
350.3993497472497
 21
185.3590688001808
 31
0.0
  0
LINE
  5
2AD7A
330
1F
100
AcDbEntity
  8
実線
100
AcDbLine
 10
351.3162321472498
 20
184.2981950001808
 30
0.0
 11
351.0204751472495
 21
184.4350744001808
 31
0.0
  0
LINE
  5
2AD7B
330
1F
100
AcDbEntity
  8
実線
100
AcDbLine
 10
351.4049767472497
 20
182.5186452001808
 30
0.0
 11
351.58244494725
 21
182.6213058001808
 31
0.0
  0
LINE
  5
2AD7C
330
1F
100
AcDbEntity
  8
実線
100
AcDbLine
 10
349.7486353472496
 20
183.5795204001808
 30
0.0
 11
349.8373575472494
 21
183.1346410001808
 31
0.0
  0
LINE
  5
2AD7D
330
1F
100
AcDbEntity
  8
実線
100
AcDbLine
 10
351.0204751472495
 20
184.4350744001808
 30
0.0
 11
350.6655401472494
 21
184.4350744001808
 31
0.0
  0
LINE
  5
2AD7E
330
1F
100
AcDbEntity
  8
実線
100
AcDbLine
 10
349.92610214725
 20
183.8875176001809
 30
0.0
 11
349.7486353472496
 21
183.5795204001808
 31
0.0
  0
LINE
  5
2AD7F
330
1F
100
AcDbEntity
  8
実線
100
AcDbLine
 10
351.7599131472496
 20
183.8875176001809
 30
0.0
 11
351.58244494725
 21
184.0928556001808
 31
0.0
  0
LINE
  5
2AD80
330
1F
100
AcDbEntity
  8
実線
100
AcDbLine
 10
350.6655401472494
 20
182.4159846001807
 30
0.0
 11
351.0204751472495
 21
182.4159846001807
 31
0.0
  0
LINE
  5
2AD81
330
1F
100
AcDbEntity
  8
実線
100
AcDbLine
 10
351.8486353472495
 20
184.8457504001808
 30
0.0
 11
351.6711671472499
 21
185.1537490001808
 31
0.0
  0
LINE
  5
2AD82
330
1F
100
AcDbEntity
  8
実線
100
AcDbLine
 10
351.6711671472499
 20
185.1537490001808
 30
0.0
 11
351.4049767472497
 21
185.3590688001808
 31
0.0
  0
LINE
  5
2AD83
330
1F
100
AcDbEntity
  8
実線
100
AcDbLine
 10
350.3993497472497
 20
184.2981950001808
 30
0.0
 11
350.1035703472496
 21
184.0928556001808
 31
0.0
  0
LINE
  5
2AD84
330
1F
100
AcDbEntity
  8
実線
100
AcDbLine
 10
351.8486353472495
 20
183.2373016001808
 30
0.0
 11
351.8486353472495
 21
183.5795204001808
 31
0.0
  0
LINE
  5
2AD85
330
1F
100
AcDbEntity
  8
実線
100
AcDbLine
 10
350.1035703472496
 20
182.7239832001808
 30
0.0
 11
350.3993497472497
 21
182.5186452001808
 31
0.0
  0
LINE
  5
2AD86
330
1F
100
AcDbEntity
  8
実線
100
AcDbLine
 10
351.4049767472497
 20
185.3590688001808
 30
0.0
 11
351.0204751472495
 21
185.4959678001808
 31
0.0
  0
LINE
  5
2AD87
330
1F
100
AcDbEntity
  8
実線
100
AcDbLine
 10
351.58244494725
 20
182.6213058001808
 30
0.0
 11
351.7599131472496
 21
182.9293030001807
 31
0.0
  0
LINE
  5
2AD88
330
1F
100
AcDbEntity
  8
実線
100
AcDbLine
 10
349.8373575472494
 20
183.1346410001808
 30
0.0
 11
349.92610214725
 21
182.9293030001807
 31
0.0
  0
LINE
  5
2AD89
330
1F
100
AcDbEntity
  8
実線
100
AcDbLine
 10
351.0204751472495
 20
185.4959678001808
 30
0.0
 11
350.7542623472496
 21
185.4959678001808
 31
0.0
  0
LINE
  5
2AD8A
330
1F
100
AcDbEntity
  8
実線
100
AcDbLine
 10
351.58244494725
 20
184.0928556001808
 30
0.0
 11
351.3162321472498
 21
184.2981950001808
 31
0.0
  0
LINE
  5
2AD8B
330
1F
100
AcDbEntity
  8
実線
100
AcDbLine
 10
351.0204751472495
 20
182.4159846001807
 30
0.0
 11
351.4049767472497
 21
182.5186452001808
 31
0.0
  0
LINE
  5
2AD8C
330
1F
100
AcDbEntity
  8
実線
100
AcDbLine
 10
350.1035703472496
 20
185.1537490001808
 30
0.0
 11
349.92610214725
 21
184.8457504001808
 31
0.0
  0
LINE
  5
2AD8D
330
1F
100
AcDbEntity
  8
実線
100
AcDbLine
 10
350.1035703472496
 20
184.0928556001808
 30
0.0
 11
349.92610214725
 21
183.8875176001809
 31
0.0
  0
LINE
  5
2AD8E
330
1F
100
AcDbEntity
  8
実線
100
AcDbLine
 10
349.92610214725
 20
184.8457504001808
 30
0.0
 11
349.7486353472496
 21
184.1955344001808
 31
0.0
  0
LINE
  5
2AD8F
330
1F
100
AcDbEntity
  8
実線
100
AcDbLine
 10
350.3993497472497
 20
182.5186452001808
 30
0.0
 11
350.6655401472494
 21
182.4159846001807
 31
0.0
  0
LINE
  5
2AD90
330
1F
100
AcDbEntity
  8
実線
100
AcDbLine
 10
351.8486353472495
 20
183.5795204001808
 30
0.0
 11
351.7599131472496
 21
183.8875176001809
 31
0.0
  0
LINE
  5
2AD91
330
1F
100
AcDbEntity
  8
実線
100
AcDbLine
 10
350.3993497472497
 20
185.3590688001808
 30
0.0
 11
350.1035703472496
 21
185.1537490001808
 31
0.0
  0
LINE
  5
2AD92
330
1F
100
AcDbEntity
  8
実線
100
AcDbLine
 10
349.7486353472496
 20
184.1955344001808
 30
0.0
 11
349.7486353472496
 21
183.5795204001808
 31
0.0
  0
LINE
  5
2AD93
330
1F
100
AcDbEntity
  8
実線
100
AcDbLine
 10
349.4628687472495
 20
187.8037656001809
 30
0.0
 11
348.1318733472497
 21
184.7237656001807
 31
0.0
  0
LINE
  5
2AD94
330
1F
100
AcDbEntity
  8
実線
100
AcDbLine
 10
347.3628687472496
 20
187.8037656001809
 30
0.0
 11
349.4628687472495
 21
187.8037656001809
 31
0.0
  0
LINE
  5
2AD95
330
1F
100
AcDbEntity
  8
実線
100
AcDbLine
 10
349.3619133472496
 20
191.4458908001808
 30
0.0
 11
349.2731687472497
 21
191.6512288001809
 31
0.0
  0
LINE
  5
2AD96
330
1F
100
AcDbEntity
  8
実線
100
AcDbLine
 10
349.0069783472495
 20
190.4876762001807
 30
0.0
 11
348.7111989472496
 21
190.5903354001807
 31
0.0
  0
LINE
  5
2AD97
330
1F
100
AcDbEntity
  8
実線
100
AcDbLine
 10
348.6224767472497
 20
188.9134462001807
 30
0.0
 11
349.0069783472495
 21
189.0161250001808
 31
0.0
  0
LINE
  5
2AD98
330
1F
100
AcDbEntity
  8
実線
100
AcDbLine
 10
347.7942941472495
 20
190.4876762001807
 30
0.0
 11
347.5281037472498
 21
190.2823368001807
 31
0.0
  0
LINE
  5
2AD99
330
1F
100
AcDbEntity
  8
実線
100
AcDbLine
 10
347.4393815472499
 20
191.1378922001809
 30
0.0
 11
347.5281037472498
 21
190.9325542001807
 31
0.0
  0
LINE
  5
2AD9A
330
1F
100
AcDbEntity
  8
実線
100
AcDbLine
 10
349.0957005472496
 20
190.6929960001807
 30
0.0
 11
349.3619133472496
 21
191.1378922001809
 31
0.0
  0
LINE
  5
2AD9B
330
1F
100
AcDbEntity
  8
実線
100
AcDbLine
 10
349.4506355472495
 20
189.9743396001808
 30
0.0
 11
349.2731687472497
 21
190.2823368001807
 31
0.0
  0
LINE
  5
2AD9C
330
1F
100
AcDbEntity
  8
実線
100
AcDbLine
 10
347.7942941472495
 20
189.0161250001808
 30
0.0
 11
348.1788181472496
 21
188.9134462001807
 31
0.0
  0
LINE
  5
2AD9D
330
1F
100
AcDbEntity
  8
実線
100
AcDbLine
 10
348.6224767472497
 20
191.9934462001809
 30
0.0
 11
348.1788181472496
 21
191.9934462001809
 31
0.0
  0
LINE
  5
2AD9E
330
1F
100
AcDbEntity
  8
実線
100
AcDbLine
 10
348.0900735472496
 20
190.5903354001807
 30
0.0
 11
348.7111989472496
 21
190.5903354001807
 31
0.0
  0
LINE
  5
2AD9F
330
1F
100
AcDbEntity
  8
実線
100
AcDbLine
 10
347.5281037472498
 20
191.6512288001809
 30
0.0
 11
347.4393815472499
 21
191.4458908001808
 31
0.0
  0
LINE
  5
2ADA0
330
1F
100
AcDbEntity
  8
実線
100
AcDbLine
 10
349.3619133472496
 20
189.3241236001809
 30
0.0
 11
349.4506355472495
 21
189.6321208001807
 31
0.0
  0
LINE
  5
2ADA1
330
1F
100
AcDbEntity
  8
実線
100
AcDbLine
 10
347.4393815472499
 20
189.3241236001809
 30
0.0
 11
347.6168259472497
 21
189.1187842001807
 31
0.0
  0
LINE
  5
2ADA2
330
1F
100
AcDbEntity
  8
実線
100
AcDbLine
 10
349.2731687472497
 20
191.6512288001809
 30
0.0
 11
349.0957005472496
 21
191.8565486001807
 31
0.0
  0
LINE
  5
2ADA3
330
1F
100
AcDbEntity
  8
実線
100
AcDbLine
 10
347.5281037472498
 20
190.9325542001807
 30
0.0
 11
347.7055719472496
 21
190.6929960001807
 31
0.0
  0
LINE
  5
2ADA4
330
1F
100
AcDbEntity
  8
実線
100
AcDbLine
 10
347.6168259472497
 20
189.1187842001807
 30
0.0
 11
347.7942941472495
 21
189.0161250001808
 31
0.0
  0
LINE
  5
2ADA5
330
1F
100
AcDbEntity
  8
実線
100
AcDbLine
 10
348.1788181472496
 20
191.9934462001809
 30
0.0
 11
347.7055719472496
 21
191.8565486001807
 31
0.0
  0
LINE
  5
2ADA6
330
1F
100
AcDbEntity
  8
実線
100
AcDbLine
 10
349.0069783472495
 20
189.0161250001808
 30
0.0
 11
349.18444514725
 21
189.1187842001807
 31
0.0
  0
LINE
  5
2ADA7
330
1F
100
AcDbEntity
  8
実線
100
AcDbLine
 10
347.5281037472498
 20
190.2823368001807
 30
0.0
 11
347.3506355472496
 21
189.9743396001808
 31
0.0
  0
LINE
  5
2ADA8
330
1F
100
AcDbEntity
  8
実線
100
AcDbLine
 10
349.3619133472496
 20
191.1378922001809
 30
0.0
 11
349.3619133472496
 21
191.4458908001808
 31
0.0
  0
LINE
  5
2ADA9
330
1F
100
AcDbEntity
  8
実線
100
AcDbLine
 10
349.2731687472497
 20
190.2823368001807
 30
0.0
 11
349.0069783472495
 21
190.4876762001807
 31
0.0
  0
LINE
  5
2ADAA
330
1F
100
AcDbEntity
  8
実線
100
AcDbLine
 10
348.1788181472496
 20
188.9134462001807
 30
0.0
 11
348.6224767472497
 21
188.9134462001807
 31
0.0
  0
LINE
  5
2ADAB
330
1F
100
AcDbEntity
  8
実線
100
AcDbLine
 10
348.0900735472496
 20
190.5903354001807
 30
0.0
 11
347.7942941472495
 21
190.4876762001807
 31
0.0
  0
LINE
  5
2ADAC
330
1F
100
AcDbEntity
  8
実線
100
AcDbLine
 10
348.7111989472496
 20
190.5903354001807
 30
0.0
 11
349.0957005472496
 21
190.6929960001807
 31
0.0
  0
LINE
  5
2ADAD
330
1F
100
AcDbEntity
  8
実線
100
AcDbLine
 10
347.4393815472499
 20
191.4458908001808
 30
0.0
 11
347.4393815472499
 21
191.1378922001809
 31
0.0
  0
LINE
  5
2ADAE
330
1F
100
AcDbEntity
  8
実線
100
AcDbLine
 10
349.4506355472495
 20
189.6321208001807
 30
0.0
 11
349.4506355472495
 21
189.9743396001808
 31
0.0
  0
LINE
  5
2ADAF
330
1F
100
AcDbEntity
  8
実線
100
AcDbLine
 10
349.0957005472496
 20
191.8565486001807
 30
0.0
 11
348.6224767472497
 21
191.9934462001809
 31
0.0
  0
LINE
  5
2ADB0
330
1F
100
AcDbEntity
  8
実線
100
AcDbLine
 10
347.7055719472496
 20
190.6929960001807
 30
0.0
 11
348.0900735472496
 21
190.5903354001807
 31
0.0
  0
LINE
  5
2ADB1
330
1F
100
AcDbEntity
  8
実線
100
AcDbLine
 10
347.3506355472496
 20
189.9743396001808
 30
0.0
 11
347.3506355472496
 21
189.6321208001807
 31
0.0
  0
LINE
  5
2ADB2
330
1F
100
AcDbEntity
  8
実線
100
AcDbLine
 10
347.7055719472496
 20
191.8565486001807
 30
0.0
 11
347.5281037472498
 21
191.6512288001809
 31
0.0
  0
LINE
  5
2ADB3
330
1F
100
AcDbEntity
  8
実線
100
AcDbLine
 10
349.18444514725
 20
189.1187842001807
 30
0.0
 11
349.3619133472496
 21
189.3241236001809
 31
0.0
  0
LINE
  5
2ADB4
330
1F
100
AcDbEntity
  8
実線
100
AcDbLine
 10
347.3506355472496
 20
189.6321208001807
 30
0.0
 11
347.4393815472499
 21
189.3241236001809
 31
0.0
  0
LINE
  5
2ADB5
330
1F
100
AcDbEntity
  8
実線
100
AcDbLine
 10
350.3021729472493
 20
192.9300840001808
 30
0.0
 11
350.0063935472499
 21
193.1354220001808
 31
0.0
  0
LINE
  5
2ADB6
330
1F
100
AcDbEntity
  8
実線
100
AcDbLine
 10
351.4852681472496
 20
192.0745286001807
 30
0.0
 11
351.2190777472499
 21
191.8691906001808
 31
0.0
  0
LINE
  5
2ADB7
330
1F
100
AcDbEntity
  8
実線
100
AcDbLine
 10
351.6627349472501
 20
192.3825272001808
 30
0.0
 11
351.4852681472496
 21
192.0745286001807
 31
0.0
  0
LINE
  5
2ADB8
330
1F
100
AcDbEntity
  8
実線
100
AcDbLine
 10
351.8402031472497
 20
193.6487404001807
 30
0.0
 11
351.8402031472497
 21
193.0327432001808
 31
0.0
  0
LINE
  5
2ADB9
330
1F
100
AcDbEntity
  8
実線
100
AcDbLine
 10
351.7514585472497
 20
194.0936366001808
 30
0.0
 11
351.8402031472497
 21
193.6487404001807
 31
0.0
  0
LINE
  5
2ADBA
330
1F
100
AcDbEntity
  8
実線
100
AcDbLine
 10
351.6627349472501
 20
194.2989564001808
 30
0.0
 11
351.7514585472497
 21
194.0936366001808
 31
0.0
  0
LINE
  5
2ADBB
330
1F
100
AcDbEntity
  8
実線
100
AcDbLine
 10
350.9232983472498
 20
194.8465132001809
 30
0.0
 11
351.2190777472499
 21
194.7096324001808
 31
0.0
  0
LINE
  5
2ADBC
330
1F
100
AcDbEntity
  8
実線
100
AcDbLine
 10
350.1838603472497
 20
194.7096324001808
 30
0.0
 11
350.5683633472497
 21
194.8465132001809
 31
0.0
  0
LINE
  5
2ADBD
330
1F
100
AcDbEntity
  8
実線
100
AcDbLine
 10
350.0063935472499
 20
194.6069550001808
 30
0.0
 11
350.1838603472497
 21
194.7096324001808
 31
0.0
  0
LINE
  5
2ADBE
330
1F
100
AcDbEntity
  8
実線
100
AcDbLine
 10
349.8289253472496
 20
194.2989564001808
 30
0.0
 11
350.0063935472499
 21
194.6069550001808
 31
0.0
  0
LINE
  5
2ADBF
330
1F
100
AcDbEntity
  8
実線
100
AcDbLine
 10
349.7402031472498
 20
193.9909578001809
 30
0.0
 11
349.8289253472496
 21
194.2989564001808
 31
0.0
  0
LINE
  5
2ADC0
330
1F
100
AcDbEntity
  8
実線
100
AcDbLine
 10
350.9232983472498
 20
192.8274052001808
 30
0.0
 11
350.5683633472497
 21
192.8274052001808
 31
0.0
  0
LINE
  5
2ADC1
330
1F
100
AcDbEntity
  8
実線
100
AcDbLine
 10
351.2190777472499
 20
194.7096324001808
 30
0.0
 11
351.4852681472496
 21
194.5042944001809
 31
0.0
  0
LINE
  5
2ADC2
330
1F
100
AcDbEntity
  8
実線
100
AcDbLine
 10
350.5683633472497
 20
194.8465132001809
 30
0.0
 11
350.9232983472498
 21
194.8465132001809
 31
0.0
  0
LINE
  5
2ADC3
330
1F
100
AcDbEntity
  8
実線
100
AcDbLine
 10
350.5683633472497
 20
191.7665314001808
 30
0.0
 11
350.1838603472497
 21
191.8691906001808
 31
0.0
  0
LINE
  5
2ADC4
330
1F
100
AcDbEntity
  8
実線
100
AcDbLine
 10
351.4852681472496
 20
193.1354220001808
 30
0.0
 11
351.2190777472499
 21
192.9300840001808
 31
0.0
  0
LINE
  5
2ADC5
330
1F
100
AcDbEntity
  8
実線
100
AcDbLine
 10
351.8402031472497
 20
193.0327432001808
 30
0.0
 11
351.6627349472501
 21
192.3825272001808
 31
0.0
  0
LINE
  5
2ADC6
330
1F
100
AcDbEntity
  8
実線
100
AcDbLine
 10
351.8402031472497
 20
193.6487404001807
 30
0.0
 11
351.6627349472501
 21
193.3407418001808
 31
0.0
  0
LINE
  5
2ADC7
330
1F
100
AcDbEntity
  8
実線
100
AcDbLine
 10
351.2190777472499
 20
192.9300840001808
 30
0.0
 11
350.9232983472498
 21
192.8274052001808
 31
0.0
  0
LINE
  5
2ADC8
330
1F
100
AcDbEntity
  8
実線
100
AcDbLine
 10
350.5683633472497
 20
192.8274052001808
 30
0.0
 11
350.3021729472493
 21
192.9300840001808
 31
0.0
  0
LINE
  5
2ADC9
330
1F
100
AcDbEntity
  8
実線
100
AcDbLine
 10
351.4852681472496
 20
194.5042944001809
 30
0.0
 11
351.6627349472501
 21
194.2989564001808
 31
0.0
  0
LINE
  5
2ADCA
330
1F
100
AcDbEntity
  8
実線
100
AcDbLine
 10
351.2190777472499
 20
191.8691906001808
 30
0.0
 11
350.8345747472497
 21
191.7665314001808
 31
0.0
  0
LINE
  5
2ADCB
330
1F
100
AcDbEntity
  8
実線
100
AcDbLine
 10
350.1838603472497
 20
191.8691906001808
 30
0.0
 11
349.9176699472496
 21
192.0745286001807
 31
0.0
  0
LINE
  5
2ADCC
330
1F
100
AcDbEntity
  8
実線
100
AcDbLine
 10
350.0063935472499
 20
193.1354220001808
 30
0.0
 11
349.8289253472496
 21
193.3407418001808
 31
0.0
  0
LINE
  5
2ADCD
330
1F
100
AcDbEntity
  8
実線
100
AcDbLine
 10
349.9176699472496
 20
192.0745286001807
 30
0.0
 11
349.7402031472498
 21
192.3825272001808
 31
0.0
  0
LINE
  5
2ADCE
330
1F
100
AcDbEntity
  8
実線
100
AcDbLine
 10
350.8345747472497
 20
191.7665314001808
 30
0.0
 11
350.5683633472497
 21
191.7665314001808
 31
0.0
  0
LINE
  5
2ADCF
330
1F
100
AcDbEntity
  8
実線
100
AcDbLine
 10
349.7402031472498
 20
193.6487404001807
 30
0.0
 11
349.7402031472498
 21
193.9909578001809
 31
0.0
  0
LINE
  5
2ADD0
330
1F
100
AcDbEntity
  8
実線
100
AcDbLine
 10
349.8289253472496
 20
193.3407418001808
 30
0.0
 11
349.7402031472498
 21
193.6487404001807
 31
0.0
  0
LINE
  5
2ADD1
330
1F
100
AcDbEntity
  8
実線
100
AcDbLine
 10
351.6627349472501
 20
193.3407418001808
 30
0.0
 11
351.4852681472496
 21
193.1354220001808
 31
0.0
  0
LINE
  5
2ADD2
330
1F
100
AcDbEntity
  8
実線
100
AcDbLine
 10
343.4354669472496
 20
205.6181020001808
 30
0.0
 11
343.4354669472496
 21
215.6981020001808
 31
0.0
  0
LINE
  5
2ADD3
330
1F
100
AcDbEntity
  8
実線
100
AcDbLine
 10
347.0754669472499
 20
205.6181020001808
 30
0.0
 11
347.0754669472499
 21
215.6981020001808
 31
0.0
  0
LINE
  5
2ADD4
330
1F
100
AcDbEntity
  8
実線
100
AcDbLine
 10
351.8354669472496
 20
215.6981020001808
 30
0.0
 11
351.8354669472496
 21
205.6181020001808
 31
0.0
  0
LINE
  5
2ADD5
330
1F
100
AcDbEntity
  8
実線
100
AcDbLine
 10
338.6754669472498
 20
205.6181020001808
 30
0.0
 11
338.6754669472498
 21
215.6981020001808
 31
0.0
  0
LINE
  5
2ADD6
330
1F
100
AcDbEntity
  8
実線
100
AcDbLine
 10
335.0354669472497
 20
205.6181020001808
 30
0.0
 11
335.0354669472497
 21
215.6981020001808
 31
0.0
  0
LINE
  5
2ADD7
330
1F
100
AcDbEntity
  8
実線
100
AcDbLine
 10
330.2754669472499
 20
205.6181020001808
 30
0.0
 11
330.2754669472499
 21
215.6981020001808
 31
0.0
  0
LINE
  5
2ADD8
330
1F
100
AcDbEntity
  8
実線
100
AcDbLine
 10
326.6354669472496
 20
205.6181020001808
 30
0.0
 11
326.6354669472496
 21
215.6981020001808
 31
0.0
  0
LINE
  5
2ADD9
330
1F
100
AcDbEntity
  8
実線
100
AcDbLine
 10
321.8754669472498
 20
205.6181020001808
 30
0.0
 11
321.8754669472498
 21
215.6981020001808
 31
0.0
  0
LINE
  5
2ADDA
330
1F
100
AcDbEntity
  8
実線
100
AcDbLine
 10
318.2354669472498
 20
205.6181020001808
 30
0.0
 11
318.2354669472498
 21
215.6981020001808
 31
0.0
  0
LINE
  5
2ADDB
330
1F
100
AcDbEntity
  8
実線
100
AcDbLine
 10
313.47546694725
 20
205.6181020001808
 30
0.0
 11
313.47546694725
 21
215.6981020001808
 31
0.0
  0
LINE
  5
2ADDC
330
1F
100
AcDbEntity
  8
実線
100
AcDbLine
 10
339.3054669472497
 20
212.4081020001808
 30
0.0
 11
339.3054669472497
 21
208.9081020001807
 31
0.0
  0
ARC
  5
2ADDD
330
1F
100
AcDbEntity
  8
実線
100
AcDbCircle
 10
340.7054669472495
 20
212.4081020001808
 30
0.0
 40
1.399999999999999
100
AcDbArc
 50
90.0
 51
180.0
  0
LINE
  5
2ADDE
330
1F
100
AcDbEntity
  8
実線
100
AcDbLine
 10
342.8054669472497
 20
212.4081020001808
 30
0.0
 11
342.8054669472497
 21
208.9081020001807
 31
0.0
  0
ARC
  5
2ADDF
330
1F
100
AcDbEntity
  8
実線
100
AcDbCircle
 10
341.4054669472496
 20
208.9081020001807
 30
0.0
 40
1.399999999999999
100
AcDbArc
 50
270.0
 51
0.0
  0
LINE
  5
2ADE0
330
1F
100
AcDbEntity
  8
実線
100
AcDbLine
 10
341.4054669472496
 20
207.5081020001808
 30
0.0
 11
340.7054669472495
 21
207.5081020001808
 31
0.0
  0
ARC
  5
2ADE1
330
1F
100
AcDbEntity
  8
実線
100
AcDbCircle
 10
340.7054669472495
 20
208.9081020001807
 30
0.0
 40
1.399999999999999
100
AcDbArc
 50
180.0
 51
270.0
  0
LINE
  5
2ADE2
330
1F
100
AcDbEntity
  8
実線
100
AcDbLine
 10
341.4054669472496
 20
213.8081020001807
 30
0.0
 11
340.7054669472495
 21
213.8081020001807
 31
0.0
  0
ARC
  5
2ADE3
330
1F
100
AcDbEntity
  8
実線
100
AcDbCircle
 10
341.4054669472496
 20
212.4081020001808
 30
0.0
 40
1.399999999999999
100
AcDbArc
 50
0.0
 51
90.0
  0
LINE
  5
2ADE4
330
1F
100
AcDbEntity
  8
実線
100
AcDbLine
 10
342.1054669472496
 20
212.4081020001808
 30
0.0
 11
342.1054669472496
 21
208.9081020001807
 31
0.0
  0
ARC
  5
2ADE5
330
1F
100
AcDbEntity
  8
実線
100
AcDbCircle
 10
341.4054669472496
 20
208.9081020001807
 30
0.0
 40
0.7
100
AcDbArc
 50
270.0
 51
0.0
  0
LINE
  5
2ADE6
330
1F
100
AcDbEntity
  8
実線
100
AcDbLine
 10
341.4054669472496
 20
213.1081020001807
 30
0.0
 11
340.7054669472495
 21
213.1081020001807
 31
0.0
  0
ARC
  5
2ADE7
330
1F
100
AcDbEntity
  8
実線
100
AcDbCircle
 10
341.4054669472496
 20
212.4081020001808
 30
0.0
 40
0.7
100
AcDbArc
 50
0.0
 51
90.0
  0
ARC
  5
2ADE8
330
1F
100
AcDbEntity
  8
実線
100
AcDbCircle
 10
340.7054669472495
 20
212.4081020001808
 30
0.0
 40
0.7
100
AcDbArc
 50
90.0
 51
180.0
  0
LINE
  5
2ADE9
330
1F
100
AcDbEntity
  8
実線
100
AcDbLine
 10
340.0054669472497
 20
212.4081020001808
 30
0.0
 11
340.0054669472497
 21
208.9081020001807
 31
0.0
  0
LINE
  5
2ADEA
330
1F
100
AcDbEntity
  8
実線
100
AcDbLine
 10
341.4054669472496
 20
208.2081020001808
 30
0.0
 11
340.7054669472495
 21
208.2081020001808
 31
0.0
  0
ARC
  5
2ADEB
330
1F
100
AcDbEntity
  8
実線
100
AcDbCircle
 10
340.7054669472495
 20
208.9081020001807
 30
0.0
 40
0.7
100
AcDbArc
 50
180.0
 51
270.0
  0
LINE
  5
2ADEC
330
1F
100
AcDbEntity
  8
実線
100
AcDbLine
 10
330.9054669472496
 20
212.4081020001808
 30
0.0
 11
330.9054669472496
 21
208.9081020001807
 31
0.0
  0
ARC
  5
2ADED
330
1F
100
AcDbEntity
  8
実線
100
AcDbCircle
 10
332.3054669472497
 20
212.4081020001808
 30
0.0
 40
1.399999999999999
100
AcDbArc
 50
90.0
 51
180.0
  0
LINE
  5
2ADEE
330
1F
100
AcDbEntity
  8
実線
100
AcDbLine
 10
334.4054669472496
 20
212.4081020001808
 30
0.0
 11
334.4054669472496
 21
208.9081020001807
 31
0.0
  0
ARC
  5
2ADEF
330
1F
100
AcDbEntity
  8
実線
100
AcDbCircle
 10
333.0054669472497
 20
208.9081020001807
 30
0.0
 40
1.399999999999999
100
AcDbArc
 50
270.0
 51
0.0
  0
LINE
  5
2ADF0
330
1F
100
AcDbEntity
  8
実線
100
AcDbLine
 10
333.0054669472497
 20
207.5081020001808
 30
0.0
 11
332.3054669472497
 21
207.5081020001808
 31
0.0
  0
ARC
  5
2ADF1
330
1F
100
AcDbEntity
  8
実線
100
AcDbCircle
 10
332.3054669472497
 20
208.9081020001807
 30
0.0
 40
1.399999999999999
100
AcDbArc
 50
180.0
 51
270.0
  0
LINE
  5
2ADF2
330
1F
100
AcDbEntity
  8
実線
100
AcDbLine
 10
333.0054669472497
 20
213.8081020001807
 30
0.0
 11
332.3054669472497
 21
213.8081020001807
 31
0.0
  0
ARC
  5
2ADF3
330
1F
100
AcDbEntity
  8
実線
100
AcDbCircle
 10
333.0054669472497
 20
212.4081020001808
 30
0.0
 40
1.399999999999999
100
AcDbArc
 50
0.0
 51
90.0
  0
LINE
  5
2ADF4
330
1F
100
AcDbEntity
  8
実線
100
AcDbLine
 10
333.7054669472495
 20
212.4081020001808
 30
0.0
 11
333.7054669472495
 21
208.9081020001807
 31
0.0
  0
ARC
  5
2ADF5
330
1F
100
AcDbEntity
  8
実線
100
AcDbCircle
 10
333.0054669472497
 20
208.9081020001807
 30
0.0
 40
0.7
100
AcDbArc
 50
270.0
 51
0.0
  0
LINE
  5
2ADF6
330
1F
100
AcDbEntity
  8
実線
100
AcDbLine
 10
333.0054669472497
 20
213.1081020001807
 30
0.0
 11
332.3054669472497
 21
213.1081020001807
 31
0.0
  0
ARC
  5
2ADF7
330
1F
100
AcDbEntity
  8
実線
100
AcDbCircle
 10
333.0054669472497
 20
212.4081020001808
 30
0.0
 40
0.7
100
AcDbArc
 50
0.0
 51
90.0
  0
ARC
  5
2ADF8
330
1F
100
AcDbEntity
  8
実線
100
AcDbCircle
 10
332.3054669472497
 20
212.4081020001808
 30
0.0
 40
0.7
100
AcDbArc
 50
90.0
 51
180.0
  0
LINE
  5
2ADF9
330
1F
100
AcDbEntity
  8
実線
100
AcDbLine
 10
331.6054669472496
 20
212.4081020001808
 30
0.0
 11
331.6054669472496
 21
208.9081020001807
 31
0.0
  0
LINE
  5
2ADFA
330
1F
100
AcDbEntity
  8
実線
100
AcDbLine
 10
333.0054669472497
 20
208.2081020001808
 30
0.0
 11
332.3054669472497
 21
208.2081020001808
 31
0.0
  0
ARC
  5
2ADFB
330
1F
100
AcDbEntity
  8
実線
100
AcDbCircle
 10
332.3054669472497
 20
208.9081020001807
 30
0.0
 40
0.7
100
AcDbArc
 50
180.0
 51
270.0
  0
LINE
  5
2ADFC
330
1F
100
AcDbEntity
  8
実線
100
AcDbLine
 10
322.5054669472497
 20
212.4081020001808
 30
0.0
 11
322.5054669472497
 21
208.9081020001807
 31
0.0
  0
ARC
  5
2ADFD
330
1F
100
AcDbEntity
  8
実線
100
AcDbCircle
 10
323.9054669472496
 20
212.4081020001808
 30
0.0
 40
1.399999999999999
100
AcDbArc
 50
90.0
 51
180.0
  0
LINE
  5
2ADFE
330
1F
100
AcDbEntity
  8
実線
100
AcDbLine
 10
326.0054669472497
 20
212.4081020001808
 30
0.0
 11
326.0054669472497
 21
208.9081020001807
 31
0.0
  0
ARC
  5
2ADFF
330
1F
100
AcDbEntity
  8
実線
100
AcDbCircle
 10
324.6054669472496
 20
208.9081020001807
 30
0.0
 40
1.399999999999999
100
AcDbArc
 50
270.0
 51
0.0
  0
LINE
  5
2AE00
330
1F
100
AcDbEntity
  8
実線
100
AcDbLine
 10
324.6054669472496
 20
207.5081020001808
 30
0.0
 11
323.9054669472496
 21
207.5081020001808
 31
0.0
  0
ARC
  5
2AE01
330
1F
100
AcDbEntity
  8
実線
100
AcDbCircle
 10
323.9054669472496
 20
208.9081020001807
 30
0.0
 40
1.399999999999999
100
AcDbArc
 50
180.0
 51
270.0
  0
LINE
  5
2AE02
330
1F
100
AcDbEntity
  8
実線
100
AcDbLine
 10
324.6054669472496
 20
213.8081020001807
 30
0.0
 11
323.9054669472496
 21
213.8081020001807
 31
0.0
  0
ARC
  5
2AE03
330
1F
100
AcDbEntity
  8
実線
100
AcDbCircle
 10
324.6054669472496
 20
212.4081020001808
 30
0.0
 40
1.399999999999999
100
AcDbArc
 50
0.0
 51
90.0
  0
LINE
  5
2AE04
330
1F
100
AcDbEntity
  8
実線
100
AcDbLine
 10
325.3054669472497
 20
212.4081020001808
 30
0.0
 11
325.3054669472497
 21
208.9081020001807
 31
0.0
  0
ARC
  5
2AE05
330
1F
100
AcDbEntity
  8
実線
100
AcDbCircle
 10
324.6054669472496
 20
208.9081020001807
 30
0.0
 40
0.7
100
AcDbArc
 50
270.0
 51
0.0
  0
LINE
  5
2AE06
330
1F
100
AcDbEntity
  8
実線
100
AcDbLine
 10
324.6054669472496
 20
213.1081020001807
 30
0.0
 11
323.9054669472496
 21
213.1081020001807
 31
0.0
  0
ARC
  5
2AE07
330
1F
100
AcDbEntity
  8
実線
100
AcDbCircle
 10
324.6054669472496
 20
212.4081020001808
 30
0.0
 40
0.7
100
AcDbArc
 50
0.0
 51
90.0
  0
ARC
  5
2AE08
330
1F
100
AcDbEntity
  8
実線
100
AcDbCircle
 10
323.9054669472496
 20
212.4081020001808
 30
0.0
 40
0.7
100
AcDbArc
 50
90.0
 51
180.0
  0
LINE
  5
2AE09
330
1F
100
AcDbEntity
  8
実線
100
AcDbLine
 10
323.2054669472495
 20
212.4081020001808
 30
0.0
 11
323.2054669472495
 21
208.9081020001807
 31
0.0
  0
LINE
  5
2AE0A
330
1F
100
AcDbEntity
  8
実線
100
AcDbLine
 10
324.6054669472496
 20
208.2081020001808
 30
0.0
 11
323.9054669472496
 21
208.2081020001808
 31
0.0
  0
ARC
  5
2AE0B
330
1F
100
AcDbEntity
  8
実線
100
AcDbCircle
 10
323.9054669472496
 20
208.9081020001807
 30
0.0
 40
0.7
100
AcDbArc
 50
180.0
 51
270.0
  0
LINE
  5
2AE0C
330
1F
100
AcDbEntity
  8
実線
100
AcDbLine
 10
314.1054669472496
 20
212.4081020001808
 30
0.0
 11
314.1054669472496
 21
208.9081020001807
 31
0.0
  0
ARC
  5
2AE0D
330
1F
100
AcDbEntity
  8
実線
100
AcDbCircle
 10
315.5054669472497
 20
212.4081020001808
 30
0.0
 40
1.399999999999999
100
AcDbArc
 50
90.0
 51
180.0
  0
LINE
  5
2AE0E
330
1F
100
AcDbEntity
  8
実線
100
AcDbLine
 10
317.6054669472496
 20
212.4081020001808
 30
0.0
 11
317.6054669472496
 21
208.9081020001807
 31
0.0
  0
ARC
  5
2AE0F
330
1F
100
AcDbEntity
  8
実線
100
AcDbCircle
 10
316.2054669472496
 20
208.9081020001807
 30
0.0
 40
1.399999999999999
100
AcDbArc
 50
270.0
 51
0.0
  0
LINE
  5
2AE10
330
1F
100
AcDbEntity
  8
実線
100
AcDbLine
 10
316.2054669472496
 20
207.5081020001808
 30
0.0
 11
315.5054669472497
 21
207.5081020001808
 31
0.0
  0
ARC
  5
2AE11
330
1F
100
AcDbEntity
  8
実線
100
AcDbCircle
 10
315.5054669472497
 20
208.9081020001807
 30
0.0
 40
1.399999999999999
100
AcDbArc
 50
180.0
 51
270.0
  0
LINE
  5
2AE12
330
1F
100
AcDbEntity
  8
実線
100
AcDbLine
 10
316.2054669472496
 20
213.8081020001807
 30
0.0
 11
315.5054669472497
 21
213.8081020001807
 31
0.0
  0
ARC
  5
2AE13
330
1F
100
AcDbEntity
  8
実線
100
AcDbCircle
 10
316.2054669472496
 20
212.4081020001808
 30
0.0
 40
1.399999999999999
100
AcDbArc
 50
0.0
 51
90.0
  0
LINE
  5
2AE14
330
1F
100
AcDbEntity
  8
実線
100
AcDbLine
 10
316.9054669472496
 20
212.4081020001808
 30
0.0
 11
316.9054669472496
 21
208.9081020001807
 31
0.0
  0
ARC
  5
2AE15
330
1F
100
AcDbEntity
  8
実線
100
AcDbCircle
 10
316.2054669472496
 20
208.9081020001807
 30
0.0
 40
0.7
100
AcDbArc
 50
270.0
 51
0.0
  0
LINE
  5
2AE16
330
1F
100
AcDbEntity
  8
実線
100
AcDbLine
 10
316.2054669472496
 20
213.1081020001807
 30
0.0
 11
315.5054669472497
 21
213.1081020001807
 31
0.0
  0
ARC
  5
2AE17
330
1F
100
AcDbEntity
  8
実線
100
AcDbCircle
 10
316.2054669472496
 20
212.4081020001808
 30
0.0
 40
0.7
100
AcDbArc
 50
0.0
 51
90.0
  0
ARC
  5
2AE18
330
1F
100
AcDbEntity
  8
実線
100
AcDbCircle
 10
315.5054669472497
 20
212.4081020001808
 30
0.0
 40
0.7
100
AcDbArc
 50
90.0
 51
180.0
  0
LINE
  5
2AE19
330
1F
100
AcDbEntity
  8
実線
100
AcDbLine
 10
314.8054669472497
 20
212.4081020001808
 30
0.0
 11
314.8054669472497
 21
208.9081020001807
 31
0.0
  0
LINE
  5
2AE1A
330
1F
100
AcDbEntity
  8
実線
100
AcDbLine
 10
316.2054669472496
 20
208.2081020001808
 30
0.0
 11
315.5054669472497
 21
208.2081020001808
 31
0.0
  0
ARC
  5
2AE1B
330
1F
100
AcDbEntity
  8
実線
100
AcDbCircle
 10
315.5054669472497
 20
208.9081020001807
 30
0.0
 40
0.7
100
AcDbArc
 50
180.0
 51
270.0
  0
LINE
  5
2AE1C
330
1F
100
AcDbEntity
  8
実線
100
AcDbLine
 10
319.3554669472496
 20
205.6181020001808
 30
0.0
 11
319.3554669472496
 21
215.6981020001808
 31
0.0
  0
LINE
  5
2AE1D
330
1F
100
AcDbEntity
  8
実線
100
AcDbLine
 10
327.7554669472497
 20
205.6181020001808
 30
0.0
 11
327.7554669472497
 21
215.6981020001808
 31
0.0
  0
LINE
  5
2AE1E
330
1F
100
AcDbEntity
  8
実線
100
AcDbLine
 10
336.1554669472496
 20
205.6181020001808
 30
0.0
 11
336.1554669472496
 21
215.6981020001808
 31
0.0
  0
LINE
  5
2AE1F
330
1F
100
AcDbEntity
  8
実線
100
AcDbLine
 10
336.4354669472496
 20
205.6181020001808
 30
0.0
 11
336.4354669472496
 21
215.6981020001808
 31
0.0
  0
LINE
  5
2AE20
330
1F
100
AcDbEntity
  8
実線
100
AcDbLine
 10
328.0354669472497
 20
205.6181020001808
 30
0.0
 11
328.0354669472497
 21
215.6981020001808
 31
0.0
  0
LINE
  5
2AE21
330
1F
100
AcDbEntity
  8
実線
100
AcDbLine
 10
319.6354669472498
 20
205.6181020001808
 30
0.0
 11
319.6354669472498
 21
215.6981020001808
 31
0.0
  0
CIRCLE
  5
2AE22
330
1F
100
AcDbEntity
  8
実線
100
AcDbCircle
 10
323.1890099472496
 20
189.3081020001807
 30
0.0
 40
1.679999999999999
  0
LINE
  5
2AE23
330
1F
100
AcDbEntity
  8
実線
100
AcDbLine
 10
321.7040859472495
 20
187.8231780001808
 30
0.0
 11
323.1890099472496
 21
187.2081020001808
 31
0.0
  0
LINE
  5
2AE24
330
1F
100
AcDbEntity
  8
実線
100
AcDbLine
 10
321.0890099472497
 20
189.3081020001807
 30
0.0
 11
321.7040859472495
 21
187.8231780001808
 31
0.0
  0
LINE
  5
2AE25
330
1F
100
AcDbEntity
  8
実線
100
AcDbLine
 10
321.7040859472495
 20
190.7930260001808
 30
0.0
 11
321.0890099472497
 21
189.3081020001807
 31
0.0
  0
LINE
  5
2AE26
330
1F
100
AcDbEntity
  8
実線
100
AcDbLine
 10
323.1890099472496
 20
191.4081020001807
 30
0.0
 11
321.7040859472495
 21
190.7930260001808
 31
0.0
  0
LINE
  5
2AE27
330
1F
100
AcDbEntity
  8
実線
100
AcDbLine
 10
324.6739339472497
 20
190.7930260001808
 30
0.0
 11
323.1890099472496
 21
191.4081020001807
 31
0.0
  0
LINE
  5
2AE28
330
1F
100
AcDbEntity
  8
実線
100
AcDbLine
 10
325.2890099472497
 20
189.3081020001807
 30
0.0
 11
324.6739339472497
 21
190.7930260001808
 31
0.0
  0
LINE
  5
2AE29
330
1F
100
AcDbEntity
  8
実線
100
AcDbLine
 10
324.6739339472497
 20
187.8231780001808
 30
0.0
 11
325.2890099472497
 21
189.3081020001807
 31
0.0
  0
LINE
  5
2AE2A
330
1F
100
AcDbEntity
  8
実線
100
AcDbLine
 10
323.1890099472496
 20
187.2081020001808
 30
0.0
 11
324.6739339472497
 21
187.8231780001808
 31
0.0
  0
LINE
  5
2AE2B
330
1F
100
AcDbEntity
  8
実線
100
AcDbLine
 10
324.6739339472497
 20
187.8231780001808
 30
0.0
 11
326.6538335472497
 21
185.8432784001807
 31
0.0
  0
LINE
  5
2AE2C
330
1F
100
AcDbEntity
  8
実線
100
AcDbLine
 10
325.2890099472497
 20
189.3081020001807
 30
0.0
 11
328.0890099472497
 21
189.3081020001807
 31
0.0
  0
LINE
  5
2AE2D
330
1F
100
AcDbEntity
  8
実線
100
AcDbLine
 10
324.6739339472497
 20
190.7930260001808
 30
0.0
 11
326.6538335472497
 21
192.7729256001807
 31
0.0
  0
LINE
  5
2AE2E
330
1F
100
AcDbEntity
  8
実線
100
AcDbLine
 10
321.7040859472495
 20
190.7930260001808
 30
0.0
 11
319.7241863472495
 21
192.7729256001807
 31
0.0
  0
LINE
  5
2AE2F
330
1F
100
AcDbEntity
  8
実線
100
AcDbLine
 10
318.2890099472497
 20
189.3081020001807
 30
0.0
 11
321.0890099472497
 21
189.3081020001807
 31
0.0
  0
LINE
  5
2AE30
330
1F
100
AcDbEntity
  8
実線
100
AcDbLine
 10
321.7040859472495
 20
187.8231780001808
 30
0.0
 11
319.7241863472495
 21
185.8432784001807
 31
0.0
  0
CIRCLE
  5
2AE31
330
1F
100
AcDbEntity
  8
実線
100
AcDbCircle
 10
323.1890099472496
 20
189.3081020001807
 30
0.0
 40
4.899999999999999
  0
LINE
  5
2AE32
330
1F
100
AcDbEntity
  8
実線
100
AcDbLine
 10
320.4049517472497
 20
185.2758542001806
 30
0.0
 11
319.7431787472496
 21
184.8937788001808
 31
0.0
  0
ARC
  5
2AE33
330
1F
100
AcDbEntity
  8
実線
100
AcDbCircle
 10
323.1890099472496
 20
189.3081020001807
 30
0.0
 40
5.599999999999999
100
AcDbArc
 50
187.9756869999991
 51
232.0243130000015
  0
LINE
  5
2AE34
330
1F
100
AcDbEntity
  8
実線
100
AcDbLine
 10
318.3049517472495
 20
188.9131606001808
 30
0.0
 11
317.6431787472497
 21
188.5310852001808
 31
0.0
  0
LINE
  5
2AE35
330
1F
100
AcDbEntity
  8
実線
100
AcDbLine
 10
321.0890099472497
 20
193.7352912001808
 30
0.0
 11
321.0890099472497
 21
194.4994406001808
 31
0.0
  0
ARC
  5
2AE36
330
1F
100
AcDbEntity
  8
実線
100
AcDbCircle
 10
323.1890099472496
 20
189.3081020001807
 30
0.0
 40
5.599999999999999
100
AcDbArc
 50
67.97568699999832
 51
112.0243130000017
  0
LINE
  5
2AE37
330
1F
100
AcDbEntity
  8
実線
100
AcDbLine
 10
325.2890099472497
 20
193.7352912001808
 30
0.0
 11
325.2890099472497
 21
194.4994406001808
 31
0.0
  0
LINE
  5
2AE38
330
1F
100
AcDbEntity
  8
実線
100
AcDbLine
 10
328.0730681472496
 20
188.9131606001808
 30
0.0
 11
328.7348411472494
 21
188.5310852001808
 31
0.0
  0
ARC
  5
2AE39
330
1F
100
AcDbEntity
  8
実線
100
AcDbCircle
 10
323.1890099472496
 20
189.3081020001807
 30
0.0
 40
5.599999999999999
100
AcDbArc
 50
307.9756869999985
 51
352.0243130000008
  0
LINE
  5
2AE3A
330
1F
100
AcDbEntity
  8
実線
100
AcDbLine
 10
325.9730681472497
 20
185.2758542001806
 30
0.0
 11
326.6348411472495
 21
184.8937788001808
 31
0.0
  0
LINE
  5
2AE3B
330
1F
100
AcDbEntity
  8
実線
100
AcDbLine
 10
323.1890099472496
 20
191.4081020001807
 30
0.0
 11
323.1890099472496
 21
194.2081020001808
 31
0.0
  0
LINE
  5
2AE3C
330
1F
100
AcDbEntity
  8
実線
100
AcDbLine
 10
323.1890099472496
 20
187.2081020001808
 30
0.0
 11
323.1890099472496
 21
184.4081020001807
 31
0.0
  0
ARC
  5
2AE3D
330
1F
100
AcDbEntity
  8
実線
100
AcDbCircle
 10
341.0160709472498
 20
173.8188282001808
 30
0.0
 40
3.5
100
AcDbArc
 50
276.8921029999975
 51
263.1078969999959
  0
LINE
  5
2AE3E
330
1F
100
AcDbEntity
  8
実線
100
AcDbLine
 10
340.8760709472499
 20
182.9188282001807
 30
0.0
 11
341.1560709472496
 21
182.9188282001807
 31
0.0
  0
ARC
  5
2AE3F
330
1F
100
AcDbEntity
  8
実線
100
AcDbCircle
 10
358.4638733472498
 20
185.5053240001807
 30
0.0
 40
17.5
100
AcDbArc
 50
188.4994389999972
 51
213.8140780000014
  0
ARC
  5
2AE40
330
1F
100
AcDbEntity
  8
実線
100
AcDbCircle
 10
323.5682685472498
 20
185.5053240001807
 30
0.0
 40
17.5
100
AcDbArc
 50
326.1859219999985
 51
351.5005609999994
  0
ARC
  5
2AE41
330
1F
100
AcDbEntity
  8
実線
100
AcDbCircle
 10
341.0160709472498
 20
173.8188282001808
 30
0.0
 40
2.321899999999999
100
AcDbArc
 50
280.421390999996
 51
259.5786089999974
  0
LINE
  5
2AE42
330
1F
100
AcDbEntity
  8
実線
100
AcDbLine
 10
341.4360709472496
 20
170.3441192001808
 30
0.0
 11
341.4360709472496
 21
173.0115490001808
 31
0.0
  0
LINE
  5
2AE43
330
1F
100
AcDbEntity
  8
実線
100
AcDbLine
 10
340.5960709472495
 20
170.3441192001808
 30
0.0
 11
340.5960709472495
 21
173.0115490001808
 31
0.0
  0
ARC
  5
2AE44
330
1F
100
AcDbEntity
  8
実線
100
AcDbCircle
 10
341.0160709472498
 20
173.8188282001808
 30
0.0
 40
0.9099999999999999
100
AcDbArc
 50
242.5135739999948
 51
297.4864259999978
  0
ARC
  5
2AE45
330
1F
100
AcDbEntity
  8
実線
100
AcDbCircle
 10
354.3221903472497
 20
188.6832302001808
 30
0.0
 40
3.5
100
AcDbArc
 50
276.8921029999975
 51
263.1078969999959
  0
LINE
  5
2AE46
330
1F
100
AcDbEntity
  8
実線
100
AcDbLine
 10
354.1821903472499
 20
197.7832302001808
 30
0.0
 11
354.4621903472496
 21
197.7832302001808
 31
0.0
  0
ARC
  5
2AE47
330
1F
100
AcDbEntity
  8
実線
100
AcDbCircle
 10
371.7699927472497
 20
200.3697260001809
 30
0.0
 40
17.5
100
AcDbArc
 50
188.4994389999972
 51
213.8140780000014
  0
ARC
  5
2AE48
330
1F
100
AcDbEntity
  8
実線
100
AcDbCircle
 10
336.8743879472497
 20
200.3697260001809
 30
0.0
 40
17.5
100
AcDbArc
 50
326.1859219999985
 51
351.5005609999994
  0
ARC
  5
2AE49
330
1F
100
AcDbEntity
  8
実線
100
AcDbCircle
 10
354.3221903472497
 20
188.6832302001808
 30
0.0
 40
2.321899999999999
100
AcDbArc
 50
280.421390999996
 51
259.5786089999974
  0
LINE
  5
2AE4A
330
1F
100
AcDbEntity
  8
実線
100
AcDbLine
 10
354.7421903472496
 20
185.2085212001807
 30
0.0
 11
354.7421903472496
 21
187.8759510001808
 31
0.0
  0
LINE
  5
2AE4B
330
1F
100
AcDbEntity
  8
実線
100
AcDbLine
 10
353.9021903472494
 20
185.2085212001807
 30
0.0
 11
353.9021903472494
 21
187.8759510001808
 31
0.0
  0
ARC
  5
2AE4C
330
1F
100
AcDbEntity
  8
実線
100
AcDbCircle
 10
354.3221903472497
 20
188.6832302001808
 30
0.0
 40
0.9099999999999999
100
AcDbArc
 50
242.5135739999948
 51
297.4864259999978
  0
CIRCLE
  5
2AE4D
330
1F
100
AcDbEntity
  8
実線
100
AcDbCircle
 10
332.72546694725
 20
194.6281020001807
 30
0.0
 40
34.3
  0
ARC
  5
2AE4E
330
1F
100
AcDbEntity
  8
実線
100
AcDbCircle
 10
332.72546694725
 20
194.6281020001807
 30
0.0
 40
34.0117148
100
AcDbArc
 50
10.91465099999879
 51
169.0853490000012
  0
LINE
  5
2AE4F
330
1F
100
AcDbEntity
  8
実線
100
AcDbLine
 10
300.0494165472499
 20
200.1949598001809
 30
0.0
 11
299.3290129472494
 21
201.0681020001808
 31
0.0
  0
ARC
  5
2AE50
330
1F
100
AcDbEntity
  8
実線
100
AcDbCircle
 10
332.72546694725
 20
194.6281020001807
 30
0.0
 40
33.1468578
100
AcDbArc
 50
170.3316259999997
 51
9.668374000000214
  0
LINE
  5
2AE51
330
1F
100
AcDbEntity
  8
実線
100
AcDbLine
 10
365.4015173472499
 20
200.1949598001809
 30
0.0
 11
366.1219209472497
 21
201.0681020001808
 31
0.0
  0
CIRCLE
  5
2AE52
330
1F
100
AcDbEntity
  8
実線
100
AcDbCircle
 10
332.72546694725
 20
194.6281020001807
 30
0.0
 40
35.0
  0
LINE
  5
2AE53
330
1F
100
AcDbEntity
  8
実線
100
AcDbLine
 10
299.3290129472494
 20
201.0681020001808
 30
0.0
 11
366.1219209472497
 21
201.0681020001808
 31
0.0
  0
LINE
  5
2AE54
330
1F
100
AcDbEntity
  8
実線
100
AcDbLine
 10
300.0494165472499
 20
200.1949598001809
 30
0.0
 11
365.4015173472499
 21
200.1949598001809
 31
0.0
  0
LINE
  5
2AE55
330
1F
100
AcDbEntity
  8
実線
100
AcDbLine
 10
346.6554669472496
 20
215.6981020001808
 30
0.0
 11
352.2554669472497
 21
215.6981020001808
 31
0.0
  0
LINE
  5
2AE56
330
1F
100
AcDbEntity
  8
実線
100
AcDbLine
 10
344.1354669472496
 20
215.6981020001808
 30
0.0
 11
312.7754669472499
 21
215.6981020001808
 31
0.0
  0
LINE
  5
2AE57
330
1F
100
AcDbEntity
  8
実線
100
AcDbLine
 10
312.7754669472499
 20
215.6981020001808
 30
0.0
 11
312.7754669472499
 21
205.6181020001808
 31
0.0
  0
LINE
  5
2AE58
330
1F
100
AcDbEntity
  8
実線
100
AcDbLine
 10
352.2554669472497
 20
205.6181020001808
 30
0.0
 11
346.6554669472496
 21
205.6181020001808
 31
0.0
  0
LINE
  5
2AE59
330
1F
100
AcDbEntity
  8
実線
100
AcDbLine
 10
352.2554669472497
 20
215.6981020001808
 30
0.0
 11
352.2554669472497
 21
205.6181020001808
 31
0.0
  0
LINE
  5
2AE5A
330
1F
100
AcDbEntity
  8
実線
100
AcDbLine
 10
344.1354669472496
 20
205.6181020001808
 30
0.0
 11
344.1354669472496
 21
215.6981020001808
 31
0.0
  0
LINE
  5
2AE5B
330
1F
100
AcDbEntity
  8
実線
100
AcDbLine
 10
312.7754669472499
 20
205.6181020001808
 30
0.0
 11
344.1354669472496
 21
205.6181020001808
 31
0.0
  0
LINE
  5
2AE5C
330
1F
100
AcDbEntity
  8
実線
100
AcDbLine
 10
346.6554669472496
 20
205.6181020001808
 30
0.0
 11
346.6554669472496
 21
215.6981020001808
 31
0.0
  0
LINE
  5
2AE5D
330
1F
100
AcDbEntity
  8
実線
100
AcDbLine
 10
300.2584435472497
 20
199.9481020001808
 30
0.0
 11
300.0494165472499
 21
200.1949598001809
 31
0.0
  0
ARC
  5
2AE5E
330
1F
100
AcDbEntity
  8
実線
100
AcDbCircle
 10
332.72546694725
 20
194.6281020001807
 30
0.0
 40
32.9
100
AcDbArc
 50
170.694291999998
 51
9.305707999998686
  0
LINE
  5
2AE5F
330
1F
100
AcDbEntity
  8
実線
100
AcDbLine
 10
365.1924903472498
 20
199.9481020001808
 30
0.0
 11
365.4015173472499
 21
200.1949598001809
 31
0.0
  0
LINE
  5
2AE60
330
1F
100
AcDbEntity
  8
実線
100
AcDbLine
 10
300.2584435472497
 20
199.9481020001808
 30
0.0
 11
365.1924903472498
 21
199.9481020001808
 31
0.0
  0
CIRCLE
  5
2AE61
330
1F
100
AcDbEntity
  8
実線
100
AcDbCircle
 10
332.72546694725
 20
194.6281020001807
 30
0.0
 40
36.4
  0
CIRCLE
  5
2AE62
330
1F
100
AcDbEntity
  8
実線
100
AcDbCircle
 10
341.0160709472498
 20
173.8188282001808
 30
0.0
 40
2.799999999999999
  0
CIRCLE
  5
2AE63
330
1F
100
AcDbEntity
  8
実線
100
AcDbCircle
 10
354.3221903472497
 20
188.6832302001808
 30
0.0
 40
2.799999999999999
  0
TEXT
  5
2AE64
330
1F
100
AcDbEntity
  8
実線
100
AcDbText
 10
329.5939012062206
 20
165.1900140561304
 30
0.0
 40
2.799999999999999
  1
1L
 41
0.8
100
AcDbText
  0
CIRCLE
  5
2AE71
330
1F
100
AcDbEntity
  8
実線
100
AcDbCircle
 10
332.7254669472488
 20
194.6281020001801
 30
0.0
 40
49.0
  0
CIRCLE
  5
2AE72
330
1F
100
AcDbEntity
  8
実線
100
AcDbCircle
 10
332.7254669472488
 20
194.6281020001801
 30
0.0
 40
37.09999999999999
  0
CIRCLE
  5
2AE73
330
1F
100
AcDbEntity
  8
実線
100
AcDbCircle
 10
332.7254669472488
 20
194.6281020001801
 30
0.0
 40
40.59999999999999
  0
CIRCLE
  5
2AE74
330
1F
100
AcDbEntity
  8
実線
100
AcDbCircle
 10
332.7254669472488
 20
194.6281020001801
 30
0.0
 40
42.0
  0
HATCH
  5
2AE7D
330
1F
100
AcDbEntity
  8
細線
100
AcDbHatch
 10
0.0
 20
0.0
 30
0.0
210
0.0
220
0.0
230
1.0
  2
ANSI31
 70
     0
 71
     0
 91
        7
 92
       16
 93
        1
 72
     2
 10
345.3954669345791
 20
204.2181022343485
 40
1.399999999999999
 50
0.0
 51
360.0
 73
     1
 97
        0
 92
        1
 93
        2
 72
     1
 10
299.3290129345788
 20
201.0681022343486
 11
366.1219209345792
 21
201.0681022343486
 72
     2
 10
332.7254669345795
 20
194.6281022343485
 40
34.0117148
 50
10.91465099999818
 51
169.0853490000018
 73
     1
 97
        0
 92
       16
 93
        4
 72
     1
 10
346.6554669345791
 20
205.6181022343485
 11
346.6554669345791
 21
215.6981022343485
 72
     1
 10
346.6554669345791
 20
215.6981022343485
 11
352.2554669345792
 21
215.6981022343485
 72
     1
 10
352.2554669345792
 20
215.6981022343485
 11
352.2554669345792
 21
205.6181022343485
 72
     1
 10
352.2554669345792
 20
205.6181022343485
 11
346.6554669345791
 21
205.6181022343485
 97
        0
 92
       16
 93
        4
 72
     1
 10
312.7754669345794
 20
205.6181022343485
 11
344.1354669345791
 21
205.6181022343485
 72
     1
 10
344.1354669345791
 20
205.6181022343485
 11
344.1354669345791
 21
215.6981022343485
 72
     1
 10
344.1354669345791
 20
215.6981022343485
 11
312.7754669345794
 21
215.6981022343485
 72
     1
 10
312.7754669345794
 20
215.6981022343485
 11
312.7754669345794
 21
205.6181022343485
 97
        0
 92
       16
 93
        3
 72
     1
 10
352.2554669345792
 20
210.3781022343485
 11
356.8754669345793
 21
208.9781022343485
 72
     1
 10
356.8754669345793
 20
208.9781022343485
 11
356.8754669345793
 21
211.7781022343485
 72
     1
 10
356.8754669345793
 20
211.7781022343485
 11
352.2554669345792
 21
210.3781022343485
 97
        0
 92
       16
 93
       15
 72
     1
 10
341.8254669345794
 20
217.0281022343484
 11
342.5254669345794
 21
217.0281022343484
 72
     1
 10
342.5254669345794
 20
217.0281022343484
 11
342.5254669345794
 21
219.6531022343485
 72
     2
 10
340.9504669345793
 20
219.6531022343485
 40
1.575
 50
0.0
 51
141.0575590000011
 73
     1
 72
     2
 10
338.5004669345793
 20
219.6531022343485
 40
1.575
 50
38.94244099999883
 51
123.7489890000025
 73
     1
 72
     1
 10
337.6254669345793
 20
220.9626818343486
 11
337.6254669345793
 21
221.2281022343485
 72
     1
 10
337.6254669345793
 20
221.2281022343485
 11
336.9254669345793
 21
221.2281022343485
 72
     1
 10
336.9254669345793
 20
221.2281022343485
 11
336.9254669345793
 21
217.0281022343484
 72
     1
 10
336.9254669345793
 20
217.0281022343484
 11
337.6254669345793
 21
217.0281022343484
 72
     1
 10
337.6254669345793
 20
217.0281022343484
 11
337.6254669345793
 21
219.6531022343485
 72
     2
 10
338.5004669345793
 20
219.6531022343485
 40
0.875
 50
180.0
 51
360.0
 73
     0
 72
     1
 10
339.3754669345793
 20
219.6531022343485
 11
339.3754669345793
 21
217.0281022343484
 72
     1
 10
339.3754669345793
 20
217.0281022343484
 11
340.0754669345794
 21
217.0281022343484
 72
     1
 10
340.0754669345794
 20
217.0281022343484
 11
340.0754669345794
 21
219.6531022343485
 72
     2
 10
340.9504669345793
 20
219.6531022343485
 40
0.875
 50
180.0
 51
360.0
 73
     0
 72
     1
 10
341.8254669345794
 20
219.6531022343485
 11
341.8254669345794
 21
217.0281022343484
 97
        0
 92
       16
 93
       53
 72
     1
 10
343.4331989345791
 20
222.3656442343485
 11
343.0538829345791
 21
222.5459754343484
 72
     1
 10
343.0538829345791
 20
222.5459754343484
 11
343.1570125345789
 21
222.7629026343485
 72
     1
 10
343.1570125345789
 20
222.7629026343485
 11
343.3813905345795
 21
222.9988964343485
 72
     1
 10
343.3813905345795
 20
222.9988964343485
 11
343.605414334579
 21
223.1167274343485
 72
     1
 10
343.605414334579
 20
223.1167274343485
 11
344.038588334579
 21
223.2569150343485
 72
     1
 10
344.038588334579
 20
223.2569150343485
 11
344.5485173345791
 21
223.2569150343485
 72
     1
 10
344.5485173345791
 20
223.2569150343485
 11
344.9816913345793
 21
223.1167274343485
 72
     1
 10
344.9816913345793
 20
223.1167274343485
 11
345.2057151345794
 21
222.9988964343485
 72
     1
 10
345.2057151345794
 20
222.9988964343485
 11
345.430100134579
 21
222.7628942343484
 72
     1
 10
345.430100134579
 20
222.7628942343484
 11
345.5535409345795
 21
222.5031760343485
 72
     1
 10
345.5535409345795
 20
222.5031760343485
 11
345.5535409345795
 21
222.1346764343485
 72
     1
 10
345.5535409345795
 20
222.1346764343485
 11
345.4343379345793
 21
221.8420778343485
 72
     1
 10
345.4343379345793
 20
221.8420778343485
 11
345.2340119345794
 21
221.6313624343485
 72
     1
 10
345.2340119345794
 20
221.6313624343485
 11
345.430100134579
 21
221.4251200343484
 72
     1
 10
345.430100134579
 20
221.4251200343484
 11
345.5535409345795
 21
221.1654018343485
 72
     1
 10
345.5535409345795
 20
221.1654018343485
 11
345.5535409345795
 21
220.7595628343486
 72
     1
 10
345.5535409345795
 20
220.7595628343486
 11
345.4301029345794
 21
220.4998502343486
 72
     1
 10
345.4301029345794
 20
220.4998502343486
 11
345.205713734579
 21
220.2638214343484
 72
     1
 10
345.205713734579
 20
220.2638214343484
 11
344.9746479345791
 21
220.1423098343486
 72
     1
 10
344.9746479345791
 20
220.1423098343486
 11
344.5405037345794
 21
220.0369318343486
 72
     1
 10
344.5405037345794
 20
220.0369318343486
 11
344.0466019345789
 21
220.0369318343486
 72
     1
 10
344.0466019345789
 20
220.0369318343486
 11
343.599136734579
 21
220.1455424343486
 72
     1
 10
343.599136734579
 20
220.1455424343486
 11
343.2832701345793
 21
220.3670308343486
 72
     1
 10
343.2832701345793
 20
220.3670308343486
 11
343.0913511345794
 21
220.5688856343485
 72
     1
 10
343.0913511345794
 20
220.5688856343485
 11
343.3957307345792
 21
220.8582852343485
 72
     1
 10
343.3957307345792
 20
220.8582852343485
 11
343.5587481345793
 21
220.6868300343485
 72
     1
 10
343.5587481345793
 20
220.6868300343485
 11
343.7753071345793
 21
220.5349776343486
 72
     1
 10
343.7753071345793
 20
220.5349776343486
 11
344.0968451345794
 21
220.4569318343484
 72
     1
 10
344.0968451345794
 20
220.4569318343484
 11
344.4902605345796
 21
220.4569318343484
 72
     1
 10
344.4902605345796
 20
220.4569318343484
 11
344.8251195345794
 21
220.5382102343484
 72
     1
 10
344.8251195345794
 20
220.5382102343484
 11
344.9489901345793
 21
220.6033508343486
 72
     1
 10
344.9489901345793
 20
220.6033508343486
 11
345.0795345345792
 21
220.7406670343486
 72
     1
 10
345.0795345345792
 20
220.7406670343486
 11
345.1335409345792
 21
220.8542952343484
 72
     1
 10
345.1335409345792
 20
220.8542952343484
 11
345.1335409345792
 21
221.0706694343486
 72
     1
 10
345.1335409345792
 20
221.0706694343486
 11
345.079537334579
 21
221.1842948343485
 72
     1
 10
345.079537334579
 20
221.1842948343485
 11
344.9489915345793
 21
221.3215984343485
 72
     1
 10
344.9489915345793
 20
221.3215984343485
 11
344.6705609345792
 21
221.4680342343485
 72
     1
 10
344.6705609345792
 20
221.4680342343485
 11
343.8055107345791
 21
221.4680342343485
 72
     1
 10
343.8055107345791
 20
221.4680342343485
 11
343.8055107345791
 21
221.8880342343485
 72
     1
 10
343.8055107345791
 20
221.8880342343485
 11
344.6952681345791
 21
221.8880342343485
 72
     1
 10
344.6952681345791
 20
221.8880342343485
 11
344.9662577345795
 21
221.9592872343486
 72
     1
 10
344.9662577345795
 20
221.9592872343486
 11
345.0752995345794
 21
222.0739850343485
 72
     1
 10
345.0752995345794
 20
222.0739850343485
 11
345.1335409345792
 21
222.2169460343486
 72
     1
 10
345.1335409345792
 20
222.2169460343486
 11
345.1335409345792
 21
222.4084436343484
 72
     1
 10
345.1335409345792
 20
222.4084436343484
 11
345.079537334579
 21
222.5220676343484
 72
     1
 10
345.079537334579
 20
222.5220676343484
 11
344.9489887345791
 21
222.6593740343485
 72
     1
 10
344.9489887345791
 20
222.6593740343485
 11
344.8180761345792
 21
222.7282316343484
 72
     1
 10
344.8180761345792
 20
222.7282316343484
 11
344.4822469345794
 21
222.8369150343484
 72
     1
 10
344.4822469345794
 20
222.8369150343484
 11
344.1048587345791
 21
222.8369150343484
 72
     1
 10
344.1048587345791
 20
222.8369150343484
 11
343.7690295345791
 21
222.7282316343484
 72
     1
 10
343.7690295345791
 20
222.7282316343484
 11
343.6381169345795
 21
222.6593740343485
 72
     1
 10
343.6381169345795
 20
222.6593740343485
 11
343.5075613345792
 21
222.5220592343486
 72
     1
 10
343.5075613345792
 20
222.5220592343486
 11
343.4331989345791
 21
222.3656442343485
 97
        0
 75
     0
 76
     1
 52
0.0
 41
0.4200000000000001
 77
     0
 78
     1
 53
45.0
 43
-109.7827096791446
 44
-114.6825091975358
 45
-0.9429268927122608
 46
0.942926892712261
 79
     0
 98
        1
 10
-328.8599598051433
 20
-81.66010810061369
1001
ACAD
1010
0.0
1020
0.0
1030
0.0
  0
HATCH
  5
2AFF2
330
1F
100
AcDbEntity
  8
細線
100
AcDbHatch
 10
0.0
 20
0.0
 30
0.0
210
0.0
220
0.0
230
1.0
  2
SOLID
 70
     1
 71
     0
 91
        4
 92
        7
 72
     1
 73
     1
 93
       10
 10
332.72546694725
 20
215.6981020001807
 42
0.0
 10
330.2754669472499
 20
215.6981020001807
 42
0.0
 10
330.2754669472499
 20
205.6181020001809
 42
0.0
 10
332.72546694725
 20
205.6181020001809
 42
0.0
 10
332.72546694725
 20
207.5081020001808
 42
0.0
 10
332.3054669472497
 20
207.5081020001808
 42
-0.4142135623730951
 10
330.9054669472497
 20
208.9081020001807
 42
0.0
 10
330.9054669472497
 20
212.4081020001808
 42
-0.4142135623730951
 10
332.3054669472497
 20
213.8081020001807
 42
0.0
 10
332.72546694725
 20
213.8081020001807
 42
0.0
 97
        0
 92
        7
 72
     1
 73
     1
 93
       10
 10
335.0354669472497
 20
215.6981020001807
 42
0.0
 10
332.72546694725
 20
215.6981020001807
 42
0.0
 10
332.72546694725
 20
213.8081020001807
 42
0.0
 10
333.0054669472497
 20
213.8081020001807
 42
-0.4142135623730951
 10
334.4054669472497
 20
212.4081020001808
 42
0.0
 10
334.4054669472497
 20
208.9081020001807
 42
-0.4142135623730951
 10
333.0054669472497
 20
207.5081020001808
 42
0.0
 10
332.72546694725
 20
207.5081020001808
 42
0.0
 10
332.72546694725
 20
205.6181020001809
 42
0.0
 10
335.0354669472497
 20
205.6181020001809
 42
0.0
 97
        0
 92
       23
 72
     1
 73
     1
 93
        6
 10
332.72546694725
 20
213.1081020001807
 42
0.0
 10
332.3054669472497
 20
213.1081020001807
 42
0.4142135623730951
 10
331.6054669472496
 20
212.4081020001808
 42
0.0
 10
331.6054669472496
 20
208.9081020001807
 42
0.4142135623730951
 10
332.3054669472497
 20
208.2081020001807
 42
0.0
 10
332.72546694725
 20
208.2081020001807
 42
0.0
 97
        0
 92
       23
 72
     1
 73
     1
 93
        6
 10
333.7054669472498
 20
212.4081020001808
 42
0.4142135623730951
 10
333.0054669472497
 20
213.1081020001807
 42
0.0
 10
332.72546694725
 20
213.1081020001807
 42
0.0
 10
332.72546694725
 20
208.2081020001807
 42
0.0
 10
333.0054669472497
 20
208.2081020001807
 42
0.4142135623730951
 10
333.7054669472498
 20
208.9081020001807
 42
0.0
 97
        0
 75
     0
 76
     1
 47
0.0699458268595824
 98
        4
 10
331.0131738367342
 20
214.3792756665972
 10
334.1498429071896
 20
214.477199818427
 10
332.5815095829685
 20
210.9519303525571
 10
333.5617176078551
 20
210.8540062007273
450
        0
451
        0
460
0.0
461
0.0
452
        1
462
1.0
453
        2
463
0.0
 63
     5
421
      255
463
1.0
 63
     7
421
 16777215
470
LINEAR
1001
ACAD
1010
0.0
1020
0.0
1030
0.0
  0
HATCH
  5
2AFF3
330
1F
100
AcDbEntity
  8
細線
100
AcDbHatch
 10
0.0
 20
0.0
 30
0.0
210
0.0
220
0.0
230
1.0
  2
SOLID
 70
     1
 71
     0
 91
        3
 92
        7
 72
     0
 73
     1
 93
        4
 10
343.4354669472498
 20
215.6981020001807
 10
338.67546694725
 20
215.6981020001807
 10
338.67546694725
 20
205.6181020001809
 10
343.4354669472498
 20
205.6181020001809
 97
        0
 92
       22
 72
     1
 73
     1
 93
        8
 10
340.7054669472497
 20
213.8081020001807
 42
0.0
 10
341.4054669472497
 20
213.8081020001807
 42
-0.4142135623730951
 10
342.8054669472497
 20
212.4081020001808
 42
0.0
 10
342.8054669472497
 20
208.9081020001807
 42
-0.4142135623730951
 10
341.4054669472497
 20
207.5081020001808
 42
0.0
 10
340.7054669472497
 20
207.5081020001808
 42
-0.4142135623730951
 10
339.3054669472497
 20
208.9081020001807
 42
0.0
 10
339.3054669472497
 20
212.4081020001808
 42
-0.4142135623730951
 97
        0
 92
        6
 72
     1
 73
     1
 93
        8
 10
340.7054669472497
 20
213.1081020001807
 42
0.0
 10
341.4054669472497
 20
213.1081020001807
 42
-0.4142135623730951
 10
342.1054669472496
 20
212.4081020001808
 42
0.0
 10
342.1054669472496
 20
208.9081020001807
 42
-0.4142135623730951
 10
341.4054669472497
 20
208.2081020001807
 42
0.0
 10
340.7054669472497
 20
208.2081020001807
 42
-0.4142135623730951
 10
340.0054669472497
 20
208.9081020001807
 42
0.0
 10
340.0054669472497
 20
212.4081020001808
 42
-0.4142135623730951
 97
        0
 75
     0
 76
     1
 47
0.0699458268595824
 98
        3
 10
340.0310983225488
 20
214.1834273629378
 10
340.0310983225488
 20
214.1834273629378
 10
340.0310983225488
 20
214.1834273629378
450
        0
451
        0
460
0.0
461
0.0
452
        1
462
1.0
453
        2
463
0.0
 63
     5
421
      255
463
1.0
 63
     7
421
 16777215
470
LINEAR
1001
ACAD
1010
0.0
1020
0.0
1030
0.0
  0
HATCH
  5
2AFF4
330
1F
100
AcDbEntity
  8
細線
100
AcDbHatch
 10
0.0
 20
0.0
 30
0.0
210
0.0
220
0.0
230
1.0
  2
SOLID
 70
     1
 71
     0
 91
        3
 92
        7
 72
     0
 73
     1
 93
        4
 10
326.6354669472498
 20
215.6981020001807
 10
321.8754669472499
 20
215.6981020001807
 10
321.8754669472499
 20
205.6181020001809
 10
326.6354669472498
 20
205.6181020001809
 97
        0
 92
       22
 72
     1
 73
     1
 93
        8
 10
326.0054669472497
 20
212.4081020001808
 42
0.0
 10
326.0054669472497
 20
208.9081020001807
 42
-0.4142135623730951
 10
324.6054669472496
 20
207.5081020001808
 42
0.0
 10
323.9054669472497
 20
207.5081020001808
 42
-0.4142135623730951
 10
322.5054669472497
 20
208.9081020001807
 42
0.0
 10
322.5054669472497
 20
212.4081020001808
 42
-0.4142135623730951
 10
323.9054669472497
 20
213.8081020001807
 42
0.0
 10
324.6054669472496
 20
213.8081020001807
 42
-0.4142135623730951
 97
        0
 92
        6
 72
     1
 73
     1
 93
        8
 10
325.3054669472497
 20
212.4081020001808
 42
0.0
 10
325.3054669472497
 20
208.9081020001807
 42
-0.4142135623730951
 10
324.6054669472496
 20
208.2081020001807
 42
0.0
 10
323.9054669472497
 20
208.2081020001807
 42
-0.4142135623730951
 10
323.2054669472498
 20
208.9081020001807
 42
0.0
 10
323.2054669472498
 20
212.4081020001808
 42
-0.4142135623730951
 10
323.9054669472497
 20
213.1081020001807
 42
0.0
 10
324.6054669472496
 20
213.1081020001807
 42
-0.4142135623730953
 97
        0
 75
     0
 76
     1
 47
0.0699458268595824
 98
        3
 10
325.6220248558315
 20
214.3792756665972
 10
325.6220248558315
 20
214.3792756665972
 10
325.6220248558315
 20
214.3792756665972
450
        0
451
        0
460
0.0
461
0.0
452
        1
462
1.0
453
        2
463
0.0
 63
     5
421
      255
463
1.0
 63
     7
421
 16777215
470
LINEAR
1001
ACAD
1010
0.0
1020
0.0
1030
0.0
  0
HATCH
  5
2AFF5
330
1F
100
AcDbEntity
  8
細線
100
AcDbHatch
 10
0.0
 20
0.0
 30
0.0
210
0.0
220
0.0
230
1.0
  2
SOLID
 70
     1
 71
     0
 91
        3
 92
        7
 72
     0
 73
     1
 93
        4
 10
318.2354669472498
 20
215.6981020001807
 10
313.47546694725
 20
215.6981020001807
 10
313.47546694725
 20
205.6181020001809
 10
318.2354669472498
 20
205.6181020001809
 97
        0
 92
       22
 72
     1
 73
     1
 93
        8
 10
317.6054669472496
 20
212.4081020001808
 42
0.0
 10
317.6054669472496
 20
208.9081020001807
 42
-0.4142135623730951
 10
316.2054669472498
 20
207.5081020001808
 42
0.0
 10
315.5054669472497
 20
207.5081020001808
 42
-0.4142135623730951
 10
314.1054669472496
 20
208.9081020001807
 42
0.0
 10
314.1054669472496
 20
212.4081020001808
 42
-0.4142135623730951
 10
315.5054669472497
 20
213.8081020001807
 42
0.0
 10
316.2054669472498
 20
213.8081020001807
 42
-0.4142135623730951
 97
        0
 92
        6
 72
     1
 73
     1
 93
        8
 10
316.2054669472498
 20
213.1081020001807
 42
-0.4142135623730951
 10
316.9054669472497
 20
212.4081020001808
 42
0.0
 10
316.9054669472497
 20
208.9081020001807
 42
-0.4142135623730951
 10
316.2054669472498
 20
208.2081020001807
 42
0.0
 10
315.5054669472497
 20
208.2081020001807
 42
-0.4142135623730951
 10
314.8054669472497
 20
208.9081020001807
 42
0.0
 10
314.8054669472497
 20
212.4081020001808
 42
-0.4142135623730951
 10
315.5054669472497
 20
213.1081020001807
 42
0.0
 97
        0
 75
     0
 76
     1
 47
0.0699458268595824
 98
        3
 10
316.3100365093426
 20
214.6730481220863
 10
316.3100365093426
 20
214.6730481220863
 10
316.3100365093426
 20
214.6730481220863
450
        0
451
        0
460
0.0
461
0.0
452
        1
462
1.0
453
        2
463
0.0
 63
     5
421
      255
463
1.0
 63
     7
421
 16777215
470
LINEAR
1001
ACAD
1010
0.0
1020
0.0
1030
0.0
  0
HATCH
  5
2AFF6
330
1F
100
AcDbEntity
  8
細線
100
AcDbHatch
 10
0.0
 20
0.0
 30
0.0
210
0.0
220
0.0
230
1.0
  2
SOLID
 70
     1
 71
     0
 91
        1
 92
        7
 72
     0
 73
     1
 93
        6
 10
349.1054669472496
 20
207.5081020001808
 10
349.8054669472497
 20
207.5081020001808
 10
349.8054669472497
 20
213.8081020001807
 10
349.1054669472496
 20
213.8081020001807
 10
347.72989766462
 20
212.4485408921072
 10
349.1054669472496
 20
213.1081020001807
 97
        0
 75
     0
 76
     1
 47
0.0305864353530903
 98
        1
 10
349.3293175253056
 20
211.1422507510038
450
        0
451
        0
460
0.0
461
0.0
452
        1
462
1.0
453
        2
463
0.0
 63
     5
421
      255
463
1.0
 63
     7
421
 16777215
470
LINEAR
1001
ACAD
1010
0.0
1020
0.0
1030
0.0
  0
LINE
  5
2AFF7
330
1F
100
AcDbEntity
  8
実線
100
AcDbLine
 10
349.8054669472497
 20
207.5081020001808
 30
0.0
 11
349.1054669472496
 21
207.5081020001808
 31
0.0
  0
LINE
  5
2AFF8
330
1F
100
AcDbEntity
  8
実線
100
AcDbLine
 10
349.8054669472497
 20
213.8081020001807
 30
0.0
 11
349.1054669472496
 21
213.8081020001807
 31
0.0
  0
LINE
  5
2AFF9
330
1F
100
AcDbEntity
  8
実線
100
AcDbLine
 10
349.8054669472497
 20
207.5081020001808
 30
0.0
 11
349.8054669472497
 21
213.8081020001807
 31
0.0
  0
LINE
  5
2AFFA
330
1F
100
AcDbEntity
  8
実線
100
AcDbLine
 10
349.1054669472496
 20
207.5081020001808
 30
0.0
 11
349.1054669472496
 21
213.1081020001807
 31
0.0
  0
LINE
  5
2AFFB
330
1F
100
AcDbEntity
  8
実線
100
AcDbLine
 10
349.1054669472496
 20
213.8081020001807
 30
0.0
 11
347.72989766462
 21
212.4485408921072
 31
0.0
  0
LINE
  5
2AFFC
330
1F
100
AcDbEntity
  8
実線
100
AcDbLine
 10
347.72989766462
 20
212.4485408921072
 30
0.0
 11
349.1054669472496
 21
213.1081020001807
 31
0.0
  0
LINE
  5
2B24D
330
1F
100
AcDbEntity
  8
実線
100
AcDbLine
 10
108.8204441348528
 20
144.3239989944877
 30
0.0
 11
108.8204441348528
 21
132.6239989944877
 31
0.0
  0
LINE
  5
2B24E
330
1F
100
AcDbEntity
  8
実線
100
AcDbLine
 10
195.8204441348527
 20
142.3239989944877
 30
0.0
 11
195.8204441348527
 21
141.1239989944878
 31
0.0
  0
LINE
  5
2B24F
330
1F
100
AcDbEntity
  8
実線
100
AcDbLine
 10
115.8204441348527
 20
137.1239989944877
 30
0.0
 11
190.8204441348527
 21
137.1239989944877
 31
0.0
  0
LINE
  5
2B250
330
1F
100
AcDbEntity
  8
実線
100
AcDbLine
 10
116.6204441348527
 20
143.1239989944876
 30
0.0
 11
118.5204441348528
 21
143.1239989944876
 31
0.0
  0
LINE
  5
2B251
330
1F
100
AcDbEntity
  8
実線
100
AcDbLine
 10
117.3204441348528
 20
139.1239989944876
 30
0.0
 11
189.3204441348528
 21
139.1239989944876
 31
0.0
  0
LINE
  5
2B252
330
1F
100
AcDbEntity
  8
実線
100
AcDbLine
 10
117.3204441348528
 20
137.1239989944877
 30
0.0
 11
117.3204441348528
 21
139.1239989944876
 31
0.0
  0
LINE
  5
2B253
330
1F
100
AcDbEntity
  8
実線
100
AcDbLine
 10
189.3204441348528
 20
139.1239989944876
 30
0.0
 11
189.3204441348528
 21
137.1239989944877
 31
0.0
  0
LINE
  5
2B254
330
1F
100
AcDbEntity
  8
実線
100
AcDbLine
 10
119.3204441348528
 20
142.1239989944876
 30
0.0
 11
156.3204441348528
 21
142.1239989944876
 31
0.0
  0
LINE
  5
2B255
330
1F
100
AcDbEntity
  8
実線
100
AcDbLine
 10
190.8204441348527
 20
142.3239989944877
 30
0.0
 11
190.8204441348527
 21
137.1239989944877
 31
0.0
  0
LINE
  5
2B256
330
1F
100
AcDbEntity
  8
実線
100
AcDbLine
 10
115.8204441348527
 20
142.3239989944877
 30
0.0
 11
115.8204441348527
 21
132.6239989944877
 31
0.0
  0
LINE
  5
2B257
330
1F
100
AcDbEntity
  8
実線
100
AcDbLine
 10
190.8204441348527
 20
141.1239989944876
 30
0.0
 11
195.8204441348527
 21
141.1239989944878
 31
0.0
  0
ARC
  5
2B258
330
1F
100
AcDbEntity
  8
実線
100
AcDbCircle
 10
195.0204441348527
 20
142.3239989944877
 30
0.0
 40
0.8
100
AcDbArc
 50
0.0
 51
90.0
  0
ARC
  5
2B259
330
1F
100
AcDbEntity
  8
実線
100
AcDbCircle
 10
190.0204441348528
 20
142.3239989944877
 30
0.0
 40
0.8
100
AcDbArc
 50
0.0
 51
90.0
  0
LINE
  5
2B25A
330
1F
100
AcDbEntity
  8
実線
100
AcDbLine
 10
195.0204441348527
 20
143.1239989944876
 30
0.0
 11
190.0204441348528
 21
143.1239989944876
 31
0.0
  0
LINE
  5
2B25B
330
1F
100
AcDbEntity
  8
実線
100
AcDbLine
 10
156.3204441348528
 20
143.1239989944876
 30
0.0
 11
156.3204441348528
 21
142.1239989944876
 31
0.0
  0
LINE
  5
2B25C
330
1F
100
AcDbEntity
  8
実線
100
AcDbLine
 10
166.3204441348528
 20
143.1239989944876
 30
0.0
 11
166.3204441348528
 21
142.1239989944876
 31
0.0
  0
LINE
  5
2B25D
330
1F
100
AcDbEntity
  8
実線
100
AcDbLine
 10
116.6204441348527
 20
143.1239989944876
 30
0.0
 11
108.8204441348528
 21
143.1239989944876
 31
0.0
  0
LINE
  5
2B25E
102
{ACAD_REACTORS
330
2B3F1
102
}
330
1F
100
AcDbEntity
  8
実線
100
AcDbLine
 10
118.5204441348528
 20
145.1239989944876
 30
0.0
 11
109.6204441348527
 21
145.1239989944876
 31
0.0
  0
LINE
  5
2B25F
330
1F
100
AcDbEntity
  8
実線
100
AcDbLine
 10
115.8204441348527
 20
139.1239989944876
 30
0.0
 11
108.8204441348528
 21
139.1239989944876
 31
0.0
  0
ARC
  5
2B260
330
1F
100
AcDbEntity
  8
実線
100
AcDbCircle
 10
109.6204441348527
 20
144.3239989944877
 30
0.0
 40
0.8
100
AcDbArc
 50
90.0
 51
180.0
  0
LINE
  5
2B261
330
1F
100
AcDbEntity
  8
実線
100
AcDbLine
 10
187.3204441348527
 20
142.3239989944877
 30
0.0
 11
187.3204441348527
 21
142.1239989944876
 31
0.0
  0
LINE
  5
2B262
330
1F
100
AcDbEntity
  8
実線
100
AcDbLine
 10
119.3204441348528
 20
142.3239989944877
 30
0.0
 11
119.3204441348528
 21
142.1239989944876
 31
0.0
  0
ARC
  5
2B263
330
1F
100
AcDbEntity
  8
実線
100
AcDbCircle
 10
118.5204441348528
 20
144.3239989944877
 30
0.0
 40
0.8
100
AcDbArc
 50
0.0
 51
90.0
  0
ARC
  5
2B264
330
1F
100
AcDbEntity
  8
実線
100
AcDbCircle
 10
112.3204441348528
 20
132.6239989944877
 30
0.0
 40
3.5
100
AcDbArc
 50
180.0
 51
0.0
  0
CIRCLE
  5
2B265
330
1F
100
AcDbEntity
  8
実線
100
AcDbCircle
 10
112.3204441348528
 20
132.6239989944877
 30
0.0
 40
1.35
  0
ARC
  5
2B266
330
1F
100
AcDbEntity
  8
実線
100
AcDbCircle
 10
116.6204441348527
 20
142.3239989944877
 30
0.0
 40
0.8
100
AcDbArc
 50
90.0
 51
180.0
  0
ARC
  5
2B267
330
1F
100
AcDbEntity
  8
実線
100
AcDbCircle
 10
118.5204441348528
 20
142.3239989944877
 30
0.0
 40
0.8
100
AcDbArc
 50
0.0
 51
90.0
  0
LINE
  5
2B268
330
1F
100
AcDbEntity
  8
実線
100
AcDbLine
 10
119.3204441348528
 20
144.3239989944877
 30
0.0
 11
119.3204441348528
 21
142.3239989944877
 31
0.0
  0
LINE
  5
2B269
330
1F
100
AcDbEntity
  8
実線
100
AcDbLine
 10
188.1204441348527
 20
143.1239989944876
 30
0.0
 11
190.0204441348528
 21
143.1239989944876
 31
0.0
  0
ARC
  5
2B26A
330
1F
100
AcDbEntity
  8
実線
100
AcDbCircle
 10
188.1204441348527
 20
142.3239989944877
 30
0.0
 40
0.8
100
AcDbArc
 50
90.0
 51
180.0
  0
LINE
  5
2B26B
330
1F
100
AcDbEntity
  8
実線
100
AcDbLine
 10
118.5204441348528
 20
143.1239989944876
 30
0.0
 11
188.1204441348527
 21
143.1239989944876
 31
0.0
  0
LINE
  5
2B26C
330
1F
100
AcDbEntity
  8
実線
100
AcDbLine
 10
172.8204441348528
 20
143.1239989944876
 30
0.0
 11
172.8204441348528
 21
142.1239989944876
 31
0.0
  0
LINE
  5
2B26D
330
1F
100
AcDbEntity
  8
実線
100
AcDbLine
 10
178.8204441348528
 20
143.1239989944876
 30
0.0
 11
178.8204441348528
 21
142.1239989944876
 31
0.0
  0
LINE
  5
2B26E
330
1F
100
AcDbEntity
  8
実線
100
AcDbLine
 10
153.3204441348527
 20
143.1239989944876
 30
0.0
 11
153.3204441348527
 21
142.1239989944876
 31
0.0
  0
LINE
  5
2B26F
330
1F
100
AcDbEntity
  8
実線
100
AcDbLine
 10
141.3204441348528
 20
143.1239989944876
 30
0.0
 11
141.3204441348528
 21
142.1239989944876
 31
0.0
  0
LINE
  5
2B270
330
1F
100
AcDbEntity
  8
実線
100
AcDbLine
 10
132.3204441348527
 20
143.1239989944876
 30
0.0
 11
132.3204441348527
 21
142.1239989944876
 31
0.0
  0
LINE
  5
2B271
330
1F
100
AcDbEntity
  8
実線
100
AcDbLine
 10
124.3204441348527
 20
143.1239989944876
 30
0.0
 11
124.3204441348527
 21
142.1239989944876
 31
0.0
  0
LINE
  5
2B272
330
1F
100
AcDbEntity
  8
実線
100
AcDbLine
 10
166.3204441348528
 20
142.1239989944876
 30
0.0
 11
187.3204441348527
 21
142.1239989944876
 31
0.0
  0
LINE
  5
2B273
330
1F
100
AcDbEntity
  8
実線
100
AcDbLine
 10
197.8204441348528
 20
132.6239989944877
 30
0.0
 11
197.8204441348528
 21
115.6239989944877
 31
0.0
  0
LINE
  5
2B274
330
1F
100
AcDbEntity
  8
実線
100
AcDbLine
 10
108.8204441348528
 20
132.6239989944877
 30
0.0
 11
108.8204441348528
 21
115.6239989944877
 31
0.0
  0
LINE
  5
2B275
330
1F
100
AcDbEntity
  8
実線
100
AcDbLine
 10
117.8204441348527
 20
137.6239989944876
 30
0.0
 11
188.8204441348527
 21
137.6239989944876
 31
0.0
  0
LINE
  5
2B276
330
1F
100
AcDbEntity
  8
実線
100
AcDbLine
 10
115.8204441348527
 20
112.6239989944877
 30
0.0
 11
190.8204441348527
 21
112.6239989944877
 31
0.0
  0
LINE
  5
2B277
330
1F
100
AcDbEntity
  8
実線
100
AcDbLine
 10
112.3204441348528
 20
136.1239989944877
 30
0.0
 11
153.3204441348527
 21
136.1239989944877
 31
0.0
  0
LINE
  5
2B278
330
1F
100
AcDbEntity
  8
実線
100
AcDbLine
 10
109.8204441348528
 20
114.6239989944877
 30
0.0
 11
113.8204441348527
 21
114.6239989944877
 31
0.0
  0
LINE
  5
2B279
330
1F
100
AcDbEntity
  8
実線
100
AcDbLine
 10
115.8204441348527
 20
128.6239989944877
 30
0.0
 11
190.3204441348526
 21
128.6239989944877
 31
0.0
  0
LINE
  5
2B27A
330
1F
100
AcDbEntity
  8
実線
100
AcDbLine
 10
117.8204441348527
 20
137.6239989944876
 30
0.0
 11
117.8204441348527
 21
136.1239989944877
 31
0.0
  0
LINE
  5
2B27B
330
1F
100
AcDbEntity
  8
実線
100
AcDbLine
 10
188.8204441348527
 20
137.6239989944876
 30
0.0
 11
188.8204441348527
 21
136.1239989944877
 31
0.0
  0
LINE
  5
2B27C
330
1F
100
AcDbEntity
  8
実線
100
AcDbLine
 10
153.3204441348527
 20
136.1239989944877
 30
0.0
 11
194.3204441348528
 21
136.1239989944877
 31
0.0
  0
LINE
  5
2B27D
330
1F
100
AcDbEntity
  8
実線
100
AcDbLine
 10
192.8204441348528
 20
114.6239989944877
 30
0.0
 11
196.8204441348527
 21
114.6239989944877
 31
0.0
  0
LINE
  5
2B27E
330
1F
100
AcDbEntity
  8
実線
100
AcDbLine
 10
190.3204441348528
 20
136.1239989944877
 30
0.0
 11
190.3204441348528
 21
128.6239989944877
 31
0.0
  0
LINE
  5
2B27F
330
1F
100
AcDbEntity
  8
実線
100
AcDbLine
 10
116.3204441348528
 20
132.3739989944877
 30
0.0
 11
116.3204441348528
 21
128.6239989944877
 31
0.0
  0
LINE
  5
2B280
330
1F
100
AcDbEntity
  8
実線
100
AcDbLine
 10
190.3204441348528
 20
128.6239989944877
 30
0.0
 11
190.8204441348527
 21
128.6239989944877
 31
0.0
  0
LINE
  5
2B281
330
1F
100
AcDbEntity
  8
実線
100
AcDbLine
 10
191.8204441348527
 20
113.8239989944877
 30
0.0
 11
191.8204441348527
 21
113.6239989944877
 31
0.0
  0
ARC
  5
2B282
330
1F
100
AcDbEntity
  8
実線
100
AcDbCircle
 10
112.3204441348528
 20
132.6239989944877
 30
0.0
 40
3.5
100
AcDbArc
 50
90.0
 51
180.0
  0
ARC
  5
2B283
330
1F
100
AcDbEntity
  8
実線
100
AcDbCircle
 10
194.3204441348528
 20
132.6239989944877
 30
0.0
 40
3.5
100
AcDbArc
 50
0.0
 51
90.0
  0
LINE
  5
2B284
330
1F
100
AcDbEntity
  8
実線
100
AcDbLine
 10
114.8204441348527
 20
113.6239989944877
 30
0.0
 11
114.8204441348527
 21
113.6239989944877
 31
0.0
  0
LINE
  5
2B285
330
1F
100
AcDbEntity
  8
実線
100
AcDbLine
 10
150.3204441348527
 20
126.6239989944877
 30
0.0
 11
153.3204441348527
 21
126.6239989944877
 31
0.0
  0
LINE
  5
2B286
330
1F
100
AcDbEntity
  8
実線
100
AcDbLine
 10
191.8204441348527
 20
113.6239989944877
 30
0.0
 11
191.8204441348527
 21
113.6239989944877
 31
0.0
  0
ARC
  5
2B287
330
1F
100
AcDbEntity
  8
実線
100
AcDbCircle
 10
115.8204441348527
 20
127.6239989944877
 30
0.0
 40
1.0
100
AcDbArc
 50
90.0
 51
180.0
  0
ARC
  5
2B288
330
1F
100
AcDbEntity
  8
実線
100
AcDbCircle
 10
87.0420154270106
 20
138.914152845874
 30
0.0
 40
30.0
100
AcDbArc
 50
316.5477361277678
 51
354.6634862983414
  0
LINE
  5
2B289
330
1F
100
AcDbEntity
  8
実線
100
AcDbLine
 10
150.3204441348527
 20
114.6239989944877
 30
0.0
 11
153.3204441348527
 21
114.6239989944877
 31
0.0
  0
ARC
  5
2B28D
330
1F
100
AcDbEntity
  8
実線
100
AcDbCircle
 10
190.8204441348527
 20
127.6239989944877
 30
0.0
 40
1.0
100
AcDbArc
 50
0.0
 51
90.0
  0
ARC
  5
2B28E
330
1F
100
AcDbEntity
  8
実線
100
AcDbCircle
 10
190.8204441348527
 20
113.6239989944877
 30
0.0
 40
1.0
100
AcDbArc
 50
270.0
 51
0.0
  0
ARC
  5
2B28F
330
1F
100
AcDbEntity
  8
実線
100
AcDbCircle
 10
192.8204441348528
 20
113.6239989944877
 30
0.0
 40
1.0
100
AcDbArc
 50
90.0
 51
180.0
  0
LINE
  5
2B290
330
1F
100
AcDbEntity
  8
実線
100
AcDbLine
 10
191.8204441348527
 20
113.6239989944877
 30
0.0
 11
191.8204441348527
 21
127.6239989944877
 31
0.0
  0
ARC
  5
2B291
330
1F
100
AcDbEntity
  8
実線
100
AcDbCircle
 10
196.8204441348527
 20
115.6239989944877
 30
0.0
 40
1.0
100
AcDbArc
 50
270.0
 51
0.0
  0
ARC
  5
2B292
330
1F
100
AcDbEntity
  8
実線
100
AcDbCircle
 10
115.8204441348527
 20
113.6239989944877
 30
0.0
 40
1.0
100
AcDbArc
 50
180.0
 51
270.0
  0
ARC
  5
2B293
330
1F
100
AcDbEntity
  8
実線
100
AcDbCircle
 10
113.8204441348527
 20
113.6239989944877
 30
0.0
 40
1.0
100
AcDbArc
 50
0.0
 51
90.0
  0
LINE
  5
2B294
330
1F
100
AcDbEntity
  8
実線
100
AcDbLine
 10
114.8204441348527
 20
127.6239989944877
 30
0.0
 11
114.8204441348527
 21
113.6239989944877
 31
0.0
  0
ARC
  5
2B295
330
1F
100
AcDbEntity
  8
実線
100
AcDbCircle
 10
109.8204441348528
 20
115.6239989944877
 30
0.0
 40
1.0
100
AcDbArc
 50
180.0
 51
270.0
  0
LINE
  5
2B296
330
1F
100
AcDbEntity
  8
実線
100
AcDbLine
 10
150.3204441348527
 20
126.6239989944877
 30
0.0
 11
150.3204441348527
 21
114.6239989944877
 31
0.0
  0
LINE
  5
2B297
330
1F
100
AcDbEntity
  8
実線
100
AcDbLine
 10
156.3204441348528
 20
126.6239989944877
 30
0.0
 11
153.3204441348527
 21
126.6239989944877
 31
0.0
  0
LINE
  5
2B298
330
1F
100
AcDbEntity
  8
実線
100
AcDbLine
 10
156.3204441348528
 20
114.6239989944877
 30
0.0
 11
153.3204441348527
 21
114.6239989944877
 31
0.0
  0
LINE
  5
2B299
330
1F
100
AcDbEntity
  8
実線
100
AcDbLine
 10
156.3204441348528
 20
126.6239989944877
 30
0.0
 11
156.3204441348528
 21
114.6239989944877
 31
0.0
  0
ARC
  5
2B29A
330
1F
100
AcDbEntity
  8
実線
100
AcDbCircle
 10
153.3204441348527
 20
208.3276230338381
 30
0.0
 40
37.5
100
AcDbArc
 50
16.37867173813702
 51
167.2451955091992
  0
ARC
  5
2B29B
330
1F
100
AcDbEntity
  8
実線
100
AcDbCircle
 10
153.3204441348527
 20
208.3276230338381
 30
0.0
 40
37.5
100
AcDbArc
 50
192.7548044908007
 51
344.5339900465806
  0
ARC
  5
2B29C
330
1F
100
AcDbEntity
  8
実線
100
AcDbCircle
 10
115.7704774238157
 20
199.827623033838
 30
0.0
 40
1.0
100
AcDbArc
 50
12.75480449080076
 51
90.0
  0
LINE
  5
2B29D
330
1F
100
AcDbEntity
  8
実線
100
AcDbLine
 10
115.7704774238157
 20
200.8276230338381
 30
0.0
 11
109.6204441348528
 21
200.8276230338381
 31
0.0
  0
ARC
  5
2B29E
330
1F
100
AcDbEntity
  8
実線
100
AcDbCircle
 10
109.6204441348528
 20
201.627623033838
 30
0.0
 40
0.8
100
AcDbArc
 50
180.0
 51
270.0
  0
ARC
  5
2B29F
330
1F
100
AcDbEntity
  8
実線
100
AcDbCircle
 10
115.7704774238157
 20
216.8276230338381
 30
0.0
 40
1.0
100
AcDbArc
 50
270.0
 51
347.2451955092023
  0
LINE
  5
2B2A0
330
1F
100
AcDbEntity
  8
実線
100
AcDbLine
 10
115.7704774238157
 20
215.8276230338381
 30
0.0
 11
109.6204441348528
 21
215.8276230338381
 31
0.0
  0
ARC
  5
2B2A1
330
1F
100
AcDbEntity
  8
実線
100
AcDbCircle
 10
109.6204441348528
 20
215.027623033838
 30
0.0
 40
0.8
100
AcDbArc
 50
90.0
 51
180.0
  0
LINE
  5
2B2A2
330
1F
100
AcDbEntity
  8
実線
100
AcDbLine
 10
189.4625248718551
 20
198.3276230338381
 30
0.0
 11
193.9929163980433
 21
198.3276230338381
 31
0.0
  0
LINE
  5
2B2A3
330
1F
100
AcDbEntity
  8
実線
100
AcDbLine
 10
190.066192188199
 20
218.3276230338381
 30
0.0
 11
193.9929163980433
 21
218.3276230338381
 31
0.0
  0
ARC
  5
2B2A4
330
1F
100
AcDbEntity
  8
実線
100
AcDbCircle
 10
190.066192188199
 20
219.1276230338381
 30
0.0
 40
0.8
100
AcDbArc
 50
196.378671738137
 51
270.0
  0
ARC
  5
2B2A5
330
1F
100
AcDbEntity
  8
実線
100
AcDbCircle
 10
153.3204441348527
 20
208.3276230338381
 30
0.0
 40
42.5
100
AcDbArc
 50
347.254343151707
 51
12.74565684829277
  0
ARC
  5
2B2A6
330
1F
100
AcDbEntity
  8
実線
100
AcDbCircle
 10
193.9929163980433
 20
199.127623033838
 30
0.0
 40
0.8
100
AcDbArc
 50
270.0
 51
347.2543431517043
  0
ARC
  5
2B2A7
330
1F
100
AcDbEntity
  8
実線
100
AcDbCircle
 10
193.9929163980433
 20
217.527623033838
 30
0.0
 40
0.8
100
AcDbArc
 50
12.74565684829277
 51
90.0
  0
ARC
  5
2B2A8
330
1F
100
AcDbEntity
  8
実線
100
AcDbCircle
 10
112.3204441348529
 20
200.8276230338381
 30
0.0
 40
2.0
100
AcDbArc
 50
180.0
 51
0.0
  0
LINE
  5
2B2A9
330
1F
100
AcDbEntity
  8
実線
100
AcDbLine
 10
110.3204441348529
 20
200.8276230338381
 30
0.0
 11
114.3204441348528
 21
200.8276230338381
 31
0.0
  0
ARC
  5
2B2AA
330
1F
100
AcDbEntity
  8
実線
100
AcDbCircle
 10
153.3204441348527
 20
208.3276230338381
 30
0.0
 40
34.0
100
AcDbArc
 50
78.11884397899027
 51
281.8811560210098
  0
ARC
  5
2B2AB
330
1F
100
AcDbEntity
  8
実線
100
AcDbCircle
 10
153.3204441348527
 20
208.3276230338381
 30
0.0
 40
34.0
100
AcDbArc
 50
299.9999999999999
 51
59.99999999999988
  0
LINE
  5
2B2AC
330
1F
100
AcDbEntity
  8
実線
100
AcDbLine
 10
108.8204441348529
 20
215.027623033838
 30
0.0
 11
108.8204441348529
 21
201.627623033838
 31
0.0
  0
LINE
  5
2B2AD
330
1F
100
AcDbEntity
  8
一点鎖線
100
AcDbLine
 10
240.4308450694255
 20
208.3276230338381
 30
0.0
 11
66.2100432002801
 21
208.3276230338381
 31
0.0
  0
LINE
  5
2B2AE
330
1F
100
AcDbEntity
  8
一点鎖線
100
AcDbLine
 10
153.3204441348527
 20
161.3629949140208
 30
0.0
 11
153.3204441348527
 21
255.2922511536552
 31
0.0
  0
ARC
  5
2B2B0
330
1F
100
AcDbEntity
  8
実線
100
AcDbCircle
 10
112.3204441348529
 20
215.8276230338381
 30
0.0
 40
2.0
100
AcDbArc
 50
0.0
 51
180.0
  0
ARC
  5
2B2B1
330
1F
100
AcDbEntity
  8
実線
100
AcDbCircle
 10
153.3204441348527
 20
208.3276230338381
 30
0.0
 40
39.0
100
AcDbArc
 50
264.2608295227319
 51
345.1428344550742
  0
ARC
  5
2B2B2
330
1F
100
AcDbEntity
  8
実線
100
AcDbCircle
 10
153.3204441348527
 20
208.3276230338381
 30
0.0
 40
39.0
100
AcDbArc
 50
14.8571655449258
 51
95.73917047726808
  0
LINE
  5
2B2B3
330
1F
100
AcDbEntity
  8
実線
100
AcDbLine
 10
150.3204441348527
 20
248.1271205181029
 30
0.0
 11
150.3204441348527
 21
251.827623033838
 31
0.0
  0
LINE
  5
2B2B4
330
1F
100
AcDbEntity
  8
実線
100
AcDbLine
 10
151.3204441348527
 20
252.827623033838
 30
0.0
 11
155.3204441348527
 21
252.827623033838
 31
0.0
  0
LINE
  5
2B2B5
330
1F
100
AcDbEntity
  8
実線
100
AcDbLine
 10
156.3204441348528
 20
251.827623033838
 30
0.0
 11
156.3204441348528
 21
248.1271205181029
 31
0.0
  0
LINE
  5
2B2B6
330
1F
100
AcDbEntity
  8
実線
100
AcDbLine
 10
150.3204441348527
 20
168.5281255495732
 30
0.0
 11
150.3204441348527
 21
164.8276230338381
 31
0.0
  0
LINE
  5
2B2B7
330
1F
100
AcDbEntity
  8
実線
100
AcDbLine
 10
151.3204441348527
 20
163.8276230338381
 30
0.0
 11
155.3204441348527
 21
163.8276230338381
 31
0.0
  0
LINE
  5
2B2B8
330
1F
100
AcDbEntity
  8
実線
100
AcDbLine
 10
156.3204441348528
 20
164.8276230338381
 30
0.0
 11
156.3204441348528
 21
168.5281255495732
 31
0.0
  0
ARC
  5
2B2B9
330
1F
100
AcDbEntity
  8
実線
100
AcDbCircle
 10
151.3204441348527
 20
251.827623033838
 30
0.0
 40
1.0
100
AcDbArc
 50
90.0
 51
180.0
  0
ARC
  5
2B2BA
102
{ACAD_REACTORS
330
2B409
102
}
330
1F
100
AcDbEntity
  8
実線
100
AcDbCircle
 10
155.3204441348527
 20
251.827623033838
 30
0.0
 40
1.0
100
AcDbArc
 50
0.0
 51
90.0
  0
ARC
  5
2B2BB
330
1F
100
AcDbEntity
  8
実線
100
AcDbCircle
 10
151.3204441348527
 20
164.8276230338381
 30
0.0
 40
1.0
100
AcDbArc
 50
180.0
 51
270.0
  0
ARC
  5
2B2BC
102
{ACAD_REACTORS
330
2B409
102
}
330
1F
100
AcDbEntity
  8
実線
100
AcDbCircle
 10
155.3204441348527
 20
164.8276230338381
 30
0.0
 40
1.0
100
AcDbArc
 50
270.0
 51
0.0
  0
ARC
  5
2B2BD
330
1F
100
AcDbEntity
  8
実線
100
AcDbCircle
 10
157.3204441348527
 20
168.5281255495732
 30
0.0
 40
1.0
100
AcDbArc
 50
95.73917047726808
 51
180.0
  0
ARC
  5
2B2BE
330
1F
100
AcDbEntity
  8
実線
100
AcDbCircle
 10
157.3204441348527
 20
248.1271205181029
 30
0.0
 40
1.0
100
AcDbArc
 50
180.0
 51
264.2608295227319
  0
ARC
  5
2B2BF
330
1F
100
AcDbEntity
  8
実線
100
AcDbCircle
 10
153.3204441348527
 20
208.3276230338381
 30
0.0
 40
39.0
100
AcDbArc
 50
95.73917047726808
 51
168.9125107890299
  0
ARC
  5
2B2C0
330
1F
100
AcDbEntity
  8
実線
100
AcDbCircle
 10
153.3204441348527
 20
208.3276230338381
 30
0.0
 40
39.0
100
AcDbArc
 50
191.0874892109701
 51
264.2608295227319
  0
ARC
  5
2B2C1
330
1F
100
AcDbEntity
  8
実線
100
AcDbCircle
 10
149.3204441348527
 20
248.1271205181029
 30
0.0
 40
1.0
100
AcDbArc
 50
275.7391704772681
 51
0.0
  0
ARC
  5
2B2C2
330
1F
100
AcDbEntity
  8
実線
100
AcDbCircle
 10
149.3204441348527
 20
168.5281255495732
 30
0.0
 40
1.0
100
AcDbArc
 50
0.0
 51
84.26082952273191
  0
LINE
  5
2B2C3
330
1F
100
AcDbEntity
  8
実線
100
AcDbLine
 10
83.99353206740181
 20
218.0068091438786
 30
0.0
 11
121.7212592747128
 21
231.1856963597921
 31
0.0
  0
LINE
  5
2B2C4
330
1F
100
AcDbEntity
  8
実線
100
AcDbLine
 10
84.37171884648682
 20
200.2132754203738
 30
0.0
 11
118.7009940250014
 21
190.3695141664904
 31
0.0
  0
LINE
  5
2B2C5
330
1F
100
AcDbEntity
  8
実線
100
AcDbLine
 10
83.99353206740181
 20
218.0068091438786
 30
0.0
 11
108.8204441348529
 21
210.8878066658974
 31
0.0
  0
LINE
  5
2B2C6
330
1F
100
AcDbEntity
  8
実線
100
AcDbLine
 10
70.82044413485277
 20
200.247623033838
 30
0.0
 11
72.32044413485278
 21
198.747623033838
 31
0.0
  0
LINE
  5
2B2C7
330
1F
100
AcDbEntity
  8
実線
100
AcDbLine
 10
70.82044413485277
 20
223.0476230338381
 30
0.0
 11
72.32044413485278
 21
224.547623033838
 31
0.0
  0
LINE
  5
2B2CA
330
1F
100
AcDbEntity
  8
実線
100
AcDbLine
 10
70.82044413485277
 20
223.0476230338381
 30
0.0
 11
70.82044413485277
 21
200.247623033838
 31
0.0
  0
ARC
  5
2B2CB
330
1F
100
AcDbEntity
  8
実線
100
AcDbCircle
 10
83.82044413485289
 20
198.2907520284971
 30
0.0
 40
2.0
100
AcDbArc
 50
74.00000000000183
 51
166.7950192656066
  0
LINE
  5
2B2CC
330
1F
100
AcDbEntity
  8
実線
100
AcDbLine
 10
72.32044413485278
 20
198.747623033838
 30
0.0
 11
81.87332603764378
 21
198.747623033838
 31
0.0
  0
LINE
  5
2B2CD
330
1F
100
AcDbEntity
  8
実線
100
AcDbLine
 10
81.82044413485289
 20
224.547623033838
 30
0.0
 11
81.82044413485289
 21
198.747623033838
 31
0.0
  0
ARC
  5
2B2CE
330
1F
100
AcDbEntity
  8
実線
100
AcDbCircle
 10
84.82044413485278
 20
220.8905942316935
 30
0.0
 40
3.0
100
AcDbArc
 50
180.0
 51
254.0000000000017
  0
LINE
  5
2B2CF
330
1F
100
AcDbEntity
  8
実線
100
AcDbLine
 10
72.32044413485278
 20
224.547623033838
 30
0.0
 11
81.82044413485289
 21
224.547623033838
 31
0.0
  0
LINE
  5
2B2D0
330
1F
100
AcDbEntity
  8
実線
100
AcDbLine
 10
222.2691694232188
 20
200.2132754203738
 30
0.0
 11
187.9398942447042
 21
190.3695141664904
 31
0.0
  0
LINE
  5
2B2D1
330
1F
100
AcDbEntity
  8
実線
100
AcDbLine
 10
209.8204441348528
 20
215.8892004487956
 30
0.0
 11
200.8204441348528
 21
213.3084919769662
 31
0.0
  0
LINE
  5
2B2D2
330
1F
100
AcDbEntity
  8
実線
100
AcDbLine
 10
222.6473562023037
 20
218.0068091438786
 30
0.0
 11
184.919628994993
 21
231.1856963597921
 31
0.0
  0
LINE
  5
2B2D3
330
1F
100
AcDbEntity
  8
実線
100
AcDbLine
 10
222.6473562023037
 20
218.0068091438786
 30
0.0
 11
195.7745972218197
 21
210.3011695036164
 31
0.0
  0
LINE
  5
2B2D4
330
1F
100
AcDbEntity
  8
実線
100
AcDbLine
 10
200.8204441348528
 20
213.3084919769662
 30
0.0
 11
200.8204441348528
 21
211.7480428231738
 31
0.0
  0
LINE
  5
2B2D6
330
1F
100
AcDbEntity
  8
実線
100
AcDbLine
 10
224.8204441348528
 20
221.227623033838
 30
0.0
 11
224.8204441348528
 21
198.747623033838
 31
0.0
  0
LINE
  5
2B2D7
330
1F
100
AcDbEntity
  8
実線
100
AcDbLine
 10
235.8204441348528
 20
223.047623033838
 30
0.0
 11
235.8204441348528
 21
200.247623033838
 31
0.0
  0
ARC
  5
2B2D8
330
1F
100
AcDbEntity
  8
実線
100
AcDbCircle
 10
222.8204441348528
 20
198.2907520284971
 30
0.0
 40
2.0
100
AcDbArc
 50
13.20498073439334
 51
105.9999999999981
  0
LINE
  5
2B2DA
330
1F
100
AcDbEntity
  8
実線
100
AcDbLine
 10
234.3204441348528
 20
198.747623033838
 30
0.0
 11
224.8204441348528
 21
198.747623033838
 31
0.0
  0
LINE
  5
2B2DB
330
1F
100
AcDbEntity
  8
実線
100
AcDbLine
 10
235.8204441348528
 20
200.247623033838
 30
0.0
 11
234.3204441348528
 21
198.747623033838
 31
0.0
  0
LINE
  5
2B2DC
330
1F
100
AcDbEntity
  8
実線
100
AcDbLine
 10
209.8204441348528
 20
217.8892004487956
 30
0.0
 11
215.8204441348528
 21
216.0492236095559
 31
0.0
  0
LINE
  5
2B2DD
330
1F
100
AcDbEntity
  8
実線
100
AcDbLine
 10
209.8204441348528
 20
217.8892004487956
 30
0.0
 11
209.8204441348528
 21
215.8892004487956
 31
0.0
  0
LINE
  5
2B2DE
330
1F
100
AcDbEntity
  8
実線
100
AcDbLine
 10
235.8204441348528
 20
223.0476230338381
 30
0.0
 11
234.3204441348528
 21
224.547623033838
 31
0.0
  0
LINE
  5
2B2DF
330
1F
100
AcDbEntity
  8
実線
100
AcDbLine
 10
224.8204441348528
 20
224.547623033838
 30
0.0
 11
224.8204441348528
 21
220.8905942316935
 31
0.0
  0
ARC
  5
2B2E0
330
1F
100
AcDbEntity
  8
実線
100
AcDbCircle
 10
221.8204441348528
 20
220.8905942316935
 30
0.0
 40
3.0
100
AcDbArc
 50
285.9999999999982
 51
0.0
  0
LINE
  5
2B2E2
330
1F
100
AcDbEntity
  8
実線
100
AcDbLine
 10
234.3204441348528
 20
224.547623033838
 30
0.0
 11
224.8204441348528
 21
224.547623033838
 31
0.0
  0
LINE
  5
2B2E3
330
1F
100
AcDbEntity
  8
一点鎖線
100
AcDbLine
 10
67.51779818062266
 20
211.647623033838
 30
0.0
 11
84.95453050742026
 21
211.647623033838
 31
0.0
  0
LINE
  5
2B2E4
330
1F
100
AcDbEntity
  8
一点鎖線
100
AcDbLine
 10
239.123090089083
 20
211.647623033838
 30
0.0
 11
221.6863577622854
 21
211.647623033838
 31
0.0
  0
LINE
  5
2B2E5
330
1F
100
AcDbEntity
  8
一点鎖線
100
AcDbLine
 10
79.48203838856045
 20
210.4579139343427
 30
0.0
 11
110.8959626286264
 21
201.4501161099273
 31
0.0
  0
LINE
  5
2B2E6
330
1F
100
AcDbEntity
  8
一点鎖線
100
AcDbLine
 10
227.1588498811452
 20
210.4579139343427
 30
0.0
 11
186.0119237268934
 21
198.6592227214527
 31
0.0
  0
LINE
  5
2B2EA
330
1F
100
AcDbEntity
  8
実線
100
AcDbLine
 10
84.82044413485288
 20
68.62399899448764
 30
0.0
 11
119.4374285097278
 21
68.62399899448764
 31
0.0
  0
LINE
  5
2B2EB
330
1F
100
AcDbEntity
  8
実線
100
AcDbLine
 10
84.82044413485288
 20
85.62399899448763
 30
0.0
 11
118.3204441348529
 21
85.62399899448763
 31
0.0
  0
LINE
  5
2B2EC
330
1F
100
AcDbEntity
  8
実線
100
AcDbLine
 10
70.82044413485289
 20
88.5239989944876
 30
0.0
 11
72.32044413485289
 21
90.02399899448761
 31
0.0
  0
LINE
  5
2B2ED
330
1F
100
AcDbEntity
  8
実線
100
AcDbLine
 10
70.82044413485289
 20
65.7239989944876
 30
0.0
 11
72.32044413485289
 21
64.2239989944876
 31
0.0
  0
LINE
  5
2B2F0
102
{ACAD_REACTORS
330
2B3D9
102
}
330
1F
100
AcDbEntity
  8
実線
100
AcDbLine
 10
70.82044413485289
 20
88.5239989944876
 30
0.0
 11
70.82044413485289
 21
65.7239989944876
 31
0.0
  0
ARC
  5
2B2F1
330
1F
100
AcDbEntity
  8
実線
100
AcDbCircle
 10
84.82044413485288
 20
65.62399899448763
 30
0.0
 40
3.0
100
AcDbArc
 50
90.0
 51
180.0
  0
LINE
  5
2B2F2
330
1F
100
AcDbEntity
  8
実線
100
AcDbLine
 10
72.32044413485289
 20
64.2239989944876
 30
0.0
 11
81.82044413485289
 21
64.2239989944876
 31
0.0
  0
LINE
  5
2B2F3
330
1F
100
AcDbEntity
  8
実線
100
AcDbLine
 10
81.82044413485289
 20
64.2239989944876
 30
0.0
 11
81.82044413485289
 21
90.02399899448761
 31
0.0
  0
ARC
  5
2B2F4
330
1F
100
AcDbEntity
  8
実線
100
AcDbCircle
 10
84.82044413485288
 20
88.62399899448764
 30
0.0
 40
3.0
100
AcDbArc
 50
180.0
 51
270.0
  0
LINE
  5
2B2F5
330
1F
100
AcDbEntity
  8
実線
100
AcDbLine
 10
72.32044413485289
 20
90.02399899448761
 30
0.0
 11
81.82044413485289
 21
90.02399899448761
 31
0.0
  0
LINE
  5
2B2F6
330
1F
100
AcDbEntity
  8
実線
100
AcDbLine
 10
160.2045023447788
 20
57.32234859078386
 30
0.0
 11
154.8204441348528
 21
54.52263832162225
 31
0.0
  0
LINE
  5
2B2F7
330
1F
100
AcDbEntity
  8
実線
100
AcDbLine
 10
146.436385924927
 20
57.32234859078386
 30
0.0
 11
151.8204441348528
 21
54.52263832162234
 31
0.0
  0
ARC
  5
2B2F8
330
1F
100
AcDbEntity
  8
実線
100
AcDbCircle
 10
176.4374285097277
 20
57.12399899448763
 30
0.0
 40
3.0
100
AcDbArc
 50
270.0
 51
334.230672375661
  0
ARC
  5
2B2F9
330
1F
100
AcDbEntity
  8
実線
100
AcDbCircle
 10
130.2034597599779
 20
57.12399899448763
 30
0.0
 40
3.0
100
AcDbArc
 50
205.769327624339
 51
270.0
  0
LINE
  5
2B2FA
330
1F
100
AcDbEntity
  8
実線
100
AcDbLine
 10
176.4374285097277
 20
54.12399899448764
 30
0.0
 11
153.3204441348527
 21
54.12399899448764
 31
0.0
  0
LINE
  5
2B2FB
102
{ACAD_REACTORS
330
2B3C1
330
2B3F1
102
}
330
1F
100
AcDbEntity
  8
実線
100
AcDbLine
 10
130.2034597599779
 20
54.12399899448764
 30
0.0
 11
153.3204441348527
 21
54.12399899448764
 31
0.0
  0
LINE
  5
2B2FC
330
1F
100
AcDbEntity
  8
実線
100
AcDbLine
 10
182.7313238049784
 20
66.62399899448757
 30
0.0
 11
153.3204441348527
 21
66.62399899448755
 31
0.0
  0
LINE
  5
2B2FD
330
1F
100
AcDbEntity
  8
実線
100
AcDbLine
 10
121.3204441348529
 20
106.1239989944876
 30
0.0
 11
121.3204441348529
 21
88.62399899448764
 31
0.0
  0
LINE
  5
2B2FE
330
1F
100
AcDbEntity
  8
実線
100
AcDbLine
 10
123.9095644647274
 20
66.62399899448757
 30
0.0
 11
153.3204441348527
 21
66.62399899448757
 31
0.0
  0
ARC
  5
2B2FF
330
1F
100
AcDbEntity
  8
実線
100
AcDbCircle
 10
119.4374285097278
 20
65.62399899448763
 30
0.0
 40
3.0
100
AcDbArc
 50
25.76932762433903
 51
90.0
  0
LINE
  5
2B300
330
1F
100
AcDbEntity
  8
実線
100
AcDbLine
 10
127.5018048508842
 20
55.81975179699407
 30
0.0
 11
122.1390834188215
 21
66.92824619198114
 31
0.0
  0
ARC
  5
2B301
330
1F
100
AcDbEntity
  8
実線
100
AcDbCircle
 10
123.9095644647274
 20
69.62399899448758
 30
0.0
 40
3.0
100
AcDbArc
 50
221.8103148957833
 51
270.0
  0
ARC
  5
2B302
330
1F
100
AcDbEntity
  8
実線
100
AcDbCircle
 10
118.3204441348529
 20
100.1239989944876
 30
0.0
 40
3.0
100
AcDbArc
 50
309.2604936256446
 51
0.0
  0
ARC
  5
2B303
330
1F
100
AcDbEntity
  8
実線
100
AcDbCircle
 10
118.3204441348529
 20
88.62399899448764
 30
0.0
 40
3.0
100
AcDbArc
 50
270.0
 51
0.0
  0
LINE
  5
2B304
330
1F
100
AcDbEntity
  8
実線
100
AcDbLine
 10
105.3204441348529
 20
85.62399899448763
 30
0.0
 11
120.218985574834
 21
97.80116873795272
 31
0.0
  0
CIRCLE
  5
2B305
330
1F
100
AcDbEntity
  8
実線
100
AcDbCircle
 10
116.3204441348529
 20
89.12399899448763
 30
0.0
 40
1.25
  0
ARC
  5
2B306
330
1F
100
AcDbEntity
  8
実線
100
AcDbCircle
 10
139.8204441348527
 20
61.62399899448757
 30
0.0
 40
5.0
100
AcDbArc
 50
0.0
 51
90.0
  0
ARC
  5
2B307
330
1F
100
AcDbEntity
  8
実線
100
AcDbCircle
 10
147.8204441348528
 20
59.98399899448765
 30
0.0
 40
3.0
100
AcDbArc
 50
180.0
 51
242.525568373724
  0
LINE
  5
2B308
330
1F
100
AcDbEntity
  8
実線
100
AcDbLine
 10
144.8204441348527
 20
61.62399899448757
 30
0.0
 11
144.8204441348527
 21
59.98399899448765
 31
0.0
  0
ARC
  5
2B309
330
1F
100
AcDbEntity
  8
実線
100
AcDbCircle
 10
166.8204441348527
 20
61.62399899448757
 30
0.0
 40
5.0
100
AcDbArc
 50
90.0
 51
180.0
  0
ARC
  5
2B30A
330
1F
100
AcDbEntity
  8
実線
100
AcDbCircle
 10
158.8204441348528
 20
59.98399899448765
 30
0.0
 40
3.0
100
AcDbArc
 50
297.474431626276
 51
0.0
  0
LINE
  5
2B30B
330
1F
100
AcDbEntity
  8
実線
100
AcDbLine
 10
161.8204441348528
 20
61.62399899448757
 30
0.0
 11
161.8204441348528
 21
59.98399899448765
 31
0.0
  0
ARC
  5
2B30C
330
1F
100
AcDbEntity
  8
実線
100
AcDbCircle
 10
118.3204441348529
 20
106.1239989944876
 30
0.0
 40
3.0
100
AcDbArc
 50
0.0
 51
90.0
  0
LINE
  5
2B30D
330
1F
100
AcDbEntity
  8
実線
100
AcDbLine
 10
117.3204441348529
 20
109.1239989944876
 30
0.0
 11
118.3204441348529
 21
109.1239989944876
 31
0.0
  0
LINE
  5
2B30E
330
1F
100
AcDbEntity
  8
実線
100
AcDbLine
 10
185.3204441348529
 20
106.1239989944876
 30
0.0
 11
185.3204441348529
 21
88.62399899448764
 31
0.0
  0
LINE
  5
2B30F
330
1F
100
AcDbEntity
  8
実線
100
AcDbLine
 10
221.8204441348529
 20
85.62399899448763
 30
0.0
 11
188.3204441348529
 21
85.62399899448763
 31
0.0
  0
LINE
  5
2B310
330
1F
100
AcDbEntity
  8
実線
100
AcDbLine
 10
221.8204441348529
 20
68.62399899448764
 30
0.0
 11
187.2034597599779
 21
68.62399899448764
 31
0.0
  0
ARC
  5
2B311
330
1F
100
AcDbEntity
  8
実線
100
AcDbCircle
 10
187.2034597599779
 20
65.62399899448763
 30
0.0
 40
3.0
100
AcDbArc
 50
90.0
 51
154.2306723756609
  0
LINE
  5
2B312
330
1F
100
AcDbEntity
  8
実線
100
AcDbLine
 10
179.1390834188215
 20
55.81975179699407
 30
0.0
 11
184.5018048508841
 21
66.92824619198114
 31
0.0
  0
ARC
  5
2B313
330
1F
100
AcDbEntity
  8
実線
100
AcDbCircle
 10
182.7313238049784
 20
69.62399899448758
 30
0.0
 40
3.0
100
AcDbArc
 50
270.0
 51
318.1896851042166
  0
LINE
  5
2B314
330
1F
100
AcDbEntity
  8
実線
100
AcDbLine
 10
201.3204441348529
 20
85.62399899448763
 30
0.0
 11
186.4219026948716
 21
97.80116873795272
 31
0.0
  0
ARC
  5
2B315
330
1F
100
AcDbEntity
  8
実線
100
AcDbCircle
 10
188.3204441348529
 20
88.62399899448764
 30
0.0
 40
3.0
100
AcDbArc
 50
180.0
 51
270.0
  0
ARC
  5
2B316
330
1F
100
AcDbEntity
  8
実線
100
AcDbCircle
 10
188.3204441348529
 20
100.1239989944876
 30
0.0
 40
3.0
100
AcDbArc
 50
180.0
 51
230.7395063743551
  0
LINE
  5
2B317
330
1F
100
AcDbEntity
  8
実線
100
AcDbLine
 10
235.8204441348529
 20
88.52399899448762
 30
0.0
 11
235.8204441348529
 21
65.72399899448765
 31
0.0
  0
ARC
  5
2B318
330
1F
100
AcDbEntity
  8
実線
100
AcDbCircle
 10
221.8204441348529
 20
65.62399899448763
 30
0.0
 40
3.0
100
AcDbArc
 50
0.0
 51
90.0
  0
LINE
  5
2B319
330
1F
100
AcDbEntity
  8
実線
100
AcDbLine
 10
234.3204441348529
 20
64.22399899448762
 30
0.0
 11
224.8204441348529
 21
64.22399899448762
 31
0.0
  0
LINE
  5
2B31B
330
1F
100
AcDbEntity
  8
実線
100
AcDbLine
 10
224.8204441348529
 20
64.22399899448762
 30
0.0
 11
224.8204441348529
 21
90.02399899448764
 31
0.0
  0
LINE
  5
2B31C
330
1F
100
AcDbEntity
  8
実線
100
AcDbLine
 10
235.8204441348529
 20
65.72399899448763
 30
0.0
 11
234.3204441348529
 21
64.22399899448762
 31
0.0
  0
LINE
  5
2B31D
330
1F
100
AcDbEntity
  8
実線
100
AcDbLine
 10
235.8204441348529
 20
88.52399899448764
 30
0.0
 11
234.3204441348529
 21
90.02399899448764
 31
0.0
  0
ARC
  5
2B31F
330
1F
100
AcDbEntity
  8
実線
100
AcDbCircle
 10
221.8204441348529
 20
88.62399899448764
 30
0.0
 40
3.0
100
AcDbArc
 50
270.0
 51
0.0
  0
LINE
  5
2B320
330
1F
100
AcDbEntity
  8
実線
100
AcDbLine
 10
234.3204441348529
 20
90.02399899448764
 30
0.0
 11
224.8204441348529
 21
90.02399899448764
 31
0.0
  0
ARC
  5
2B321
330
1F
100
AcDbEntity
  8
実線
100
AcDbCircle
 10
188.3204441348529
 20
106.1239989944876
 30
0.0
 40
3.0
100
AcDbArc
 50
90.0
 51
180.0
  0
LINE
  5
2B322
330
1F
100
AcDbEntity
  8
実線
100
AcDbLine
 10
189.3204441348529
 20
109.1239989944876
 30
0.0
 11
188.3204441348529
 21
109.1239989944876
 31
0.0
  0
LINE
  5
2B323
102
{ACAD_REACTORS
330
2B3C1
102
}
330
1F
100
AcDbEntity
  8
一点鎖線
100
AcDbLine
 10
58.8683119748423
 20
77.12399899448763
 30
0.0
 11
248.4977602530975
 21
77.12399899448763
 31
0.0
  0
LINE
  5
2B324
330
1F
100
AcDbEntity
  8
一点鎖線
100
AcDbLine
 10
153.3204441348527
 20
151.5868124720952
 30
0.0
 11
153.3204441348527
 21
51.45970583678883
 31
0.0
  0
LINE
  5
2B325
330
1F
100
AcDbEntity
  8
実線
100
AcDbLine
 10
117.3204441348529
 20
112.6239989944877
 30
0.0
 11
117.3204441348529
 21
109.1239989944876
 31
0.0
  0
LINE
  5
2B326
330
1F
100
AcDbEntity
  8
実線
100
AcDbLine
 10
189.3204441348529
 20
112.6239989944877
 30
0.0
 11
189.3204441348529
 21
109.1239989944876
 31
0.0
  0
TEXT
  5
2B32D
330
1F
100
AcDbEntity
  8
文字
100
AcDbText
 10
180.8204441348528
 20
194.8276230338381
 30
0.0
 40
9.0
  1
13
 50
90.0
 41
1.002604166666666
  7
ｽﾀｲﾙ2
 72
     5
 11
180.8204441348528
 21
206.8276230338381
 31
0.0
100
AcDbText
  0
TEXT
  5
2B32E
330
1F
100
AcDbEntity
  8
文字
100
AcDbText
 10
180.8204441348528
 20
209.8276230338381
 30
0.0
 40
8.0
  1
mm
 50
90.0
 41
0.8135565669700909
  7
ｽﾀｲﾙ2
 72
     5
 11
180.8204441348528
 21
222.8276230338381
 31
0.0
100
AcDbText
  0
LINE
  5
2B32F
330
1F
100
AcDbEntity
  8
実線
100
AcDbLine
 10
160.3204441348528
 20
175.0560135146097
 30
0.0
 11
160.3204441348528
 21
241.5992325530663
 31
0.0
  0
LINE
  5
2B330
330
1F
100
AcDbEntity
  8
実線
100
AcDbLine
 10
170.3204441348528
 20
237.7724867625088
 30
0.0
 11
170.3204441348528
 21
178.8827593051671
 31
0.0
  0
TEXT
  5
2B331
330
1F
100
AcDbEntity
  8
文字
100
AcDbText
 10
149.5543950134899
 20
187.9522560826353
 30
0.0
 40
9.0
  1
K
 50
171.04726287007
  7
ｽﾀｲﾙ2
 72
     1
 11
145.6270236451626
 21
184.0154706637156
 31
0.0
100
AcDbText
 73
     2
  0
TEXT
  5
2B332
330
1F
100
AcDbEntity
  8
文字
100
AcDbText
 10
143.537120933143
 20
190.0056719188089
 30
0.0
 40
9.0
  1
A
 50
152.3076798394186
  7
ｽﾀｲﾙ2
 72
     1
 11
138.5480100388715
 21
187.5420330884779
 31
0.0
100
AcDbText
 73
     2
  0
TEXT
  5
2B333
330
1F
100
AcDbEntity
  8
文字
100
AcDbText
 10
138.3691672190953
 20
193.7560704532091
 30
0.0
 40
9.0
  1
S
 50
132.4166227373244
  7
ｽﾀｲﾙ2
 72
     1
 11
132.8355478033572
 21
193.1411828423305
 31
0.0
100
AcDbText
 73
     2
  0
TEXT
  5
2B334
330
1F
100
AcDbEntity
  8
文字
100
AcDbText
 10
134.6130634158558
 20
198.6290938680942
 30
0.0
 40
9.0
  1
H
 50
111.512425231516
  7
ｽﾀｲﾙ2
 72
     1
 11
129.1139120984153
 21
200.309117811093
 31
0.0
100
AcDbText
 73
     2
  0
TEXT
  5
2B335
330
1F
100
AcDbEntity
  8
文字
100
AcDbText
 10
132.3204441348532
 20
206.7234022546173
 30
0.0
 40
9.0
  1
I
 50
89.99999999999962
  7
ｽﾀｲﾙ2
 72
     1
 11
127.8204441348532
 21
208.3276230338381
 31
0.0
100
AcDbText
 73
     2
  0
TEXT
  5
2B336
330
1F
100
AcDbEntity
  8
文字
100
AcDbText
 10
131.9878033768515
 20
211.3657774074072
 30
0.0
 40
9.0
  1
H
 50
68.48757476848479
  7
ｽﾀｲﾙ2
 72
     1
 11
129.1139120984153
 21
216.3461282565829
 31
0.0
100
AcDbText
 73
     2
  0
TEXT
  5
2B337
330
1F
100
AcDbEntity
  8
文字
100
AcDbText
 10
133.9502074871467
 20
218.0626159321042
 30
0.0
 40
9.0
  1
A
 50
47.58337726267553
  7
ｽﾀｲﾙ2
 72
     1
 11
132.8355478033572
 21
223.5140632253454
 31
0.0
100
AcDbText
 73
     2
  0
TEXT
  5
2B338
330
1F
100
AcDbEntity
  8
文字
100
AcDbText
 10
137.5809924122725
 20
223.5235551000113
 30
0.0
 40
9.0
  1
R
 50
27.69232016058144
  7
ｽﾀｲﾙ2
 72
     1
 11
138.5480100388715
 21
229.1132129791982
 31
0.0
100
AcDbText
 73
     2
  0
TEXT
  5
2B339
330
1F
100
AcDbEntity
  8
文字
100
AcDbText
 10
143.0944563951722
 20
227.6852979415101
 30
0.0
 40
9.0
  1
A
 50
8.952737129929943
  7
ｽﾀｲﾙ2
 72
     1
 11
145.6270236451628
 21
232.6397754039605
 31
0.0
100
AcDbText
 73
     2
  0
INSERT
  5
2B33A
330
1F
100
AcDbEntity
  8
実線
100
AcDbBlockReference
  2
mark
 10
142.9141754708266
 20
198.5924188273736
 30
0.0
 41
0.3799999999999954
 42
0.3799999999999954
 43
0.3799999999999954
 50
90.0
  0
LINE
  5
2B33B
330
1F
100
AcDbEntity
  8
実線
100
AcDbLine
 10
234.3204441348528
 20
224.547623033838
 30
0.0
 11
234.3204441348528
 21
198.747623033838
 31
0.0
  0
LINE
  5
2B33C
330
1F
100
AcDbEntity
  8
実線
100
AcDbLine
 10
72.32044413485278
 20
224.547623033838
 30
0.0
 11
72.32044413485278
 21
198.747623033838
 31
0.0
  0
MTEXT
  5
2B33F
330
1F
100
AcDbEntity
  8
文字
370
     9
100
AcDbMText
 10
151.3962577332397
 20
169.1981472077829
 30
0.0
 40
5.0
 41
19.85484558976438
 46
0.0
 71
     1
 72
     5
  1
{\fMS PMincho|b0|i0|c128|p18;\W1.05;E}
  7
寸法
 73
     1
 44
1.0
  0
TEXT
  5
2B345
330
1F
100
AcDbEntity
  8
文字
100
AcDbText
 10
130.3557633866972
 20
57.24398895598511
 30
0.0
 40
7.0
  1
1
  7
ﾛｺﾞ
 72
     1
 11
132.6830361139699
 21
60.74398895598512
 31
0.0
100
AcDbText
 73
     2
  0
TEXT
  5
2B346
330
1F
100
AcDbEntity
  8
文字
100
AcDbText
 10
136.3557633866972
 20
57.24398895598511
 30
0.0
 40
7.0
  1
9
  7
ﾛｺﾞ
 72
     1
 11
138.6830361139699
 21
60.74398895598512
 31
0.0
100
AcDbText
 73
     2
  0
TEXT
  5
2B347
330
1F
100
AcDbEntity
  8
文字
 48
0.5
370
     5
100
AcDbText
 10
138.0336854646193
 20
88.79874766170047
 30
0.0
 40
10.0
  1
13
  7
ｽﾀｲﾙ2
 72
     1
 11
144.6830361139699
 21
93.79874766170047
 31
0.0
100
AcDbText
 73
     2
  0
TEXT
  5
2B348
330
1F
100
AcDbEntity
  8
文字
100
AcDbText
 10
155.3875815685154
 20
88.86452427567888
 30
0.0
 40
7.0
  1
m
  7
ﾛｺﾞ
 72
     1
 11
158.88303611397
 21
92.36452427567888
 31
0.0
100
AcDbText
 73
     2
  0
TEXT
  5
2B349
330
1F
100
AcDbEntity
  8
文字
100
AcDbText
 10
164.7875815685154
 20
88.86452427567888
 30
0.0
 40
7.0
  1
m
  7
ﾛｺﾞ
 72
     1
 11
168.2830361139699
 21
92.36452427567888
 31
0.0
100
AcDbText
 73
     2
  0
LINE
  5
2B34A
330
1F
100
AcDbEntity
  8
実線
100
AcDbLine
 10
163.0830361139698
 20
80.12399899448769
 30
0.0
 11
170.0830361139699
 21
77.12399899448769
 31
0.0
  0
LINE
  5
2B34B
330
1F
100
AcDbEntity
  8
実線
100
AcDbLine
 10
163.0830361139698
 20
74.12399899448764
 30
0.0
 11
170.0830361139699
 21
77.12399899448769
 31
0.0
  0
LINE
  5
2B34C
330
1F
100
AcDbEntity
  8
実線
100
AcDbLine
 10
136.0830361139699
 20
74.12399899448769
 30
0.0
 11
138.0830361139698
 21
76.12399899448769
 31
0.0
  0
LINE
  5
2B34D
330
1F
100
AcDbEntity
  8
実線
100
AcDbLine
 10
154.0830361139699
 20
74.12399899448769
 30
0.0
 11
156.0830361139699
 21
76.12399899448769
 31
0.0
  0
LINE
  5
2B34E
330
1F
100
AcDbEntity
  8
実線
100
AcDbLine
 10
163.0830361139699
 20
76.12399899448769
 30
0.0
 11
163.0830361139698
 21
74.12399899448764
 31
0.0
  0
LINE
  5
2B34F
330
1F
100
AcDbEntity
  8
実線
100
AcDbLine
 10
136.08303611397
 20
80.12399899448769
 30
0.0
 11
154.0830361139699
 21
80.12399899448769
 31
0.0
  0
LINE
  5
2B350
330
1F
100
AcDbEntity
  8
実線
100
AcDbLine
 10
136.0830361139699
 20
78.12399899448769
 30
0.0
 11
163.0830361139699
 21
78.12399899448769
 31
0.0
  0
LINE
  5
2B351
330
1F
100
AcDbEntity
  8
実線
100
AcDbLine
 10
136.08303611397
 20
76.12399899448769
 30
0.0
 11
163.0830361139699
 21
76.12399899448769
 31
0.0
  0
LINE
  5
2B352
330
1F
100
AcDbEntity
  8
実線
100
AcDbLine
 10
163.0830361139699
 20
78.12399899448769
 30
0.0
 11
163.0830361139698
 21
80.12399899448769
 31
0.0
  0
LINE
  5
2B353
330
1F
100
AcDbEntity
  8
実線
100
AcDbLine
 10
154.0830361139699
 20
80.12399899448769
 30
0.0
 11
156.0830361139699
 21
78.12399899448769
 31
0.0
  0
LINE
  5
2B354
330
1F
100
AcDbEntity
  8
実線
100
AcDbLine
 10
136.08303611397
 20
80.12399899448769
 30
0.0
 11
138.0830361139698
 21
78.12399899448769
 31
0.0
  0
LINE
  5
2B355
330
1F
100
AcDbEntity
  8
実線
100
AcDbLine
 10
136.08303611397
 20
76.12399899448769
 30
0.0
 11
136.0830361139699
 21
78.12399899448769
 31
0.0
  0
LINE
  5
2B356
330
1F
100
AcDbEntity
  8
実線
100
AcDbLine
 10
136.0830361139699
 20
74.12399899448769
 30
0.0
 11
154.0830361139699
 21
74.12399899448769
 31
0.0
  0
TEXT
  5
2B357
330
1F
100
AcDbEntity
  8
文字
100
AcDbText
 10
167.8432139326231
 20
57.24398895598511
 30
0.0
 40
7.0
  1
E
  7
ﾛｺﾞ
 72
     1
 11
170.1477593871685
 21
60.74398895598512
 31
0.0
100
AcDbText
 73
     2
  0
LINE
  5
2B358
330
1F
100
AcDbEntity
  8
実線
100
AcDbLine
 10
151.8204441348528
 20
65.62399899448758
 30
0.0
 11
151.8204441348528
 21
54.52263832162237
 31
0.0
  0
LINE
  5
2B359
330
1F
100
AcDbEntity
  8
実線
100
AcDbLine
 10
154.8204441348528
 20
65.62399899448758
 30
0.0
 11
154.8204441348528
 21
54.52263832162237
 31
0.0
  0
ARC
  5
2B35A
330
1F
100
AcDbEntity
  8
実線
100
AcDbCircle
 10
150.8204441348528
 20
65.62399899448758
 30
0.0
 40
1.0
100
AcDbArc
 50
0.0
 51
90.0
  0
ARC
  5
2B35B
330
1F
100
AcDbEntity
  8
実線
100
AcDbCircle
 10
155.8204441348528
 20
65.62399899448758
 30
0.0
 40
1.0
100
AcDbArc
 50
90.0
 51
180.0
  0
LINE
  5
2B35C
330
1F
100
AcDbEntity
  8
実線
100
AcDbLine
 10
72.32044413485289
 20
90.02399899448761
 30
0.0
 11
72.32044413485289
 21
64.2239989944876
 31
0.0
  0
LINE
  5
2B35D
330
1F
100
AcDbEntity
  8
実線
100
AcDbLine
 10
234.3204441348529
 20
90.02399899448764
 30
0.0
 11
234.3204441348529
 21
64.22399899448762
 31
0.0
  0
DIMENSION
  5
2B3AA
102
{ACAD_XDICTIONARY
360
2B3B7
102
}
102
{ACAD_REACTORS
330
2B3C1
102
}
330
1F
100
AcDbEntity
  8
寸法
100
AcDbDimension
280
     0
  2
*D7
 10
48.94958518601697
 20
77.12399899448763
 30
0.0
 11
46.19958518601697
 21
65.62399899448767
 31
0.0
 70
    32
 71
     5
 42
22.99999999999998
 73
     0
 74
     0
 75
     0
  3
ｺﾋﾟｰ - ISO-25
100
AcDbAlignedDimension
 13
130.2034597599779
 23
54.12399899448764
 33
0.0
 14
58.8683119748423
 24
77.12399899448763
 34
0.0
 50
90.0
100
AcDbRotatedDimension
  0
DIMENSION
  5
2B3C2
102
{ACAD_XDICTIONARY
360
2B3CF
102
}
102
{ACAD_REACTORS
330
2B3D9
102
}
330
1F
100
AcDbEntity
  8
寸法
100
AcDbDimension
280
     0
  2
*D8
 10
235.8204441348529
 20
31.99214576642305
 30
0.0
 11
153.3204441348529
 21
34.74214576642305
 31
0.0
 70
    32
 71
     5
 42
165.0
 73
     0
 74
     0
 75
     0
  3
ｺﾋﾟｰ - ISO-25
100
AcDbAlignedDimension
 13
70.82044413485289
 23
65.7239989944876
 33
0.0
 14
235.8204441348529
 24
65.72399899448763
 34
0.0
100
AcDbRotatedDimension
  0
DIMENSION
  5
2B3DA
102
{ACAD_XDICTIONARY
360
2B3E7
102
}
102
{ACAD_REACTORS
330
2B3F1
102
}
330
1F
100
AcDbEntity
  8
寸法
100
AcDbDimension
280
     0
  2
*D9
 10
39.62456048809963
 20
145.1239989944877
 30
0.0
 11
36.87456048809961
 21
99.62399899448769
 31
0.0
 70
    32
 71
     5
 42
91.00000000000003
 73
     0
 74
     0
 75
     0
  3
ｺﾋﾟｰ - ISO-25
100
AcDbAlignedDimension
 13
130.2034597599779
 23
54.12399899448764
 33
0.0
 14
109.6204441348527
 24
145.1239989944876
 34
0.0
 50
90.0
100
AcDbRotatedDimension
  0
DIMENSION
  5
2B3F2
102
{ACAD_XDICTIONARY
360
2B3FF
102
}
102
{ACAD_REACTORS
330
2B409
102
}
330
1F
100
AcDbEntity
  8
寸法
100
AcDbDimension
280
     0
  2
*D10
 10
251.443458295201
 20
252.827623033838
 30
0.0
 11
248.6934582952009
 21
208.327623033838
 31
0.0
 70
    32
 71
     5
 42
88.99999999999991
 73
     0
 74
     0
 75
     0
  3
ｺﾋﾟｰ - ISO-25
100
AcDbAlignedDimension
 13
155.3204441348527
 23
163.8276230338381
 33
0.0
 14
155.3204441348527
 24
252.827623033838
 34
0.0
 50
90.0
100
AcDbRotatedDimension
  0
TEXT
  5
2B446
330
1F
100
AcDbEntity
  8
0
100
AcDbText
 10
302.2810329945233
 20
39.40516497261692
 30
0.0
 40
3.5
  1
PDL-13
 41
0.9
 72
     1
 11
311.7310329945233
 21
41.15516497261692
 31
0.0
100
AcDbText
 73
     2
  0
TEXT
  5
2B47E
330
1F
100
AcDbEntity
  8
0
100
AcDbText
 10
362.0810329945233
 20
50.90516497261692
 30
0.0
 40
3.5
  1
A-220100
 41
0.9
 72
     1
 11
374.2310329945233
 21
52.65516497261692
 31
0.0
100
AcDbText
 73
     2
  0
LINE
  5
2B497
330
1F
100
AcDbEntity
  8
0
100
AcDbLine
 10
25.0
 20
277.0
 30
0.0
 11
25.0
 21
20.0
 31
0.0
  0
LINE
  5
2B498
330
1F
100
AcDbEntity
  8
0
100
AcDbLine
 10
405.0
 20
277.0
 30
0.0
 11
25.0
 21
277.0
 31
0.0
  0
LINE
  5
2B499
330
1F
100
AcDbEntity
  8
0
100
AcDbLine
 10
405.0
 20
20.0
 30
0.0
 11
405.0
 21
277.0
 31
0.0
  0
LINE
  5
2B49A
330
1F
100
AcDbEntity
  8
0
100
AcDbLine
 10
25.0
 20
20.0
 30
0.0
 11
405.0
 21
20.0
 31
0.0
  0
VIEWPORT
  5
6B
330
50
100
AcDbEntity
 67
     1
  8
0
100
AcDbViewport
 10
433.5371052199574
 20
123.3251464112375
 30
0.0
 40
833.2744282326544
 41
415.0001327249074
 68
     1
 69
     1
 12
433.5371052199574
 22
123.3251464112375
 13
0.0
 23
0.0
 14
10.0
 24
10.0
 15
10.0
 25
10.0
 16
0.0
 26
0.0
 36
1.0
 17
0.0
 27
0.0
 37
0.0
 42
50.0
 43
0.0
 44
0.0
 45
415.0001327249074
 50
0.0
 51
0.0
 72
   100
 90
    32800
  1

281
     0
 71
     1
 74
     0
110
0.0
120
0.0
130
0.0
111
1.0
121
0.0
131
0.0
112
0.0
122
1.0
132
0.0
 79
     0
146
0.0
170
     0
 61
     5
348
276B
292
     1
282
     1
141
0.0
142
0.0
 63
   250
421
  3355443
  0
VIEWPORT
  5
6D
330
50
100
AcDbEntity
 67
     1
  8
0
100
AcDbViewport
 10
194.6747247325147
 20
118.9168694143202
 30
0.0
 40
506.9942499588641
 41
411.2802053937703
 68
     2
 69
     2
 12
200.9197229890301
 22
122.5631282670758
 13
0.0
 23
0.0
 14
10.0
 24
10.0
 15
10.0
 25
10.0
 16
0.0
 26
0.0
 36
1.0
 17
0.0
 27
0.0
 37
0.0
 42
50.0
 43
0.0
 44
0.0
 45
411.2802071812528
 50
0.0
 51
0.0
 72
   100
 90
    32864
  1

281
     0
 71
     1
 74
     0
110
0.0
120
0.0
130
0.0
111
1.0
121
0.0
131
0.0
112
0.0
122
1.0
132
0.0
 79
     0
146
0.0
170
     0
 61
     5
348
276B
292
     1
282
     1
141
0.0
142
0.0
 63
   250
421
  3355443
  0
ENDSEC
  0
SECTION
  2
OBJECTS
  0
DICTIONARY
  5
C
330
0
100
AcDbDictionary
281
     1
  3
ACAD_CIP_PREVIOUS_PRODUCT_INFO
350
2B575
  3
ACAD_COLOR
350
2776
  3
ACAD_DETAILVIEWSTYLE
350
2B565
  3
ACAD_GROUP
350
D
  3
ACAD_LAYOUT
350
1A
  3
ACAD_MATERIAL
350
2761
  3
ACAD_MLEADERSTYLE
350
247F1
  3
ACAD_MLINESTYLE
350
17
  3
ACAD_PLOTSETTINGS
350
19
  3
ACAD_PLOTSTYLENAME
350
E
  3
ACAD_SCALELIST
350
247DF
  3
ACAD_SECTIONVIEWSTYLE
350
2B563
  3
ACAD_TABLESTYLE
350
2777
  3
ACAD_VISUALSTYLE
350
2765
  3
ACDB_RECOMPOSE_DATA
350
2B582
  3
AcDbVariableDictionary
350
5E
  0
DICTIONARY
  5
279F
330
2
100
AcDbDictionary
280
     1
281
     1
  3
ACAD_LAYERFILTERS
360
2DF9
  3
ACAD_LAYERSTATES
360
2E2E
  3
ACLYDICTIONARY
360
2DF8
  0
DICTIONARY
  5
24E13
330
10
100
AcDbDictionary
280
     1
281
     1
  3
ADSK_XREC_LAYER_RECONCILED
360
24E14
  0
DICTIONARY
  5
24E15
330
A7
100
AcDbDictionary
280
     1
281
     1
  3
ADSK_XREC_LAYER_RECONCILED
360
24E16
  0
DICTIONARY
  5
24E17
330
A8
100
AcDbDictionary
280
     1
281
     1
  3
ADSK_XREC_LAYER_RECONCILED
360
24E18
  0
DICTIONARY
  5
24E19
330
A9
100
AcDbDictionary
280
     1
281
     1
  3
ADSK_XREC_LAYER_RECONCILED
360
24E1A
  0
DICTIONARY
  5
24E1B
330
AA
100
AcDbDictionary
280
     1
281
     1
  3
ADSK_XREC_LAYER_RECONCILED
360
24E1C
  0
DICTIONARY
  5
24E1D
330
AB
100
AcDbDictionary
280
     1
281
     1
  3
ADSK_XREC_LAYER_RECONCILED
360
24E1E
  0
DICTIONARY
  5
24E1F
330
AC
100
AcDbDictionary
280
     1
281
     1
  3
ADSK_XREC_LAYER_RECONCILED
360
24E20
  0
DICTIONARY
  5
24E21
330
58C
100
AcDbDictionary
280
     1
281
     1
  3
ADSK_XREC_LAYER_RECONCILED
360
24E22
  0
DICTIONARY
  5
24E23
330
1023
100
AcDbDictionary
280
     1
281
     1
  3
ADSK_XREC_LAYER_RECONCILED
360
24E24
  0
DICTIONARY
  5
24E25
330
2366
100
AcDbDictionary
280
     1
281
     1
  3
ADSK_XREC_LAYER_RECONCILED
360
24E26
  0
DICTIONARY
  5
2D98
330
1F
100
AcDbDictionary
280
     1
281
     1
  3
ACAD_SORTENTS
360
2D99
  0
DICTIONARY
  5
29CF
330
341
100
AcDbDictionary
280
     1
281
     1
  3
ACAD_SORTENTS
360
29D1
  0
DICTIONARY
  5
2B3B7
330
2B3AA
100
AcDbDictionary
280
     1
281
     1
  3
ACAD_DIMASSOC
360
2B3C1
  0
DICTIONARY
  5
2B3CF
330
2B3C2
100
AcDbDictionary
280
     1
281
     1
  3
ACAD_DIMASSOC
360
2B3D9
  0
DICTIONARY
  5
2B3E7
330
2B3DA
100
AcDbDictionary
280
     1
281
     1
  3
ACAD_DIMASSOC
360
2B3F1
  0
DICTIONARY
  5
2B3FF
330
2B3F2
100
AcDbDictionary
280
     1
281
     1
  3
ACAD_DIMASSOC
360
2B409
  0
XRECORD
  5
2B575
102
{ACAD_REACTORS
330
C
102
}
330
C
100
AcDbXrecord
280
     1
300
ACDLT
300
2014
300
ACDLT_F_S
  0
DICTIONARY
  5
2776
102
{ACAD_REACTORS
330
C
102
}
330
C
100
AcDbDictionary
281
     1
  0
DICTIONARY
  5
2B565
102
{ACAD_REACTORS
330
C
102
}
330
C
100
AcDbDictionary
281
     1
  3
Metric50
350
2B566
  0
DICTIONARY
  5
D
102
{ACAD_REACTORS
330
C
102
}
330
C
100
AcDbDictionary
281
     1
  3
*A1
350
29F6
  0
DICTIONARY
  5
1A
102
{ACAD_REACTORS
330
C
102
}
330
C
100
AcDbDictionary
281
     1
  3
Model
350
22
  3
ﾚｲｱｳﾄ1
350
51
  3
ﾚｲｱｳﾄ2
350
56
  0
DICTIONARY
  5
2761
102
{ACAD_REACTORS
330
C
102
}
330
C
100
AcDbDictionary
281
     1
  3
ByBlock
350
2763
  3
ByLayer
350
2762
  3
Global
350
2764
  0
DICTIONARY
  5
247F1
102
{ACAD_REACTORS
330
C
102
}
330
C
100
AcDbDictionary
281
     1
  3
Standard
350
247F2
  0
DICTIONARY
  5
17
102
{ACAD_REACTORS
330
C
102
}
330
C
100
AcDbDictionary
281
     1
  3
Standard
350
18
  0
DICTIONARY
  5
19
102
{ACAD_REACTORS
330
C
102
}
330
C
100
AcDbDictionary
281
     1
  3
印刷
350
E74
  0
ACDBDICTIONARYWDFLT
  5
E
102
{ACAD_REACTORS
330
C
102
}
330
C
100
AcDbDictionary
281
     1
  3
Normal
350
F
100
AcDbDictionaryWithDefault
340
F
  0
DICTIONARY
  5
247DF
102
{ACAD_REACTORS
330
C
102
}
330
C
100
AcDbDictionary
281
     1
  3
A0
350
247E0
  3
A1
350
247E1
  3
A2
350
247E2
  3
A3
350
247E3
  3
A4
350
247E4
  3
A5
350
247E5
  3
A6
350
247E6
  3
A7
350
247E7
  3
A8
350
247E8
  3
A9
350
247E9
  3
B0
350
247EA
  3
B1
350
247EB
  3
B2
350
247EC
  3
B3
350
247ED
  3
B4
350
247EE
  3
B5
350
247EF
  3
B6
350
247F0
  0
DICTIONARY
  5
2B563
102
{ACAD_REACTORS
330
C
102
}
330
C
100
AcDbDictionary
281
     1
  3
Metric50
350
2B564
  0
DICTIONARY
  5
2777
102
{ACAD_REACTORS
330
C
102
}
330
C
100
AcDbDictionary
281
     1
  3
Standard
350
2778
  3
コピー - Standard
350
2688B
  0
DICTIONARY
  5
2765
102
{ACAD_REACTORS
330
C
102
}
330
C
100
AcDbDictionary
281
     1
  3
2dWireframe
350
276B
  3
3D Hidden
350
276D
  3
3dWireframe
350
276C
  3
Basic
350
276A
  3
Brighten
350
2771
  3
ColorChange
350
2775
  3
Conceptual
350
276E
  3
Dim
350
2770
  3
EdgeColorOff
350
247DE
  3
Facepattern
350
2774
  3
Flat
350
2766
  3
FlatWithEdges
350
2767
  3
Gouraud
350
2768
  3
GouraudWithEdges
350
2769
  3
Hidden
350
2B55D
  3
JitterOff
350
247DC
  3
Linepattern
350
2773
  3
OverhangOff
350
247DD
  3
Realistic
350
276F
  3
Shaded
350
2B562
  3
Shaded with edges
350
2B561
  3
Shades of Gray
350
2B55E
  3
Sketchy
350
2B55F
  3
Thicken
350
2772
  3
Wireframe
350
2B55C
  3
X-Ray
350
2B560
  0
XRECORD
  5
2B582
102
{ACAD_REACTORS
330
C
102
}
330
C
100
AcDbXrecord
280
     1
 90
        1
330
2778
330
2688B
330
2B564
330
2B566
  0
DICTIONARY
  5
5E
102
{ACAD_REACTORS
330
C
102
}
330
C
100
AcDbDictionary
281
     1
  3
CANNOSCALE
350
24E32
  3
CMLEADERSTYLE
350
24E30
  3
CTABLESTYLE
350
2792
  3
CVIEWDETAILSTYLE
350
2B577
  3
CVIEWSECTIONSTYLE
350
2B578
  3
DIMASSOC
350
5F
  3
HIDETEXT
350
63
  3
LAYEREVAL
350
24E34
  3
LAYERNOTIFY
350
24E35
  3
LIGHTINGUNITS
350
24E33
  3
MSLTSCALE
350
24E31
  0
DICTIONARY
  5
2DF9
102
{ACAD_REACTORS
330
279F
102
}
330
279F
100
AcDbDictionary
281
     1
  0
DICTIONARY
  5
2E2E
102
{ACAD_REACTORS
330
279F
102
}
330
279F
100
AcDbDictionary
281
     1
  0
DICTIONARY
  5
2DF8
102
{ACAD_REACTORS
330
279F
102
}
330
279F
100
AcDbDictionary
281
     1
1001
ACAD
1000
<All
  0
XRECORD
  5
24E14
102
{ACAD_REACTORS
330
24E13
102
}
330
24E13
100
AcDbXrecord
280
     1
290
     1
  0
XRECORD
  5
24E16
102
{ACAD_REACTORS
330
24E15
102
}
330
24E15
100
AcDbXrecord
280
     1
290
     1
  0
XRECORD
  5
24E18
102
{ACAD_REACTORS
330
24E17
102
}
330
24E17
100
AcDbXrecord
280
     1
290
     1
  0
XRECORD
  5
24E1A
102
{ACAD_REACTORS
330
24E19
102
}
330
24E19
100
AcDbXrecord
280
     1
290
     1
  0
XRECORD
  5
24E1C
102
{ACAD_REACTORS
330
24E1B
102
}
330
24E1B
100
AcDbXrecord
280
     1
290
     1
  0
XRECORD
  5
24E1E
102
{ACAD_REACTORS
330
24E1D
102
}
330
24E1D
100
AcDbXrecord
280
     1
290
     1
  0
XRECORD
  5
24E20
102
{ACAD_REACTORS
330
24E1F
102
}
330
24E1F
100
AcDbXrecord
280
     1
290
     1
  0
XRECORD
  5
24E22
102
{ACAD_REACTORS
330
24E21
102
}
330
24E21
100
AcDbXrecord
280
     1
290
     1
  0
XRECORD
  5
24E24
102
{ACAD_REACTORS
330
24E23
102
}
330
24E23
100
AcDbXrecord
280
     1
290
     1
  0
XRECORD
  5
24E26
102
{ACAD_REACTORS
330
24E25
102
}
330
24E25
100
AcDbXrecord
280
     1
290
     1
  0
SORTENTSTABLE
  5
2D99
102
{ACAD_REACTORS
330
2D98
102
}
330
2D98
100
AcDbSortentsTable
330
1F
331
2B321
  5
2B325
331
2B2E2
  5
2B2E6
331
2B2AB
  5
2B2B0
331
2AE7D
  5
2AFF5
331
2AE36
  5
2AE3A
331
2B26C
  5
2B270
331
2B358
  5
2B3DA
331
2B2EA
  5
2B2F0
331
2B2B3
  5
2B2B7
331
2B274
  5
2B278
331
2AFF5
  5
2AFF9
331
2AE3E
  5
2AE42
331
2ADB0
  5
2ADB4
331
2AD79
  5
2AD7D
331
2AD3A
  5
2AD3E
331
2ACC4
  5
2ACC8
331
2AC8D
  5
2AC91
331
2AC4E
  5
2AC52
331
2AD03
  5
2AD07
331
2B27C
  5
2B280
331
2AE46
  5
2AE4A
331
2B2F2
  5
2B2F6
331
2ADB8
  5
2ADBC
331
2AD81
  5
2AD85
331
2AD42
  5
2AD46
331
2AD0B
  5
2AD0F
331
2ACCC
  5
2ACD0
331
2AC56
  5
2AC5A
331
2AC95
  5
2AC99
331
2ADF7
  5
2ADFB
331
2ADFF
  5
2AE03
331
2ADC0
  5
2ADC4
331
2AD89
  5
2AD8D
331
2AD13
  5
2AD17
331
2ACD4
  5
2ACD8
331
2AC9D
  5
2ACA1
331
2AC5E
  5
2AC62
331
2AD4A
  5
2AD4E
331
2AE07
  5
2AE0B
331
2ADC8
  5
2ADCC
331
2ACDC
  5
2ACE0
331
2AC66
  5
2AC6A
331
2AD52
  5
2AD56
331
1090
  5
29B3C
331
29B5A
  5
29B74
331
2A351
  5
2A362
331
2A359
  5
2A36A
331
2B2FA
  5
2B2FE
331
2B284
  5
2B288
331
2AE4E
  5
2AE52
331
2AC08
  5
2AC0C
331
2A361
  5
2A372
331
2AE0F
  5
2AE13
331
2B2BB
  5
2B2BF
331
2B331
  5
2B339
331
2B302
  5
2B306
331
2B2C3
  5
2B2C7
331
2AE56
  5
2AE5A
331
2AE17
  5
2AE1B
331
2B24D
  5
2B251
331
2B339
  5
2B348
331
2B2CB
  5
2B2CF
331
2B294
  5
2B298
331
2B255
  5
2B259
331
2AE5E
  5
2AE62
331
2AE1F
  5
2AE23
331
2B30A
  5
2B30E
331
2ADD0
  5
2ADD4
331
2AD91
  5
2AD95
331
2AD5A
  5
2AD5E
331
2AD1B
  5
2AD1F
331
2ACA5
  5
2ACA9
331
2AC6E
  5
2AC72
331
2AC2F
  5
2AC33
331
2ACE4
  5
2ACE8
331
2B312
  5
2B316
331
2B29C
  5
2B2A0
331
2B25D
  5
2B261
331
2AE27
  5
2AE2B
331
2B2D3
  5
2B2D7
331
2B349
  5
2B351
331
2AD99
  5
2AD9D
331
2AD62
  5
2AD66
331
2AD23
  5
2AD27
331
2ACEC
  5
2ACF0
331
2ACAD
  5
2ACB1
331
2AC37
  5
2AC3B
331
2AC76
  5
2AC7A
331
2ADD8
  5
2ADDC
331
2ADE0
  5
2ADE4
331
2ADA1
  5
2ADA5
331
2AD6A
  5
2AD6E
331
2ACF4
  5
2ACF8
331
2ACB5
  5
2ACB9
331
2AC7E
  5
2AC82
331
2AC3F
  5
2AC43
331
2AD2B
  5
2AD2F
331
2ADE8
  5
2ADEC
331
2ADA9
  5
2ADAD
331
2AD72
  5
2AD76
331
2ACFC
  5
2AD00
331
2ACBD
  5
2ACC1
331
2AC86
  5
2AC8A
331
2AC47
  5
2AC4B
331
2AD33
  5
2AD37
331
2B499
  5
24DC1
331
2A369
  5
2A37A
331
29B8A
  5
29B8E
331
2AC10
  5
2AC14
331
2AC18
  5
2AC1C
331
2A371
  5
2A3EC
331
29A83
  5
29B40
331
2AC20
  5
2AC24
331
2A379
  5
2A3F4
331
29ABB
  5
29B5A
331
2A15A
  5
2A360
331
2B2DB
  5
2B2DF
331
2B265
  5
2B269
331
2AE2F
  5
2AE33
331
2B2A4
  5
2B2A8
331
2B351
  5
2B359
331
2B322
  5
2B326
331
2B2E3
  5
2B2EA
331
2B2AC
  5
2B2B1
331
2AE37
  5
2AE3B
331
2B26D
  5
2B271
331
2B359
  5
2B3F2
331
2B2B4
  5
2B2B8
331
2B275
  5
2B279
331
2AFF6
  5
2AFFA
331
2AE3F
  5
2AE43
331
2B2EB
  5
2B2F1
331
2ADF0
  5
2ADF4
331
2ADB1
  5
2ADB5
331
2AD7A
  5
2AD7E
331
2AD3B
  5
2AD3F
331
2AD04
  5
2AD08
331
2AC8E
  5
2AC92
331
2AC4F
  5
2AC53
331
2ACC5
  5
2ACC9
331
2B27D
  5
2B281
331
2AE47
  5
2AE4B
331
2B2F3
  5
2B2F7
331
2ADF8
  5
2ADFC
331
2ADB9
  5
2ADBD
331
2AD43
  5
2AD47
331
2AD0C
  5
2AD10
331
2ACCD
  5
2ACD1
331
2AC96
  5
2AC9A
331
2AC57
  5
2AC5B
331
2AD82
  5
2AD86
331
2AE00
  5
2AE04
331
2ADC1
  5
2ADC5
331
2AD8A
  5
2AD8E
331
2AD4B
  5
2AD4F
331
2ACD5
  5
2ACD9
331
2AC9E
  5
2ACA2
331
2AC5F
  5
2AC63
331
2AD14
  5
2AD18
331
2ADC9
  5
2ADCD
331
2ACDD
  5
2ACE1
331
2AC67
  5
2AC6B
331
2AD53
  5
2AD57
331
29B5B
  5
29B5C
331
2A352
  5
2A363
331
2A35A
  5
2A36B
331
2AE08
  5
2AE0C
331
2B2FB
  5
2B2FF
331
2B2BC
  5
2B2C0
331
2AE4F
  5
2AE53
331
2AC09
  5
2AC0D
331
2A362
  5
2A373
331
29B83
  5
29B87
331
2AE10
  5
2AE14
331
2B285
  5
2B289
331
2B332
  5
2B33A
331
2B303
  5
2B307
331
2B2C4
  5
2B2CA
331
2B28D
  5
2B291
331
2B24E
  5
2B252
331
2AE18
  5
2AE1C
331
2AE57
  5
2AE5B
331
2B33A
  5
2B349
331
2AC28
  5
2AC2C
331
2B30B
  5
2B30F
331
2B295
  5
2B299
331
2B256
  5
2B25A
331
2AE20
  5
2AE24
331
2AE5F
  5
2AE63
331
2B2CC
  5
2B2D0
331
2ADD1
  5
2ADD5
331
2AD92
  5
2AD96
331
2AD5B
  5
2AD5F
331
2AD1C
  5
2AD20
331
2ACE5
  5
2ACE9
331
2AC6F
  5
2AC73
331
2AC30
  5
2AC34
331
2ACA6
  5
2ACAA
331
2B313
  5
2B317
331
2B29D
  5
2B2A1
331
2B25E
  5
2B262
331
2B2D4
  5
2B2D8
331
2B34A
  5
2B352
331
2ADD9
  5
2ADDD
331
2AD9A
  5
2AD9E
331
2AD24
  5
2AD28
331
2ACED
  5
2ACF1
331
2ACAE
  5
2ACB2
331
2AC38
  5
2AC3C
331
2AC77
  5
2AC7B
331
2AD63
  5
2AD67
331
2ADE1
  5
2ADE5
331
2ADA2
  5
2ADA6
331
2AD6B
  5
2AD6F
331
2ACF5
  5
2ACF9
331
2ACB6
  5
2ACBA
331
2AC7F
  5
2AC83
331
2AC40
  5
2AC44
331
2AD2C
  5
2AD30
331
2ADE9
  5
2ADED
331
2ADAA
  5
2ADAE
331
2AD73
  5
2AD77
331
2AD34
  5
2AD38
331
2ACBE
  5
2ACC2
331
2AC87
  5
2AC8B
331
2ACFD
  5
2AD01
331
2B49A
  5
24DB9
331
2AC11
  5
2AC15
331
29B8B
  5
29B8F
331
2A36A
  5
2A37B
331
2AC19
  5
2AC1D
331
2A372
  5
2A3ED
331
2A37A
  5
2A3F5
331
2A15B
  5
2A361
331
2AC21
  5
2AC25
331
2AE28
  5
2AE2C
331
2B31B
  5
2B320
331
2B2DC
  5
2B2E0
331
2B2A5
  5
2B2A9
331
29B24
  5
29B75
331
2AE30
  5
2AE34
331
2B266
  5
2B26A
331
2B352
  5
2B35A
331
2B2E4
  5
2B2EB
331
2B2AD
  5
2B2B2
331
2B26E
  5
2B272
331
2AE38
  5
2AE3C
331
2B323
  5
2B32D
331
2B35A
  5
2B446
331
2AC48
  5
2AC4C
331
2B2EC
  5
2B2F2
331
2B276
  5
2B27A
331
2AFF7
  5
2AFFB
331
2AE40
  5
2AE44
331
2B2B5
  5
2B2B9
331
2B3AA
  5
2B499
331
2ADB2
  5
2ADB6
331
2AD7B
  5
2AD7F
331
2AD3C
  5
2AD40
331
2AD05
  5
2AD09
331
2ACC6
  5
2ACCA
331
2AC50
  5
2AC54
331
2AC8F
  5
2AC93
331
2ADF1
  5
2ADF5
331
2B27E
  5
2B282
331
2B2F4
  5
2B2F8
331
2ADF9
  5
2ADFD
331
2ADBA
  5
2ADBE
331
2AD83
  5
2AD87
331
2AD0D
  5
2AD11
331
2ACCE
  5
2ACD2
331
2AC97
  5
2AC9B
331
2AC58
  5
2AC5C
331
2AD44
  5
2AD48
331
2AE01
  5
2AE05
331
2ADC2
  5
2ADC6
331
2AD8B
  5
2AD8F
331
2AD4C
  5
2AD50
331
2ACD6
  5
2ACDA
331
2AC9F
  5
2ACA3
331
2AC60
  5
2AC64
331
2AD15
  5
2AD19
331
2ADCA
  5
2ADCE
331
2AD54
  5
2AD58
331
2ACDE
  5
2ACE2
331
29B3C
  5
24DBE
331
2A77A
  5
2AC05
331
2A353
  5
2A364
331
2AE48
  5
2AE4C
331
2A35B
  5
2A36C
331
29B74
  5
29B59
331
2AE09
  5
2AE0D
331
2B2FC
  5
2B300
331
2B2BD
  5
2B2C1
331
2AE50
  5
2AE54
331
2A363
  5
2A374
331
29B84
  5
29B88
331
2AC0A
  5
2AC0E
331
2AE11
  5
2AE15
331
2B286
  5
2B28D
331
2B333
  5
2B33B
331
2B3C2
  5
2B49A
331
2B2C5
  5
2B2CB
331
2B28E
  5
2B292
331
2B24F
  5
2B253
331
2AE58
  5
2AE5C
331
2AE19
  5
2AE1D
331
2B304
  5
2B308
331
2B33B
  5
2B34A
331
2AC68
  5
2AC6C
331
2AC29
  5
2AC2D
331
2B30C
  5
2B310
331
2B2CD
  5
2B2D1
331
2B257
  5
2B25B
331
2AE60
  5
2AE64
331
2AE21
  5
2AE25
331
2B296
  5
2B29A
331
2B3DA
  5
2B4F1
331
2AD93
  5
2AD97
331
2AD5C
  5
2AD60
331
2AD1D
  5
2AD21
331
2ACE6
  5
2ACEA
331
2ACA7
  5
2ACAB
331
2AC31
  5
2AC35
331
2AC70
  5
2AC74
331
2ADD2
  5
2ADD6
331
2B314
  5
2B318
331
2B25F
  5
2B263
331
2B29E
  5
2B2A2
331
2B34B
  5
2B353
331
2ADDA
  5
2ADDE
331
2AD9B
  5
2AD9F
331
2AD64
  5
2AD68
331
2ACEE
  5
2ACF2
331
2ACAF
  5
2ACB3
331
2AC78
  5
2AC7C
331
2AC39
  5
2AC3D
331
2AD25
  5
2AD29
331
2ADE2
  5
2ADE6
331
2ADA3
  5
2ADA7
331
2AD6C
  5
2AD70
331
2AD2D
  5
2AD31
331
2ACB7
  5
2ACBB
331
2AC80
  5
2AC84
331
2AC41
  5
2AC45
331
2ACF6
  5
2ACFA
331
2ADEA
  5
2ADEE
331
2ADAB
  5
2ADAF
331
2AD74
  5
2AD78
331
2AD35
  5
2AD39
331
2ACFE
  5
2AD02
331
2ACBF
  5
2ACC3
331
2AC12
  5
2AC16
331
29B8C
  5
29B90
331
2A36B
  5
2A37C
331
2AC1A
  5
2AC1E
331
2A373
  5
2A3EE
331
2A37B
  5
2A3F6
331
2AC22
  5
2AC26
331
2AE29
  5
2AE2D
331
2B2DD
  5
2B2E2
331
2B2A6
  5
2B2AA
331
2AE31
  5
2AE35
331
2B267
  5
2B26B
331
2B31C
  5
2B321
331
2B353
  5
2B35B
331
2B3F2
  5
2B4F2
331
2B2AE
  5
2B2B3
331
2B26F
  5
2B273
331
2AE39
  5
2AE3D
331
2B2E5
  5
2B2EC
331
2B324
  5
2B332
331
2B35B
  5
2B47E
331
2AC88
  5
2AC8C
331
2AC49
  5
2AC4D
331
2B2ED
  5
2B2F3
331
2B2B6
  5
2B2BA
331
2AE41
  5
2AE45
331
2B277
  5
2B27B
331
2ADF2
  5
2ADF6
331
2ADB3
  5
2ADB7
331
2AD3D
  5
2AD41
331
2AD06
  5
2AD0A
331
2ACC7
  5
2ACCB
331
2AC51
  5
2AC55
331
2AC90
  5
2AC94
331
2AD7C
  5
2AD80
331
2B2F5
  5
2B2F9
331
2B27F
  5
2B283
331
2ADFA
  5
2ADFE
331
2ADBB
  5
2ADBF
331
2AD84
  5
2AD88
331
2AD0E
  5
2AD12
331
2ACCF
  5
2ACD3
331
2AC98
  5
2AC9C
331
2AC59
  5
2AC5D
331
2AD45
  5
2AD49
331
2ADC3
  5
2ADC7
331
2AD8C
  5
2AD90
331
2AD4D
  5
2AD51
331
2AD16
  5
2AD1A
331
2AC61
  5
2AC65
331
2ACD7
  5
2ACDB
331
2AE02
  5
2AE06
331
2ADCB
  5
2ADCF
331
2AD55
  5
2AD59
331
2ACDF
  5
2ACE3
331
29B3D
  5
24DB4
331
2A77B
  5
2AC06
331
2A354
  5
2A365
331
2AFF8
  5
2AFFC
331
2AE49
  5
2AE4D
331
2A35C
  5
2A36D
331
27C66
  5
29B3E
331
29B75
  5
29B58
331
2AC03
  5
2AC07
331
2AE0A
  5
2AE0E
331
2B2FD
  5
2B301
331
2B2BE
  5
2B2C2
331
2B287
  5
2B28E
331
2AC0B
  5
2AC0F
331
29B85
  5
29B89
331
2A364
  5
2A376
331
2AE12
  5
2AE16
331
2AE51
  5
2AE55
331
2B334
  5
2B33C
331
2B305
  5
2B309
331
2B28F
  5
2B293
331
2B250
  5
2B254
331
2AE59
  5
2AE5D
331
2AE1A
  5
2AE1E
331
2B2C6
  5
2B2CC
331
2B33C
  5
2B34B
331
2AC69
  5
2AC6D
331
2AC2A
  5
2AC2E
331
2ACA0
  5
2ACA4
331
2B30D
  5
2B311
331
2B2CE
  5
2B2D2
331
2B258
  5
2B25C
331
2AE61
  5
2AE71
331
2AE22
  5
2AE26
331
2B297
  5
2B29B
331
2ADD3
  5
2ADD7
331
2AD94
  5
2AD98
331
2AD1E
  5
2AD22
331
2ACE7
  5
2ACEB
331
2ACA8
  5
2ACAC
331
2AC32
  5
2AC36
331
2AC71
  5
2AC75
331
2AD5D
  5
2AD61
331
2B315
  5
2B319
331
2B2D6
  5
2B2DB
331
2B29F
  5
2B2A3
331
2B34C
  5
2B354
331
2ADDB
  5
2ADDF
331
2AD9C
  5
2ADA0
331
2AD65
  5
2AD69
331
2ACEF
  5
2ACF3
331
2ACB0
  5
2ACB4
331
2AC79
  5
2AC7D
331
2AC3A
  5
2AC3E
331
2AD26
  5
2AD2A
331
2ADE3
  5
2ADE7
331
2ADA4
  5
2ADA8
331
2AD6D
  5
2AD71
331
2AD2E
  5
2AD32
331
2ACB8
  5
2ACBC
331
2AC81
  5
2AC85
331
2AC42
  5
2AC46
331
2ACF7
  5
2ACFB
331
2ADAC
  5
2ADB0
331
2AD75
  5
2AD79
331
2AD36
  5
2AD3A
331
2ACFF
  5
2AD03
331
2ADEB
  5
2ADEF
331
2AC13
  5
2AC17
331
29B8D
  5
29B91
331
2A36C
  5
2A37D
331
2AC1B
  5
2AC1F
331
2A374
  5
2A3EF
331
2AE71
  5
2AE7D
331
2AC23
  5
2AC27
331
2A37C
  5
2A3F7
331
2AE2A
  5
2AE2E
331
2B260
  5
2B264
331
2B2DE
  5
2B2E3
331
2B2A7
  5
2B2AB
331
2B268
  5
2B26C
331
2AE32
  5
2AE36
331
2B31D
  5
2B322
331
2B354
  5
2B35C
331
2B270
  5
2B274
331
2AE3A
  5
2AE3E
331
2B2E6
  5
2B2ED
331
2B325
  5
2B333
331
2B35C
  5
2B497
331
2ACC0
  5
2ACC4
331
2AC4A
  5
2AC4E
331
2AC89
  5
2AC8D
331
2B278
  5
2B27C
331
2AE42
  5
2AE46
331
2B2B7
  5
2B2BB
331
2B32D
  5
2B335
331
2ADF3
  5
2ADF7
331
2ADB4
  5
2ADB8
331
2AD7D
  5
2AD81
331
2AD07
  5
2AD0B
331
2ACC8
  5
2ACCC
331
2AC91
  5
2AC95
331
2AC52
  5
2AC56
331
2AD3E
  5
2AD42
331
2B2F6
  5
2B2FA
331
2ADFB
  5
2ADFF
331
2ADBC
  5
2ADC0
331
2AD85
  5
2AD89
331
2AD46
  5
2AD4A
331
2ACD0
  5
2ACD4
331
2AC99
  5
2AC9D
331
2AC5A
  5
2AC5E
331
2AD0F
  5
2AD13
331
2ADC4
  5
2ADC8
331
2AD8D
  5
2AD91
331
2AD4E
  5
2AD52
331
2AD17
  5
2AD1B
331
2AC62
  5
2AC66
331
2ACD8
  5
2ACDC
331
2AE03
  5
2AE07
331
2AD56
  5
2AD5A
331
2ADCC
  5
2ADD0
331
29B3E
  5
24DC2
331
2A355
  5
2A366
331
2B280
  5
2B284
331
2AE4A
  5
2AE4E
331
2AC04
  5
2AC08
331
29B76
  5
29B81
331
27C67
  5
29B3F
331
2A35D
  5
2A36E
331
2AE0B
  5
2AE0F
331
2AFF9
  5
2B24D
331
2B2BF
  5
2B2C3
331
2B288
  5
2B28F
331
2AE52
  5
2AE56
331
2AC0C
  5
2AC10
331
29B86
  5
29B8A
331
2A365
  5
2A377
331
2AE13
  5
2AE17
331
2B2FE
  5
2B302
331
2B335
  5
2B33F
331
2B306
  5
2B30A
331
2B2C7
  5
2B2CD
331
2B251
  5
2B255
331
2AE5A
  5
2AE5E
331
2AE1B
  5
2AE1F
331
2B290
  5
2B294
331
2ACE0
  5
2ACE4
331
2AC6A
  5
2AC6E
331
2AC2B
  5
2AC2F
331
2ACA1
  5
2ACA5
331
2B30E
  5
2B312
331
2B2CF
  5
2B2D3
331
2B259
  5
2B25D
331
2AE62
  5
2AE72
331
2AE23
  5
2AE27
331
2B298
  5
2B29C
331
2B345
  5
2B34D
331
2ADD4
  5
2ADD8
331
2AD95
  5
2AD99
331
2AD1F
  5
2AD23
331
2ACE8
  5
2ACEC
331
2ACA9
  5
2ACAD
331
2AC72
  5
2AC76
331
2AC33
  5
2AC37
331
2AD5E
  5
2AD62
331
2B316
  5
2B31B
331
2B2D7
  5
2B2DC
331
2B34D
  5
2B355
331
2ADDC
  5
2ADE0
331
2AD9D
  5
2ADA1
331
2AD66
  5
2AD6A
331
2AD27
  5
2AD2B
331
2ACB1
  5
2ACB5
331
2AC7A
  5
2AC7E
331
2AC3B
  5
2AC3F
331
2ACF0
  5
2ACF4
331
2ADA5
  5
2ADA9
331
2AD6E
  5
2AD72
331
2AD2F
  5
2AD33
331
2ACF8
  5
2ACFC
331
2AC82
  5
2AC86
331
2AC43
  5
2AC47
331
2ACB9
  5
2ACBD
331
2ADE4
  5
2ADE8
331
2ADEC
  5
2ADF0
331
2ADAD
  5
2ADB1
331
2AD37
  5
2AD3B
331
2AD76
  5
2AD7A
331
2AC14
  5
2AC18
331
2A36D
  5
2A37E
331
29B8E
  5
2A16A
331
2A375
  5
2A3F0
331
2AC1C
  5
2AC20
331
2B2A0
  5
2B2A4
331
2B261
  5
2B265
331
2AC24
  5
2AC28
331
2A37D
  5
2A77A
331
2AE2B
  5
2AE2F
331
2AE72
  5
2AFF2
331
2B2A8
  5
2B2AC
331
2B269
  5
2B26D
331
29B27
  5
29B83
331
2AE33
  5
2AE37
331
2B2DF
  5
2B2E4
331
2B355
  5
2B35D
331
2B271
  5
2B275
331
2AFF2
  5
2AFF6
331
2AE3B
  5
2AE3F
331
2B2B0
  5
2B2B4
331
2B326
  5
2B334
331
2B35D
  5
2B498
331
2AD00
  5
2AD04
331
2ACC1
  5
2ACC5
331
2AC4B
  5
2AC4F
331
2AC8A
  5
2AC8E
331
2AE43
  5
2AE47
331
2B279
  5
2B27D
331
2B32E
  5
2B336
331
2ADF4
  5
2ADF8
331
2ADB5
  5
2ADB9
331
2AD7E
  5
2AD82
331
2AD08
  5
2AD0C
331
2ACC9
  5
2ACCD
331
2AC92
  5
2AC96
331
2AC53
  5
2AC57
331
2AD3F
  5
2AD43
331
2B2F7
  5
2B2FB
331
2ADFC
  5
2AE00
331
2ADBD
  5
2ADC1
331
2AD86
  5
2AD8A
331
2AD47
  5
2AD4B
331
2AD10
  5
2AD14
331
2ACD1
  5
2ACD5
331
2AC5B
  5
2AC5F
331
2AC9A
  5
2AC9E
331
2AE04
  5
2AE08
331
2ADC5
  5
2ADC9
331
2AD4F
  5
2AD53
331
2AC63
  5
2AC67
331
2ACD9
  5
2ACDD
331
2AD8E
  5
2AD92
331
2ADCD
  5
2ADD1
331
2AD57
  5
2AD5B
331
108D
  5
29563
331
29B3F
  5
24DBB
331
2A356
  5
2A367
331
2B2B8
  5
2B2BC
331
2B281
  5
2B285
331
2AFFA
  5
2B24E
331
2AC05
  5
2AC09
331
29B77
  5
29B76
331
2A35E
  5
2A36F
331
2AE0C
  5
2AE10
331
2AE4B
  5
2AE4F
331
2B2FF
  5
2B303
331
2B289
  5
2B290
331
2AE53
  5
2AE57
331
2AC0D
  5
2AC11
331
29B87
  5
29B8B
331
2A366
  5
2A378
331
2AE14
  5
2AE18
331
2B2C0
  5
2B2C4
331
2B336
  5
2B345
331
2B307
  5
2B30B
331
2B252
  5
2B256
331
2AE5B
  5
2AE5F
331
2AE1C
  5
2AE20
331
2B291
  5
2B295
331
2AD18
  5
2AD1C
331
2ACE1
  5
2ACE5
331
2ACA2
  5
2ACA6
331
2AC2C
  5
2AC30
331
2AC6B
  5
2AC6F
331
2B30F
  5
2B313
331
2B2D0
  5
2B2D4
331
2B299
  5
2B29D
331
2AE63
  5
2AE73
331
2AE24
  5
2AE28
331
2B25A
  5
2B25E
331
2B346
  5
2B34E
331
2ADD5
  5
2ADD9
331
2AD96
  5
2AD9A
331
2AD5F
  5
2AD63
331
2ACE9
  5
2ACED
331
2ACAA
  5
2ACAE
331
2AC73
  5
2AC77
331
2AC34
  5
2AC38
331
2AD20
  5
2AD24
331
2B317
  5
2B31C
331
2B34E
  5
2B356
331
2ADDD
  5
2ADE1
331
2AD9E
  5
2ADA2
331
2AD67
  5
2AD6B
331
2AD28
  5
2AD2C
331
2ACF1
  5
2ACF5
331
2AC7B
  5
2AC7F
331
2AC3C
  5
2AC40
331
2ACB2
  5
2ACB6
331
2ADE5
  5
2ADE9
331
2ADA6
  5
2ADAA
331
2AD30
  5
2AD34
331
2ACF9
  5
2ACFD
331
2AC83
  5
2AC87
331
2AC44
  5
2AC48
331
2ACBA
  5
2ACBE
331
2AD6F
  5
2AD73
331
2ADED
  5
2ADF1
331
2ADAE
  5
2ADB2
331
2AD77
  5
2AD7B
331
2B446
  5
2B52B
331
2B47E
  5
2B52C
331
2AC15
  5
2AC19
331
2A36E
  5
2A37F
331
29B8F
  5
2A16B
331
2AC1D
  5
2AC21
331
2A376
  5
2A3F1
331
2B2D8
  5
2B2DD
331
2B2A1
  5
2B2A5
331
2B262
  5
2B266
331
2AE73
  5
2AFF3
331
2AC25
  5
2AC29
331
2A37E
  5
2A77B
331
2AE2C
  5
2AE30
331
2B31F
  5
2B323
331
2B2E0
  5
2B2E5
331
2B26A
  5
2B26E
331
2AE34
  5
2AE38
331
2B2A9
  5
2B2AD
331
2B356
  5
2B3AA
331
2B2B1
  5
2B2B5
331
2B272
  5
2B276
331
2AE3C
  5
2AE40
331
2AFF3
  5
2AFF7
331
2AD38
  5
2AD3C
331
2AD01
  5
2AD05
331
2ACC2
  5
2ACC6
331
2AC8B
  5
2AC8F
331
2AC4C
  5
2AC50
331
2B2F0
  5
2B2F4
331
2AE44
  5
2AE48
331
2B27A
  5
2B27E
331
2B32F
  5
2B337
331
2ADF5
  5
2ADF9
331
2ADB6
  5
2ADBA
331
2AD7F
  5
2AD83
331
2AD40
  5
2AD44
331
2ACCA
  5
2ACCE
331
2AC93
  5
2AC97
331
2AC54
  5
2AC58
331
2AD09
  5
2AD0D
331
2ADBE
  5
2ADC2
331
2AD87
  5
2AD8B
331
2AD48
  5
2AD4C
331
2AD11
  5
2AD15
331
2ACD2
  5
2ACD6
331
2AC5C
  5
2AC60
331
2AC9B
  5
2AC9F
331
2ADFD
  5
2AE01
331
2AE05
  5
2AE09
331
2ADC6
  5
2ADCA
331
2AD50
  5
2AD54
331
2AC64
  5
2AC68
331
2ACDA
  5
2ACDE
331
2AD8F
  5
2AD93
331
2ADCE
  5
2ADD2
331
1581D
  5
29B3D
331
29B58
  5
29B85
331
2A357
  5
2A368
331
2B2B9
  5
2B2BD
331
2B282
  5
2B286
331
2AFFB
  5
2B24F
331
2AC06
  5
2AC0A
331
2A35F
  5
2A370
331
2AE0D
  5
2AE11
331
2AE4C
  5
2AE50
331
2B2F8
  5
2B2FC
331
2B300
  5
2B304
331
2AE54
  5
2AE58
331
2AC0E
  5
2AC12
331
2A367
  5
2A379
331
2AE15
  5
2AE19
331
2B2C1
  5
2B2C5
331
2B337
  5
2B346
331
2B308
  5
2B30C
331
2B292
  5
2B296
331
2AE5C
  5
2AE60
331
2AE1D
  5
2AE21
331
2B253
  5
2B257
331
2B33F
  5
2B34C
331
2AD19
  5
2AD1D
331
2ACE2
  5
2ACE6
331
2ACA3
  5
2ACA7
331
2AC6C
  5
2AC70
331
2AC2D
  5
2AC31
331
2AD58
  5
2AD5C
331
2B310
  5
2B314
331
2B2D1
  5
2B2D5
331
2B29A
  5
2B29E
331
2B25B
  5
2B25F
331
2AE25
  5
2AE29
331
2AE64
  5
2AE74
331
2B347
  5
2B34F
331
2ADD6
  5
2ADDA
331
2AD97
  5
2AD9B
331
2AD60
  5
2AD64
331
2AD21
  5
2AD25
331
2ACAB
  5
2ACAF
331
2AC74
  5
2AC78
331
2AC35
  5
2AC39
331
2ACEA
  5
2ACEE
331
2B34F
  5
2B357
331
2AD9F
  5
2ADA3
331
2AD68
  5
2AD6C
331
2AD29
  5
2AD2D
331
2ACF2
  5
2ACF6
331
2ACB3
  5
2ACB7
331
2AC3D
  5
2AC41
331
2AC7C
  5
2AC80
331
2ADDE
  5
2ADE2
331
2ADE6
  5
2ADEA
331
2ADA7
  5
2ADAB
331
2AD31
  5
2AD35
331
2ACFA
  5
2ACFE
331
2ACBB
  5
2ACBF
331
2AC45
  5
2AC49
331
2AC84
  5
2AC88
331
2AD70
  5
2AD74
331
2ADEE
  5
2ADF2
331
2ADAF
  5
2ADB3
331
2B497
  5
24DBD
331
29B88
  5
29B8C
331
2A36F
  5
2A380
331
29B90
  5
2A16C
331
2AC16
  5
2AC1A
331
2AC1E
  5
2AC22
331
2A377
  5
2A3F2
331
2A158
  5
2A35E
331
2B2A2
  5
2B2A6
331
2B263
  5
2B267
331
2AE74
  5
2AFF4
331
2AC26
  5
2AC2A
331
2A37F
  5
2AC03
331
2AE2D
  5
2AE31
331
2B318
  5
2B31D
331
2B320
  5
2B324
331
2B26B
  5
2B26F
331
2AE35
  5
2AE39
331
2B2AA
  5
2B2AE
331
2B357
  5
2B3C2
331
2B2B2
  5
2B2B6
331
2B273
  5
2B277
331
2AE3D
  5
2AE41
331
2AFF4
  5
2AFF8
331
2AD78
  5
2AD7C
331
2AD02
  5
2AD06
331
2ACC3
  5
2ACC7
331
2AC8C
  5
2AC90
331
2AC4D
  5
2AC51
331
2AD39
  5
2AD3D
331
2B2F1
  5
2B2F5
331
2B27B
  5
2B27F
331
2AE45
  5
2AE49
331
2ADF6
  5
2ADFA
331
2ADB7
  5
2ADBB
331
2AD80
  5
2AD84
331
2AD41
  5
2AD45
331
2AD0A
  5
2AD0E
331
2AC94
  5
2AC98
331
2AC55
  5
2AC59
331
2ACCB
  5
2ACCF
331
2ADFE
  5
2AE02
331
2ADBF
  5
2ADC3
331
2AD49
  5
2AD4D
331
2AD12
  5
2AD16
331
2ACD3
  5
2ACD7
331
2AC9C
  5
2ACA0
331
2AC5D
  5
2AC61
331
2AD88
  5
2AD8C
331
2AE06
  5
2AE0A
331
2AD51
  5
2AD55
331
2ACDB
  5
2ACDF
331
2AC65
  5
2AC69
331
2ADC7
  5
2ADCB
331
2ADCF
  5
2ADD3
331
108F
  5
29564
331
29B59
  5
29B84
331
2A358
  5
2A369
331
2B2F9
  5
2B2FD
331
2B283
  5
2B287
331
2AFFC
  5
2B250
331
2AE4D
  5
2AE51
331
2AC07
  5
2AC0B
331
29B81
  5
29B86
331
2A360
  5
2A371
331
2AE0E
  5
2AE12
331
2B2BA
  5
2B2BE
331
2B330
  5
2B338
331
2B301
  5
2B305
331
2AE55
  5
2AE59
331
2AC0F
  5
2AC13
331
2AE16
  5
2AE1A
331
2B2C2
  5
2B2C6
331
2B338
  5
2B347
331
2B309
  5
2B30D
331
2B2CA
  5
2B2CE
331
2B293
  5
2B297
331
2B254
  5
2B258
331
2AE1E
  5
2AE22
331
2AE5D
  5
2AE61
331
2AD90
  5
2AD94
331
2AD59
  5
2AD5D
331
2ACE3
  5
2ACE7
331
2ACA4
  5
2ACA8
331
2AC6D
  5
2AC71
331
2AC2E
  5
2AC32
331
2AD1A
  5
2AD1E
331
2B311
  5
2B315
331
2B2D2
  5
2B2D6
331
2B29B
  5
2B29F
331
2AE26
  5
2AE2A
331
2B25C
  5
2B260
331
2B348
  5
2B350
331
2ADD7
  5
2ADDB
331
2AD98
  5
2AD9C
331
2AD61
  5
2AD65
331
2AD22
  5
2AD26
331
2ACEB
  5
2ACEF
331
2AC75
  5
2AC79
331
2AC36
  5
2AC3A
331
2ACAC
  5
2ACB0
331
2ADDF
  5
2ADE3
331
2ADA0
  5
2ADA4
331
2AD2A
  5
2AD2E
331
2ACF3
  5
2ACF7
331
2ACB4
  5
2ACB8
331
2AC7D
  5
2AC81
331
2AC3E
  5
2AC42
331
2AD69
  5
2AD6D
331
2ADE7
  5
2ADEB
331
2ADA8
  5
2ADAC
331
2AD32
  5
2AD36
331
2ACFB
  5
2ACFF
331
2ACBC
  5
2ACC0
331
2AC85
  5
2AC89
331
2AC46
  5
2AC4A
331
2AD71
  5
2AD75
331
2ADEF
  5
2ADF3
331
2B498
  5
108F
331
29B89
  5
29B8D
331
2AC17
  5
2AC1B
331
29B91
  5
2A16D
331
2A370
  5
2A3C7
331
2AC1F
  5
2AC23
331
2A378
  5
2A3F3
331
2A159
  5
2A35F
331
2B319
  5
2B31F
331
2B2A3
  5
2B2A7
331
2B264
  5
2B268
331
2AE2E
  5
2AE32
331
2B2DA
  5
2B2DE
331
2B350
  5
2B358
331
2A380
  5
2AC04
331
2AC27
  5
2AC2B
  0
SORTENTSTABLE
  5
29D1
102
{ACAD_REACTORS
330
29CF
102
}
330
29CF
100
AcDbSortentsTable
330
341
  0
DIMASSOC
  5
2B3C1
102
{ACAD_REACTORS
330
2B3B7
102
}
330
2B3B7
100
AcDbDimAssoc
330
2B3AA
 90
        3
 70
     0
 71
     0
  1
AcDbOsnapPointRef
 72
    13
331
2B2FB
 73
     2
 91
        0
 40
0.0
 10
0.0
 20
0.0
 30
2.000000000000000E+50
 75
     0
  1
AcDbOsnapPointRef
 72
    13
331
2B323
 73
     2
 91
        0
 40
0.0
 10
0.0
 20
0.0
 30
2.000000000000000E+50
 75
     0
  0
DIMASSOC
  5
2B3D9
102
{ACAD_REACTORS
330
2B3CF
102
}
330
2B3CF
100
AcDbDimAssoc
330
2B3C2
 90
        1
 70
     0
 71
     0
  1
AcDbOsnapPointRef
 72
     1
331
2B2F0
 73
     2
 91
        0
 40
1.0
 10
0.0
 20
0.0
 30
2.000000000000000E+50
 75
     0
  0
DIMASSOC
  5
2B3F1
102
{ACAD_REACTORS
330
2B3E7
102
}
330
2B3E7
100
AcDbDimAssoc
330
2B3DA
 90
        3
 70
     0
 71
     0
  1
AcDbOsnapPointRef
 72
    13
331
2B2FB
 73
     2
 91
        0
 40
0.0
 10
0.0
 20
0.0
 30
2.000000000000000E+50
 75
     0
  1
AcDbOsnapPointRef
 72
     1
331
2B25E
 73
     2
 91
        0
 40
1.0
 10
0.0
 20
0.0
 30
2.000000000000000E+50
 75
     0
  0
DIMASSOC
  5
2B409
102
{ACAD_REACTORS
330
2B3FF
102
}
330
2B3FF
100
AcDbDimAssoc
330
2B3F2
 90
        3
 70
     0
 71
     0
  1
AcDbOsnapPointRef
 72
    13
331
2B2BC
 73
     2
 91
        0
 40
4.712388980384689
 10
0.0
 20
0.0
 30
2.000000000000000E+50
 75
     0
  1
AcDbOsnapPointRef
 72
     1
331
2B2BA
 73
     2
 91
        0
 40
1.570796326794896
 10
0.0
 20
0.0
 30
2.000000000000000E+50
 75
     0
  0
ACDBDETAILVIEWSTYLE
  5
2B566
102
{ACAD_XDICTIONARY
360
2B580
102
}
102
{ACAD_REACTORS
330
2B565
102
}
330
2B565
100
AcDbModelDocViewStyle
 70
     0
  3
Metric50
290
     0
100
AcDbDetailViewStyle
 70
     0
 71
     0
 90
        3
 71
     1
340
11
 62
   256
 40
5.0
340
0
 62
   256
 40
5.0
300

 40
0.0
280
     1
 71
     2
340
16
 90
       25
 62
   256
 71
     3
340
11
 62
   256
 40
5.0
 90
        0
 40
15.0
 90
        1
300
%<\AcVar ViewDetailId>% (%<\AcVar ViewScale \f "%sn">%)
 71
     4
340
16
 90
       25
 62
   256
340
16
 90
       25
 62
   256
280
     0
  0
GROUP
  5
29F6
102
{ACAD_REACTORS
330
D
102
}
330
D
100
AcDbGroup
300

 70
     1
 71
     1
340
29CE
340
29CD
340
29CC
340
29CB
340
29CA
340
29C9
340
29C8
340
29C7
340
29C6
340
29C5
340
29C4
340
29C3
340
29C2
340
29C1
340
29C0
340
29BF
340
29BE
340
29BD
340
29BC
340
29BB
340
29BA
340
29B9
340
29B8
340
29B7
  0
LAYOUT
  5
22
102
{ACAD_XDICTIONARY
360
24E2E
102
}
102
{ACAD_REACTORS
330
1A
102
}
330
1A
100
AcDbPlotSettings
  1

  2
Canon TS8130 series
  4
A4
  6

 40
4.180416584014892
 41
5.831417560577392
 42
4.180404663085937
 43
3.757080078125
 44
209.9733276367187
 45
296.9683227539062
 46
-0.0062006872036022
 47
1.756521382387688
 48
4.0
 49
2.0
140
82.0
141
57.4
142
1.0
143
1.374
 70
  3748
 72
     1
 73
     1
 74
     1
  7
monochrome.ctb
 75
     0
147
0.7277572728131227
 76
     1
 77
     2
 78
   300
148
-19.98230080583869
149
-9.983689057621745
100
AcDbLayout
  1
Model
 70
     1
 71
     0
 10
0.0
 20
0.0
 11
12.0
 21
9.0
 12
0.0
 22
0.0
 32
0.0
 14
0.0
 24
0.0
 34
0.0
 15
0.0
 25
0.0
 35
0.0
146
0.0
 13
0.0
 23
0.0
 33
0.0
 16
1.0
 26
0.0
 36
0.0
 17
0.0
 27
1.0
 37
0.0
 76
     0
330
1F
331
275F
1001
ACAD_PSEXT
1000
Canon TS8130 series
1000
Canon TS8130 series
1000
USB001
1000

1070
     0
  0
LAYOUT
  5
51
102
{ACAD_XDICTIONARY
360
2E30
102
}
102
{ACAD_REACTORS
330
1A
102
}
330
1A
100
AcDbPlotSettings
  1

  2
\\KASHIKEI2\EPSON PX-1001
  4
A3
  6

 40
3.757083415985107
 41
3.757076740264892
 42
3.757080078125
 43
3.757080078125
 44
296.9683227539062
 45
420.0172119140624
 46
0.0
 47
0.0
 48
0.0
 49
0.0
140
0.0
141
0.0
142
1.0
143
1.0
 70
   672
 72
     1
 73
     1
 74
     5
  7
monochrome.ctb
 75
    16
147
1.0
 76
     1
 77
     2
 78
   300
148
0.0
149
0.0
100
AcDbLayout
  1
ﾚｲｱｳﾄ1
 70
     1
 71
     1
 10
-3.757080078125
 20
-3.757083415985107
 11
416.2601318359374
 21
293.2112393379211
 12
0.0
 22
0.0
 32
0.0
 14
-58.82240024691737
 24
-86.72323328256494
 34
0.0
 15
448.1718497119468
 25
324.5569721112054
 35
0.0
146
0.0
 13
0.0
 23
0.0
 33
0.0
 16
1.0
 26
0.0
 36
0.0
 17
0.0
 27
1.0
 37
0.0
 76
     0
330
50
331
6B
1001
ACAD_PSEXT
1000
\\KASHIKEI2\EPSON PX-1001
1000
EPSON PX-1001
1000
\\KASHIKEI2
1000

1070
     0
  0
LAYOUT
  5
56
102
{ACAD_REACTORS
330
1A
102
}
330
1A
100
AcDbPlotSettings
  1

  2
none_device
  4
Letter_(8.50_x_11.00_Inches)
  6

 40
6.349999904632567
 41
6.349999904632567
 42
6.350006103515625
 43
6.350006103515625
 44
215.8999938964843
 45
279.3999938964843
 46
0.0
 47
0.0
 48
0.0
 49
0.0
140
0.0
141
0.0
142
1.0
143
1.0
 70
   688
 72
     1
 73
     1
 74
     5
  7
monochrome.ctb
 75
    16
147
1.0
 76
     0
 77
     2
 78
   300
148
0.0
149
0.0
100
AcDbLayout
  1
ﾚｲｱｳﾄ2
 70
     1
 71
     2
 10
-6.350006103515625
 20
-6.349999904632567
 11
273.0499877929687
 21
209.5499939918517
 12
0.0
 22
0.0
 32
0.0
 14
26.66076962115562
 24
20.31135699206657
 34
-0.0015258207003583
 15
240.039213369355
 25
182.8886381005154
 35
0.0000000349246037
146
0.0
 13
0.0
 23
0.0
 33
0.0
 16
1.0
 26
0.0
 36
0.0
 17
0.0
 27
1.0
 37
0.0
 76
     0
330
55
331
71
  0
MATERIAL
  5
2763
102
{ACAD_REACTORS
330
2761
102
}
330
2761
100
AcDbMaterial
  1
ByBlock
 73
     1
 78
     1
172
     1
176
     1
270
     1
274
     1
 94
       63
  0
MATERIAL
  5
2762
102
{ACAD_REACTORS
330
2761
102
}
330
2761
100
AcDbMaterial
  1
ByLayer
 73
     1
 78
     1
172
     1
176
     1
270
     1
274
     1
 94
       63
  0
MATERIAL
  5
2764
102
{ACAD_REACTORS
330
2761
102
}
330
2761
100
AcDbMaterial
  1
Global
 73
     1
 78
     1
172
     1
176
     1
270
     1
274
     1
 94
       63
  0
MLEADERSTYLE
  5
247F2
102
{ACAD_REACTORS
330
247F1
102
}
330
247F1
100
AcDbMLeaderStyle
179
     2
170
     2
171
     1
172
     0
 90
        2
 40
0.0
 41
0.0
173
     1
 91
-1056964608
340
14
 92
       -2
290
     1
 42
2.0
291
     1
 43
0.36
  3
Standard
 44
4.0
300

342
11
174
     1
178
     6
175
     1
176
     0
 93
-1056964608
 45
4.0
292
     0
297
     0
 46
4.0
 94
-1056964608
 47
1.0
 49
1.0
140
1.0
293
     1
141
0.0
294
     1
177
     0
142
1.0
295
     1
296
     0
143
0.125
271
     0
272
     9
273
     9
298
     0
  0
MLINESTYLE
  5
18
102
{ACAD_REACTORS
330
17
102
}
330
17
100
AcDbMlineStyle
  2
STANDARD
 70
     0
  3

 62
   256
 51
90.0
 52
90.0
 71
     2
 49
0.5
 62
   256
  6
BYLAYER
 49
-0.5
 62
   256
  6
BYLAYER
  0
PLOTSETTINGS
  5
E74
102
{ACAD_REACTORS
330
19
102
}
330
19
100
AcDbPlotSettings
  1
印刷
  2
EPSON PM-930C.pc3
  4
A4
  6

 40
3.757083177566528
 41
14.7637300491333
 42
3.757080078125
 43
3.757080078125
 44
209.9733276367186
 45
296.9683227539062
 46
-3.77
 47
-9.279999999999999
 48
0.0
 49
0.0
140
0.0
141
0.0
142
1.0
143
1.0
 70
  1716
 72
     1
 73
     0
 74
     2
  7
黒.ctb
 75
    16
147
1.0
 76
     0
 77
     2
 78
   300
148
0.0
149
0.0
  0
ACDBPLACEHOLDER
  5
F
102
{ACAD_REACTORS
330
E
102
}
330
E
  0
SCALE
  5
247E0
102
{ACAD_REACTORS
330
247DF
102
}
330
247DF
100
AcDbScale
 70
     0
300
1:1
140
1.0
141
1.0
290
     1
  0
SCALE
  5
247E1
102
{ACAD_REACTORS
330
247DF
102
}
330
247DF
100
AcDbScale
 70
     0
300
1:2
140
1.0
141
2.0
290
     0
  0
SCALE
  5
247E2
102
{ACAD_REACTORS
330
247DF
102
}
330
247DF
100
AcDbScale
 70
     0
300
1:4
140
1.0
141
4.0
290
     0
  0
SCALE
  5
247E3
102
{ACAD_REACTORS
330
247DF
102
}
330
247DF
100
AcDbScale
 70
     0
300
1:5
140
1.0
141
5.0
290
     0
  0
SCALE
  5
247E4
102
{ACAD_REACTORS
330
247DF
102
}
330
247DF
100
AcDbScale
 70
     0
300
1:8
140
1.0
141
8.0
290
     0
  0
SCALE
  5
247E5
102
{ACAD_REACTORS
330
247DF
102
}
330
247DF
100
AcDbScale
 70
     0
300
1:10
140
1.0
141
10.0
290
     0
  0
SCALE
  5
247E6
102
{ACAD_REACTORS
330
247DF
102
}
330
247DF
100
AcDbScale
 70
     0
300
1:16
140
1.0
141
16.0
290
     0
  0
SCALE
  5
247E7
102
{ACAD_REACTORS
330
247DF
102
}
330
247DF
100
AcDbScale
 70
     0
300
1:20
140
1.0
141
20.0
290
     0
  0
SCALE
  5
247E8
102
{ACAD_REACTORS
330
247DF
102
}
330
247DF
100
AcDbScale
 70
     0
300
1:30
140
1.0
141
30.0
290
     0
  0
SCALE
  5
247E9
102
{ACAD_REACTORS
330
247DF
102
}
330
247DF
100
AcDbScale
 70
     0
300
1:40
140
1.0
141
40.0
290
     0
  0
SCALE
  5
247EA
102
{ACAD_REACTORS
330
247DF
102
}
330
247DF
100
AcDbScale
 70
     0
300
1:50
140
1.0
141
50.0
290
     0
  0
SCALE
  5
247EB
102
{ACAD_REACTORS
330
247DF
102
}
330
247DF
100
AcDbScale
 70
     0
300
1:100
140
1.0
141
100.0
290
     0
  0
SCALE
  5
247EC
102
{ACAD_REACTORS
330
247DF
102
}
330
247DF
100
AcDbScale
 70
     0
300
2:1
140
2.0
141
1.0
290
     0
  0
SCALE
  5
247ED
102
{ACAD_REACTORS
330
247DF
102
}
330
247DF
100
AcDbScale
 70
     0
300
4:1
140
4.0
141
1.0
290
     0
  0
SCALE
  5
247EE
102
{ACAD_REACTORS
330
247DF
102
}
330
247DF
100
AcDbScale
 70
     0
300
8:1
140
8.0
141
1.0
290
     0
  0
SCALE
  5
247EF
102
{ACAD_REACTORS
330
247DF
102
}
330
247DF
100
AcDbScale
 70
     0
300
10:1
140
10.0
141
1.0
290
     0
  0
SCALE
  5
247F0
102
{ACAD_REACTORS
330
247DF
102
}
330
247DF
100
AcDbScale
 70
     0
300
100:1
140
100.0
141
1.0
290
     0
  0
ACDBSECTIONVIEWSTYLE
  5
2B564
102
{ACAD_XDICTIONARY
360
2B57E
102
}
102
{ACAD_REACTORS
330
2B563
102
}
330
2B563
100
AcDbModelDocViewStyle
 70
     0
  3
Metric50
290
     0
100
AcDbSectionViewStyle
 70
     0
 71
     0
 90
      102
 71
     1
340
11
 62
   256
 40
5.0
340
0
340
0
 62
   256
 40
5.0
300
I, O, Q, S, X, Z
 40
10.0
 90
        0
 40
2.5
 90
        0
 71
     2
340
16
 90
       25
 62
   256
340
16
 90
       50
 62
   256
 40
5.0
 40
2.5
 40
5.0
 71
     3
340
11
 62
   256
 40
5.0
 90
        0
 40
15.0
 90
        1
300
%<\AcVar ViewSectionStartId>%-%<\AcVar ViewSectionEndId>% (%<\AcVar ViewScale \f "%sn">%)
 71
     4
 62
   256
 62
   257
300
ANSI31
 40
1.0
 90
        0
290
     0
290
     0
 90
        6
 40
0.0
 40
1.570796326794896
 40
0.2617993877991494
 40
1.308996938995747
 40
-0.2617993877991494
 40
1.832595714594046
  0
TABLESTYLE
  5
2778
102
{ACAD_XDICTIONARY
360
2B57A
102
}
102
{ACAD_REACTORS
330
2777
102
}
330
2777
100
AcDbTableStyle
280
     0
  3
Standard
 70
     0
 71
     0
 40
1.5
 41
1.5
280
     0
281
     0
  7
Standard
140
4.5
170
     2
 62
     0
 63
     7
283
     0
 90
      512
 91
        0
  1

274
    -2
284
     1
 64
     0
275
    -2
285
     1
 65
     0
276
    -2
286
     1
 66
     0
277
    -2
287
     1
 67
     0
278
    -2
288
     1
 68
     0
279
    -2
289
     1
 69
     0
  7
Standard
140
6.0
170
     5
 62
     0
 63
     7
283
     0
 90
      512
 91
        0
  1

274
    -2
284
     1
 64
     0
275
    -2
285
     1
 65
     0
276
    -2
286
     1
 66
     0
277
    -2
287
     1
 67
     0
278
    -2
288
     1
 68
     0
279
    -2
289
     1
 69
     0
  7
Standard
140
4.5
170
     5
 62
     0
 63
     7
283
     0
 90
      512
 91
        0
  1

274
    -2
284
     1
 64
     0
275
    -2
285
     1
 65
     0
276
    -2
286
     1
 66
     0
277
    -2
287
     1
 67
     0
278
    -2
288
     1
 68
     0
279
    -2
289
     1
 69
     0
  0
TABLESTYLE
  5
2688B
102
{ACAD_XDICTIONARY
360
2B57C
102
}
102
{ACAD_REACTORS
330
2777
102
}
330
2777
100
AcDbTableStyle
280
     0
  3
Standard
 70
     0
 71
     0
 40
1.5
 41
1.5
280
     0
281
     0
  7
ｽﾀｲﾙ1
140
4.5
170
     2
 62
     2
 63
     7
283
     0
 90
      512
 91
        0
  1

274
    -2
284
     1
 64
     0
275
    -2
285
     1
 65
     0
276
    -2
286
     1
 66
     0
277
    -2
287
     1
 67
     0
278
    -2
288
     1
 68
     0
279
    -2
289
     1
 69
     0
  7
Standard
140
6.0
170
     5
 62
     0
 63
     7
283
     0
 90
      512
 91
        0
  1

274
    -2
284
     1
 64
     0
275
    -2
285
     1
 65
     0
276
    -2
286
     1
 66
     0
277
    -2
287
     1
 67
     0
278
    -2
288
     1
 68
     0
279
    -2
289
     1
 69
     0
  7
ｽﾀｲﾙ1
140
4.5
170
     5
 62
     2
 63
     7
283
     0
 90
      512
 91
        0
  1

274
    -2
284
     1
 64
     0
275
    -2
285
     1
 65
     0
276
    -2
286
     1
 66
     0
277
    -2
287
     1
 67
     0
278
    -2
288
     1
 68
     0
279
    -2
289
     1
 69
     0
  0
VISUALSTYLE
  5
276B
102
{ACAD_REACTORS
330
2765
102
}
330
2765
100
AcDbVisualStyle
  2
2dWireframe
 70
     4
177
     3
291
     0
 70
    58
 90
        0
176
     1
 90
        2
176
     1
 90
        0
176
     1
 90
        0
176
     1
 40
0.6
176
     1
 40
30.0
176
     1
 62
     7
420
 16777215
176
     1
 90
        1
176
     1
 90
        4
176
     1
 62
     7
176
     1
 62
   257
176
     1
 90
        1
176
     1
 90
        1
176
     1
 40
1.0
176
     1
 90
        0
176
     1
 62
   257
176
     1
 40
1.0
176
     1
 90
        1
176
     1
 90
        6
176
     1
 90
        2
176
     1
 62
     7
176
     1
 90
        5
176
     1
 90
        0
176
     1
 90
        0
176
     1
290
     0
176
     1
 90
        1
176
     1
 40
0.0
176
     1
 90
        0
176
     1
290
     1
176
     1
290
     1
176
     1
290
     0
176
     1
290
     0
176
     1
290
     0
176
     1
290
     0
176
     1
290
     0
176
     1
290
     0
176
     1
290
     0
176
     1
 90
       50
176
     1
 40
0.0
176
     1
 40
1.0
176
     1
 90
        0
176
     1
 62
    18
420
        0
176
     1
 90
       50
176
     1
 90
        3
176
     1
 62
     5
420
      255
176
     1
290
     0
176
     1
 90
       50
176
     1
 90
       50
176
     1
 90
       50
176
     1
290
     0
176
     1
 90
       50
176
     1
 62
   256
176
     0
 40
1.0
176
     0
 90
        2
176
     1
  1
strokes_ogs.tif
176
     1
290
     0
176
     1
 40
1.0
176
     1
 40
1.0
176
     1
  0
VISUALSTYLE
  5
276D
102
{ACAD_REACTORS
330
2765
102
}
330
2765
100
AcDbVisualStyle
  2
3D Hidden
 70
     6
177
     3
291
     0
 70
    58
 90
        1
176
     1
 90
        2
176
     1
 90
        2
176
     1
 90
        0
176
     1
 40
0.6
176
     1
 40
30.0
176
     1
 62
     7
420
 16777215
176
     1
 90
        2
176
     1
 90
        2
176
     1
 62
     7
176
     1
 62
   257
176
     1
 90
        2
176
     1
 90
        1
176
     1
 40
40.0
176
     1
 90
        0
176
     1
 62
   257
176
     1
 40
1.0
176
     1
 90
        1
176
     1
 90
        6
176
     1
 90
        2
176
     1
 62
     7
176
     1
 90
        3
176
     1
 90
        0
176
     1
 90
        0
176
     1
290
     0
176
     1
 90
        1
176
     1
 40
0.0
176
     1
 90
        0
176
     1
290
     0
176
     1
290
     1
176
     1
290
     1
176
     1
290
     0
176
     1
290
     0
176
     1
290
     0
176
     1
290
     0
176
     1
290
     0
176
     1
290
     0
176
     1
 90
       50
176
     1
 40
0.0
176
     1
 40
1.0
176
     1
 90
        0
176
     1
 62
    18
420
        0
176
     1
 90
       50
176
     1
 90
        3
176
     1
 62
     5
420
      255
176
     1
290
     0
176
     1
 90
       50
176
     1
 90
       50
176
     1
 90
       50
176
     1
290
     0
176
     1
 90
       50
176
     1
 62
   256
176
     0
 40
1.0
176
     0
 90
        2
176
     1
  1
strokes_ogs.tif
176
     1
290
     0
176
     1
 40
1.0
176
     1
 40
1.0
176
     1
  0
VISUALSTYLE
  5
276C
102
{ACAD_REACTORS
330
2765
102
}
330
2765
100
AcDbVisualStyle
  2
3dWireframe
 70
     5
177
     3
291
     0
 70
    58
 90
        0
176
     1
 90
        2
176
     1
 90
        0
176
     1
 90
        0
176
     1
 40
0.6
176
     1
 40
30.0
176
     1
 62
     7
420
 16777215
176
     1
 90
        1
176
     1
 90
        4
176
     1
 62
     7
176
     1
 62
   257
176
     1
 90
        1
176
     1
 90
        1
176
     1
 40
1.0
176
     1
 90
        0
176
     1
 62
   257
176
     1
 40
1.0
176
     1
 90
        1
176
     1
 90
        6
176
     1
 90
        2
176
     1
 62
     7
176
     1
 90
        5
176
     1
 90
        0
176
     1
 90
        0
176
     1
290
     0
176
     1
 90
        1
176
     1
 40
0.0
176
     1
 90
        0
176
     1
290
     0
176
     1
290
     1
176
     1
290
     1
176
     1
290
     0
176
     1
290
     0
176
     1
290
     0
176
     1
290
     0
176
     1
290
     0
176
     1
290
     0
176
     1
 90
       50
176
     1
 40
0.0
176
     1
 40
1.0
176
     1
 90
        0
176
     1
 62
    18
420
        0
176
     1
 90
       50
176
     1
 90
        3
176
     1
 62
     5
420
      255
176
     1
290
     0
176
     1
 90
       50
176
     1
 90
       50
176
     1
 90
       50
176
     1
290
     0
176
     1
 90
       50
176
     1
 62
   256
176
     0
 40
1.0
176
     0
 90
        2
176
     1
  1
strokes_ogs.tif
176
     1
290
     0
176
     1
 40
1.0
176
     1
 40
1.0
176
     1
  0
VISUALSTYLE
  5
276A
102
{ACAD_REACTORS
330
2765
102
}
330
2765
100
AcDbVisualStyle
  2
Basic
 70
     7
177
     3
291
     1
 70
    58
 90
        1
176
     1
 90
        0
176
     1
 90
        1
176
     1
 90
        0
176
     1
 40
0.6
176
     1
 40
30.0
176
     1
 62
     7
420
 16777215
176
     1
 90
        0
176
     1
 90
        4
176
     1
 62
     7
176
     1
 62
   257
176
     1
 90
        1
176
     1
 90
        1
176
     1
 40
1.0
176
     1
 90
        8
176
     1
 62
     7
176
     1
 40
1.0
176
     1
 90
        1
176
     1
 90
        6
176
     1
 90
        2
176
     1
 62
     7
176
     1
 90
        5
176
     1
 90
        0
176
     1
 90
        0
176
     1
290
     0
176
     1
 90
        1
176
     1
 40
0.0
176
     1
 90
        0
176
     1
290
     0
176
     1
290
     1
176
     1
290
     1
176
     1
290
     0
176
     1
290
     0
176
     1
290
     0
176
     1
290
     0
176
     1
290
     0
176
     1
290
     0
176
     1
 90
       50
176
     1
 40
0.0
176
     1
 40
1.0
176
     1
 90
        0
176
     1
 62
    18
420
        0
176
     1
 90
       50
176
     1
 90
        3
176
     1
 62
     5
420
      255
176
     1
290
     0
176
     1
 90
       50
176
     1
 90
       50
176
     1
 90
       50
176
     1
290
     0
176
     1
 90
       50
176
     1
 62
   256
176
     0
 40
1.0
176
     0
 90
        2
176
     1
  1
strokes_ogs.tif
176
     1
290
     0
176
     1
 40
1.0
176
     1
 40
1.0
176
     1
  0
VISUALSTYLE
  5
2771
102
{ACAD_REACTORS
330
2765
102
}
330
2765
100
AcDbVisualStyle
  2
Brighten
 70
    12
177
     3
291
     1
 70
    58
 90
        2
176
     1
 90
        2
176
     1
 90
        0
176
     1
 90
        0
176
     1
 40
0.6
176
     1
 40
30.0
176
     1
 62
     7
420
 16777215
176
     1
 90
        1
176
     1
 90
        4
176
     1
 62
     7
176
     1
 62
   257
176
     1
 90
        1
176
     1
 90
        1
176
     1
 40
1.0
176
     1
 90
        8
176
     1
 62
     7
176
     1
 40
1.0
176
     1
 90
        1
176
     1
 90
        6
176
     1
 90
        2
176
     1
 62
     7
176
     1
 90
        5
176
     1
 90
        0
176
     1
 90
        0
176
     1
290
     0
176
     1
 90
        1
176
     1
 40
50.0
176
     1
 90
        0
176
     1
290
     0
176
     1
290
     1
176
     1
290
     1
176
     1
290
     0
176
     1
290
     0
176
     1
290
     0
176
     1
290
     0
176
     1
290
     0
176
     1
290
     0
176
     1
 90
       50
176
     1
 40
0.0
176
     1
 40
1.0
176
     1
 90
        0
176
     1
 62
    18
420
        0
176
     1
 90
       50
176
     1
 90
        3
176
     1
 62
     5
420
      255
176
     1
290
     0
176
     1
 90
       50
176
     1
 90
       50
176
     1
 90
       50
176
     1
290
     0
176
     1
 90
       50
176
     1
 62
   256
176
     0
 40
1.0
176
     0
 90
        2
176
     1
  1
strokes_ogs.tif
176
     1
290
     0
176
     1
 40
1.0
176
     1
 40
1.0
176
     1
  0
VISUALSTYLE
  5
2775
102
{ACAD_REACTORS
330
2765
102
}
330
2765
100
AcDbVisualStyle
  2
ColorChange
 70
    16
177
     3
291
     1
 70
    58
 90
        2
176
     1
 90
        2
176
     1
 90
        3
176
     1
 90
        0
176
     1
 40
0.6
176
     1
 40
30.0
176
     1
 62
     8
420
  8421504
176
     1
 90
        1
176
     1
 90
        4
176
     1
 62
     7
176
     1
 62
   257
176
     1
 90
        1
176
     1
 90
        1
176
     1
 40
1.0
176
     1
 90
        8
176
     1
 62
     8
420
  8421504
176
     1
 40
1.0
176
     1
 90
        1
176
     1
 90
        6
176
     1
 90
        2
176
     1
 62
     7
176
     1
 90
        5
176
     1
 90
        0
176
     1
 90
        0
176
     1
290
     0
176
     1
 90
        1
176
     1
 40
0.0
176
     1
 90
        0
176
     1
290
     0
176
     1
290
     1
176
     1
290
     1
176
     1
290
     0
176
     1
290
     0
176
     1
290
     0
176
     1
290
     0
176
     1
290
     0
176
     1
290
     0
176
     1
 90
       50
176
     1
 40
0.0
176
     1
 40
1.0
176
     1
 90
        0
176
     1
 62
    18
420
        0
176
     1
 90
       50
176
     1
 90
        3
176
     1
 62
     5
420
      255
176
     1
290
     0
176
     1
 90
       50
176
     1
 90
       50
176
     1
 90
       50
176
     1
290
     0
176
     1
 90
       50
176
     1
 62
   256
176
     0
 40
1.0
176
     0
 90
        2
176
     1
  1
strokes_ogs.tif
176
     1
290
     0
176
     1
 40
1.0
176
     1
 40
1.0
176
     1
  0
VISUALSTYLE
  5
276E
102
{ACAD_REACTORS
330
2765
102
}
330
2765
100
AcDbVisualStyle
  2
Conceptual
 70
     9
177
     3
291
     0
 70
    58
 90
        3
176
     1
 90
        2
176
     1
 90
        0
176
     1
 90
        0
176
     1
 40
0.6
176
     1
 40
30.0
176
     1
 62
     7
420
 16777215
176
     1
 90
        2
176
     1
 90
        2
176
     1
 62
     7
176
     1
 62
   257
176
     1
 90
        1
176
     1
 90
        1
176
     1
 40
40.0
176
     1
 90
        8
176
     1
 62
     7
176
     1
 40
1.0
176
     1
 90
        1
176
     1
 90
        6
176
     1
 90
        2
176
     1
 62
     7
176
     1
 90
        3
176
     1
 90
        0
176
     1
 90
        0
176
     1
290
     0
176
     1
 90
        1
176
     1
 40
0.0
176
     1
 90
        0
176
     1
290
     0
176
     1
290
     1
176
     1
290
     1
176
     1
290
     0
176
     1
290
     0
176
     1
290
     0
176
     1
290
     0
176
     1
290
     0
176
     1
290
     0
176
     1
 90
       50
176
     1
 40
0.0
176
     1
 40
1.0
176
     1
 90
        0
176
     1
 62
    18
420
        0
176
     1
 90
       50
176
     1
 90
        3
176
     1
 62
     5
420
      255
176
     1
290
     0
176
     1
 90
       50
176
     1
 90
       50
176
     1
 90
       50
176
     1
290
     0
176
     1
 90
       50
176
     1
 62
   256
176
     0
 40
1.0
176
     0
 90
        2
176
     1
  1
strokes_ogs.tif
176
     1
290
     0
176
     1
 40
1.0
176
     1
 40
1.0
176
     1
  0
VISUALSTYLE
  5
2770
102
{ACAD_REACTORS
330
2765
102
}
330
2765
100
AcDbVisualStyle
  2
Dim
 70
    11
177
     3
291
     1
 70
    58
 90
        2
176
     1
 90
        2
176
     1
 90
        0
176
     1
 90
        0
176
     1
 40
0.6
176
     1
 40
30.0
176
     1
 62
     7
420
 16777215
176
     1
 90
        1
176
     1
 90
        4
176
     1
 62
     7
176
     1
 62
   257
176
     1
 90
        1
176
     1
 90
        1
176
     1
 40
1.0
176
     1
 90
        8
176
     1
 62
     7
176
     1
 40
1.0
176
     1
 90
        1
176
     1
 90
        6
176
     1
 90
        2
176
     1
 62
     7
176
     1
 90
        5
176
     1
 90
        0
176
     1
 90
        0
176
     1
290
     0
176
     1
 90
        1
176
     1
 40
-50.0
176
     1
 90
        0
176
     1
290
     0
176
     1
290
     1
176
     1
290
     1
176
     1
290
     0
176
     1
290
     0
176
     1
290
     0
176
     1
290
     0
176
     1
290
     0
176
     1
290
     0
176
     1
 90
       50
176
     1
 40
0.0
176
     1
 40
1.0
176
     1
 90
        0
176
     1
 62
    18
420
        0
176
     1
 90
       50
176
     1
 90
        3
176
     1
 62
     5
420
      255
176
     1
290
     0
176
     1
 90
       50
176
     1
 90
       50
176
     1
 90
       50
176
     1
290
     0
176
     1
 90
       50
176
     1
 62
   256
176
     0
 40
1.0
176
     0
 90
        2
176
     1
  1
strokes_ogs.tif
176
     1
290
     0
176
     1
 40
1.0
176
     1
 40
1.0
176
     1
  0
VISUALSTYLE
  5
247DE
102
{ACAD_REACTORS
330
2765
102
}
330
2765
100
AcDbVisualStyle
  2
EdgeColorOff
 70
    22
177
     3
291
     1
 70
    58
 90
        2
176
     0
 90
        2
176
     0
 90
        0
176
     0
 90
        0
176
     0
 40
0.6
176
     0
 40
30.0
176
     0
 62
     7
420
 16777215
176
     0
 90
        1
176
     0
 90
        4
176
     0
 62
     7
176
     0
 62
   257
176
     0
 90
        1
176
     0
 90
        1
176
     0
 40
1.0
176
     0
 90
        8
176
     2
 62
     7
176
     0
 40
1.0
176
     0
 90
        1
176
     0
 90
        6
176
     0
 90
        2
176
     0
 62
     7
176
     0
 90
        5
176
     0
 90
        0
176
     0
 90
        0
176
     0
290
     0
176
     0
 90
        1
176
     0
 40
0.0
176
     0
 90
        0
176
     0
290
     0
176
     1
290
     1
176
     1
290
     1
176
     1
290
     0
176
     1
290
     0
176
     1
290
     0
176
     1
290
     0
176
     1
290
     0
176
     1
290
     0
176
     1
 90
       50
176
     1
 40
0.0
176
     1
 40
1.0
176
     1
 90
        0
176
     1
 62
    18
420
        0
176
     1
 90
       50
176
     1
 90
        3
176
     1
 62
     5
420
      255
176
     1
290
     0
176
     1
 90
       50
176
     1
 90
       50
176
     1
 90
       50
176
     1
290
     0
176
     1
 90
       50
176
     1
 62
   256
176
     0
 40
1.0
176
     0
 90
        2
176
     1
  1
strokes_ogs.tif
176
     1
290
     0
176
     1
 40
1.0
176
     1
 40
1.0
176
     1
  0
VISUALSTYLE
  5
2774
102
{ACAD_REACTORS
330
2765
102
}
330
2765
100
AcDbVisualStyle
  2
Facepattern
 70
    15
177
     3
291
     1
 70
    58
 90
        2
176
     1
 90
        2
176
     1
 90
        0
176
     1
 90
        0
176
     1
 40
0.6
176
     1
 40
30.0
176
     1
 62
     7
420
 16777215
176
     1
 90
        1
176
     1
 90
        4
176
     1
 62
     7
176
     1
 62
   257
176
     1
 90
        1
176
     1
 90
        1
176
     1
 40
1.0
176
     1
 90
        8
176
     1
 62
     7
176
     1
 40
1.0
176
     1
 90
        1
176
     1
 90
        6
176
     1
 90
        2
176
     1
 62
     7
176
     1
 90
        5
176
     1
 90
        0
176
     1
 90
        0
176
     1
290
     0
176
     1
 90
        1
176
     1
 40
0.0
176
     1
 90
        0
176
     1
290
     0
176
     1
290
     1
176
     1
290
     1
176
     1
290
     0
176
     1
290
     0
176
     1
290
     0
176
     1
290
     0
176
     1
290
     0
176
     1
290
     0
176
     1
 90
       50
176
     1
 40
0.0
176
     1
 40
1.0
176
     1
 90
        0
176
     1
 62
    18
420
        0
176
     1
 90
       50
176
     1
 90
        3
176
     1
 62
     5
420
      255
176
     1
290
     0
176
     1
 90
       50
176
     1
 90
       50
176
     1
 90
       50
176
     1
290
     0
176
     1
 90
       50
176
     1
 62
   256
176
     0
 40
1.0
176
     0
 90
        2
176
     1
  1
strokes_ogs.tif
176
     1
290
     0
176
     1
 40
1.0
176
     1
 40
1.0
176
     1
  0
VISUALSTYLE
  5
2766
102
{ACAD_REACTORS
330
2765
102
}
330
2765
100
AcDbVisualStyle
  2
Flat
 70
     0
177
     3
291
     1
 70
    58
 90
        2
176
     1
 90
        1
176
     1
 90
        1
176
     1
 90
        2
176
     1
 40
0.6
176
     1
 40
30.0
176
     1
 62
     7
420
 16777215
176
     1
 90
        0
176
     1
 90
        4
176
     1
 62
     7
176
     1
 62
   257
176
     1
 90
        1
176
     1
 90
        1
176
     1
 40
1.0
176
     1
 90
        8
176
     1
 62
     7
176
     1
 40
1.0
176
     1
 90
        1
176
     1
 90
        6
176
     1
 90
        2
176
     1
 62
     7
176
     1
 90
        5
176
     1
 90
        0
176
     1
 90
        0
176
     1
290
     0
176
     1
 90
       13
176
     1
 40
0.0
176
     1
 90
        0
176
     1
290
     0
176
     1
290
     1
176
     1
290
     1
176
     1
290
     0
176
     1
290
     0
176
     1
290
     0
176
     1
290
     0
176
     1
290
     0
176
     1
290
     0
176
     1
 90
       50
176
     1
 40
0.0
176
     1
 40
1.0
176
     1
 90
        0
176
     1
 62
    18
420
        0
176
     1
 90
       50
176
     1
 90
        3
176
     1
 62
     5
420
      255
176
     1
290
     0
176
     1
 90
       50
176
     1
 90
       50
176
     1
 90
       50
176
     1
290
     0
176
     1
 90
       50
176
     1
 62
   256
176
     0
 40
1.0
176
     0
 90
        2
176
     1
  1
strokes_ogs.tif
176
     1
290
     0
176
     1
 40
1.0
176
     1
 40
1.0
176
     1
  0
VISUALSTYLE
  5
2767
102
{ACAD_REACTORS
330
2765
102
}
330
2765
100
AcDbVisualStyle
  2
FlatWithEdges
 70
     1
177
     3
291
     1
 70
    58
 90
        2
176
     1
 90
        1
176
     1
 90
        1
176
     1
 90
        2
176
     1
 40
0.6
176
     1
 40
30.0
176
     1
 62
     7
420
 16777215
176
     1
 90
        1
176
     1
 90
        4
176
     1
 62
     7
176
     1
 62
   257
176
     1
 90
        1
176
     1
 90
        1
176
     1
 40
1.0
176
     1
 90
        0
176
     1
 62
   257
176
     1
 40
1.0
176
     1
 90
        1
176
     1
 90
        6
176
     1
 90
        2
176
     1
 62
     7
176
     1
 90
        5
176
     1
 90
        0
176
     1
 90
        0
176
     1
290
     0
176
     1
 90
       13
176
     1
 40
0.0
176
     1
 90
        0
176
     1
290
     0
176
     1
290
     1
176
     1
290
     1
176
     1
290
     0
176
     1
290
     0
176
     1
290
     0
176
     1
290
     0
176
     1
290
     0
176
     1
290
     0
176
     1
 90
       50
176
     1
 40
0.0
176
     1
 40
1.0
176
     1
 90
        0
176
     1
 62
    18
420
        0
176
     1
 90
       50
176
     1
 90
        3
176
     1
 62
     5
420
      255
176
     1
290
     0
176
     1
 90
       50
176
     1
 90
       50
176
     1
 90
       50
176
     1
290
     0
176
     1
 90
       50
176
     1
 62
   256
176
     0
 40
1.0
176
     0
 90
        2
176
     1
  1
strokes_ogs.tif
176
     1
290
     0
176
     1
 40
1.0
176
     1
 40
1.0
176
     1
  0
VISUALSTYLE
  5
2768
102
{ACAD_REACTORS
330
2765
102
}
330
2765
100
AcDbVisualStyle
  2
Gouraud
 70
     2
177
     3
291
     1
 70
    58
 90
        2
176
     1
 90
        2
176
     1
 90
        1
176
     1
 90
        2
176
     1
 40
0.6
176
     1
 40
30.0
176
     1
 62
     7
420
 16777215
176
     1
 90
        0
176
     1
 90
        4
176
     1
 62
     7
176
     1
 62
   257
176
     1
 90
        1
176
     1
 90
        1
176
     1
 40
1.0
176
     1
 90
        0
176
     1
 62
     7
176
     1
 40
1.0
176
     1
 90
        1
176
     1
 90
        6
176
     1
 90
        2
176
     1
 62
     7
176
     1
 90
        5
176
     1
 90
        0
176
     1
 90
        0
176
     1
290
     0
176
     1
 90
       13
176
     1
 40
0.0
176
     1
 90
        0
176
     1
290
     0
176
     1
290
     1
176
     1
290
     1
176
     1
290
     0
176
     1
290
     0
176
     1
290
     0
176
     1
290
     0
176
     1
290
     0
176
     1
290
     0
176
     1
 90
       50
176
     1
 40
0.0
176
     1
 40
1.0
176
     1
 90
        0
176
     1
 62
    18
420
        0
176
     1
 90
       50
176
     1
 90
        3
176
     1
 62
     5
420
      255
176
     1
290
     0
176
     1
 90
       50
176
     1
 90
       50
176
     1
 90
       50
176
     1
290
     0
176
     1
 90
       50
176
     1
 62
   256
176
     0
 40
1.0
176
     0
 90
        2
176
     1
  1
strokes_ogs.tif
176
     1
290
     0
176
     1
 40
1.0
176
     1
 40
1.0
176
     1
  0
VISUALSTYLE
  5
2769
102
{ACAD_REACTORS
330
2765
102
}
330
2765
100
AcDbVisualStyle
  2
GouraudWithEdges
 70
     3
177
     3
291
     1
 70
    58
 90
        2
176
     1
 90
        2
176
     1
 90
        1
176
     1
 90
        2
176
     1
 40
0.6
176
     1
 40
30.0
176
     1
 62
     7
420
 16777215
176
     1
 90
        1
176
     1
 90
        4
176
     1
 62
     7
176
     1
 62
   257
176
     1
 90
        1
176
     1
 90
        1
176
     1
 40
1.0
176
     1
 90
        0
176
     1
 62
   257
176
     1
 40
1.0
176
     1
 90
        1
176
     1
 90
        6
176
     1
 90
        2
176
     1
 62
     7
176
     1
 90
        5
176
     1
 90
        0
176
     1
 90
        0
176
     1
290
     0
176
     1
 90
       13
176
     1
 40
0.0
176
     1
 90
        0
176
     1
290
     0
176
     1
290
     1
176
     1
290
     1
176
     1
290
     0
176
     1
290
     0
176
     1
290
     0
176
     1
290
     0
176
     1
290
     0
176
     1
290
     0
176
     1
 90
       50
176
     1
 40
0.0
176
     1
 40
1.0
176
     1
 90
        0
176
     1
 62
    18
420
        0
176
     1
 90
       50
176
     1
 90
        3
176
     1
 62
     5
420
      255
176
     1
290
     0
176
     1
 90
       50
176
     1
 90
       50
176
     1
 90
       50
176
     1
290
     0
176
     1
 90
       50
176
     1
 62
   256
176
     0
 40
1.0
176
     0
 90
        2
176
     1
  1
strokes_ogs.tif
176
     1
290
     0
176
     1
 40
1.0
176
     1
 40
1.0
176
     1
  0
VISUALSTYLE
  5
2B55D
102
{ACAD_REACTORS
330
2765
102
}
330
2765
100
AcDbVisualStyle
  2
Hidden
 70
     6
177
     3
291
     0
 70
    58
 90
        1
176
     1
 90
        2
176
     1
 90
        2
176
     1
 90
        0
176
     1
 40
0.6
176
     1
 40
30.0
176
     1
 62
     7
420
 16777215
176
     1
 90
        2
176
     1
 90
        2
176
     1
 62
     7
176
     1
 62
   257
176
     1
 90
        2
176
     1
 90
        1
176
     1
 40
40.0
176
     1
 90
        0
176
     1
 62
   257
176
     1
 40
1.0
176
     1
 90
        1
176
     1
 90
        6
176
     1
 90
        2
176
     1
 62
     7
176
     1
 90
        3
176
     1
 90
        0
176
     1
 90
        0
176
     1
290
     0
176
     1
 90
        1
176
     1
 40
0.0
176
     1
 90
        0
176
     1
290
     0
176
     1
290
     1
176
     1
290
     1
176
     1
290
     0
176
     1
290
     0
176
     1
290
     0
176
     1
290
     0
176
     1
290
     0
176
     1
290
     0
176
     1
 90
       50
176
     1
 40
0.0
176
     1
 40
1.0
176
     1
 90
        0
176
     1
 62
    18
420
        0
176
     1
 90
       50
176
     1
 90
        3
176
     1
 62
     5
420
      255
176
     1
290
     0
176
     1
 90
       50
176
     1
 90
       50
176
     1
 90
       50
176
     1
290
     0
176
     1
 90
       50
176
     1
 62
   256
176
     0
 40
1.0
176
     0
 90
        2
176
     1
  1
strokes_ogs.tif
176
     1
290
     0
176
     1
 40
1.0
176
     1
 40
1.0
176
     1
  0
VISUALSTYLE
  5
247DC
102
{ACAD_REACTORS
330
2765
102
}
330
2765
100
AcDbVisualStyle
  2
JitterOff
 70
    20
177
     3
291
     1
 70
    58
 90
        2
176
     0
 90
        2
176
     0
 90
        0
176
     0
 90
        0
176
     0
 40
0.6
176
     0
 40
30.0
176
     0
 62
     7
420
 16777215
176
     0
 90
        1
176
     0
 90
        4
176
     0
 62
     7
176
     0
 62
   257
176
     0
 90
        1
176
     0
 90
        1
176
     0
 40
1.0
176
     0
 90
       10
176
     2
 62
     7
176
     0
 40
1.0
176
     0
 90
        1
176
     0
 90
        6
176
     0
 90
        2
176
     0
 62
     7
176
     0
 90
        5
176
     0
 90
        0
176
     0
 90
        0
176
     0
290
     0
176
     0
 90
        1
176
     0
 40
0.0
176
     0
 90
        0
176
     0
290
     0
176
     1
290
     1
176
     1
290
     1
176
     1
290
     0
176
     1
290
     0
176
     1
290
     0
176
     1
290
     0
176
     1
290
     0
176
     1
290
     0
176
     1
 90
       50
176
     1
 40
0.0
176
     1
 40
1.0
176
     1
 90
        0
176
     1
 62
    18
420
        0
176
     1
 90
       50
176
     1
 90
        3
176
     1
 62
     5
420
      255
176
     1
290
     0
176
     1
 90
       50
176
     1
 90
       50
176
     1
 90
       50
176
     1
290
     0
176
     1
 90
       50
176
     1
 62
   256
176
     0
 40
1.0
176
     0
 90
        2
176
     1
  1
strokes_ogs.tif
176
     1
290
     0
176
     1
 40
1.0
176
     1
 40
1.0
176
     1
  0
VISUALSTYLE
  5
2773
102
{ACAD_REACTORS
330
2765
102
}
330
2765
100
AcDbVisualStyle
  2
Linepattern
 70
    14
177
     3
291
     1
 70
    58
 90
        2
176
     1
 90
        2
176
     1
 90
        0
176
     1
 90
        0
176
     1
 40
0.6
176
     1
 40
30.0
176
     1
 62
     7
420
 16777215
176
     1
 90
        1
176
     1
 90
        4
176
     1
 62
     7
176
     1
 62
   257
176
     1
 90
        7
176
     1
 90
        7
176
     1
 40
1.0
176
     1
 90
        8
176
     1
 62
     7
176
     1
 40
1.0
176
     1
 90
        1
176
     1
 90
        6
176
     1
 90
        2
176
     1
 62
     7
176
     1
 90
        5
176
     1
 90
        0
176
     1
 90
        0
176
     1
290
     0
176
     1
 90
        1
176
     1
 40
0.0
176
     1
 90
        0
176
     1
290
     0
176
     1
290
     1
176
     1
290
     1
176
     1
290
     0
176
     1
290
     0
176
     1
290
     0
176
     1
290
     0
176
     1
290
     0
176
     1
290
     0
176
     1
 90
       50
176
     1
 40
0.0
176
     1
 40
1.0
176
     1
 90
        0
176
     1
 62
    18
420
        0
176
     1
 90
       50
176
     1
 90
        3
176
     1
 62
     5
420
      255
176
     1
290
     0
176
     1
 90
       50
176
     1
 90
       50
176
     1
 90
       50
176
     1
290
     0
176
     1
 90
       50
176
     1
 62
   256
176
     0
 40
1.0
176
     0
 90
        2
176
     1
  1
strokes_ogs.tif
176
     1
290
     0
176
     1
 40
1.0
176
     1
 40
1.0
176
     1
  0
VISUALSTYLE
  5
247DD
102
{ACAD_REACTORS
330
2765
102
}
330
2765
100
AcDbVisualStyle
  2
OverhangOff
 70
    21
177
     3
291
     1
 70
    58
 90
        2
176
     0
 90
        2
176
     0
 90
        0
176
     0
 90
        0
176
     0
 40
0.6
176
     0
 40
30.0
176
     0
 62
     7
420
 16777215
176
     0
 90
        1
176
     0
 90
        4
176
     0
 62
     7
176
     0
 62
   257
176
     0
 90
        1
176
     0
 90
        1
176
     0
 40
1.0
176
     0
 90
        9
176
     2
 62
     7
176
     0
 40
1.0
176
     0
 90
        1
176
     0
 90
        6
176
     0
 90
        2
176
     0
 62
     7
176
     0
 90
        5
176
     0
 90
        0
176
     0
 90
        0
176
     0
290
     0
176
     0
 90
        1
176
     0
 40
0.0
176
     0
 90
        0
176
     0
290
     0
176
     1
290
     1
176
     1
290
     1
176
     1
290
     0
176
     1
290
     0
176
     1
290
     0
176
     1
290
     0
176
     1
290
     0
176
     1
290
     0
176
     1
 90
       50
176
     1
 40
0.0
176
     1
 40
1.0
176
     1
 90
        0
176
     1
 62
    18
420
        0
176
     1
 90
       50
176
     1
 90
        3
176
     1
 62
     5
420
      255
176
     1
290
     0
176
     1
 90
       50
176
     1
 90
       50
176
     1
 90
       50
176
     1
290
     0
176
     1
 90
       50
176
     1
 62
   256
176
     0
 40
1.0
176
     0
 90
        2
176
     1
  1
strokes_ogs.tif
176
     1
290
     0
176
     1
 40
1.0
176
     1
 40
1.0
176
     1
  0
VISUALSTYLE
  5
276F
102
{ACAD_REACTORS
330
2765
102
}
330
2765
100
AcDbVisualStyle
  2
Realistic
 70
     8
177
     3
291
     0
 70
    58
 90
        2
176
     1
 90
        2
176
     1
 90
        0
176
     1
 90
        0
176
     1
 40
0.6
176
     1
 40
30.0
176
     1
 62
     7
420
 16777215
176
     1
 90
        1
176
     1
 90
        0
176
     1
 62
     7
176
     1
 62
   257
176
     1
 90
        1
176
     1
 90
        1
176
     1
 40
1.0
176
     1
 90
        8
176
     1
 62
     8
420
  7895160
176
     1
 40
1.0
176
     1
 90
        1
176
     1
 90
        6
176
     1
 90
        2
176
     1
 62
     7
176
     1
 90
        5
176
     1
 90
        0
176
     1
 90
        0
176
     1
290
     0
176
     1
 90
       13
176
     1
 40
0.0
176
     1
 90
        0
176
     1
290
     0
176
     1
290
     1
176
     1
290
     1
176
     1
290
     0
176
     1
290
     0
176
     1
290
     0
176
     1
290
     0
176
     1
290
     0
176
     1
290
     0
176
     1
 90
       50
176
     1
 40
0.0
176
     1
 40
1.0
176
     1
 90
        0
176
     1
 62
    18
420
        0
176
     1
 90
       50
176
     1
 90
        3
176
     1
 62
     5
420
      255
176
     1
290
     0
176
     1
 90
       50
176
     1
 90
       50
176
     1
 90
       50
176
     1
290
     0
176
     1
 90
       50
176
     1
 62
   256
176
     0
 40
1.0
176
     0
 90
        2
176
     1
  1
strokes_ogs.tif
176
     1
290
     0
176
     1
 40
1.0
176
     1
 40
1.0
176
     1
  0
VISUALSTYLE
  5
2B562
102
{ACAD_REACTORS
330
2765
102
}
330
2765
100
AcDbVisualStyle
  2
Shaded
 70
    27
177
     3
291
     0
 70
    58
 90
        2
176
     1
 90
        2
176
     1
 90
        1
176
     1
 90
        2
176
     1
 40
0.6
176
     1
 40
30.0
176
     1
 62
     7
420
 16777215
176
     1
 90
        0
176
     1
 90
        4
176
     1
 62
     7
176
     1
 62
   257
176
     1
 90
        1
176
     1
 90
        1
176
     1
 40
1.0
176
     1
 90
        8
176
     1
 62
   257
176
     1
 40
1.0
176
     1
 90
        1
176
     1
 90
        6
176
     1
 90
        2
176
     1
 62
     8
420
  7895160
176
     1
 90
        3
176
     1
 90
        0
176
     1
 90
        0
176
     1
290
     0
176
     1
 90
        5
176
     1
 40
0.0
176
     1
 90
        0
176
     1
290
     0
176
     1
290
     1
176
     1
290
     1
176
     1
290
     0
176
     1
290
     0
176
     1
290
     0
176
     1
290
     0
176
     1
290
     0
176
     1
290
     0
176
     1
 90
       50
176
     1
 40
0.0
176
     1
 40
1.0
176
     1
 90
        0
176
     1
 62
    18
420
        0
176
     1
 90
       50
176
     1
 90
        3
176
     1
 62
     5
420
      255
176
     1
290
     0
176
     1
 90
       50
176
     1
 90
       50
176
     1
 90
       50
176
     1
290
     0
176
     1
 90
       50
176
     1
 62
   256
176
     0
 40
1.0
176
     0
 90
        2
176
     1
  1
strokes_ogs.tif
176
     1
290
     0
176
     1
 40
1.0
176
     1
 40
1.0
176
     1
  0
VISUALSTYLE
  5
2B561
102
{ACAD_REACTORS
330
2765
102
}
330
2765
100
AcDbVisualStyle
  2
Shaded with edges
 70
    26
177
     3
291
     0
 70
    58
 90
        2
176
     1
 90
        2
176
     1
 90
        1
176
     1
 90
        2
176
     1
 40
0.6
176
     1
 40
30.0
176
     1
 62
     7
420
 16777215
176
     1
 90
        1
176
     1
 90
       10
176
     1
 62
     7
176
     1
 62
   257
176
     1
 90
        2
176
     1
 90
        1
176
     1
 40
1.0
176
     1
 90
        8
176
     1
 62
   257
176
     1
 40
1.0
176
     1
 90
        1
176
     1
 90
        6
176
     1
 90
        2
176
     1
 62
     7
176
     1
 90
        3
176
     1
 90
        0
176
     1
 90
        0
176
     1
290
     0
176
     1
 90
        5
176
     1
 40
0.0
176
     1
 90
        0
176
     1
290
     0
176
     1
290
     1
176
     1
290
     1
176
     1
290
     0
176
     1
290
     0
176
     1
290
     0
176
     1
290
     0
176
     1
290
     0
176
     1
290
     0
176
     1
 90
       50
176
     1
 40
0.0
176
     1
 40
1.0
176
     1
 90
        0
176
     1
 62
    18
420
        0
176
     1
 90
       50
176
     1
 90
        3
176
     1
 62
     5
420
      255
176
     1
290
     0
176
     1
 90
       50
176
     1
 90
       50
176
     1
 90
       50
176
     1
290
     0
176
     1
 90
       50
176
     1
 62
   256
176
     0
 40
1.0
176
     0
 90
        2
176
     1
  1
strokes_ogs.tif
176
     1
290
     0
176
     1
 40
1.0
176
     1
 40
1.0
176
     1
  0
VISUALSTYLE
  5
2B55E
102
{ACAD_REACTORS
330
2765
102
}
330
2765
100
AcDbVisualStyle
  2
Shades of Gray
 70
    23
177
     3
291
     0
 70
    58
 90
        2
176
     1
 90
        2
176
     1
 90
        3
176
     1
 90
        0
176
     1
 40
0.6
176
     1
 40
30.0
176
     1
 62
     7
420
 16777215
176
     1
 90
        2
176
     1
 90
        2
176
     1
 62
     7
176
     1
 62
     7
176
     1
 90
        1
176
     1
 90
        1
176
     1
 40
40.0
176
     1
 90
        8
176
     1
 62
     7
176
     1
 40
1.0
176
     1
 90
        1
176
     1
 90
        6
176
     1
 90
        2
176
     1
 62
     7
176
     1
 90
        3
176
     1
 90
        0
176
     1
 90
        0
176
     1
290
     0
176
     1
 90
        1
176
     1
 40
0.0
176
     1
 90
        0
176
     1
290
     0
176
     1
290
     1
176
     1
290
     1
176
     1
290
     0
176
     1
290
     0
176
     1
290
     0
176
     1
290
     0
176
     1
290
     0
176
     1
290
     0
176
     1
 90
       50
176
     1
 40
0.0
176
     1
 40
1.0
176
     1
 90
        0
176
     1
 62
    18
420
        0
176
     1
 90
       50
176
     1
 90
        3
176
     1
 62
     5
420
      255
176
     1
290
     0
176
     1
 90
       50
176
     1
 90
       50
176
     1
 90
       50
176
     1
290
     0
176
     1
 90
       50
176
     1
 62
   256
176
     0
 40
1.0
176
     0
 90
        2
176
     1
  1
strokes_ogs.tif
176
     1
290
     0
176
     1
 40
1.0
176
     1
 40
1.0
176
     1
  0
VISUALSTYLE
  5
2B55F
102
{ACAD_REACTORS
330
2765
102
}
330
2765
100
AcDbVisualStyle
  2
Sketchy
 70
    24
177
     3
291
     0
 70
    58
 90
        1
176
     1
 90
        2
176
     1
 90
        2
176
     1
 90
        0
176
     1
 40
0.6
176
     1
 40
30.0
176
     1
 62
     7
420
 16777215
176
     1
 90
        2
176
     1
 90
        2
176
     1
 62
     7
176
     1
 62
     7
176
     1
 90
        1
176
     1
 90
        1
176
     1
 40
40.0
176
     1
 90
       11
176
     1
 62
     7
176
     1
 40
1.0
176
     1
 90
        1
176
     1
 90
        6
176
     1
 90
        2
176
     1
 62
     7
176
     1
 90
        6
176
     1
 90
        0
176
     1
 90
        0
176
     1
290
     0
176
     1
 90
        1
176
     1
 40
0.0
176
     1
 90
        0
176
     1
290
     0
176
     1
290
     1
176
     1
290
     1
176
     1
290
     0
176
     1
290
     0
176
     1
290
     0
176
     1
290
     0
176
     1
290
     0
176
     1
290
     0
176
     1
 90
       50
176
     1
 40
0.0
176
     1
 40
1.0
176
     1
 90
        0
176
     1
 62
    18
420
        0
176
     1
 90
       50
176
     1
 90
        3
176
     1
 62
     5
420
      255
176
     1
290
     0
176
     1
 90
       50
176
     1
 90
       50
176
     1
 90
       50
176
     1
290
     0
176
     1
 90
       50
176
     1
 62
   256
176
     0
 40
1.0
176
     0
 90
        2
176
     1
  1
strokes_ogs.tif
176
     1
290
     0
176
     1
 40
1.0
176
     1
 40
1.0
176
     1
  0
VISUALSTYLE
  5
2772
102
{ACAD_REACTORS
330
2765
102
}
330
2765
100
AcDbVisualStyle
  2
Thicken
 70
    13
177
     3
291
     1
 70
    58
 90
        2
176
     1
 90
        2
176
     1
 90
        0
176
     1
 90
        0
176
     1
 40
0.6
176
     1
 40
30.0
176
     1
 62
     7
420
 16777215
176
     1
 90
        1
176
     1
 90
        4
176
     1
 62
     7
176
     1
 62
   257
176
     1
 90
        1
176
     1
 90
        1
176
     1
 40
1.0
176
     1
 90
       12
176
     1
 62
     7
176
     1
 40
1.0
176
     1
 90
        1
176
     1
 90
        6
176
     1
 90
        2
176
     1
 62
     7
176
     1
 90
        5
176
     1
 90
        0
176
     1
 90
        0
176
     1
290
     0
176
     1
 90
        1
176
     1
 40
0.0
176
     1
 90
        0
176
     1
290
     0
176
     1
290
     1
176
     1
290
     1
176
     1
290
     0
176
     1
290
     0
176
     1
290
     0
176
     1
290
     0
176
     1
290
     0
176
     1
290
     0
176
     1
 90
       50
176
     1
 40
0.0
176
     1
 40
1.0
176
     1
 90
        0
176
     1
 62
    18
420
        0
176
     1
 90
       50
176
     1
 90
        3
176
     1
 62
     5
420
      255
176
     1
290
     0
176
     1
 90
       50
176
     1
 90
       50
176
     1
 90
       50
176
     1
290
     0
176
     1
 90
       50
176
     1
 62
   256
176
     0
 40
1.0
176
     0
 90
        2
176
     1
  1
strokes_ogs.tif
176
     1
290
     0
176
     1
 40
1.0
176
     1
 40
1.0
176
     1
  0
VISUALSTYLE
  5
2B55C
102
{ACAD_REACTORS
330
2765
102
}
330
2765
100
AcDbVisualStyle
  2
Wireframe
 70
     5
177
     3
291
     0
 70
    58
 90
        0
176
     1
 90
        2
176
     1
 90
        0
176
     1
 90
        0
176
     1
 40
0.6
176
     1
 40
30.0
176
     1
 62
     7
420
 16777215
176
     1
 90
        1
176
     1
 90
        4
176
     1
 62
     7
176
     1
 62
   257
176
     1
 90
        1
176
     1
 90
        1
176
     1
 40
1.0
176
     1
 90
        0
176
     1
 62
   257
176
     1
 40
1.0
176
     1
 90
        1
176
     1
 90
        6
176
     1
 90
        2
176
     1
 62
     7
176
     1
 90
        3
176
     1
 90
        0
176
     1
 90
        0
176
     1
290
     0
176
     1
 90
        1
176
     1
 40
0.0
176
     1
 90
        0
176
     1
290
     0
176
     1
290
     1
176
     1
290
     1
176
     1
290
     0
176
     1
290
     0
176
     1
290
     0
176
     1
290
     0
176
     1
290
     0
176
     1
290
     0
176
     1
 90
       50
176
     1
 40
0.0
176
     1
 40
1.0
176
     1
 90
        0
176
     1
 62
    18
420
        0
176
     1
 90
       50
176
     1
 90
        3
176
     1
 62
     5
420
      255
176
     1
290
     0
176
     1
 90
       50
176
     1
 90
       50
176
     1
 90
       50
176
     1
290
     0
176
     1
 90
       50
176
     1
 62
   256
176
     0
 40
1.0
176
     0
 90
        2
176
     1
  1
strokes_ogs.tif
176
     1
290
     0
176
     1
 40
1.0
176
     1
 40
1.0
176
     1
  0
VISUALSTYLE
  5
2B560
102
{ACAD_REACTORS
330
2765
102
}
330
2765
100
AcDbVisualStyle
  2
X-Ray
 70
    25
177
     3
291
     0
 70
    58
 90
        2
176
     1
 90
        2
176
     1
 90
        1
176
     1
 90
        1
176
     1
 40
0.5
176
     1
 40
30.0
176
     1
 62
     7
420
 16777215
176
     1
 90
        1
176
     1
 90
        0
176
     1
 62
     7
176
     1
 62
   257
176
     1
 90
        1
176
     1
 90
        1
176
     1
 40
1.0
176
     1
 90
        8
176
     1
 62
     7
176
     1
 40
1.0
176
     1
 90
        1
176
     1
 90
        6
176
     1
 90
        2
176
     1
 62
     7
176
     1
 90
        3
176
     1
 90
        0
176
     1
 90
        0
176
     1
290
     0
176
     1
 90
       13
176
     1
 40
0.0
176
     1
 90
        0
176
     1
290
     0
176
     1
290
     1
176
     1
290
     1
176
     1
290
     0
176
     1
290
     0
176
     1
290
     0
176
     1
290
     0
176
     1
290
     0
176
     1
290
     0
176
     1
 90
       50
176
     1
 40
0.0
176
     1
 40
1.0
176
     1
 90
        0
176
     1
 62
    18
420
        0
176
     1
 90
       50
176
     1
 90
        3
176
     1
 62
     5
420
      255
176
     1
290
     0
176
     1
 90
       50
176
     1
 90
       50
176
     1
 90
       50
176
     1
290
     0
176
     1
 90
       50
176
     1
 62
   256
176
     0
 40
1.0
176
     0
 90
        2
176
     1
  1
strokes_ogs.tif
176
     1
290
     0
176
     1
 40
1.0
176
     1
 40
1.0
176
     1
  0
DICTIONARYVAR
  5
24E32
102
{ACAD_REACTORS
330
5E
102
}
330
5E
100
DictionaryVariables
280
     0
  1
1:1
  0
DICTIONARYVAR
  5
24E30
102
{ACAD_REACTORS
330
5E
102
}
330
5E
100
DictionaryVariables
280
     0
  1
STANDARD
  0
DICTIONARYVAR
  5
2792
102
{ACAD_REACTORS
330
5E
102
}
330
5E
100
DictionaryVariables
280
     0
  1
STANDARD
  0
DICTIONARYVAR
  5
2B577
102
{ACAD_REACTORS
330
5E
102
}
330
5E
100
DictionaryVariables
280
     0
  1
Metric50
  0
DICTIONARYVAR
  5
2B578
102
{ACAD_REACTORS
330
5E
102
}
330
5E
100
DictionaryVariables
280
     0
  1
Metric50
  0
DICTIONARYVAR
  5
5F
102
{ACAD_REACTORS
330
5E
102
}
330
5E
100
DictionaryVariables
280
     0
  1
2
  0
DICTIONARYVAR
  5
63
102
{ACAD_REACTORS
330
5E
102
}
330
5E
100
DictionaryVariables
280
     0
  1
1
  0
DICTIONARYVAR
  5
24E34
102
{ACAD_REACTORS
330
5E
102
}
330
5E
100
DictionaryVariables
280
     0
  1
1
  0
DICTIONARYVAR
  5
24E35
102
{ACAD_REACTORS
330
5E
102
}
330
5E
100
DictionaryVariables
280
     0
  1
15
  0
DICTIONARYVAR
  5
24E33
102
{ACAD_REACTORS
330
5E
102
}
330
5E
100
DictionaryVariables
280
     0
  1
0
  0
DICTIONARYVAR
  5
24E31
102
{ACAD_REACTORS
330
5E
102
}
330
5E
100
DictionaryVariables
280
     0
  1
0
  0
DICTIONARY
  5
2B580
330
2B566
100
AcDbDictionary
280
     1
281
     1
  3
ACAD_XREC_ROUNDTRIP
360
2B581
  0
DICTIONARY
  5
24E2E
330
22
100
AcDbDictionary
280
     1
281
     1
  0
DICTIONARY
  5
2E30
330
51
100
AcDbDictionary
280
     1
281
     1
  0
DICTIONARY
  5
2B57E
330
2B564
100
AcDbDictionary
280
     1
281
     1
  3
ACAD_XREC_ROUNDTRIP
360
2B57F
  0
DICTIONARY
  5
2B57A
330
2778
100
AcDbDictionary
280
     1
281
     1
  3
ACAD_ROUNDTRIP_2008_TABLESTYLE_CELLSTYLEMAP
360
2B57B
  0
DICTIONARY
  5
2B57C
330
2688B
100
AcDbDictionary
280
     1
281
     1
  3
ACAD_ROUNDTRIP_2008_TABLESTYLE_CELLSTYLEMAP
360
2B57D
  0
XRECORD
  5
2B581
102
{ACAD_REACTORS
330
2B580
102
}
330
2B580
100
AcDbXrecord
280
     1
102
DISPLAYNAME
  1
Metric50
102
FLAGS
 90
        0
  0
XRECORD
  5
2B57F
102
{ACAD_REACTORS
330
2B57E
102
}
330
2B57E
100
AcDbXrecord
280
     1
102
DISPLAYNAME
  1
Metric50
102
FLAGS
 90
        0
  0
CELLSTYLEMAP
  5
2B57B
102
{ACAD_REACTORS
330
2B57A
102
}
330
2B57A
100
AcDbCellStyleMap
 90
        3
300
CELLSTYLE
  1
TABLEFORMAT_BEGIN
 90
        5
170
     1
 91
        0
 92
    32768
 62
   257
 93
        1
300
CONTENTFORMAT
  1
CONTENTFORMAT_BEGIN
 90
        0
 91
        0
 92
      512
 93
        0
300

 40
0.0
140
1.0
 94
        5
 62
     0
340
11
144
6.0
309
CONTENTFORMAT_END
171
     1
301
MARGIN
  1
CELLMARGIN_BEGIN
 40
1.5
 40
1.5
 40
1.5
 40
1.5
 40
0.18
 40
0.18
309
CELLMARGIN_END
 94
        6
 95
        1
302
GRIDFORMAT
  1
GRIDFORMAT_BEGIN
 90
        0
 91
        1
 62
     0
 92
       -2
340
0
 93
        0
 40
0.045
309
GRIDFORMAT_END
 95
        2
302
GRIDFORMAT
  1
GRIDFORMAT_BEGIN
 90
        0
 91
        1
 62
     0
 92
       -2
340
0
 93
        0
 40
0.045
309
GRIDFORMAT_END
 95
        4
302
GRIDFORMAT
  1
GRIDFORMAT_BEGIN
 90
        0
 91
        1
 62
     0
 92
       -2
340
0
 93
        0
 40
0.045
309
GRIDFORMAT_END
 95
        8
302
GRIDFORMAT
  1
GRIDFORMAT_BEGIN
 90
        0
 91
        1
 62
     0
 92
       -2
340
0
 93
        0
 40
0.045
309
GRIDFORMAT_END
 95
       16
302
GRIDFORMAT
  1
GRIDFORMAT_BEGIN
 90
        0
 91
        1
 62
     0
 92
       -2
340
0
 93
        0
 40
0.045
309
GRIDFORMAT_END
 95
       32
302
GRIDFORMAT
  1
GRIDFORMAT_BEGIN
 90
        0
 91
        1
 62
     0
 92
       -2
340
0
 93
        0
 40
0.045
309
GRIDFORMAT_END
309
TABLEFORMAT_END
  1
CELLSTYLE_BEGIN
 90
        1
 91
        1
300
_TITLE
309
CELLSTYLE_END
300
CELLSTYLE
  1
TABLEFORMAT_BEGIN
 90
        5
170
     1
 91
        0
 92
        0
 62
   257
 93
        1
300
CONTENTFORMAT
  1
CONTENTFORMAT_BEGIN
 90
        0
 91
        0
 92
      512
 93
        0
300

 40
0.0
140
1.0
 94
        5
 62
     0
340
11
144
4.5
309
CONTENTFORMAT_END
171
     1
301
MARGIN
  1
CELLMARGIN_BEGIN
 40
1.5
 40
1.5
 40
1.5
 40
1.5
 40
0.18
 40
0.18
309
CELLMARGIN_END
 94
        6
 95
        1
302
GRIDFORMAT
  1
GRIDFORMAT_BEGIN
 90
        0
 91
        1
 62
     0
 92
       -2
340
0
 93
        0
 40
0.045
309
GRIDFORMAT_END
 95
        2
302
GRIDFORMAT
  1
GRIDFORMAT_BEGIN
 90
        0
 91
        1
 62
     0
 92
       -2
340
0
 93
        0
 40
0.045
309
GRIDFORMAT_END
 95
        4
302
GRIDFORMAT
  1
GRIDFORMAT_BEGIN
 90
        0
 91
        1
 62
     0
 92
       -2
340
0
 93
        0
 40
0.045
309
GRIDFORMAT_END
 95
        8
302
GRIDFORMAT
  1
GRIDFORMAT_BEGIN
 90
        0
 91
        1
 62
     0
 92
       -2
340
0
 93
        0
 40
0.045
309
GRIDFORMAT_END
 95
       16
302
GRIDFORMAT
  1
GRIDFORMAT_BEGIN
 90
        0
 91
        1
 62
     0
 92
       -2
340
0
 93
        0
 40
0.045
309
GRIDFORMAT_END
 95
       32
302
GRIDFORMAT
  1
GRIDFORMAT_BEGIN
 90
        0
 91
        1
 62
     0
 92
       -2
340
0
 93
        0
 40
0.045
309
GRIDFORMAT_END
309
TABLEFORMAT_END
  1
CELLSTYLE_BEGIN
 90
        2
 91
        1
300
_HEADER
309
CELLSTYLE_END
300
CELLSTYLE
  1
TABLEFORMAT_BEGIN
 90
        5
170
     1
 91
        0
 92
        0
 62
   257
 93
        1
300
CONTENTFORMAT
  1
CONTENTFORMAT_BEGIN
 90
        0
 91
        0
 92
      512
 93
        0
300

 40
0.0
140
1.0
 94
        2
 62
     0
340
11
144
4.5
309
CONTENTFORMAT_END
171
     1
301
MARGIN
  1
CELLMARGIN_BEGIN
 40
1.5
 40
1.5
 40
1.5
 40
1.5
 40
0.18
 40
0.18
309
CELLMARGIN_END
 94
        6
 95
        1
302
GRIDFORMAT
  1
GRIDFORMAT_BEGIN
 90
        0
 91
        1
 62
     0
 92
       -2
340
0
 93
        0
 40
0.045
309
GRIDFORMAT_END
 95
        2
302
GRIDFORMAT
  1
GRIDFORMAT_BEGIN
 90
        0
 91
        1
 62
     0
 92
       -2
340
0
 93
        0
 40
0.045
309
GRIDFORMAT_END
 95
        4
302
GRIDFORMAT
  1
GRIDFORMAT_BEGIN
 90
        0
 91
        1
 62
     0
 92
       -2
340
0
 93
        0
 40
0.045
309
GRIDFORMAT_END
 95
        8
302
GRIDFORMAT
  1
GRIDFORMAT_BEGIN
 90
        0
 91
        1
 62
     0
 92
       -2
340
0
 93
        0
 40
0.045
309
GRIDFORMAT_END
 95
       16
302
GRIDFORMAT
  1
GRIDFORMAT_BEGIN
 90
        0
 91
        1
 62
     0
 92
       -2
340
0
 93
        0
 40
0.045
309
GRIDFORMAT_END
 95
       32
302
GRIDFORMAT
  1
GRIDFORMAT_BEGIN
 90
        0
 91
        1
 62
     0
 92
       -2
340
0
 93
        0
 40
0.045
309
GRIDFORMAT_END
309
TABLEFORMAT_END
  1
CELLSTYLE_BEGIN
 90
        3
 91
        2
300
_DATA
309
CELLSTYLE_END
  0
CELLSTYLEMAP
  5
2B57D
102
{ACAD_REACTORS
330
2B57C
102
}
330
2B57C
100
AcDbCellStyleMap
 90
        3
300
CELLSTYLE
  1
TABLEFORMAT_BEGIN
 90
        5
170
     1
 91
        0
 92
    32768
 62
   257
 93
        1
300
CONTENTFORMAT
  1
CONTENTFORMAT_BEGIN
 90
        0
 91
        0
 92
      512
 93
        0
300

 40
0.0
140
1.0
 94
        5
 62
     0
340
11
144
6.0
309
CONTENTFORMAT_END
171
     1
301
MARGIN
  1
CELLMARGIN_BEGIN
 40
1.5
 40
1.5
 40
1.5
 40
1.5
 40
0.18
 40
0.18
309
CELLMARGIN_END
 94
        6
 95
        1
302
GRIDFORMAT
  1
GRIDFORMAT_BEGIN
 90
        0
 91
        1
 62
     0
 92
       -2
340
0
 93
        0
 40
0.045
309
GRIDFORMAT_END
 95
        2
302
GRIDFORMAT
  1
GRIDFORMAT_BEGIN
 90
        0
 91
        1
 62
     0
 92
       -2
340
0
 93
        0
 40
0.045
309
GRIDFORMAT_END
 95
        4
302
GRIDFORMAT
  1
GRIDFORMAT_BEGIN
 90
        0
 91
        1
 62
     0
 92
       -2
340
0
 93
        0
 40
0.045
309
GRIDFORMAT_END
 95
        8
302
GRIDFORMAT
  1
GRIDFORMAT_BEGIN
 90
        0
 91
        1
 62
     0
 92
       -2
340
0
 93
        0
 40
0.045
309
GRIDFORMAT_END
 95
       16
302
GRIDFORMAT
  1
GRIDFORMAT_BEGIN
 90
        0
 91
        1
 62
     0
 92
       -2
340
0
 93
        0
 40
0.045
309
GRIDFORMAT_END
 95
       32
302
GRIDFORMAT
  1
GRIDFORMAT_BEGIN
 90
        0
 91
        1
 62
     0
 92
       -2
340
0
 93
        0
 40
0.045
309
GRIDFORMAT_END
309
TABLEFORMAT_END
  1
CELLSTYLE_BEGIN
 90
        1
 91
        1
300
_TITLE
309
CELLSTYLE_END
300
CELLSTYLE
  1
TABLEFORMAT_BEGIN
 90
        5
170
     1
 91
        0
 92
        0
 62
   257
 93
        1
300
CONTENTFORMAT
  1
CONTENTFORMAT_BEGIN
 90
        0
 91
        0
 92
      512
 93
        0
300

 40
0.0
140
1.0
 94
        5
 62
     2
340
10EC
144
4.5
309
CONTENTFORMAT_END
171
     1
301
MARGIN
  1
CELLMARGIN_BEGIN
 40
1.5
 40
1.5
 40
1.5
 40
1.5
 40
0.18
 40
0.18
309
CELLMARGIN_END
 94
        6
 95
        1
302
GRIDFORMAT
  1
GRIDFORMAT_BEGIN
 90
        0
 91
        1
 62
     0
 92
       -2
340
0
 93
        0
 40
0.045
309
GRIDFORMAT_END
 95
        2
302
GRIDFORMAT
  1
GRIDFORMAT_BEGIN
 90
        0
 91
        1
 62
     0
 92
       -2
340
0
 93
        0
 40
0.045
309
GRIDFORMAT_END
 95
        4
302
GRIDFORMAT
  1
GRIDFORMAT_BEGIN
 90
        0
 91
        1
 62
     0
 92
       -2
340
0
 93
        0
 40
0.045
309
GRIDFORMAT_END
 95
        8
302
GRIDFORMAT
  1
GRIDFORMAT_BEGIN
 90
        0
 91
        1
 62
     0
 92
       -2
340
0
 93
        0
 40
0.045
309
GRIDFORMAT_END
 95
       16
302
GRIDFORMAT
  1
GRIDFORMAT_BEGIN
 90
        0
 91
        1
 62
     0
 92
       -2
340
0
 93
        0
 40
0.045
309
GRIDFORMAT_END
 95
       32
302
GRIDFORMAT
  1
GRIDFORMAT_BEGIN
 90
        0
 91
        1
 62
     0
 92
       -2
340
0
 93
        0
 40
0.045
309
GRIDFORMAT_END
309
TABLEFORMAT_END
  1
CELLSTYLE_BEGIN
 90
        2
 91
        1
300
_HEADER
309
CELLSTYLE_END
300
CELLSTYLE
  1
TABLEFORMAT_BEGIN
 90
        5
170
     1
 91
        0
 92
        0
 62
   257
 93
        1
300
CONTENTFORMAT
  1
CONTENTFORMAT_BEGIN
 90
        0
 91
        0
 92
      512
 93
        0
300

 40
0.0
140
1.0
 94
        2
 62
     2
340
10EC
144
4.5
309
CONTENTFORMAT_END
171
     1
301
MARGIN
  1
CELLMARGIN_BEGIN
 40
1.5
 40
1.5
 40
1.5
 40
1.5
 40
0.18
 40
0.18
309
CELLMARGIN_END
 94
        6
 95
        1
302
GRIDFORMAT
  1
GRIDFORMAT_BEGIN
 90
        0
 91
        1
 62
     0
 92
       -2
340
0
 93
        0
 40
0.045
309
GRIDFORMAT_END
 95
        2
302
GRIDFORMAT
  1
GRIDFORMAT_BEGIN
 90
        0
 91
        1
 62
     0
 92
       -2
340
0
 93
        0
 40
0.045
309
GRIDFORMAT_END
 95
        4
302
GRIDFORMAT
  1
GRIDFORMAT_BEGIN
 90
        0
 91
        1
 62
     0
 92
       -2
340
0
 93
        0
 40
0.045
309
GRIDFORMAT_END
 95
        8
302
GRIDFORMAT
  1
GRIDFORMAT_BEGIN
 90
        0
 91
        1
 62
     0
 92
       -2
340
0
 93
        0
 40
0.045
309
GRIDFORMAT_END
 95
       16
302
GRIDFORMAT
  1
GRIDFORMAT_BEGIN
 90
        0
 91
        1
 62
     0
 92
       -2
340
0
 93
        0
 40
0.045
309
GRIDFORMAT_END
 95
       32
302
GRIDFORMAT
  1
GRIDFORMAT_BEGIN
 90
        0
 91
        1
 62
     0
 92
       -2
340
0
 93
        0
 40
0.045
309
GRIDFORMAT_END
309
TABLEFORMAT_END
  1
CELLSTYLE_BEGIN
 90
        3
 91
        2
300
_DATA
309
CELLSTYLE_END
  0
ENDSEC
  0
SECTION
  2
ACDSDATA
 70
     2
 71
     6
  0
ACDSSCHEMA
 90
        0
  1
AcDb_Thumbnail_Schema
  2
AcDbDs::ID
280
    10
 91
        8
  2
Thumbnail_Data
280
    15
 91
        0
101
ACDSRECORD
 95
        0
 90
        1
  2
AcDbDs::TreatedAsObjectData
280
     1
291
     1
101
ACDSRECORD
 95
        0
 90
        2
  2
AcDbDs::Legacy
280
     1
291
     1
101
ACDSRECORD
  1
AcDbDs::ID
 90
        3
  2
AcDs:Indexable
280
     1
291
     1
101
ACDSRECORD
  1
AcDbDs::ID
 90
        4
  2
AcDbDs::HandleAttribute
280
     7
282
     1
  0
ACDSSCHEMA
 90
        1
  1
AcDbDs::TreatedAsObjectDataSchema
  2
AcDbDs::TreatedAsObjectData
280
     1
 91
        0
  0
ACDSSCHEMA
 90
        2
  1
AcDbDs::LegacySchema
  2
AcDbDs::Legacy
280
     1
 91
        0
  0
ACDSSCHEMA
 90
        3
  1
AcDbDs::IndexedPropertySchema
  2
AcDs:Indexable
280
     1
 91
        0
  0
ACDSSCHEMA
 90
        4
  1
AcDbDs::HandleAttributeSchema
  2
AcDbDs::HandleAttribute
280
     7
 91
        1
284
     1
  0
ACDSRECORD
 90
        0
  2
AcDbDs::ID
280
    10
320
22
  2
Thumbnail_Data
280
    15
 94
     2409
310
89504E470D0A1A0A0000000D49484452000001000000007F080300000037AFECF400000300504C5445000000000000FFFFFF0000000000000000000000000000000000000000000000000000330000660000990000CC0000FF0033000033330033660033990033CC0033FF0066000066330066660066990066CC0066FF0099
310
000099330099660099990099CC0099FF00CC0000CC3300CC6600CC9900CCCC00CCFF00FF0000FF3300FF6600FF9900FFCC00FFFF3300003300333300663300993300CC3300FF3333003333333333663333993333CC3333FF3366003366333366663366993366CC3366FF3399003399333399663399993399CC3399FF33CC00
310
33CC3333CC6633CC9933CCCC33CCFF33FF0033FF3333FF6633FF9933FFCC33FFFF6600006600336600666600996600CC6600FF6633006633336633666633996633CC6633FF6666006666336666666666996666CC6666FF6699006699336699666699996699CC6699FF66CC0066CC3366CC6666CC9966CCCC66CCFF66FF0066
310
FF3366FF6666FF9966FFCC66FFFF9900009900339900669900999900CC9900FF9933009933339933669933999933CC9933FF9966009966339966669966999966CC9966FF9999009999339999669999999999CC9999FF99CC0099CC3399CC6699CC9999CCCC99CCFF99FF0099FF3399FF6699FF9999FFCC99FFFFCC0000CC00
310
33CC0066CC0099CC00CCCC00FFCC3300CC3333CC3366CC3399CC33CCCC33FFCC6600CC6633CC6666CC6699CC66CCCC66FFCC9900CC9933CC9966CC9999CC99CCCC99FFCCCC00CCCC33CCCC66CCCC99CCCCCCCCCCFFCCFF00CCFF33CCFF66CCFF99CCFFCCCCFFFFFF0000FF0033FF0066FF0099FF00CCFF00FFFF3300FF3333
310
FF3366FF3399FF33CCFF33FFFF6600FF6633FF6666FF6699FF66CCFF66FFFF9900FF9933FF9966FF9999FF99CCFF99FFFFCC00FFCC33FFCC66FFCC99FFCCCCFFCCFFFFFF00FFFF33FFFF66FFFF99FFFFCCFFFFFF0000000D0D0D1A1A1A2828283535354343435050505D5D5D6B6B6B787878868686939393A1A1A1AEAEAEBB
310
BBBBC9C9C9D6D6D6E4E4E4F1F1F1FFFFFF000000000000000000000000000000000000000000000000000000000000C11FEF66000006244944415478DAED9D4996DC200C40FB065CC3F7BF82AFC18A75B6DAA7CA4C92188C272C5CA6D3E9CE0BE5677D3421C0FE333FDEFE5A3BFE1BAE9D0D60B4A17D01BC00EE0400577405
310
8100005AEFB5D433D7F570CF8E1AD00CC05C0200C601D0AE01205B03407CBB1AC0D9DE1A2EBADE0B601400E605F0027801BC005E00A300809D00544F00702500D80500606A6E270000790054B3E61C07005702D8E903BA0290E6049359CA6F0170922B0FE23080D5ABC802F0BDD9EF1D2B7BD70D08A606F3AE529004C08AEF
310
C220B4C5D1A976B196C28920008BFC210F002F3FEC0200198792452007801F7EAD110004650B0080B41A55B81B290082A49A00885CB6008068036CF84126008038FC1FF93506E01DE30600E85300F33C3B08168840006EA4BE5DB56D1440E8D008C05FCE4AFF917FB610FCE5EE0780A3525450F88CBCD50062023112900FF9
310
DFA7B2FC56F2D9B8BF0A046E0140CDD401D0C6AABFC900E0B8E285B300ACFC26CAEF10E408DC0680FAB6CFBF16F1350B838B469040E03F5802C0E4272D47E04A00A5040C789EB2782C6D23A0CD04398090D285FCAE0CC0CA9F6D9600E4ECF106132099AA09E39F0380D202A89B4050801201AE02B7FA009CE968E7FF9621A4
310
00ECA861CF590380E4C73F7C48E02AD01F8052A09646C3A00900200B00D005BE0DBE17D0DE693005986B002881BB003808A8E9E58FB279ABEB90F6F2C2D70080F7FD39005C056E3681450F2A1A10C5F2634F2EC00178053073C9075815900360110A6B3BF1011AFB006C34251FE014A028BFB70109008851DB2860B806E810
310
0590F4A612065D6C99A503F09313009207689E0738008B67C0459E622A0CB5EA0F8EA42065328426ABC1066226A8492698952C05800A4B69B1551C00746BBA04006A05D22C80902DC67A8AA3021201600DE073013619DA06000C01808B43E200B8E9A0C9CC06B7548478828DF5FE16001B96C63E5DB5AF882415A18D00420D
310
250780470190B238EA4B428696C4EA0A5005C07C807800DF5BE335C1959268310A18285A004F852F05B0635D805585D7104EA6A4021C80FBBFFB2743ABF1D0E095A18D4B63A18E9EDF119A2A80BCB541886B837B1647E34A02370093550071CBE3F65E95695D202F01883F51ECF33E513200A4074D7D8B455194F541D48944
310
0164EE125BF25FB31F00CE9D43FE0F59F99F07C0005D1406EA0F442C8C340038B24B0C2D8D91482867696CBD1DDB27481647B12E98610098C3000C4D874C7187C023B7CAE2FD1124AA80D0FD01D72218658BCC793E209F44DFB0496A4B42733A002671497CE8B338BA12CA124CEA2C4358DF76DAC704EA9BBAD3999B2A1EEF
310
BB26645C0F60ED1E52006921F3C100D635E0E2A4413E80E76B403D0AC07509C5B30168EDBFF5E826B07B5E1DBE4547013E4757C95EF7670348C455E614001AB75F04304E22F458003002801E6B839B4D203DF0731900B81F401A0855B744B0D3E2E8D46A89E54428D796AAF0B44C3697AF499C0F680740C758B5E93F298FEF
310
3C492D04001B64D53AFEC70F938F0B60F226E00C41B2069413D1E30022821F0370F8D8B8502768672E7AD5099E25BF100071BE6F67EF8ACC6072D58067018867A4B5FDD21C0027709AFCB70060A91DDEBAE726EF2900C34E999D961BDE02205B05224E9002C8F51D1E40F5D36AFDA65F000300889ADD0C8028397401D06771
310
34A4EE95C3702A1C9A8B93E24A4F7AF87000138889AA2C0DE807E0D79D2007502BF9A86AC168480038BFCFEA77C3A37F51E6947F208CDCE70A5300533691430F9330808F4B4356D2E20E4928655A4E79809EC3E9660218404917B53F28EAA47027294DE374381C9982356D306946D9D3074C256BCC022815C42A2585320066
310
2D3201C41D8E5B0108F60113CE038ACFFF8A4F918873C30D4F50A223CCD170DDE8EB031ADB7252362E8CD4B6CDAF02C00C32A729FB02D85ACD68C870F702E8AB01B01380390A20E31D56AA913D0F4E5E0860BF1B7C0800FC1BB308DA0F67040F34815CD82F6B8A40277806003CDF2869001A2151002A7B9ACE7082F10902F0
310
380063BC65663AA56D02101F44077EDCC19067493CE1CC103A16464F4DD56647CF07804E10A7CF5378D67B86DA0038DF3FAC06C04E13B8AD26F8EBEF1ACB94339B86F57DDFE025AFDB7BDF37783B80ED9E6D7F5789EF1C15DC5E002F809301FCFABBC79FDAFE034D5C090EE4B258160000000049454E44AE426082
  0
ACDSRECORD
 90
        0
  2
AcDbDs::ID
280
    10
320
51
  2
Thumbnail_Data
280
    15
 94
     4181
310
89504E470D0A1A0A0000000D4948445200000100000000B5080300000087DCD12600000300504C5445000000000000FFFFFF0000000000000000000000000000000000000000000000000000330000660000990000CC0000FF0033000033330033660033990033CC0033FF0066000066330066660066990066CC0066FF0099
310
000099330099660099990099CC0099FF00CC0000CC3300CC6600CC9900CCCC00CCFF00FF0000FF3300FF6600FF9900FFCC00FFFF3300003300333300663300993300CC3300FF3333003333333333663333993333CC3333FF3366003366333366663366993366CC3366FF3399003399333399663399993399CC3399FF33CC00
310
33CC3333CC6633CC9933CCCC33CCFF33FF0033FF3333FF6633FF9933FFCC33FFFF6600006600336600666600996600CC6600FF6633006633336633666633996633CC6633FF6666006666336666666666996666CC6666FF6699006699336699666699996699CC6699FF66CC0066CC3366CC6666CC9966CCCC66CCFF66FF0066
310
FF3366FF6666FF9966FFCC66FFFF9900009900339900669900999900CC9900FF9933009933339933669933999933CC9933FF9966009966339966669966999966CC9966FF9999009999339999669999999999CC9999FF99CC0099CC3399CC6699CC9999CCCC99CCFF99FF0099FF3399FF6699FF9999FFCC99FFFFCC0000CC00
310
33CC0066CC0099CC00CCCC00FFCC3300CC3333CC3366CC3399CC33CCCC33FFCC6600CC6633CC6666CC6699CC66CCCC66FFCC9900CC9933CC9966CC9999CC99CCCC99FFCCCC00CCCC33CCCC66CCCC99CCCCCCCCCCFFCCFF00CCFF33CCFF66CCFF99CCFFCCCCFFFFFF0000FF0033FF0066FF0099FF00CCFF00FFFF3300FF3333
310
FF3366FF3399FF33CCFF33FFFF6600FF6633FF6666FF6699FF66CCFF66FFFF9900FF9933FF9966FF9999FF99CCFF99FFFFCC00FFCC33FFCC66FFCC99FFCCCCFFCCFFFFFF00FFFF33FFFF66FFFF99FFFFCCFFFFFF0000000D0D0D1A1A1A2828283535354343435050505D5D5D6B6B6B787878868686939393A1A1A1AEAEAEBB
310
BBBBC9C9C9D6D6D6E4E4E4F1F1F1FFFFFF000000000000000000000000000000000000000000000000000000000000C11FEF6600000D104944415478DAED9D4992B33A0C80FF1B700D367DFF03F81A5E694DD55B69FFF02CD93218830319A8EAA44348823E24599207FEE1776FFFFD43F8E6ED07C00088EA907667DBC7BEE1
310
017CEFF5FF01E000BEC9FBCB00BEE9DAFF007C10800E03F830004085B2FFD85D51A6D80026DBA700E0E300F8D86617007C0C80FAE957767E18805E1FF0411A80083C9EC9B58305C39F680214007C23809F0FF8F900F78448F27B62172C1FFE70007814007EAD0FF8E5029FA3014CDB6D6C4C6512EA00D70228F0324FFB7200
310
DCDCF9090E01B05F7A7935004103BC8F7C8106D02AF34BE4BFDB0734D6DF5E170AB35FA4F131AD048D7082ECCA23DEE7040B1F30DC09CABEF0AE64E88656809177AAF66A00F7074237B500439DE04B2FE3653E204FFD37728106006F81400000570040CC3E77E3A6A56DB40F2061CDC3018C0B845E1AD06D6CB3BC6D1445B1
310
AC09D2CE82F68E11DECD701B802381106C2543D8531112110C8562F57BFDD32201A6FF4D3EA01208ED00C83F55D4DB8655104A3BBF054030808A93516E1B6EF10580D90298EFD1003ECEC8887F3182D2CD1704E65C0FC695C5F31C5F3EE72B09CC0CC02C019819A9866CB08CCF8F39C1FDC05E8DF5FEB308809B00C21800C8
310
E3CA0701980F67835846827B009CF8F37E73F74A02A5029CF6017BB9C03CC3E300CCD540C87BAC54FD1253C4C650387C669EF3F0FB050092FED98719C90EFF5801C05BBC130088EAE7E177F2C2E64F85E88DFC69FABA3BC94D00564564F253AF9785C252B5A8AB1ED01CADA9D82CB356BCCCDB8E030804C002002B7A01E096
310
B23891522974AFA5AC15FAE5AF86A180750DF0DDC4909B00F4F8801D02609315BD4684F6939AFD4DEC752F00AAB748DBE51A80B2C93FE304F71038D9561340FFFA6A001BEEB1AA0162BAE635E0800F98F7375CAFBD1550270009C2445F9E28F68BF31DB2D06F48496CDE3FC3695501732E5A231015180F00A4D8F76A27D806
310
C010C060025EDE6B008034E82539335601F2E14F2517E8F401FB00D64D1B33209BF6BB747C81D9117816401AFB8395925866EEE300C0DAFC192330AD00251001D81642739F3408C0581FA02B1AA050398557AC65D0D63626E21184D0B289C0769FFB89A93EC700F048860639A211440D20D690E5609700C09DAE31E432F101
310
C4470108BD114E038CC6E7C10168A701CE1F6A210B3FD010D4CA65F05A00D2E9FDFDA9BF3F63E905010AA06A010D1132B3ED3CD1C0A30591BA0F804E27A82665BC9F330562045A1313D05213E072046822103E5828E07505913E00F1BBB4FD42A5D646415500D8FAB976EF05299A7224AC02C07ACF507B1C701280EB165825
310
53A997C0FE443401E70202804C647DC411E600B0C4340E807CAD56B140F98BAE54DE1278632016E08FE9890793E5FFFDFD09963D66BEC02CFB5ED661B87A016E8053103CDA822600265431686E2E131823CB0060B507678C0F20A7CA5BC42070BE1100C4336E74F0EF22A0A7556A515E0FA01591FEF9020D9160E040D2A304
310
805F196D32A689DAC0914211E99E9BB1E62ACB82C86500EA6735A16C025AD40C06E06896182BD415004103E07A0DA85C2B0A20B345AB15DCD65697B9360C570C2998E1B23142D01409D64CD688376539EE943FF10BA0A8027456CB2500AF4A863217E84514184F85FF3AE3040B02C218A157A7C3986442DCB90AB1841C4B47
310
18C3E18BFA905E5F130C15390C00B0A20140E76FAF7E8001803701209C2AE669A70C005B0EBEAA1771980FD0DB1B0A05FC893980543DA100DE4903A0A601C6A6950880951F6CB3ACB8FB7C271F209B80114405B346316EA300DCA1884CA7DED409C64E4F8C8E3D2B3C4DF9D11ED42813785DC748B86EC9049206908868AAE4
310
732145E8098577CB26BB6385BBFB05FCB85521F6B2971F4BAD2F007813D0472B428F00A02BFECAE5F8152728F5F2814A61D15BF980DA996626B003201C7A3A17B8C107E88D8A1D3402880D466F3ABC67026C9418101985E97CD7F40D5AB17C91ABD5040669C0CE28B1A10000B67201A20199095CEC031A4789C900A017801D
310
1CA4845EDFA9A8E8211FA774A90FBCA963C4EA3431ECED99D3B609304A902EFDB6FC470835CC193A5E16D7FBE363516145F3A6323132AC42F2D4920DA2AE5516A5C1DFBB71C061005A370C904067DB9B0068CB6FEDA515C05E5B9E79D83B00142B58C996E064B7A0FC5962BB5A036065D1D3BCE47271CF503B80BCC7CB7806
310
D3610418AF3B19D07144033600F0E9F13739C150E5320364E897D8FAB7423F8AC1FD9A390AB9605779766E029571343D93A6CAA939420C60474A190474B886520680F3F20E003DC406D0D8A6016C4D1A69BC30E63E80CDEB236B66F402881305E68A1D19D956E18827B41A106B1FAE3B806B49130284431A30AC6364DED07F
310
FFDB668C0091C8751728121D38F9156669149E0700451FE4E5C9D05CCD03431E6CC5B302C64BC27ACD272F7F3EA6416D23909B4171D870EBE4E9BE7AC02C5F7DE525C2287F7C5E3562726A61F778FD2FA71E9B6FC0EB003415448ED7038A09534EA54335C8696A90DB3F00DBE3FE13A6DEA13BF49A56604C41249F34E70C5A
310
01C9A842690CA8260415890FC612FEA4710DC179940389E900313E4E1ACB4911837C006F4F9DF02AADC7A5BC09A8861358ADE20F6BB6549B12C001486B75D138A0AAEDFD3E009365FB8B5C8EB6C4DCBD21B045ABA2B64B00BC41117BA90090E383F833DC0788ABC87402609EAD98B1105A01D5A0721500BEF148C6F3281FB0
310
A7D658E85B1973C57D35001142610245E05E29340CF401324429D22C5434DF075B0040F8298452D62A00960B40889EF1021FC0CF0E451FC0BF5E74CF5D00BAEA01B549052300280A800E8570A3E5D2D9F501389A0DB21972500E97A7C1D8000D60F861E215D8F5E9AF430342DBBF1F098EF001D33C85CD8E475A9F7D6CEF37
310
9C26360430EEC7F4384D2B0B7B9801403E9C6FF48D0E00B419F43E80BB273C6D0273A901180303B5A701CA6A40DE3574A90F48424933464E039825002E08F249CDB609A8BF09F39C78900FC8D6F46C01007D1A90BE366980D789C945374C03FCAED65AB010096E3583971745250020B528BC0D021980F501E03A8837579E6C
310
0500D704427B00C83697D56E1EFC9B5120E86BC4AE4723247ABE1924E5131A6267E9D0D9A22854678D756980CFF1FD9A15BC842302705758E71A403AC9E5CC215695C4A48A4C0440CC123E09005C0540A5CACF9CAD589D08F061902A4FA1D999AAAC8B3C2D7CA9A0282EF3981B2A9633D207CCE487E604B7001007BE00B3F1
310
242BE91751955BA1044B1300C03E80413E608ED58C541667B3FF421F7918F8C6D6EF20B2B2017258484FC49B1FE50366B1A34CA511E0B11F40816402B44E9C7AC6A01C4E207547895D634D45517959DDEB00A4C290F640BC2BD7DE65BA0268A871D845765C59340DABAC4603DD0086748CCCF59E423F679455C9759C160271
310
4581150B907E136B165BDD012D00E035C9D0360023914EA140DB0AFB886A6FD2D0153EE0C0F880130056041A9566F3E0CABC9BEF4D03259B34405C298094C92F1820710A0068656703C69F4BB32B5398E8E70E87B868B753781B00D60748ECDD6C6D08000866EF82591DDA4C304B6878303A268D4DA302E6BE74F8061F1009
310
C431224E1D20AD1C6383488D52717F840F60992F40B69658368BF13080790B407CE94128A3015EEF75D3656CF5012D2650594A0B3A3A471B340034144ED09A00163E10CE03C076008082065CBD965858522C2D21149F75BE138F033854121BD033B43F4C2A1BEFA9A5DD0787C376FA80410B2A1E0340FF992E0070AC244684
310
3A900C7D2C002856951D024056760D04C0D101E1DDCDE02D3E60288023DB5D3EC08BA7EF07D05B0F38EB03B48E8FFC698A6FE97700007D00FC625805004DDF7A15800145D1260D88730AD374481720BE16C0A01B2CF49B00BCD604FA95E61C8001DB0FC00FC02700383125F04334E06300F46E668649E7760B00FC5A1FF029
310
F71EFF01F801F801F801787300CB82576E4BDA369735780E005C119C3C0B22F442BE28EC126F52F92400EBA9A6BB07D6026C722F232FF4FA1F13BA5A0BD1FCC82702D09B00A495FC96EDC5488A550CA8813C1480393114D5BB5C8E54132ED05C0D73DFF6480D88EEB066D31D5F4A0A7681D2434DA074E1A257AF797C797F09
310
803BC8476A40E9B3E8492FD451109B61FB21ED8F355AFF7D8F6E0598DAEBCA4AAE4110844510DAED5FC8A287CCF01F1D08659A5C5B45C8EF77C79263E8FEB8846B4DFA1C003C440388C68BBE1D9917378FBAB23F3FBEB322749B0F088D5E76E6482EA6FB5F2FF2FEF2FFF702903480B9C1F2EAEA8DABCEF73F1D8033DD30DD
310
C6FA31DA9EAD0FBA9ADA48BBED473633ACC76940B87B94BF89127F5AC2AD959AA22273DCDE91CF04A06B00D8BDA57663C31518C623DFC504B8362FC22BF4C2847C7009B921A40E79DF2A90DB9EBC8D136411EA820B7F455FB27430BFC9710900E8714F368125F800084A1FDA311BD2423481CAAD9DF51600BD0DE019A1B068
310
FCE0627A7B0D330050BD674709005201E1B1B980DC0A2C91CEA2B74F8F264D0C4071D48393A1A530FE94044170ED7B148CD16C4AB26C14446EDF968D57B8B456845B0E12017CDDF603F003E000EC4EDEFFD837B240E81B75E007E01F7EF7F6DFFFC74965CB58BC5AB50000000049454E44AE426082
  0
ENDSEC
  0
EOF
