  0
SECTION
  2
HEADER
  9
$ACADVER
  1
AC1032
  9
$ACADMAINTVER
 90
      174
  9
$DWGCODEPAGE
  3
ANSI_932
  9
$LASTSAVEDBY
  1
水田
  9
$REQUIREDVERSIONS
160
                 0
  9
$INSBASE
 10
0.0
 20
0.0
 30
0.0
  9
$EXTMIN
 10
5.0
 20
0.0
 30
0.0
  9
$EXTMAX
 10
845.0
 20
594.0
 30
0.0
  9
$LIMMIN
 10
0.0
 20
0.0
  9
$LIMMAX
 10
840.0
 20
594.0
  9
$ORTHOMODE
 70
     0
  9
$REGENMODE
 70
     1
  9
$FILLMODE
 70
     1
  9
$QTEXTMODE
 70
     0
  9
$MIRRTEXT
 70
     1
  9
$LTSCALE
 40
0.3
  9
$ATTMODE
 70
     1
  9
$TEXTSIZE
 40
2.5
  9
$TRACEWID
 40
1.0
  9
$TEXTSTYLE
  7
Standard
  9
$CLAYER
  8
寸法
  9
$CELTYPE
  6
ByLayer
  9
$CECOLOR
 62
   256
  9
$CELTSCALE
 40
1.0
  9
$DISPSILH
 70
     0
  9
$DIMSCALE
 40
1.0
  9
$DIMASZ
 40
2.5
  9
$DIMEXO
 40
0.625
  9
$DIMDLI
 40
3.75
  9
$DIMRND
 40
0.0
  9
$DIMDLE
 40
0.0
  9
$DIMEXE
 40
1.25
  9
$DIMTP
 40
0.0
  9
$DIMTM
 40
0.0
  9
$DIMTXT
 40
7.0
  9
$DIMCEN
 40
2.5
  9
$DIMTSZ
 40
0.0
  9
$DIMTOL
 70
     0
  9
$DIMLIM
 70
     0
  9
$DIMTIH
 70
     0
  9
$DIMTOH
 70
     0
  9
$DIMSE1
 70
     0
  9
$DIMSE2
 70
     0
  9
$DIMTAD
 70
     1
  9
$DIMZIN
 70
     8
  9
$DIMBLK
  1

  9
$DIMASO
 70
     1
  9
$DIMSHO
 70
     1
  9
$DIMPOST
  1

  9
$DIMAPOST
  1

  9
$DIMALT
 70
     0
  9
$DIMALTD
 70
     3
  9
$DIMALTF
 40
0.03937007874016
  9
$DIMLFAC
 40
1.0
  9
$DIMTOFL
 70
     1
  9
$DIMTVP
 40
0.0
  9
$DIMTIX
 70
     0
  9
$DIMSOXD
 70
     0
  9
$DIMSAH
 70
     0
  9
$DIMBLK1
  1

  9
$DIMBLK2
  1

  9
$DIMSTYLE
  2
ｺﾋﾟｰ - ISO-25
  9
$DIMCLRD
 70
     0
  9
$DIMCLRE
 70
     0
  9
$DIMCLRT
 70
     2
  9
$DIMTFAC
 40
1.0
  9
$DIMGAP
 40
1.0
  9
$DIMJUST
 70
     0
  9
$DIMSD1
 70
     0
  9
$DIMSD2
 70
     0
  9
$DIMTOLJ
 70
     0
  9
$DIMTZIN
 70
     8
  9
$DIMALTZ
 70
     0
  9
$DIMALTTZ
 70
     0
  9
$DIMUPT
 70
     0
  9
$DIMDEC
 70
     1
  9
$DIMTDEC
 70
     1
  9
$DIMALTU
 70
     2
  9
$DIMALTTD
 70
     3
  9
$DIMTXSTY
  7
寸法
  9
$DIMAUNIT
 70
     0
  9
$DIMADEC
 70
     0
  9
$DIMALTRND
 40
0.0
  9
$DIMAZIN
 70
     0
  9
$DIMDSEP
 70
    46
  9
$DIMATFIT
 70
     3
  9
$DIMFRAC
 70
     0
  9
$DIMLDRBLK
  1

  9
$DIMLUNIT
 70
     2
  9
$DIMLWD
 70
    -2
  9
$DIMLWE
 70
    -2
  9
$DIMTMOVE
 70
     0
  9
$DIMFXL
 40
1.0
  9
$DIMFXLON
 70
     0
  9
$DIMJOGANG
 40
0.7853981633974483
  9
$DIMTFILL
 70
     0
  9
$DIMTFILLCLR
 70
     0
  9
$DIMARCSYM
 70
     0
  9
$DIMLTYPE
  6

  9
$DIMLTEX1
  6

  9
$DIMLTEX2
  6

  9
$DIMTXTDIRECTION
 70
     0
  9
$LUNITS
 70
     2
  9
$LUPREC
 70
     4
  9
$SKETCHINC
 40
1.0
  9
$FILLETRAD
 40
1.0
  9
$AUNITS
 70
     0
  9
$AUPREC
 70
     0
  9
$MENU
  1
.
  9
$ELEVATION
 40
0.0
  9
$PELEVATION
 40
0.0
  9
$THICKNESS
 40
0.0
  9
$LIMCHECK
 70
     0
  9
$CHAMFERA
 40
0.0
  9
$CHAMFERB
 40
0.0
  9
$CHAMFERC
 40
20.0
  9
$CHAMFERD
 40
0.0
  9
$SKPOLY
 70
     0
  9
$TDCREATE
 40
2452970.700520834
  9
$TDUCREATE
 40
2452970.325528056
  9
$TDUPDATE
 40
2459730.451851852
  9
$TDUUPDATE
 40
2459730.076851852
  9
$TDINDWG
 40
2.0428361111
  9
$TDUSRTIMER
 40
2.0428351736
  9
$USRTIMER
 70
     1
  9
$ANGBASE
 50
0.0
  9
$ANGDIR
 70
     0
  9
$PDMODE
 70
     3
  9
$PDSIZE
 40
-3.0
  9
$PLINEWID
 40
0.0
  9
$SPLFRAME
 70
     0
  9
$SPLINETYPE
 70
     6
  9
$SPLINESEGS
 70
     8
  9
$HANDSEED
  5
2F51A
  9
$SURFTAB1
 70
     6
  9
$SURFTAB2
 70
     6
  9
$SURFTYPE
 70
     6
  9
$SURFU
 70
     6
  9
$SURFV
 70
     6
  9
$UCSBASE
  2

  9
$UCSNAME
  2

  9
$UCSORG
 10
0.0
 20
0.0
 30
0.0
  9
$UCSXDIR
 10
1.0
 20
0.0
 30
0.0
  9
$UCSYDIR
 10
0.0
 20
1.0
 30
0.0
  9
$UCSORTHOREF
  2

  9
$UCSORTHOVIEW
 70
     0
  9
$UCSORGTOP
 10
0.0
 20
0.0
 30
0.0
  9
$UCSORGBOTTOM
 10
0.0
 20
0.0
 30
0.0
  9
$UCSORGLEFT
 10
0.0
 20
0.0
 30
0.0
  9
$UCSORGRIGHT
 10
0.0
 20
0.0
 30
0.0
  9
$UCSORGFRONT
 10
0.0
 20
0.0
 30
0.0
  9
$UCSORGBACK
 10
0.0
 20
0.0
 30
0.0
  9
$PUCSBASE
  2

  9
$PUCSNAME
  2

  9
$PUCSORG
 10
0.0
 20
0.0
 30
0.0
  9
$PUCSXDIR
 10
1.0
 20
0.0
 30
0.0
  9
$PUCSYDIR
 10
0.0
 20
1.0
 30
0.0
  9
$PUCSORTHOREF
  2

  9
$PUCSORTHOVIEW
 70
     0
  9
$PUCSORGTOP
 10
0.0
 20
0.0
 30
0.0
  9
$PUCSORGBOTTOM
 10
0.0
 20
0.0
 30
0.0
  9
$PUCSORGLEFT
 10
0.0
 20
0.0
 30
0.0
  9
$PUCSORGRIGHT
 10
0.0
 20
0.0
 30
0.0
  9
$PUCSORGFRONT
 10
0.0
 20
0.0
 30
0.0
  9
$PUCSORGBACK
 10
0.0
 20
0.0
 30
0.0
  9
$USERI1
 70
     0
  9
$USERI2
 70
     0
  9
$USERI3
 70
     0
  9
$USERI4
 70
     0
  9
$USERI5
 70
     0
  9
$USERR1
 40
0.0
  9
$USERR2
 40
0.0
  9
$USERR3
 40
0.0
  9
$USERR4
 40
0.0
  9
$USERR5
 40
0.0
  9
$WORLDVIEW
 70
     1
  9
$SHADEDGE
 70
     3
  9
$SHADEDIF
 70
    70
  9
$TILEMODE
 70
     1
  9
$MAXACTVP
 70
    64
  9
$PINSBASE
 10
0.0
 20
0.0
 30
0.0
  9
$PLIMCHECK
 70
     0
  9
$PEXTMIN
 10
-58.82240024691737
 20
-86.72323328256494
 30
0.0
  9
$PEXTMAX
 10
448.1718497119468
 20
324.5569721112054
 30
0.0
  9
$PLIMMIN
 10
-3.757080078125
 20
-3.757083415985106
  9
$PLIMMAX
 10
416.2601318359373
 20
293.2112393379211
  9
$UNITMODE
 70
     0
  9
$VISRETAIN
 70
     1
  9
$PLINEGEN
 70
     0
  9
$PSLTSCALE
 70
     1
  9
$TREEDEPTH
 70
  3020
  9
$CMLSTYLE
  2
Standard
  9
$CMLJUST
 70
     0
  9
$CMLSCALE
 40
20.0
  9
$PROXYGRAPHICS
 70
     1
  9
$MEASUREMENT
 70
     1
  9
$CELWEIGHT
370
    -1
  9
$ENDCAPS
280
     0
  9
$JOINSTYLE
280
     0
  9
$LWDISPLAY
290
     0
  9
$INSUNITS
 70
     4
  9
$HYPERLINKBASE
  1

  9
$STYLESHEET
  1
MONOCHROME.CTB
  9
$XEDIT
290
     1
  9
$CEPSNTYPE
380
     0
  9
$PSTYLEMODE
290
     1
  9
$FINGERPRINTGUID
  2
{FDEAD578-A652-11D2-9A35-0060089B3A3F}
  9
$VERSIONGUID
  2
{A4A59BAC-E2B0-DC4A-8F1C-203809F6D69D}
  9
$EXTNAMES
290
     1
  9
$PSVPSCALE
 40
0.0
  9
$OLESTARTUP
290
     0
  9
$SORTENTS
280
   127
  9
$INDEXCTL
280
     0
  9
$HIDETEXT
280
     1
  9
$XCLIPFRAME
280
     0
  9
$HALOGAP
280
     0
  9
$OBSCOLOR
 70
   257
  9
$OBSLTYPE
280
     0
  9
$INTERSECTIONDISPLAY
280
     0
  9
$INTERSECTIONCOLOR
 70
   257
  9
$DIMASSOC
280
     2
  9
$PROJECTNAME
  1

  9
$CAMERADISPLAY
290
     0
  9
$LENSLENGTH
 40
50.0
  9
$CAMERAHEIGHT
 40
0.0
  9
$STEPSPERSEC
 40
2.0
  9
$STEPSIZE
 40
6.0
  9
$3DDWFPREC
 40
2.0
  9
$PSOLWIDTH
 40
0.25
  9
$PSOLHEIGHT
 40
4.0
  9
$LOFTANG1
 40
1.570796326794896
  9
$LOFTANG2
 40
1.570796326794896
  9
$LOFTMAG1
 40
0.0
  9
$LOFTMAG2
 40
0.0
  9
$LOFTPARAM
 70
     7
  9
$LOFTNORMALS
280
     1
  9
$LATITUDE
 40
37.795
  9
$LONGITUDE
 40
-122.394
  9
$NORTHDIRECTION
 40
0.0
  9
$TIMEZONE
 70
 -8000
  9
$LIGHTGLYPHDISPLAY
280
     1
  9
$TILEMODELIGHTSYNCH
280
     1
  9
$CMATERIAL
347
2762
  9
$SOLIDHIST
280
     1
  9
$SHOWHIST
280
     1
  9
$DWFFRAME
280
     2
  9
$DGNFRAME
280
     0
  9
$REALWORLDSCALE
290
     1
  9
$INTERFERECOLOR
 62
     1
  9
$INTERFEREOBJVS
345
276F
  9
$INTERFEREVPVS
346
276C
  9
$CSHADOW
280
     0
  9
$SHADOWPLANELOCATION
 40
0.0
  0
ENDSEC
  0
SECTION
  2
CLASSES
  0
CLASS
  1
ACDBDICTIONARYWDFLT
  2
AcDbDictionaryWithDefault
  3
ObjectDBX Classes
 90
        0
 91
        1
280
     0
281
     0
  0
CLASS
  1
DICTIONARYVAR
  2
AcDbDictionaryVar
  3
ObjectDBX Classes
 90
        0
 91
       11
280
     0
281
     0
  0
CLASS
  1
DIMASSOC
  2
AcDbDimAssoc
  3
"AcDbDimAssoc|Product Desc:     AcDim ARX App For Dimension|Company:          Autodesk, Inc.|WEB Address:      www.autodesk.com"
 90
        0
 91
        4
280
     0
281
     0
  0
CLASS
  1
PLOTSETTINGS
  2
AcDbPlotSettings
  3
ObjectDBX Classes
 90
        0
 91
        2
280
     0
281
     0
  0
CLASS
  1
MATERIAL
  2
AcDbMaterial
  3
ObjectDBX Classes
 90
     1153
 91
        3
280
     0
281
     0
  0
CLASS
  1
VISUALSTYLE
  2
AcDbVisualStyle
  3
ObjectDBX Classes
 90
     4095
 91
       26
280
     0
281
     0
  0
CLASS
  1
TABLESTYLE
  2
AcDbTableStyle
  3
ObjectDBX Classes
 90
     4095
 91
        2
280
     0
281
     0
  0
CLASS
  1
SORTENTSTABLE
  2
AcDbSortentsTable
  3
ObjectDBX Classes
 90
        0
 91
        2
280
     0
281
     0
  0
CLASS
  1
ACAD_EVALUATION_GRAPH
  2
AcDbEvalGraph
  3
ObjectDBX Classes
 90
     1153
 91
        0
280
     0
281
     0
  0
CLASS
  1
ACAECUSTOBJ
  2
AcAeEditorObj
  3
AcAeEditorObj
 90
     1024
 91
        0
280
     0
281
     0
  0
CLASS
  1
ACDB_DYNAMICBLOCKPURGEPREVENTER_VERSION
  2
AcDbDynamicBlockPurgePreventer
  3
ObjectDBX Classes
 90
     1153
 91
        0
280
     0
281
     0
  0
CLASS
  1
ACAD_TABLE
  2
AcDbTable
  3
ObjectDBX Classes
 90
     1025
 91
        0
280
     0
281
     1
  0
CLASS
  1
SCALE
  2
AcDbScale
  3
ObjectDBX Classes
 90
     1153
 91
       17
280
     0
281
     0
  0
CLASS
  1
MLEADERSTYLE
  2
AcDbMLeaderStyle
  3
ACDB_MLEADERSTYLE_CLASS
 90
     4095
 91
        1
280
     0
281
     0
  0
CLASS
  1
TABLECONTENT
  2
AcDbTableContent
  3
ObjectDBX Classes
 90
     1152
 91
        0
280
     0
281
     0
  0
CLASS
  1
TABLEGEOMETRY
  2
AcDbTableGeometry
  3
ObjectDBX Classes
 90
     1152
 91
        0
280
     0
281
     0
  0
CLASS
  1
ACDBSECTIONVIEWSTYLE
  2
AcDbSectionViewStyle
  3
ObjectDBX Classes
 90
     1025
 91
        1
280
     0
281
     0
  0
CLASS
  1
ACDBDETAILVIEWSTYLE
  2
AcDbDetailViewStyle
  3
ObjectDBX Classes
 90
     1025
 91
        1
280
     0
281
     0
  0
CLASS
  1
CELLSTYLEMAP
  2
AcDbCellStyleMap
  3
ObjectDBX Classes
 90
     1152
 91
        4
280
     0
281
     0
  0
ENDSEC
  0
SECTION
  2
TABLES
  0
TABLE
  2
VPORT
  5
8
330
0
100
AcDbSymbolTable
 70
     1
  0
VPORT
  5
275F
330
8
100
AcDbSymbolTableRecord
100
AcDbViewportTableRecord
  2
*Active
 70
     0
 10
0.0
 20
0.0
 11
1.0
 21
1.0
 12
619.7933957549232
 22
383.5271754028335
 13
0.0
 23
0.0
 14
10.0
 24
10.0
 15
10.0
 25
10.0
 16
0.0
 26
0.0
 36
1.0
 17
0.0
 27
0.0
 37
0.0
 40
539.3465001497219
 41
2.305925030229746
 42
50.0
 43
0.0
 44
0.0
 50
0.0
 51
0.0
 71
     0
 72
   100
 73
     1
 74
     3
 75
     0
 76
     0
 77
     0
 78
     0
281
     0
 65
     1
110
0.0
120
0.0
130
0.0
111
1.0
121
0.0
131
0.0
112
0.0
122
1.0
132
0.0
 79
     0
146
0.0
348
276B
 60
     3
 61
     5
292
     1
282
     1
141
0.0
142
0.0
 63
   250
421
  3355443
1001
ACAD_NAV_VCDISPLAY
1070
     3
  0
ENDTAB
  0
TABLE
  2
LTYPE
  5
5
330
0
100
AcDbSymbolTable
 70
     5
  0
LTYPE
  5
14
330
5
100
AcDbSymbolTableRecord
100
AcDbLinetypeTableRecord
  2
ByBlock
 70
     0
  3

 72
    65
 73
     0
 40
0.0
  0
LTYPE
  5
15
330
5
100
AcDbSymbolTableRecord
100
AcDbLinetypeTableRecord
  2
ByLayer
 70
     0
  3

 72
    65
 73
     0
 40
0.0
  0
LTYPE
  5
16
330
5
100
AcDbSymbolTableRecord
100
AcDbLinetypeTableRecord
  2
Continuous
 70
     0
  3
Solid line
 72
    65
 73
     0
 40
0.0
  0
LTYPE
  5
A5
330
5
100
AcDbSymbolTableRecord
100
AcDbLinetypeTableRecord
  2
CENTER
 70
     0
  3
Center ____ _ ____ _ ____ _ ____ _ ____ _ ____
 72
    65
 73
     4
 40
50.8
 49
31.75
 74
     0
 49
-6.349999999999997
 74
     0
 49
6.349999999999997
 74
     0
 49
-6.349999999999997
 74
     0
  0
LTYPE
  5
A6
330
5
100
AcDbSymbolTableRecord
100
AcDbLinetypeTableRecord
  2
HIDDEN
 70
     0
  3
Hidden __ __ __ __ __ __ __ __ __ __ __ __ __ _
 72
    65
 73
     2
 40
9.524999999999996
 49
6.349999999999997
 74
     0
 49
-3.174999999999998
 74
     0
  0
LTYPE
  5
2365
330
5
100
AcDbSymbolTableRecord
100
AcDbLinetypeTableRecord
  2
DIVIDE
 70
     0
  3
Divide ____ . . ____ . . ____ . . ____ . . ____
 72
    65
 73
     6
 40
31.74999999999999
 49
12.7
 74
     0
 49
-6.349999999999997
 74
     0
 49
0.0
 74
     0
 49
-6.349999999999997
 74
     0
 49
0.0
 74
     0
 49
-6.349999999999997
 74
     0
  0
ENDTAB
  0
TABLE
  2
LAYER
  5
2
102
{ACAD_XDICTIONARY
360
279F
102
}
330
0
100
AcDbSymbolTable
 70
    12
  0
LAYER
  5
10
102
{ACAD_XDICTIONARY
360
24E13
102
}
330
2
100
AcDbSymbolTableRecord
100
AcDbLayerTableRecord
  2
0
 70
     0
 62
     7
  6
Continuous
370
    -3
390
F
347
2764
348
0
  0
LAYER
  5
A7
102
{ACAD_XDICTIONARY
360
24E15
102
}
330
2
100
AcDbSymbolTableRecord
100
AcDbLayerTableRecord
  2
破線
 70
     0
 62
     4
  6
HIDDEN
370
    20
390
F
347
2764
348
0
  0
LAYER
  5
A8
102
{ACAD_XDICTIONARY
360
24E17
102
}
330
2
100
AcDbSymbolTableRecord
100
AcDbLayerTableRecord
  2
一点鎖線
 70
     0
 62
     5
  6
CENTER
370
    15
390
F
347
2764
348
0
  0
LAYER
  5
A9
102
{ACAD_XDICTIONARY
360
24E19
102
}
330
2
100
AcDbSymbolTableRecord
100
AcDbLayerTableRecord
  2
補助線
 70
     0
 62
     8
  6
Continuous
290
     0
370
    -3
390
F
347
2764
348
0
  0
LAYER
  5
AA
102
{ACAD_XDICTIONARY
360
24E1B
102
}
330
2
100
AcDbSymbolTableRecord
100
AcDbLayerTableRecord
  2
実線
 70
     0
 62
     7
  6
Continuous
370
    -3
390
F
347
2764
348
0
  0
LAYER
  5
AB
102
{ACAD_XDICTIONARY
360
24E1D
102
}
330
2
100
AcDbSymbolTableRecord
100
AcDbLayerTableRecord
  2
寸法
 70
     0
 62
     3
  6
Continuous
370
    15
390
F
347
2764
348
0
  0
LAYER
  5
AC
102
{ACAD_XDICTIONARY
360
24E1F
102
}
330
2
100
AcDbSymbolTableRecord
100
AcDbLayerTableRecord
  2
文字
 70
     0
 62
     2
  6
Continuous
370
    15
390
F
347
2764
348
0
  0
LAYER
  5
185
330
2
100
AcDbSymbolTableRecord
100
AcDbLayerTableRecord
  2
Defpoints
 70
     0
 62
     7
  6
Continuous
290
     0
370
    -3
390
F
347
2764
348
0
  0
LAYER
  5
58C
102
{ACAD_XDICTIONARY
360
24E21
102
}
330
2
100
AcDbSymbolTableRecord
100
AcDbLayerTableRecord
  2
細線
 70
     0
 62
     6
  6
Continuous
370
     9
390
F
347
2764
348
0
  0
LAYER
  5
1023
102
{ACAD_XDICTIONARY
360
24E23
102
}
330
2
100
AcDbSymbolTableRecord
100
AcDbLayerTableRecord
  2
太線
 70
     0
 62
     3
  6
Continuous
370
    40
390
F
347
2764
348
0
  0
LAYER
  5
2366
102
{ACAD_XDICTIONARY
360
24E25
102
}
330
2
100
AcDbSymbolTableRecord
100
AcDbLayerTableRecord
  2
二点鎖線
 70
     0
 62
     1
  6
DIVIDE
370
    20
390
F
347
2764
348
0
  0
LAYER
  5
2BFD0
330
2
100
AcDbSymbolTableRecord
100
AcDbLayerTableRecord
  2
寸法2
 70
     0
 62
     3
  6
Continuous
370
     9
390
F
347
2764
348
0
1001
AcAecLayerStandard
1000

1000

  0
ENDTAB
  0
TABLE
  2
STYLE
  5
3
330
0
100
AcDbSymbolTable
 70
    17
  0
STYLE
  5
11
330
3
100
AcDbSymbolTableRecord
100
AcDbTextStyleTableRecord
  2
Standard
 70
     0
 40
2.5
 41
0.8
 50
0.0
 71
     0
 42
2.5
  3
romans.shx
  4
bigfont.shx
  0
STYLE
  5
A4
330
3
100
AcDbSymbolTableRecord
100
AcDbTextStyleTableRecord
  2

 70
     1
 40
0.0
 41
1.0
 50
0.0
 71
     0
 42
2.5
  3
ltypeshp.shx
  4

  0
STYLE
  5
2A5
330
3
100
AcDbSymbolTableRecord
100
AcDbTextStyleTableRecord
  2
寸法
 70
     0
 40
0.0
 41
0.75
 50
0.0
 71
     0
 42
2.5
  3
romans.shx
  4
bigfont.shx
  0
STYLE
  5
109D
330
3
100
AcDbSymbolTableRecord
100
AcDbTextStyleTableRecord
  2
縦書き
 70
     4
 40
3.0
 41
0.8
 50
0.0
 71
     0
 42
3.0
  3
romans.shx
  4
bigfont.shx
  0
STYLE
  5
10EC
330
3
100
AcDbSymbolTableRecord
100
AcDbTextStyleTableRecord
  2
ｽﾀｲﾙ1
 70
     0
 40
3.0
 41
0.8
 50
0.0
 71
     0
 42
3.0
  3
romans.shx
  4
bigfont.shx
  0
STYLE
  5
114D
330
3
100
AcDbSymbolTableRecord
100
AcDbTextStyleTableRecord
  2
ｽﾀｲﾙ2
 70
     0
 40
9.0
 41
1.0
 50
0.0
 71
     0
 42
9.0
  3
swisscbo.ttf
  4

1001
ACAD
1000
Swis721 BdCnOul BT
1071
       82
  0
STYLE
  5
2367
330
3
100
AcDbSymbolTableRecord
100
AcDbTextStyleTableRecord
  2
ｽﾀｲﾙ3
 70
     0
 40
2.0
 41
1.0
 50
0.0
 71
     0
 42
2.0
  3
isocp.shx
  4
bigfont.shx
  0
STYLE
  5
2368
330
3
100
AcDbSymbolTableRecord
100
AcDbTextStyleTableRecord
  2
ｽﾀｲﾙ4
 70
     0
 40
4.5
 41
1.0
 50
0.0
 71
     0
 42
4.5
  3
swisscbo.ttf
  4

1001
ACAD
1000
Swis721 BdCnOul BT
1071
       82
  0
STYLE
  5
3AB5
330
3
100
AcDbSymbolTableRecord
100
AcDbTextStyleTableRecord
  2
スタイル1
 70
     0
 40
3.0
 41
0.8
 50
0.0
 71
     0
 42
3.0
  3
romans.shx
  4
bigfont.shx
  0
STYLE
  5
3E4F
330
3
100
AcDbSymbolTableRecord
100
AcDbTextStyleTableRecord
  2
hhhhhhhhhhhhhhhhhh
 70
     0
 40
1.5
 41
0.8
 50
0.0
 71
     0
 42
1.0
  3
bold.shx
  4
bigfont.shx
  0
STYLE
  5
3E50
330
3
100
AcDbSymbolTableRecord
100
AcDbTextStyleTableRecord
  2
書き込み
 70
     0
 40
2.5
 41
0.75
 50
0.0
 71
     0
 42
1.0
  3
romand.shx
  4
bigfont.shx
  0
STYLE
  5
24822
330
3
100
AcDbSymbolTableRecord
100
AcDbTextStyleTableRecord
  2
ﾛｺﾞ
 70
     0
 40
14.0
 41
0.7
 50
0.0
 71
     0
 42
2.5
  3
swisscbo.ttf
  4

1001
ACAD
1000
Swis721 BdCnOul BT
1071
       82
  0
STYLE
  5
264FC
330
3
100
AcDbSymbolTableRecord
100
AcDbTextStyleTableRecord
  2
寸法２
 70
     0
 40
1.8
 41
0.8
 50
0.0
 71
     0
 42
1.8
  3
romans.shx
  4
bigfont.shx
  0
STYLE
  5
264FD
330
3
100
AcDbSymbolTableRecord
100
AcDbTextStyleTableRecord
  2
カシケイ
 70
     0
 40
3.0
 41
0.8
 50
0.0
 71
     0
 42
2.5
  3
swisscbo.ttf
  4

1001
ACAD
1000
Swis721 BdCnOul BT
1071
       82
  0
STYLE
  5
29418
330
3
100
AcDbSymbolTableRecord
100
AcDbTextStyleTableRecord
  2
スタイル6
 70
     0
 40
3.0
 41
1.0
 50
0.0
 71
     0
 42
3.0
  3
swissc.ttf
  4

1001
ACAD
1000
Swis721 Cn BT
1071
       34
  0
STYLE
  5
29419
330
3
100
AcDbSymbolTableRecord
100
AcDbTextStyleTableRecord
  2
スタイル3
 70
     0
 40
9.0
 41
1.0
 50
0.0
 71
     0
 42
2.5
  3
swisscbo.ttf
  4

1001
ACAD
1000
Swis721 BdCnOul BT
1071
       82
  0
STYLE
  5
2A7F0
330
3
100
AcDbSymbolTableRecord
100
AcDbTextStyleTableRecord
  2
BIGFONT
 70
     0
 40
0.0
 41
1.0
 50
0.0
 71
     0
 42
20.0
  3
txt.shx
  4
bigfont
  0
ENDTAB
  0
TABLE
  2
VIEW
  5
6
330
0
100
AcDbSymbolTable
 70
     0
  0
ENDTAB
  0
TABLE
  2
UCS
  5
7
330
0
100
AcDbSymbolTable
 70
     0
  0
ENDTAB
  0
TABLE
  2
APPID
  5
9
330
0
100
AcDbSymbolTable
 70
    13
  0
APPID
  5
12
330
9
100
AcDbSymbolTableRecord
100
AcDbRegAppTableRecord
  2
ACAD
 70
     0
  0
APPID
  5
2789
330
9
100
AcDbSymbolTableRecord
100
AcDbRegAppTableRecord
  2
ACAD_PSEXT
 70
     0
  0
APPID
  5
28B6
330
9
100
AcDbSymbolTableRecord
100
AcDbRegAppTableRecord
  2
ACAD_EXEMPT_FROM_CAD_STANDARDS
 70
     0
  0
APPID
  5
2977
330
9
100
AcDbSymbolTableRecord
100
AcDbRegAppTableRecord
  2
ACAUTHENVIRON
 70
     0
  0
APPID
  5
29B0
330
9
100
AcDbSymbolTableRecord
100
AcDbRegAppTableRecord
  2
AcDbDynamicBlockTrueName
 70
     0
  0
APPID
  5
29B1
330
9
100
AcDbSymbolTableRecord
100
AcDbRegAppTableRecord
  2
AcDbDynamicBlockGUID
 70
     0
  0
APPID
  5
29B3
330
9
100
AcDbSymbolTableRecord
100
AcDbRegAppTableRecord
  2
AcDbBlockRepETag
 70
     0
  0
APPID
  5
24823
330
9
100
AcDbSymbolTableRecord
100
AcDbRegAppTableRecord
  2
ACAD_DSTYLE_DIMJAG
 70
     0
  0
APPID
  5
24824
330
9
100
AcDbSymbolTableRecord
100
AcDbRegAppTableRecord
  2
ACAD_DSTYLE_DIMTALN
 70
     0
  0
APPID
  5
2867E
330
9
100
AcDbSymbolTableRecord
100
AcDbRegAppTableRecord
  2
ACAD_DSTYLE_DIMRADIAL_EXTENSION
 70
     0
  0
APPID
  5
2A28D
330
9
100
AcDbSymbolTableRecord
100
AcDbRegAppTableRecord
  2
AcadAnnoPO
 70
     0
  0
APPID
  5
2BFD1
330
9
100
AcDbSymbolTableRecord
100
AcDbRegAppTableRecord
  2
AcAecLayerStandard
 70
     0
  0
APPID
  5
2F4FC
330
9
100
AcDbSymbolTableRecord
100
AcDbRegAppTableRecord
  2
ACAD_NAV_VCDISPLAY
 70
     0
  0
ENDTAB
  0
TABLE
  2
DIMSTYLE
  5
A
330
0
100
AcDbSymbolTable
 70
     2
100
AcDbDimStyleTable
 71
     2
340
FF
340
27
  0
DIMSTYLE
105
27
330
A
100
AcDbSymbolTableRecord
100
AcDbDimStyleTableRecord
  2
ISO-25
 70
     0
 41
2.5
 42
0.625
 43
3.75
 44
1.25
 73
     0
 74
     0
 77
     1
 78
     8
140
2.5
141
2.5
143
0.03937007874016
147
0.625
171
     3
172
     1
271
     2
272
     2
274
     3
278
    44
283
     0
284
     8
340
11
  0
DIMSTYLE
105
FF
102
{ACAD_REACTORS
330
2F2A1
330
2F2F1
330
2F422
330
2F43A
102
}
330
A
100
AcDbSymbolTableRecord
100
AcDbDimStyleTableRecord
  2
ｺﾋﾟｰ - ISO-25
 70
     0
 41
2.5
 42
0.625
 43
3.75
 44
1.25
 73
     0
 74
     0
 77
     1
 78
     8
140
7.0
141
2.5
143
0.03937007874016
147
1.0
171
     3
172
     1
178
     2
271
     1
272
     1
274
     3
283
     0
284
     8
340
2A5
1001
ACAD_DSTYLE_DIMJAG
1070
   388
1040
1.5
1001
ACAD_DSTYLE_DIMTALN
1070
   392
1070
     0
  0
ENDTAB
  0
TABLE
  2
BLOCK_RECORD
  5
1
330
0
100
AcDbSymbolTable
 70
    11
  0
BLOCK_RECORD
  5
1F
102
{ACAD_XDICTIONARY
360
2D98
102
}
330
1
100
AcDbSymbolTableRecord
100
AcDbBlockTableRecord
  2
*Model_Space
340
22
 70
     0
280
     1
281
     0
  0
BLOCK_RECORD
  5
50
330
1
100
AcDbSymbolTableRecord
100
AcDbBlockTableRecord
  2
*Paper_Space
340
51
 70
     0
280
     1
281
     0
  0
BLOCK_RECORD
  5
55
330
1
100
AcDbSymbolTableRecord
100
AcDbBlockTableRecord
  2
*Paper_Space0
340
56
 70
     0
280
     1
281
     0
  0
BLOCK_RECORD
  5
341
102
{ACAD_XDICTIONARY
360
29CF
102
}
330
1
100
AcDbSymbolTableRecord
100
AcDbBlockTableRecord
  2
_None
340
0
 70
     0
280
     1
281
     0
1001
AcDbDynamicBlockGUID
1000
{FDCFC2F5-9095-49BF-99B6-274B4C3B84BC}
1001
AcDbBlockRepETag
1070
     1
1071
       24
  0
BLOCK_RECORD
  5
429
330
1
100
AcDbSymbolTableRecord
100
AcDbBlockTableRecord
  2
_DotSmall
340
0
 70
     0
280
     1
281
     0
  0
BLOCK_RECORD
  5
10CB
330
1
100
AcDbSymbolTableRecord
100
AcDbBlockTableRecord
  2
mark
340
0
310
2800000020000000200000000100080000000000000400000000000000000000000000000000000000000000000080000080000000808000800000008000800080800000C0C0C000C0DCC000F0CAA6000020400000206000002080000020A0000020C0000020E00000400000004020000040400000406000004080000040A0
310
000040C0000040E00000600000006020000060400000606000006080000060A0000060C0000060E00000800000008020000080400000806000008080000080A0000080C0000080E00000A0000000A0200000A0400000A0600000A0800000A0A00000A0C00000A0E00000C0000000C0200000C0400000C0600000C0800000C0
310
A00000C0C00000C0E00000E0000000E0200000E0400000E0600000E0800000E0A00000E0C00000E0E00040000000400020004000400040006000400080004000A0004000C0004000E00040200000402020004020400040206000402080004020A0004020C0004020E000404000004040200040404000404060004040800040
310
40A0004040C0004040E00040600000406020004060400040606000406080004060A0004060C0004060E00040800000408020004080400040806000408080004080A0004080C0004080E00040A0000040A0200040A0400040A0600040A0800040A0A00040A0C00040A0E00040C0000040C0200040C0400040C0600040C08000
310
40C0A00040C0C00040C0E00040E0000040E0200040E0400040E0600040E0800040E0A00040E0C00040E0E00080000000800020008000400080006000800080008000A0008000C0008000E00080200000802020008020400080206000802080008020A0008020C0008020E00080400000804020008040400080406000804080
310
008040A0008040C0008040E00080600000806020008060400080606000806080008060A0008060C0008060E00080800000808020008080400080806000808080008080A0008080C0008080E00080A0000080A0200080A0400080A0600080A0800080A0A00080A0C00080A0E00080C0000080C0200080C0400080C0600080C0
310
800080C0A00080C0C00080C0E00080E0000080E0200080E0400080E0600080E0800080E0A00080E0C00080E0E000C0000000C0002000C0004000C0006000C0008000C000A000C000C000C000E000C0200000C0202000C0204000C0206000C0208000C020A000C020C000C020E000C0400000C0402000C0404000C0406000C0
310
408000C040A000C040C000C040E000C0600000C0602000C0604000C0606000C0608000C060A000C060C000C060E000C0800000C0802000C0804000C0806000C0808000C080A000C080C000C080E000C0A00000C0A02000C0A04000C0A06000C0A08000C0A0A000C0A0C000C0A0E000C0C00000C0C02000C0C04000C0C06000
310
C0C08000C0C0A000F0FBFF00A4A0A000808080000000FF0000FF000000FFFF00FF000000FF00FF00FFFF0000FFFFFF0000000000000000000000000000000000000000000000000000000000000000000000000000000000000000000000000000000000000000000000000000000000000000000000000000000000000000
310
00000000000000000000000000000000000000000000000000000000000000000000000000000000000000000000000000000000000000000000000000000000000000000000000000000000000000000000000000000000000000000000000000000000000000000000000000000000000000000000000000000000000000
310
FF0000FF0000000000000000000000000000000000000000000000000000FFFFFF0000FFFFFF0000000000000000000000000000000000000000000000FF0000FF0000FF0000FF0000000000000000000000000000000000000000FFFF0000FF00000000FF0000FFFF0000000000000000000000000000000000FF0000FFFF
310
000000FF0000FFFF0000FF000000000000000000FFFFFFFF0000FF0000FF000000FFFF00FF000000FF0000FF0000FFFFFFFF0000FF0000FFFFFF0000FF000000FF00000000FF000000FF0000FFFFFF0000FF0000FF0000FF000000FF000000FF00FFFFFFFF00FF000000FF000000FF0000FF0000FF00000000FFFF00000000
310
FF00FF0000FF00FF00000000FFFF00000000FF0000FF000000FF000000000000FF00FF0000FF00FF000000000000FF000000FF0000FF0000FF00000000000000FF00FF0000FF00FF00000000000000FF0000FF0000FF000000FFFF0000000000FF00FF0000FF00FF0000000000FFFF000000FF0000FF0000FF0000FF000000
310
00FF00FFFFFFFF00FF00000000FF0000FF0000FF0000FF0000FFFFFF00FF00000000FFFF000000FF00000000FF00FFFFFF0000FF0000FFFFFFFF0000FF00FFFF00000000FF00FF000000FFFF00FF0000FFFFFFFF000000000000000000FF0000FF00000000FF000000FF0000FF0000000000000000000000000000000000FF
310
FF00FFFF00000000FFFF00FFFF0000000000000000000000000000000000000000FF0000FF0000FF0000FF0000000000000000000000000000000000000000000000FFFFFF0000FFFFFF0000000000000000000000000000000000000000000000000000FF0000FF0000000000000000000000000000000000000000000000
310
00000000000000000000000000000000000000000000000000000000000000000000000000000000000000000000000000000000000000000000000000000000000000000000000000000000000000000000000000000000000000000000000000000000000000000000000000000000000000000000000000000000000000
310
0000000000000000000000000000000000000000000000000000000000000000000000000000000000000000000000000000000000000000
 70
     4
280
     1
281
     0
  0
BLOCK_RECORD
  5
2D20
330
1
100
AcDbSymbolTableRecord
100
AcDbBlockTableRecord
  2
A$C34DA08B7
340
0
 70
     4
280
     1
281
     0
  0
BLOCK_RECORD
  5
2D24
330
1
100
AcDbSymbolTableRecord
100
AcDbBlockTableRecord
  2
A$C04A47E41
340
0
 70
     4
280
     1
281
     0
  0
BLOCK_RECORD
  5
2D46
330
1
100
AcDbSymbolTableRecord
100
AcDbBlockTableRecord
  2
A$C2FFA21FC
340
0
 70
     4
280
     1
281
     0
  0
BLOCK_RECORD
  5
2F2A2
330
1
100
AcDbSymbolTableRecord
100
AcDbBlockTableRecord
  2
*D7
340
0
 70
     0
280
     1
281
     0
  0
BLOCK_RECORD
  5
2F2F2
330
1
100
AcDbSymbolTableRecord
100
AcDbBlockTableRecord
  2
*D8
340
0
 70
     0
280
     1
281
     0
  0
BLOCK_RECORD
  5
2F423
330
1
100
AcDbSymbolTableRecord
100
AcDbBlockTableRecord
  2
*D9
340
0
 70
     0
280
     1
281
     0
  0
BLOCK_RECORD
  5
2F43B
330
1
100
AcDbSymbolTableRecord
100
AcDbBlockTableRecord
  2
*D10
340
0
 70
     0
280
     1
281
     0
  0
ENDTAB
  0
ENDSEC
  0
SECTION
  2
BLOCKS
  0
BLOCK
  5
20
330
1F
100
AcDbEntity
  8
0
100
AcDbBlockBegin
  2
*Model_Space
 70
     0
 10
0.0
 20
0.0
 30
0.0
  3
*Model_Space
  1

  0
ENDBLK
  5
21
330
1F
100
AcDbEntity
  8
0
100
AcDbBlockEnd
  0
BLOCK
  5
52
330
50
100
AcDbEntity
 67
     1
  8
0
100
AcDbBlockBegin
  2
*Paper_Space
 70
     0
 10
0.0
 20
0.0
 30
0.0
  3
*Paper_Space
  1

  0
ENDBLK
  5
53
330
50
100
AcDbEntity
 67
     1
  8
0
100
AcDbBlockEnd
  0
BLOCK
  5
57
330
55
100
AcDbEntity
 67
     1
  8
0
100
AcDbBlockBegin
  2
*Paper_Space0
 70
     0
 10
0.0
 20
0.0
 30
0.0
  3
*Paper_Space0
  1

  0
VIEWPORT
  5
71
330
55
100
AcDbEntity
 67
     1
  8
0
348
276B
100
AcDbViewport
 10
133.3499908447265
 20
101.5999970436096
 30
0.0
 40
381.3957395593834
 41
218.2856291881582
 68
     0
 69
     0
 12
133.3499908447265
 22
101.5999970436096
 13
0.0
 23
0.0
 14
10.0
 24
10.0
 15
10.0
 25
10.0
 16
0.0
 26
0.0
 36
1.0
 17
0.0
 27
0.0
 37
0.0
 42
50.0
 43
0.0
 44
0.0
 45
218.2856291881582
 50
0.0
 51
0.0
 72
   100
 90
    32800
  1

281
     0
 71
     1
 74
     0
110
0.0
120
0.0
130
0.0
111
1.0
121
0.0
131
0.0
112
0.0
122
1.0
132
0.0
 79
     0
146
0.0
170
     0
 61
     5
292
     1
282
     1
141
0.0
142
0.0
 63
   250
421
  3355443
  0
VIEWPORT
  5
73
330
55
100
AcDbEntity
 67
     1
  8
0
348
276B
100
AcDbViewport
 10
133.349993944168
 20
101.599993944168
 30
0.0
 40
213.3599903106689
 41
162.5599903106689
 68
     0
 69
     0
 12
210.0
 22
148.5
 13
0.0
 23
0.0
 14
10.0
 24
10.0
 15
10.0
 25
10.0
 16
0.0
 26
0.0
 36
1.0
 17
0.0
 27
0.0
 37
0.0
 42
50.0
 43
0.0
 44
0.0
 45
324.0677920111345
 50
0.0
 51
0.0
 72
   100
 90
    32864
  1

281
     0
 71
     1
 74
     0
110
0.0
120
0.0
130
0.0
111
1.0
121
0.0
131
0.0
112
0.0
122
1.0
132
0.0
 79
     0
146
0.0
170
     0
 61
     5
292
     1
282
     1
141
0.0
142
0.0
 63
   250
421
  3355443
  0
ENDBLK
  5
58
330
55
100
AcDbEntity
 67
     1
  8
0
100
AcDbBlockEnd
  0
BLOCK
  5
342
330
341
100
AcDbEntity
  8
0
100
AcDbBlockBegin
  2
_None
 70
     0
 10
0.0
 20
0.0
 30
0.0
  3
_None
  1

  0
LINE
  5
29B7
102
{ACAD_REACTORS
330
29F6
102
}
330
341
100
AcDbEntity
  8
0
100
AcDbLine
 10
7.618927466172911
 20
14.9090276980656
 30
0.0
 11
13.53608213148402
 21
23.35960033891454
 31
0.0
1001
AcDbBlockRepETag
1070
     1
1071
        0
1005
29B7
  0
LINE
  5
29B8
102
{ACAD_REACTORS
330
29F6
102
}
330
341
100
AcDbEntity
  8
0
100
AcDbLine
 10
7.618927466172911
 20
14.9090276980656
 30
0.0
 11
8.516181951946554
 21
13.62761549266754
 31
0.0
1001
AcDbBlockRepETag
1070
     1
1071
        1
1005
29B8
  0
LINE
  5
29B9
102
{ACAD_REACTORS
330
29F6
102
}
330
341
100
AcDbEntity
  8
0
100
AcDbLine
 10
21.97323679679512
 20
14.90902769806559
 30
0.0
 11
21.07598231102148
 21
16.19043990346365
 31
0.0
1001
AcDbBlockRepETag
1070
     1
1071
        2
1005
29B9
  0
LINE
  5
29BA
102
{ACAD_REACTORS
330
29F6
102
}
330
341
100
AcDbEntity
  8
0
100
AcDbLine
 10
21.97323679679512
 20
14.90902769806559
 30
0.0
 11
16.056082131484
 21
6.458455057216696
 31
0.0
1001
AcDbBlockRepETag
1070
     1
1071
        3
1005
29BA
  0
LINE
  5
29BB
102
{ACAD_REACTORS
330
29F6
102
}
330
341
100
AcDbEntity
  8
0
100
AcDbLine
 10
15.556082131484
 20
21.42363521294154
 30
0.0
 11
19.54408298552672
 21
15.72817974235458
 31
0.0
1001
AcDbBlockRepETag
1070
     1
1071
        4
1005
29BB
  0
LINE
  5
29BC
102
{ACAD_REACTORS
330
29F6
102
}
330
341
100
AcDbEntity
  8
0
100
AcDbLine
 10
9.761293059265804
 20
14.49945167592111
 30
0.0
 11
8.516181951946544
 21
13.62761549266753
 31
0.0
1001
AcDbBlockRepETag
1070
     1
1071
        5
1005
29BC
  0
LINE
  5
29BD
102
{ACAD_REACTORS
330
29F6
102
}
330
341
100
AcDbEntity
  8
0
100
AcDbLine
 10
10.04808127744132
 20
14.08987565377662
 30
0.0
 11
8.802970170122067
 21
13.21803947052303
 31
0.0
1001
AcDbBlockRepETag
1070
     1
1071
        6
1005
29BD
  0
LINE
  5
29BE
102
{ACAD_REACTORS
330
29F6
102
}
330
341
100
AcDbEntity
  8
0
100
AcDbLine
 10
14.03608213148402
 20
5.744381053845643
 30
0.0
 11
14.03608213148402
 21
24.07367434228561
 31
0.0
1001
AcDbBlockRepETag
1070
     1
1071
        7
1005
29BE
  0
LINE
  5
29BF
102
{ACAD_REACTORS
330
29F6
102
}
330
341
100
AcDbEntity
  8
0
100
AcDbLine
 10
15.556082131484
 20
5.744381053845647
 30
0.0
 11
15.556082131484
 21
21.42363521294154
 31
0.0
1001
AcDbBlockRepETag
1070
     1
1071
        8
1005
29BF
  0
LINE
  5
29C0
102
{ACAD_REACTORS
330
29F6
102
}
330
341
100
AcDbEntity
  8
0
100
AcDbLine
 10
13.53608213148402
 20
6.458455057216702
 30
0.0
 11
13.53608213148402
 21
9.108494186560758
 31
0.0
1001
AcDbBlockRepETag
1070
     1
1071
        9
1005
29C0
  0
LINE
  5
29C1
102
{ACAD_REACTORS
330
29F6
102
}
330
341
100
AcDbEntity
  8
0
100
AcDbLine
 10
16.056082131484
 20
6.458455057216702
 30
0.0
 11
16.056082131484
 21
9.108494186560747
 31
0.0
1001
AcDbBlockRepETag
1070
     1
1071
       10
1005
29C1
  0
LINE
  5
29C2
102
{ACAD_REACTORS
330
29F6
102
}
330
341
100
AcDbEntity
  8
0
100
AcDbLine
 10
14.03608213148402
 20
24.0736743422856
 30
0.0
 11
14.79608213148402
 21
25.15906682740961
 31
0.0
1001
AcDbBlockRepETag
1070
     1
1071
       11
1005
29C2
  0
LINE
  5
29C3
102
{ACAD_REACTORS
330
29F6
102
}
330
341
100
AcDbEntity
  8
0
100
AcDbLine
 10
13.53608213148402
 20
20.70956120957047
 30
0.0
 11
9.474504841090279
 21
14.90902769806561
 31
0.0
1001
AcDbBlockRepETag
1070
     1
1071
       12
1005
29C3
  0
LINE
  5
29C4
102
{ACAD_REACTORS
330
29F6
102
}
330
341
100
AcDbEntity
  8
0
100
AcDbLine
 10
16.056082131484
 20
9.108494186560752
 30
0.0
 11
20.11765942187774
 21
14.90902769806561
 31
0.0
1001
AcDbBlockRepETag
1070
     1
1071
       13
1005
29C4
  0
LINE
  5
29C5
102
{ACAD_REACTORS
330
29F6
102
}
330
341
100
AcDbEntity
  8
0
100
AcDbLine
 10
15.556082131484
 20
5.744381053845644
 30
0.0
 11
14.79608213148401
 21
4.658988568721648
 31
0.0
1001
AcDbBlockRepETag
1070
     1
1071
       14
1005
29C5
  0
LINE
  5
29C6
102
{ACAD_REACTORS
330
29F6
102
}
330
341
100
AcDbEntity
  8
0
100
AcDbLine
 10
14.03608213148402
 20
5.744381053845644
 30
0.0
 11
14.79608213148401
 21
4.658988568721648
 31
0.0
1001
AcDbBlockRepETag
1070
     1
1071
       15
1005
29C6
  0
LINE
  5
29C7
102
{ACAD_REACTORS
330
29F6
102
}
330
341
100
AcDbEntity
  8
0
100
AcDbLine
 10
8.802970170122078
 20
13.21803947052304
 30
0.0
 11
13.53608213148402
 21
6.458455057216702
 31
0.0
1001
AcDbBlockRepETag
1070
     1
1071
       16
1005
29C7
  0
LINE
  5
29C8
102
{ACAD_REACTORS
330
29F6
102
}
330
341
100
AcDbEntity
  8
0
100
AcDbLine
 10
10.04808127744132
 20
14.08987565377662
 30
0.0
 11
13.53608213148402
 21
9.10849418656076
 31
0.0
1001
AcDbBlockRepETag
1070
     1
1071
       17
1005
29C8
  0
LINE
  5
29C9
102
{ACAD_REACTORS
330
29F6
102
}
330
341
100
AcDbEntity
  8
0
100
AcDbLine
 10
13.53608213148402
 20
20.70956120957048
 30
0.0
 11
13.53608213148402
 21
23.35960033891454
 31
0.0
1001
AcDbBlockRepETag
1070
     1
1071
       18
1005
29C9
  0
LINE
  5
29CA
102
{ACAD_REACTORS
330
29F6
102
}
330
341
100
AcDbEntity
  8
0
100
AcDbLine
 10
19.83087120370222
 20
15.31860372021007
 30
0.0
 11
21.07598231102148
 21
16.19043990346365
 31
0.0
1001
AcDbBlockRepETag
1070
     1
1071
       19
1005
29CA
  0
LINE
  5
29CB
102
{ACAD_REACTORS
330
29F6
102
}
330
341
100
AcDbEntity
  8
0
100
AcDbLine
 10
19.54408298552669
 20
15.72817974235456
 30
0.0
 11
20.78919409284595
 21
16.60001592560815
 31
0.0
1001
AcDbBlockRepETag
1070
     1
1071
       20
1005
29CB
  0
LINE
  5
29CC
102
{ACAD_REACTORS
330
29F6
102
}
330
341
100
AcDbEntity
  8
0
100
AcDbLine
 10
19.83087120370224
 20
15.31860372021007
 30
0.0
 11
20.11765942187774
 21
14.90902769806561
 31
0.0
1001
AcDbBlockRepETag
1070
     1
1071
       21
1005
29CC
  0
LINE
  5
29CD
102
{ACAD_REACTORS
330
29F6
102
}
330
341
100
AcDbEntity
  8
0
100
AcDbLine
 10
20.78919409284596
 20
16.60001592560815
 30
0.0
 11
14.79608213148402
 21
25.15906682740961
 31
0.0
1001
AcDbBlockRepETag
1070
     1
1071
       22
1005
29CD
  0
LINE
  5
29CE
102
{ACAD_REACTORS
330
29F6
102
}
330
341
100
AcDbEntity
  8
0
100
AcDbLine
 10
9.761293059265804
 20
14.49945167592111
 30
0.0
 11
9.474504841090279
 21
14.90902769806561
 31
0.0
1001
AcDbBlockRepETag
1070
     1
1071
       23
1005
29CE
  0
ENDBLK
  5
343
330
341
100
AcDbEntity
  8
0
100
AcDbBlockEnd
  0
BLOCK
  5
42B
330
429
100
AcDbEntity
  8
0
100
AcDbBlockBegin
  2
_DotSmall
 70
     0
 10
0.0
 20
0.0
 30
0.0
  3
_DotSmall
  1

  0
LWPOLYLINE
  5
42A
330
429
100
AcDbEntity
  8
0
  6
ByBlock
 62
     0
100
AcDbPolyline
 90
        2
 70
     1
 43
0.5
 10
-0.0625
 20
0.0
 42
1.0
 10
0.0625
 20
0.0
 42
1.0
  0
ENDBLK
  5
42C
330
429
100
AcDbEntity
  8
0
100
AcDbBlockEnd
  0
BLOCK
  5
10EA
330
10CB
100
AcDbEntity
  8
0
100
AcDbBlockBegin
  2
mark
 70
     0
 10
0.0
 20
0.0
 30
0.0
  3
mark
  1

  4
柏原計器(株)マーク
  0
LINE
  5
10CC
330
10CB
100
AcDbEntity
  8
実線
100
AcDbLine
 10
45.0
 20
-8.5
 30
0.0
 11
27.0
 21
-21.10373568777475
 31
0.0
  0
LINE
  5
10CD
330
10CB
100
AcDbEntity
  8
実線
100
AcDbLine
 10
45.0
 20
-8.5
 30
0.0
 11
27.0
 21
4.103735687774785
 31
0.0
  0
LINE
  5
10CE
330
10CB
100
AcDbEntity
  8
実線
100
AcDbLine
 10
46.0
 20
-4.317109183163836
 30
0.0
 11
27.0
 21
8.986834042820532
 31
0.0
  0
LINE
  5
10CF
330
10CB
100
AcDbEntity
  8
実線
100
AcDbLine
 10
46.0
 20
-12.6828908168361
 30
0.0
 11
27.0
 21
-25.9868340428206
 31
0.0
  0
LINE
  5
10D0
330
10CB
100
AcDbEntity
  8
実線
100
AcDbLine
 10
5.0
 20
-8.5
 30
0.0
 11
23.0
 21
-21.10373568777475
 31
0.0
  0
LINE
  5
10D1
330
10CB
100
AcDbEntity
  8
実線
100
AcDbLine
 10
4.0
 20
-12.6828908168361
 30
0.0
 11
22.99999999999994
 21
-25.98683404282056
 31
0.0
  0
LINE
  5
10D2
330
10CB
100
AcDbEntity
  8
実線
100
AcDbLine
 10
5.0
 20
-8.5
 30
0.0
 11
23.0
 21
4.103735687774785
 31
0.0
  0
LINE
  5
10D3
330
10CB
100
AcDbEntity
  8
実線
100
AcDbLine
 10
4.0
 20
-4.317109183163863
 30
0.0
 11
23.0
 21
8.986834042820587
 31
0.0
  0
LINE
  5
10D4
330
10CB
100
AcDbEntity
  8
実線
100
AcDbLine
 10
4.0
 20
-4.317109183163863
 30
0.0
 11
4.0
 21
0.0
 31
0.0
  0
LINE
  5
10D5
330
10CB
100
AcDbEntity
  8
実線
100
AcDbLine
 10
0.0
 20
0.0
 30
0.0
 11
0.0
 21
-17.0
 31
0.0
  0
LINE
  5
10D6
330
10CB
100
AcDbEntity
  8
実線
100
AcDbLine
 10
0.0
 20
-17.0
 30
0.0
 11
4.0
 21
-17.0
 31
0.0
  0
LINE
  5
10D7
330
10CB
100
AcDbEntity
  8
実線
100
AcDbLine
 10
4.0
 20
-17.0
 30
0.0
 11
4.0
 21
-12.6828908168361
 31
0.0
  0
LINE
  5
10D8
330
10CB
100
AcDbEntity
  8
実線
100
AcDbLine
 10
4.0
 20
0.0
 30
0.0
 11
0.0
 21
0.0
 31
0.0
  0
LINE
  5
10D9
330
10CB
100
AcDbEntity
  8
実線
100
AcDbLine
 10
27.0
 20
-21.10373568777475
 30
0.0
 11
27.0
 21
-25.9868340428206
 31
0.0
  0
LINE
  5
10DA
330
10CB
100
AcDbEntity
  8
実線
100
AcDbLine
 10
23.0
 20
-21.1037356877747
 30
0.0
 11
22.99999999999994
 21
-25.98683404282056
 31
0.0
  0
ARC
  5
10DB
330
10CB
100
AcDbEntity
  8
実線
100
AcDbCircle
 10
25.0
 20
-12.5
 30
0.0
 40
6.0
100
AcDbArc
 50
180.0
 51
0.0
  0
ARC
  5
10DC
330
10CB
100
AcDbEntity
  8
実線
100
AcDbCircle
 10
25.0
 20
-12.5
 30
0.0
 40
3.0
100
AcDbArc
 50
180.0
 51
0.0
  0
ARC
  5
10DD
330
10CB
100
AcDbEntity
  8
実線
100
AcDbCircle
 10
25.0
 20
-4.5
 30
0.0
 40
6.0
100
AcDbArc
 50
0.0
 51
180.0
  0
ARC
  5
10DE
330
10CB
100
AcDbEntity
  8
実線
100
AcDbCircle
 10
25.0
 20
-4.5
 30
0.0
 40
3.0
100
AcDbArc
 50
0.0
 51
180.0
  0
LINE
  5
10DF
330
10CB
100
AcDbEntity
  8
実線
100
AcDbLine
 10
22.0
 20
-4.499999999999943
 30
0.0
 11
22.0
 21
-12.50000000000005
 31
0.0
  0
LINE
  5
10E0
330
10CB
100
AcDbEntity
  8
実線
100
AcDbLine
 10
19.0
 20
-4.499999999999943
 30
0.0
 11
19.0
 21
-12.50000000000005
 31
0.0
  0
LINE
  5
10E1
330
10CB
100
AcDbEntity
  8
実線
100
AcDbLine
 10
23.0
 20
8.986834042820587
 30
0.0
 11
23.0
 21
4.103735687774785
 31
0.0
  0
LINE
  5
10E2
330
10CB
100
AcDbEntity
  8
実線
100
AcDbLine
 10
28.0
 20
-4.499999999999971
 30
0.0
 11
28.0
 21
-12.50000000000005
 31
0.0
  0
LINE
  5
10E3
330
10CB
100
AcDbEntity
  8
実線
100
AcDbLine
 10
31.0
 20
-4.499999999999943
 30
0.0
 11
31.0
 21
-12.50000000000005
 31
0.0
  0
LINE
  5
10E4
330
10CB
100
AcDbEntity
  8
実線
100
AcDbLine
 10
27.0
 20
8.986834042820532
 30
0.0
 11
27.0
 21
4.103735687774785
 31
0.0
  0
LINE
  5
10E5
330
10CB
100
AcDbEntity
  8
実線
100
AcDbLine
 10
50.0
 20
0.0
 30
0.0
 11
50.0
 21
-17.0
 31
0.0
  0
LINE
  5
10E6
330
10CB
100
AcDbEntity
  8
実線
100
AcDbLine
 10
46.0
 20
0.0
 30
0.0
 11
46.0
 21
-4.317109183163836
 31
0.0
  0
LINE
  5
10E7
330
10CB
100
AcDbEntity
  8
実線
100
AcDbLine
 10
46.0
 20
-17.0
 30
0.0
 11
50.0
 21
-17.0
 31
0.0
  0
LINE
  5
10E8
330
10CB
100
AcDbEntity
  8
実線
100
AcDbLine
 10
46.0
 20
-12.6828908168361
 30
0.0
 11
46.0
 21
-17.0
 31
0.0
  0
LINE
  5
10E9
330
10CB
100
AcDbEntity
  8
実線
100
AcDbLine
 10
50.0
 20
0.0
 30
0.0
 11
46.0
 21
0.0
 31
0.0
  0
ENDBLK
  5
10EB
330
10CB
100
AcDbEntity
  8
0
100
AcDbBlockEnd
  0
BLOCK
  5
2D22
330
2D20
100
AcDbEntity
  8
0
100
AcDbBlockBegin
  2
A$C34DA08B7
 70
     0
 10
0.0
 20
0.0
 30
0.0
  3
A$C34DA08B7
  1

  0
LINE
  5
2D21
330
2D20
100
AcDbEntity
  8
実線
100
AcDbLine
 10
3.443694327872606
 20
-0.000000348593062
 30
0.0
 11
0.0000000833857712
 21
3.443693895893829
 31
0.0
  0
ENDBLK
  5
2D23
330
2D20
100
AcDbEntity
  8
0
100
AcDbBlockEnd
  0
BLOCK
  5
2D26
330
2D24
100
AcDbEntity
  8
0
100
AcDbBlockBegin
  2
A$C04A47E41
 70
     0
 10
0.0
 20
0.0
 30
0.0
  3
A$C04A47E41
  1

  0
LINE
  5
2D25
330
2D24
100
AcDbEntity
  8
実線
100
AcDbLine
 10
0.0
 20
0.0
 30
0.0
 11
-3.443694244486835
 21
3.44369424448689
 31
0.0
  0
ENDBLK
  5
2D27
330
2D24
100
AcDbEntity
  8
0
100
AcDbBlockEnd
  0
BLOCK
  5
2D4F
330
2D46
100
AcDbEntity
  8
0
100
AcDbBlockBegin
  2
A$C2FFA21FC
 70
     0
 10
0.0
 20
0.0
 30
0.0
  3
A$C2FFA21FC
  1

  0
LINE
  5
2D47
330
2D46
100
AcDbEntity
  8
実線
100
AcDbLine
 10
1.673649195882091
 20
5.714196736163046
 30
0.0
 11
4.040546862123335
 21
5.714196736163046
 31
0.0
  0
LINE
  5
2D48
330
2D46
100
AcDbEntity
  8
実線
100
AcDbLine
 10
-0.0000001942917152
 20
1.673649679747881
 30
0.0
 11
-0.0000001942917152
 21
4.040547345989124
 31
0.0
  0
LINE
  5
2D49
330
2D46
100
AcDbEntity
  8
実線
100
AcDbLine
 10
-0.0000001942917152
 20
4.040547345989238
 30
0.0
 11
1.673649195882091
 21
5.714196736162987
 31
0.0
  0
LINE
  5
2D4A
330
2D46
100
AcDbEntity
  8
実線
100
AcDbLine
 10
1.673649195882091
 20
0.0000002895740749
 30
0.0
 11
4.040546862123335
 21
0.0000002895740749
 31
0.0
  0
LINE
  5
2D4B
330
2D46
100
AcDbEntity
  8
実線
100
AcDbLine
 10
-0.0000001942917152
 20
1.673649679747881
 30
0.0
 11
1.673649195882035
 21
0.0000002895740749
 31
0.0
  0
LINE
  5
2D4C
330
2D46
100
AcDbEntity
  8
実線
100
AcDbLine
 10
5.714196252297256
 20
1.673649679747881
 30
0.0
 11
5.714196252297256
 21
4.040547345989124
 31
0.0
  0
LINE
  5
2D4D
330
2D46
100
AcDbEntity
  8
実線
100
AcDbLine
 10
5.714196252297256
 20
4.040547345989238
 30
0.0
 11
4.040546862123449
 21
5.714196736162987
 31
0.0
  0
LINE
  5
2D4E
330
2D46
100
AcDbEntity
  8
実線
100
AcDbLine
 10
5.714196252297256
 20
1.673649679747881
 30
0.0
 11
4.040546862123505
 21
0.0000002895740749
 31
0.0
  0
ENDBLK
  5
2D50
330
2D46
100
AcDbEntity
  8
0
100
AcDbBlockEnd
  0
BLOCK
  5
2F2A3
330
2F2A2
100
AcDbEntity
  8
0
100
AcDbBlockBegin
  2
*D7
 70
     1
 10
0.0
 20
0.0
 30
0.0
  3
*D7
  1

  0
LINE
  5
2F469
330
2F2A2
100
AcDbEntity
  8
寸法
 62
     0
440
 16777216
370
    -2
100
AcDbLine
 10
246.0655126101837
 20
129.6726996496422
 30
0.0
 11
69.08162759536228
 21
129.6726996496424
 31
0.0
  0
LINE
  5
2F46A
330
2F2A2
100
AcDbEntity
  8
寸法
 62
     0
440
 16777216
370
    -2
100
AcDbLine
 10
217.2778415600728
 20
281.6726996496424
 30
0.0
 11
69.08162759536231
 21
281.6726996496424
 31
0.0
  0
LINE
  5
2F46B
330
2F2A2
100
AcDbEntity
  8
寸法
 62
     0
440
 16777216
370
    -2
100
AcDbLine
 10
70.33162759536228
 20
132.1726996496424
 30
0.0
 11
70.33162759536231
 21
279.1726996496424
 31
0.0
  0
SOLID
  5
2F46C
330
2F2A2
100
AcDbEntity
  8
寸法
 62
     0
440
 16777216
100
AcDbTrace
 10
69.9149609286956
 20
132.1726996496424
 30
0.0
 11
70.74829426202895
 21
132.1726996496424
 31
0.0
 12
70.33162759536228
 22
129.6726996496424
 32
0.0
 13
70.33162759536228
 23
129.6726996496424
 33
0.0
  0
SOLID
  5
2F46D
330
2F2A2
100
AcDbEntity
  8
寸法
 62
     0
440
 16777216
100
AcDbTrace
 10
69.91496092869564
 20
279.1726996496424
 30
0.0
 11
70.74829426202898
 21
279.1726996496424
 31
0.0
 12
70.33162759536231
 22
281.6726996496424
 32
0.0
 13
70.33162759536231
 23
281.6726996496424
 33
0.0
  0
MTEXT
  5
2F46E
330
2F2A2
100
AcDbEntity
  8
寸法
 62
     2
440
 16777216
100
AcDbMText
 10
65.83162759536225
 20
205.6726996496424
 30
0.0
 40
7.0
 41
0.0
 46
0.0
 71
     5
 72
     1
  1
152
  7
寸法
 11
0.0000000000000001
 21
1.0
 31
0.0
 73
     1
 44
1.0
  0
POINT
  5
2F46F
330
2F2A2
100
AcDbEntity
  8
Defpoints
 62
     0
440
 16777216
100
AcDbPoint
 10
246.6905126101837
 20
129.6726996496422
 30
0.0
  0
POINT
  5
2F470
330
2F2A2
100
AcDbEntity
  8
Defpoints
 62
     0
440
 16777216
100
AcDbPoint
 10
217.9028415600728
 20
281.6726996496424
 30
0.0
  0
POINT
  5
2F471
330
2F2A2
100
AcDbEntity
  8
Defpoints
 62
     0
440
 16777216
100
AcDbPoint
 10
70.33162759536231
 20
281.6726996496424
 30
0.0
  0
ENDBLK
  5
2F2A4
330
2F2A2
100
AcDbEntity
  8
0
100
AcDbBlockEnd
  0
BLOCK
  5
2F2F3
330
2F2F2
100
AcDbEntity
  8
0
100
AcDbBlockBegin
  2
*D8
 70
     1
 10
0.0
 20
0.0
 30
0.0
  3
*D8
  1

  0
LINE
  5
2F47B
330
2F2F2
100
AcDbEntity
  8
寸法
 62
     0
440
 16777216
370
    -2
100
AcDbLine
 10
287.7356409641505
 20
364.1003450687204
 30
0.0
 11
463.1049356289057
 21
364.1003450687204
 31
0.0
  0
LINE
  5
2F47C
330
2F2F2
100
AcDbEntity
  8
寸法
 62
     0
440
 16777216
370
    -2
100
AcDbLine
 10
287.7356409641505
 20
492.1003450687203
 30
0.0
 11
463.1049356289057
 21
492.1003450687203
 31
0.0
  0
LINE
  5
2F47D
330
2F2F2
100
AcDbEntity
  8
寸法
 62
     0
440
 16777216
370
    -2
100
AcDbLine
 10
461.8549356289057
 20
366.6003450687204
 30
0.0
 11
461.8549356289057
 21
489.6003450687204
 31
0.0
  0
SOLID
  5
2F47E
330
2F2F2
100
AcDbEntity
  8
寸法
 62
     0
440
 16777216
100
AcDbTrace
 10
461.4382689622391
 20
366.6003450687204
 30
0.0
 11
462.2716022955723
 21
366.6003450687204
 31
0.0
 12
461.8549356289057
 22
364.1003450687204
 32
0.0
 13
461.8549356289057
 23
364.1003450687204
 33
0.0
  0
SOLID
  5
2F47F
330
2F2F2
100
AcDbEntity
  8
寸法
 62
     0
440
 16777216
100
AcDbTrace
 10
461.4382689622391
 20
489.6003450687204
 30
0.0
 11
462.2716022955724
 21
489.6003450687204
 31
0.0
 12
461.8549356289057
 22
492.1003450687203
 32
0.0
 13
461.8549356289057
 23
492.1003450687203
 33
0.0
  0
MTEXT
  5
2F480
330
2F2F2
100
AcDbEntity
  8
寸法
 62
     2
440
 16777216
100
AcDbMText
 10
457.3549356289056
 20
428.1003450687205
 30
0.0
 40
7.0
 41
0.0
 46
0.0
 71
     5
 72
     1
  1
128
  7
寸法
 11
0.0000000000000001
 21
1.0
 31
0.0
 73
     1
 44
1.0
  0
POINT
  5
2F481
330
2F2F2
100
AcDbEntity
  8
Defpoints
 62
     0
440
 16777216
100
AcDbPoint
 10
287.1106409641504
 20
364.1003450687204
 30
0.0
  0
POINT
  5
2F482
330
2F2F2
100
AcDbEntity
  8
Defpoints
 62
     0
440
 16777216
100
AcDbPoint
 10
287.1106409641504
 20
492.1003450687203
 30
0.0
  0
POINT
  5
2F483
330
2F2F2
100
AcDbEntity
  8
Defpoints
 62
     0
440
 16777216
100
AcDbPoint
 10
461.8549356289057
 20
492.1003450687203
 30
0.0
  0
ENDBLK
  5
2F2F4
330
2F2F2
100
AcDbEntity
  8
0
100
AcDbBlockEnd
  0
BLOCK
  5
2F424
330
2F423
100
AcDbEntity
  8
0
100
AcDbBlockBegin
  2
*D9
 70
     1
 10
0.0
 20
0.0
 30
0.0
  3
*D9
  1

  0
LINE
  5
2F472
330
2F423
100
AcDbEntity
  8
寸法
 62
     0
440
 16777216
370
    -2
100
AcDbLine
 10
246.0655126101837
 20
129.6726996496422
 30
0.0
 11
95.82748833542678
 21
129.6726996496424
 31
0.0
  0
LINE
  5
2F473
330
2F423
100
AcDbEntity
  8
寸法
 62
     0
440
 16777216
370
    -2
100
AcDbLine
 10
141.0113026101837
 20
186.6726996496423
 30
0.0
 11
95.82748833542678
 21
186.6726996496423
 31
0.0
  0
LINE
  5
2F474
330
2F423
100
AcDbEntity
  8
寸法
 62
     0
440
 16777216
370
    -2
100
AcDbLine
 10
97.07748833542677
 20
132.1726996496424
 30
0.0
 11
97.0774883354268
 21
184.1726996496424
 31
0.0
  0
SOLID
  5
2F475
330
2F423
100
AcDbEntity
  8
寸法
 62
     0
440
 16777216
100
AcDbTrace
 10
96.66082166876007
 20
132.1726996496424
 30
0.0
 11
97.49415500209344
 21
132.1726996496424
 31
0.0
 12
97.07748833542677
 22
129.6726996496424
 32
0.0
 13
97.07748833542677
 23
129.6726996496424
 33
0.0
  0
SOLID
  5
2F476
330
2F423
100
AcDbEntity
  8
寸法
 62
     0
440
 16777216
100
AcDbTrace
 10
96.66082166876012
 20
184.1726996496424
 30
0.0
 11
97.49415500209344
 21
184.1726996496424
 31
0.0
 12
97.0774883354268
 22
186.6726996496423
 32
0.0
 13
97.0774883354268
 23
186.6726996496423
 33
0.0
  0
MTEXT
  5
2F477
330
2F423
100
AcDbEntity
  8
寸法
 62
     2
440
 16777216
100
AcDbMText
 10
92.57748833542676
 20
158.1726996496424
 30
0.0
 40
7.0
 41
0.0
 46
0.0
 71
     5
 72
     1
  1
57
  7
寸法
 11
0.0000000000000001
 21
1.0
 31
0.0
 73
     1
 44
1.0
  0
POINT
  5
2F478
330
2F423
100
AcDbEntity
  8
Defpoints
 62
     0
440
 16777216
100
AcDbPoint
 10
246.6905126101837
 20
129.6726996496422
 30
0.0
  0
POINT
  5
2F479
330
2F423
100
AcDbEntity
  8
Defpoints
 62
     0
440
 16777216
100
AcDbPoint
 10
141.6363026101837
 20
186.6726996496423
 30
0.0
  0
POINT
  5
2F47A
330
2F423
100
AcDbEntity
  8
Defpoints
 62
     0
440
 16777216
100
AcDbPoint
 10
97.0774883354268
 20
186.6726996496423
 30
0.0
  0
ENDBLK
  5
2F425
330
2F423
100
AcDbEntity
  8
0
100
AcDbBlockEnd
  0
BLOCK
  5
2F43C
330
2F43B
100
AcDbEntity
  8
0
100
AcDbBlockBegin
  2
*D10
 70
     1
 10
0.0
 20
0.0
 30
0.0
  3
*D10
  1

  0
LINE
  5
2F484
330
2F43B
100
AcDbEntity
  8
寸法
 62
     0
440
 16777216
370
    -2
100
AcDbLine
 10
149.1905126101837
 20
150.2056996496424
 30
0.0
 11
149.1905126101837
 21
75.12340132942586
 31
0.0
  0
LINE
  5
2F485
330
2F43B
100
AcDbEntity
  8
寸法
 62
     0
440
 16777216
370
    -2
100
AcDbLine
 10
394.1905126101838
 20
150.2056996496424
 30
0.0
 11
394.1905126101838
 21
75.12340132942586
 31
0.0
  0
LINE
  5
2F486
330
2F43B
100
AcDbEntity
  8
寸法
 62
     0
440
 16777216
370
    -2
100
AcDbLine
 10
151.6905126101837
 20
76.37340132942586
 30
0.0
 11
391.6905126101838
 21
76.37340132942586
 31
0.0
  0
SOLID
  5
2F487
330
2F43B
100
AcDbEntity
  8
寸法
 62
     0
440
 16777216
100
AcDbTrace
 10
151.6905126101837
 20
76.79006799609253
 30
0.0
 11
151.6905126101837
 21
75.95673466275918
 31
0.0
 12
149.1905126101837
 22
76.37340132942586
 32
0.0
 13
149.1905126101837
 23
76.37340132942586
 33
0.0
  0
SOLID
  5
2F488
330
2F43B
100
AcDbEntity
  8
寸法
 62
     0
440
 16777216
100
AcDbTrace
 10
391.6905126101838
 20
76.79006799609253
 30
0.0
 11
391.6905126101838
 21
75.95673466275918
 31
0.0
 12
394.1905126101838
 22
76.37340132942586
 32
0.0
 13
394.1905126101838
 23
76.37340132942586
 33
0.0
  0
MTEXT
  5
2F489
330
2F43B
100
AcDbEntity
  8
寸法
 62
     2
440
 16777216
100
AcDbMText
 10
271.6905126101837
 20
80.87340132942586
 30
0.0
 40
7.0
 41
0.0
 46
0.0
 71
     5
 72
     1
  1
245
  7
寸法
 73
     1
 44
1.0
  0
POINT
  5
2F48A
330
2F43B
100
AcDbEntity
  8
Defpoints
 62
     0
440
 16777216
100
AcDbPoint
 10
149.1905126101837
 20
150.8306996496424
 30
0.0
  0
POINT
  5
2F48B
330
2F43B
100
AcDbEntity
  8
Defpoints
 62
     0
440
 16777216
100
AcDbPoint
 10
394.1905126101838
 20
150.8306996496424
 30
0.0
  0
POINT
  5
2F48C
330
2F43B
100
AcDbEntity
  8
Defpoints
 62
     0
440
 16777216
100
AcDbPoint
 10
394.1905126101838
 20
76.37340132942586
 30
0.0
  0
ENDBLK
  5
2F43D
330
2F43B
100
AcDbEntity
  8
0
100
AcDbBlockEnd
  0
ENDSEC
  0
SECTION
  2
ENTITIES
  0
TEXT
  5
108D
330
1F
100
AcDbEntity
  8
文字
100
AcDbText
 10
293.0
 20
27.25
 30
0.0
 40
3.0
  1

 41
0.8
 72
     1
 11
293.0
 21
28.75
 31
0.0
100
AcDbText
 73
     2
  0
TEXT
  5
108F
330
1F
100
AcDbEntity
  8
文字
100
AcDbText
 10
333.0
 20
27.5
 30
0.0
 40
3.0
  1

 41
0.8
 72
     1
 11
333.0
 21
29.0
 31
0.0
100
AcDbText
 73
     2
  0
TEXT
  5
1090
330
1F
100
AcDbEntity
  8
文字
100
AcDbText
 10
353.0
 20
27.5
 30
0.0
 40
3.0
  1

 41
0.8
 72
     1
 11
353.0
 21
29.0
 31
0.0
100
AcDbText
 73
     2
  0
MTEXT
  5
1581D
330
1F
100
AcDbEntity
  8
実線
 62
     2
100
AcDbMText
 10
196.5671900572592
 20
248.2436849630891
 30
0.0
 40
2.5
 41
0.0
 46
0.0
 71
     9
 72
     1
  1

  7
寸法
 73
     1
 44
1.0
  0
TEXT
  5
27C66
330
1F
100
AcDbEntity
  8
文字
100
AcDbText
 10
623.2971192741212
 20
228.8227889000734
 30
0.0
 40
9.0
  1
表　示　部
 41
0.9
 72
     1
 11
646.5171192741212
 21
233.3227889000734
 31
0.0
100
AcDbText
 73
     2
  0
LINE
  5
27C67
330
1F
100
AcDbEntity
  8
文字
100
AcDbLine
 10
620.1489181499363
 20
226.4211479844635
 30
0.0
 11
674.0931779302691
 21
226.4211479844635
 31
0.0
  0
LINE
  5
29A83
330
1F
100
AcDbEntity
  8
0
100
AcDbLine
 10
425.0
 20
544.0
 30
0.0
 11
424.9999999999998
 21
574.0
 31
0.0
  0
LINE
  5
29ABB
330
1F
100
AcDbEntity
  8
0
100
AcDbLine
 10
795.0
 20
297.0
 30
0.0
 11
825.0
 21
297.0
 31
0.0
  0
LINE
  5
29B24
330
1F
100
AcDbEntity
  8
0
100
AcDbLine
 10
424.9999999999998
 20
50.0
 30
0.0
 11
424.9999999999998
 21
20.0
 31
0.0
  0
LINE
  5
29B27
330
1F
100
AcDbEntity
  8
0
100
AcDbLine
 10
54.99999999999852
 20
296.9999999999978
 30
0.0
 11
25.0
 21
296.9999999999977
 31
0.0
  0
LINE
  5
29B3C
330
1F
100
AcDbEntity
  8
補助線
100
AcDbLine
 10
5.0
 20
594.0
 30
0.0
 11
5.0
 21
0.0
 31
0.0
  0
LINE
  5
29B3D
330
1F
100
AcDbEntity
  8
補助線
100
AcDbLine
 10
845.0
 20
594.0
 30
0.0
 11
5.0
 21
594.0
 31
0.0
  0
LINE
  5
29B3E
330
1F
100
AcDbEntity
  8
補助線
100
AcDbLine
 10
845.0
 20
0.0
 30
0.0
 11
845.0
 21
594.0
 31
0.0
  0
LINE
  5
29B3F
330
1F
100
AcDbEntity
  8
補助線
100
AcDbLine
 10
5.0
 20
0.0
 30
0.0
 11
845.0
 21
0.0
 31
0.0
  0
LINE
  5
29B58
330
1F
100
AcDbEntity
  8
0
100
AcDbLine
 10
44.99999999999852
 20
435.4999999999978
 30
0.0
 11
24.99999999999922
 21
435.4999999999976
 31
0.0
  0
LINE
  5
29B59
330
1F
100
AcDbEntity
  8
0
100
AcDbLine
 10
44.99999999999852
 20
158.4999999999977
 30
0.0
 11
25.00000000000079
 21
158.4999999999976
 31
0.0
  0
LINE
  5
29B5A
330
1F
100
AcDbEntity
  8
0
100
AcDbLine
 10
805.0
 20
435.5
 30
0.0
 11
825.0
 21
435.5
 31
0.0
  0
LINE
  5
29B5B
330
1F
100
AcDbEntity
  8
0
100
AcDbLine
 10
805.0
 20
158.5
 30
0.0
 11
825.0
 21
158.5
 31
0.0
  0
LINE
  5
29B74
330
1F
100
AcDbEntity
  8
0
100
AcDbLine
 10
225.0
 20
554.0
 30
0.0
 11
225.0
 21
573.9999999999996
 31
0.0
  0
LINE
  5
29B75
330
1F
100
AcDbEntity
  8
0
100
AcDbLine
 10
625.0
 20
554.0
 30
0.0
 11
625.0
 21
574.0000000000001
 31
0.0
  0
LINE
  5
29B76
330
1F
100
AcDbEntity
  8
0
100
AcDbLine
 10
224.9999999999999
 20
40.0
 30
0.0
 11
225.0
 21
20.0
 31
0.0
  0
LINE
  5
29B77
330
1F
100
AcDbEntity
  8
0
100
AcDbLine
 10
625.0
 20
40.0
 30
0.0
 11
625.0
 21
20.0
 31
0.0
  0
TEXT
  5
29B81
330
1F
100
AcDbEntity
  8
0
100
AcDbText
 10
108.7476206623511
 20
558.9443060539199
 30
0.0
 40
10.0
  1
1
 41
0.8
 72
     1
 11
111.9857159004464
 21
563.9443060539199
 31
0.0
100
AcDbText
 73
     2
  0
TEXT
  5
29B83
330
1F
100
AcDbEntity
  8
0
100
AcDbText
 10
308.1761920909225
 20
558.9443060539203
 30
0.0
 40
10.0
  1
2
 41
0.8
 72
     1
 11
311.9857159004463
 21
563.9443060539202
 31
0.0
100
AcDbText
 73
     2
  0
TEXT
  5
29B84
330
1F
100
AcDbEntity
  8
0
100
AcDbText
 10
508.1761920909226
 20
558.9443060539199
 30
0.0
 40
10.0
  1
3
 41
0.8
 72
     1
 11
511.9857159004464
 21
563.9443060539199
 31
0.0
100
AcDbText
 73
     2
  0
TEXT
  5
29B85
330
1F
100
AcDbEntity
  8
0
100
AcDbText
 10
707.9857159004462
 20
558.9443060539199
 30
0.0
 40
10.0
  1
4
 41
0.8
 72
     1
 11
711.9857159004462
 21
563.9443060539199
 31
0.0
100
AcDbText
 73
     2
  0
TEXT
  5
29B86
330
1F
100
AcDbEntity
  8
0
100
AcDbText
 10
108.7476206623511
 20
25.68493521145092
 30
0.0
 40
10.0
  1
1
 41
0.8
 72
     1
 11
111.9857159004464
 21
30.68493521145092
 31
0.0
100
AcDbText
 73
     2
  0
TEXT
  5
29B87
330
1F
100
AcDbEntity
  8
0
100
AcDbText
 10
308.1761920909225
 20
25.68493521145127
 30
0.0
 40
10.0
  1
2
 41
0.8
 72
     1
 11
311.9857159004463
 21
30.68493521145127
 31
0.0
100
AcDbText
 73
     2
  0
TEXT
  5
29B88
330
1F
100
AcDbEntity
  8
0
100
AcDbText
 10
508.1761920909226
 20
25.68493521145092
 30
0.0
 40
10.0
  1
3
 41
0.8
 72
     1
 11
511.9857159004464
 21
30.68493521145092
 31
0.0
100
AcDbText
 73
     2
  0
TEXT
  5
29B89
330
1F
100
AcDbEntity
  8
0
100
AcDbText
 10
707.9857159004462
 20
25.68493521145092
 30
0.0
 40
10.0
  1
4
 41
0.8
 72
     1
 11
711.9857159004462
 21
30.68493521145092
 31
0.0
100
AcDbText
 73
     2
  0
TEXT
  5
29B8A
330
1F
100
AcDbEntity
  8
0
100
AcDbText
 10
32.17264926292639
 20
500.0638298510316
 30
0.0
 40
10.0
  1
A
 41
0.8
 72
     1
 11
35.60122069149783
 21
505.0638298510316
 31
0.0
100
AcDbText
 73
     2
  0
TEXT
  5
29B8B
330
1F
100
AcDbEntity
  8
0
100
AcDbText
 10
31.41074450102242
 20
361.5638298510317
 30
0.0
 40
10.0
  1
B
 41
0.8
 72
     1
 11
35.60122069149861
 21
366.5638298510316
 31
0.0
100
AcDbText
 73
     2
  0
TEXT
  5
29B8C
330
1F
100
AcDbEntity
  8
0
100
AcDbText
 10
31.60122069149782
 20
223.0638298510317
 30
0.0
 40
10.0
  1
C
 41
0.8
 72
     1
 11
35.60122069149783
 21
228.0638298510317
 31
0.0
100
AcDbText
 73
     2
  0
TEXT
  5
29B8D
330
1F
100
AcDbEntity
  8
0
100
AcDbText
 10
31.41074450102163
 20
84.56382985103386
 30
0.0
 40
10.0
  1
D
 41
0.8
 72
     1
 11
35.60122069149783
 21
89.56382985103386
 31
0.0
100
AcDbText
 73
     2
  0
TEXT
  5
29B8E
330
1F
100
AcDbEntity
  8
0
100
AcDbText
 10
811.104932975588
 20
500.0638298510316
 30
0.0
 40
10.0
  1
A
 41
0.8
 72
     1
 11
814.5335044041594
 21
505.0638298510316
 31
0.0
100
AcDbText
 73
     2
  0
TEXT
  5
29B8F
330
1F
100
AcDbEntity
  8
0
100
AcDbText
 10
810.3430282136839
 20
361.5638298510317
 30
0.0
 40
10.0
  1
B
 41
0.8
 72
     1
 11
814.5335044041601
 21
366.5638298510316
 31
0.0
100
AcDbText
 73
     2
  0
TEXT
  5
29B90
330
1F
100
AcDbEntity
  8
0
100
AcDbText
 10
810.5335044041593
 20
223.0638298510317
 30
0.0
 40
10.0
  1
C
 41
0.8
 72
     1
 11
814.5335044041594
 21
228.0638298510317
 31
0.0
100
AcDbText
 73
     2
  0
TEXT
  5
29B91
330
1F
100
AcDbEntity
  8
0
100
AcDbText
 10
810.3430282136832
 20
84.56382985103386
 30
0.0
 40
10.0
  1
D
 41
0.8
 72
     1
 11
814.5335044041594
 21
89.56382985103386
 31
0.0
100
AcDbText
 73
     2
  0
LINE
  5
2A351
330
1F
100
AcDbEntity
  8
0
100
AcDbLine
 10
555.0
 20
40.0
 30
0.0
 11
555.0
 21
136.0
 31
0.0
  0
LINE
  5
2A352
330
1F
100
AcDbEntity
  8
0
100
AcDbLine
 10
555.0
 20
70.0
 30
0.0
 11
805.0
 21
70.0
 31
0.0
  0
LINE
  5
2A353
330
1F
100
AcDbEntity
  8
0
100
AcDbLine
 10
555.0
 20
116.0
 30
0.0
 11
805.0
 21
116.0
 31
0.0
  0
LINE
  5
2A354
330
1F
100
AcDbEntity
  8
0
100
AcDbLine
 10
555.0
 20
136.0
 30
0.0
 11
805.0
 21
136.0
 31
0.0
  0
LINE
  5
2A355
330
1F
100
AcDbEntity
  8
0
100
AcDbLine
 10
580.0
 20
70.0
 30
0.0
 11
580.0
 21
40.0
 31
0.0
  0
LINE
  5
2A356
330
1F
100
AcDbEntity
  8
0
100
AcDbLine
 10
605.0
 20
70.0
 30
0.0
 11
605.0
 21
40.0
 31
0.0
  0
LINE
  5
2A357
330
1F
100
AcDbEntity
  8
0
100
AcDbLine
 10
630.0
 20
70.0
 30
0.0
 11
630.0
 21
40.0
 31
0.0
  0
LINE
  5
2A358
330
1F
100
AcDbEntity
  8
0
100
AcDbLine
 10
655.0
 20
70.0
 30
0.0
 11
655.0
 21
40.0
 31
0.0
  0
LINE
  5
2A359
330
1F
100
AcDbEntity
  8
0
100
AcDbLine
 10
680.0
 20
116.0
 30
0.0
 11
680.0
 21
40.0
 31
0.0
  0
LINE
  5
2A35A
330
1F
100
AcDbEntity
  8
0
100
AcDbLine
 10
742.4999999999997
 20
92.99999999999998
 30
0.0
 11
742.4999999999997
 21
69.99999999999999
 31
0.0
  0
LINE
  5
2A35B
330
1F
100
AcDbEntity
  8
0
100
AcDbLine
 10
598.0
 20
136.0
 30
0.0
 11
598.0
 21
116.0
 31
0.0
  0
LINE
  5
2A35C
330
1F
100
AcDbEntity
  8
0
100
AcDbLine
 10
555.0
 20
62.0
 30
0.0
 11
680.0
 21
62.0
 31
0.0
  0
TEXT
  5
2A35D
330
1F
100
AcDbEntity
  8
0
100
AcDbText
 10
570.9199999999998
 20
123.0
 30
0.0
 40
6.0
  1
品名
 41
0.9
 72
     1
 11
576.4999999999998
 21
126.0
 31
0.0
100
AcDbText
 73
     2
  0
TEXT
  5
2A35E
330
1F
100
AcDbEntity
  8
0
100
AcDbText
 10
561.7399999999999
 20
63.0
 30
0.0
 40
6.0
  1
承認
 41
0.9
 72
     1
 11
567.4999999999998
 21
66.0
 31
0.0
100
AcDbText
 73
     2
  0
TEXT
  5
2A35F
330
1F
100
AcDbEntity
  8
0
100
AcDbText
 10
586.9199999999998
 20
63.0
 30
0.0
 40
6.0
  1
検図
 41
0.9
 72
     1
 11
592.4999999999998
 21
66.0
 31
0.0
100
AcDbText
 73
     2
  0
TEXT
  5
2A360
330
1F
100
AcDbEntity
  8
0
100
AcDbText
 10
611.9199999999998
 20
63.0
 30
0.0
 40
6.0
  1
製図
 41
0.9
 72
     1
 11
617.4999999999998
 21
66.0
 31
0.0
100
AcDbText
 73
     2
  0
TEXT
  5
2A361
330
1F
100
AcDbEntity
  8
0
100
AcDbText
 10
633.8599999999999
 20
63.0
 30
0.0
 40
6.0
  1
年月日
 41
0.9
 72
     1
 11
642.4999999999998
 21
66.0
 31
0.0
100
AcDbText
 73
     2
  0
TEXT
  5
2A362
330
1F
100
AcDbEntity
  8
0
100
AcDbText
 10
661.7399999999999
 20
63.0
 30
0.0
 40
6.0
  1
尺度
 41
0.9
 72
     1
 11
667.4999999999998
 21
66.0
 31
0.0
100
AcDbText
 73
     2
  0
TEXT
  5
2A363
330
1F
100
AcDbEntity
  8
0
100
AcDbText
 10
690.0282382194025
 20
50.95465435208165
 30
0.0
 40
10.0
  1
柏原計器工業株式会社
 41
0.9
 72
     1
 11
742.8282382194025
 21
55.95465435208165
 31
0.0
100
AcDbText
 73
     2
  0
TEXT
  5
2A364
330
1F
100
AcDbEntity
  8
0
100
AcDbText
 10
658.4999999999999
 20
47.5
 30
0.0
 40
7.0
  1
free
 41
0.9
 72
     1
 11
667.4999999999998
 21
51.0
 31
0.0
100
AcDbText
 73
     2
  0
TEXT
  5
2A365
330
1F
100
AcDbEntity
  8
0
100
AcDbText
 10
608.1720659890464
 20
101.8103299452338
 30
0.0
 40
7.0
  1
外観図
 41
0.9
 72
     1
 11
618.4620659890464
 21
105.3103299452338
 31
0.0
100
AcDbText
 73
     2
  0
TEXT
  5
2A366
330
1F
100
AcDbEntity
  8
0
100
AcDbText
 10
606.0071966047943
 20
122.5
 30
0.0
 40
7.0
  1
たて型軸流羽根車式乾式直読式水道メーター　50mm
 41
0.9
 72
     1
 11
699.7871966047942
 21
126.0
 31
0.0
100
AcDbText
 73
     2
  0
LINE
  5
2A367
330
1F
100
AcDbEntity
  8
0
100
AcDbLine
 10
804.9999999999997
 20
92.99999999999998
 30
0.0
 11
555.0
 21
93.0
 31
0.0
  0
LINE
  5
2A369
330
1F
100
AcDbEntity
  8
0
100
AcDbLine
 10
690.0
 20
116.0
 30
0.0
 11
690.0
 21
93.0
 31
0.0
  0
TEXT
  5
2A36A
330
1F
100
AcDbEntity
  8
0
100
AcDbText
 10
682.6024888439973
 20
107.578314662096
 30
0.0
 40
6.0
  1
図
 41
0.9
 72
     1
 11
685.1224888439973
 21
110.578314662096
 31
0.0
100
AcDbText
 73
     2
  0
TEXT
  5
2A36B
330
1F
100
AcDbEntity
  8
0
100
AcDbText
 10
682.48
 20
96.25
 30
0.0
 40
6.0
  1
番
 41
0.9
 72
     1
 11
685.0
 21
99.24999999999998
 31
0.0
100
AcDbText
 73
     2
  0
LINE
  5
2A36C
330
1F
100
AcDbEntity
  8
0
100
AcDbLine
 10
565.0
 20
92.99999999999998
 30
0.0
 11
565.0
 21
70.0
 31
0.0
  0
TEXT
  5
2A36D
330
1F
100
AcDbEntity
  8
0
100
AcDbText
 10
557.6024888439973
 20
84.57831466209606
 30
0.0
 40
6.0
  1
摘
 41
0.9
 72
     1
 11
560.1224888439973
 21
87.57831466209607
 31
0.0
100
AcDbText
 73
     2
  0
TEXT
  5
2A36E
330
1F
100
AcDbEntity
  8
0
100
AcDbText
 10
557.48
 20
73.24999999999999
 30
0.0
 40
6.0
  1
要
 41
0.9
 72
     1
 11
560.0
 21
76.24999999999999
 31
0.0
100
AcDbText
 73
     2
  0
LINE
  5
2A36F
330
1F
100
AcDbEntity
  8
0
100
AcDbLine
 10
565.0
 20
116.0
 30
0.0
 11
565.0
 21
93.0
 31
0.0
  0
TEXT
  5
2A370
330
1F
100
AcDbEntity
  8
0
100
AcDbText
 10
557.7824888439972
 20
107.578314662096
 30
0.0
 40
6.0
  1
名
 41
0.9
 72
     1
 11
560.1224888439973
 21
110.578314662096
 31
0.0
100
AcDbText
 73
     2
  0
TEXT
  5
2A371
330
1F
100
AcDbEntity
  8
0
100
AcDbText
 10
557.48
 20
96.25
 30
0.0
 40
6.0
  1
称
 41
0.9
 72
     1
 11
560.0
 21
99.24999999999998
 31
0.0
100
AcDbText
 73
     2
  0
LINE
  5
2A372
330
1F
100
AcDbEntity
  8
0
  6
CENTER
 48
0.2
370
    15
100
AcDbLine
 10
755.7486474388077
 20
81.41435681884365
 30
0.0
 11
799.7323864436987
 21
81.41435681884365
 31
0.0
  0
LINE
  5
2A373
330
1F
100
AcDbEntity
  8
0
  6
CENTER
 48
0.2
370
    15
100
AcDbLine
 10
766.3659958277077
 20
90.04550105363966
 30
0.0
 11
766.3659958277077
 21
72.78321258404762
 31
0.0
  0
CIRCLE
  5
2A374
330
1F
100
AcDbEntity
  8
0
100
AcDbCircle
 10
766.3659958277077
 20
81.41435681884365
 30
0.0
 40
7.232966368048438
  0
CIRCLE
  5
2A375
330
1F
100
AcDbEntity
  8
0
100
AcDbCircle
 10
766.3659958277077
 20
81.41435681884365
 30
0.0
 40
4.306024335352526
  0
LINE
  5
2A376
330
1F
100
AcDbEntity
  8
0
100
AcDbLine
 10
777.8707041122479
 20
85.72038115419617
 30
0.0
 11
777.8707041122479
 21
77.07554418483019
 31
0.0
  0
LINE
  5
2A377
330
1F
100
AcDbEntity
  8
0
100
AcDbLine
 10
777.8707041122479
 20
77.07554418483019
 30
0.0
 11
796.6586070707506
 21
74.1813904507952
 31
0.0
  0
LINE
  5
2A378
330
1F
100
AcDbEntity
  8
0
100
AcDbLine
 10
796.6586070707506
 20
74.1813904507952
 30
0.0
 11
796.6586070707506
 21
88.64732318689206
 31
0.0
  0
LINE
  5
2A379
330
1F
100
AcDbEntity
  8
0
100
AcDbLine
 10
796.6586070707506
 20
88.64732318689206
 30
0.0
 11
777.8707041122479
 21
85.72038115419617
 31
0.0
  0
TEXT
  5
2A37A
330
1F
100
AcDbEntity
  8
0
100
AcDbText
 10
682.6024888439973
 20
84.57831466209606
 30
0.0
 40
6.0
  1
材
 41
0.9
 72
     1
 11
685.1224888439973
 21
87.57831466209607
 31
0.0
100
AcDbText
 73
     2
  0
TEXT
  5
2A37B
330
1F
100
AcDbEntity
  8
0
100
AcDbText
 10
682.48
 20
73.24999999999999
 30
0.0
 40
6.0
  1
質
 41
0.9
 72
     1
 11
685.0
 21
76.24999999999999
 31
0.0
100
AcDbText
 73
     2
  0
LINE
  5
2A37C
330
1F
100
AcDbEntity
  8
0
100
AcDbLine
 10
690.0
 20
92.99999999999998
 30
0.0
 11
690.0
 21
70.0
 31
0.0
  0
TEXT
  5
2A37D
330
1F
100
AcDbEntity
  8
0
100
AcDbText
 10
745.1024888439969
 20
85.45656599577929
 30
0.0
 40
6.0
  1
投
 41
0.9
 72
     1
 11
747.6224888439968
 21
88.4565659957793
 31
0.0
100
AcDbText
 73
     2
  0
TEXT
  5
2A37E
330
1F
100
AcDbEntity
  8
0
100
AcDbText
 10
744.9799999999996
 20
71.49349873201206
 30
0.0
 40
6.0
  1
法
 41
0.9
 72
     1
 11
747.4999999999995
 21
74.49349873201206
 31
0.0
100
AcDbText
 73
     2
  0
LINE
  5
2A37F
330
1F
100
AcDbEntity
  8
0
100
AcDbLine
 10
752.4999999999995
 20
92.99999999999998
 30
0.0
 11
752.4999999999995
 21
70.0
 31
0.0
  0
TEXT
  5
2A380
330
1F
100
AcDbEntity
  8
0
100
AcDbText
 10
745.1024888439969
 20
78.65012060864701
 30
0.0
 40
6.0
  1
影
 41
0.9
 72
     1
 11
747.6224888439968
 21
81.65012060864702
 31
0.0
100
AcDbText
 73
     2
  0
TEXT
  5
2A77A
330
1F
100
AcDbEntity
  8
0
100
AcDbText
 10
630.6333333333332
 20
53.17407255781768
 30
0.0
 40
7.0
  1
2019.
 41
0.8
 72
     1
 11
642.4999999999998
 21
56.67407255781768
 31
0.0
100
AcDbText
 73
     2
  0
TEXT
  5
2A77B
330
1F
100
AcDbEntity
  8
0
100
AcDbText
 10
630.0999999999999
 20
43.06713063926508
 30
0.0
 40
7.0
  1
11.20
 41
0.8
 72
     1
 11
642.4999999999998
 21
46.56713063926509
 31
0.0
100
AcDbText
 73
     2
  0
TEXT
  5
2BF6C
330
1F
100
AcDbEntity
  8
0
100
AcDbText
 10
598.5120659890464
 20
78.81032994523384
 30
0.0
 40
7.0
  1
PDW-50
 41
0.9
 72
     1
 11
618.4620659890464
 21
82.31032994523385
 31
0.0
100
AcDbText
 73
     2
  0
TEXT
  5
2CB93
330
1F
100
AcDbEntity
  8
寸法
100
AcDbText
 10
407.5614710562573
 20
258.6696119982422
 30
0.0
 40
7.0
  1
φ75.2山11　上水
 41
0.9
  7
寸法
100
AcDbText
  0
LINE
  5
2EE3C
330
1F
100
AcDbEntity
  8
実線
100
AcDbLine
 10
672.4420803387797
 20
358.5949408827987
 30
0.0
 11
672.4420803387797
 21
372.9949408827989
 31
0.0
  0
LINE
  5
2EE3D
330
1F
100
AcDbEntity
  8
実線
100
AcDbLine
 10
677.64208033878
 20
358.5949408827987
 30
0.0
 11
677.64208033878
 21
372.9949408827989
 31
0.0
  0
LINE
  5
2EE3E
330
1F
100
AcDbEntity
  8
実線
100
AcDbLine
 10
684.4420803387797
 20
372.9949408827989
 30
0.0
 11
684.4420803387797
 21
358.5949408827987
 31
0.0
  0
LINE
  5
2EE3F
330
1F
100
AcDbEntity
  8
実線
100
AcDbLine
 10
665.64208033878
 20
358.5949408827987
 30
0.0
 11
665.64208033878
 21
372.9949408827989
 31
0.0
  0
LINE
  5
2EE40
330
1F
100
AcDbEntity
  8
実線
100
AcDbLine
 10
660.4420803387797
 20
358.5949408827987
 30
0.0
 11
660.4420803387797
 21
372.9949408827989
 31
0.0
  0
LINE
  5
2EE41
330
1F
100
AcDbEntity
  8
実線
100
AcDbLine
 10
653.64208033878
 20
358.5949408827987
 30
0.0
 11
653.64208033878
 21
372.9949408827989
 31
0.0
  0
LINE
  5
2EE42
330
1F
100
AcDbEntity
  8
実線
100
AcDbLine
 10
648.4420803387798
 20
358.5949408827987
 30
0.0
 11
648.4420803387798
 21
372.9949408827989
 31
0.0
  0
LINE
  5
2EE43
330
1F
100
AcDbEntity
  8
実線
100
AcDbLine
 10
641.64208033878
 20
358.5949408827987
 30
0.0
 11
641.64208033878
 21
372.9949408827989
 31
0.0
  0
LINE
  5
2EE44
330
1F
100
AcDbEntity
  8
実線
100
AcDbLine
 10
636.4420803387798
 20
358.5949408827987
 30
0.0
 11
636.4420803387798
 21
372.9949408827989
 31
0.0
  0
LINE
  5
2EE45
330
1F
100
AcDbEntity
  8
実線
100
AcDbLine
 10
629.64208033878
 20
358.5949408827987
 30
0.0
 11
629.64208033878
 21
372.9949408827989
 31
0.0
  0
LINE
  5
2EE46
330
1F
100
AcDbEntity
  8
実線
100
AcDbLine
 10
624.4420803387797
 20
358.5949408827987
 30
0.0
 11
624.4420803387797
 21
372.9949408827989
 31
0.0
  0
LINE
  5
2EE47
330
1F
100
AcDbEntity
  8
実線
100
AcDbLine
 10
617.64208033878
 20
358.5949408827987
 30
0.0
 11
617.64208033878
 21
372.9949408827989
 31
0.0
  0
LINE
  5
2EE48
330
1F
100
AcDbEntity
  8
実線
100
AcDbLine
 10
678.5420803387795
 20
368.2949408827985
 30
0.0
 11
678.5420803387795
 21
363.2949408827985
 31
0.0
  0
ARC
  5
2EE49
330
1F
100
AcDbEntity
  8
実線
100
AcDbCircle
 10
680.5420803387796
 20
368.2949408827985
 30
0.0
 40
2.0
100
AcDbArc
 50
90.0
 51
180.0
  0
LINE
  5
2EE4A
330
1F
100
AcDbEntity
  8
実線
100
AcDbLine
 10
683.5420803387798
 20
368.2949408827985
 30
0.0
 11
683.5420803387798
 21
363.2949408827985
 31
0.0
  0
ARC
  5
2EE4B
330
1F
100
AcDbEntity
  8
実線
100
AcDbCircle
 10
681.5420803387795
 20
363.2949408827985
 30
0.0
 40
2.0
100
AcDbArc
 50
270.0
 51
0.0
  0
LINE
  5
2EE4C
330
1F
100
AcDbEntity
  8
実線
100
AcDbLine
 10
681.5420803387795
 20
361.2949408827985
 30
0.0
 11
680.5420803387796
 21
361.2949408827985
 31
0.0
  0
ARC
  5
2EE4D
330
1F
100
AcDbEntity
  8
実線
100
AcDbCircle
 10
680.5420803387796
 20
363.2949408827985
 30
0.0
 40
2.0
100
AcDbArc
 50
180.0
 51
270.0
  0
LINE
  5
2EE4E
330
1F
100
AcDbEntity
  8
実線
100
AcDbLine
 10
681.5420803387795
 20
370.2949408827985
 30
0.0
 11
680.5420803387796
 21
370.2949408827985
 31
0.0
  0
ARC
  5
2EE4F
330
1F
100
AcDbEntity
  8
実線
100
AcDbCircle
 10
681.5420803387795
 20
368.2949408827985
 30
0.0
 40
2.0
100
AcDbArc
 50
0.0
 51
90.0
  0
LINE
  5
2EE50
330
1F
100
AcDbEntity
  8
実線
100
AcDbLine
 10
682.5420803387795
 20
368.2949408827985
 30
0.0
 11
682.5420803387795
 21
363.2949408827985
 31
0.0
  0
ARC
  5
2EE51
330
1F
100
AcDbEntity
  8
実線
100
AcDbCircle
 10
681.5420803387795
 20
363.2949408827985
 30
0.0
 40
1.0
100
AcDbArc
 50
270.0
 51
0.0
  0
LINE
  5
2EE52
330
1F
100
AcDbEntity
  8
実線
100
AcDbLine
 10
681.5420803387795
 20
369.2949408827985
 30
0.0
 11
680.5420803387796
 21
369.2949408827985
 31
0.0
  0
ARC
  5
2EE53
330
1F
100
AcDbEntity
  8
実線
100
AcDbCircle
 10
681.5420803387795
 20
368.2949408827985
 30
0.0
 40
1.0
100
AcDbArc
 50
0.0
 51
90.0
  0
ARC
  5
2EE54
330
1F
100
AcDbEntity
  8
実線
100
AcDbCircle
 10
680.5420803387796
 20
368.2949408827985
 30
0.0
 40
1.0
100
AcDbArc
 50
90.0
 51
180.0
  0
LINE
  5
2EE55
330
1F
100
AcDbEntity
  8
実線
100
AcDbLine
 10
679.5420803387798
 20
368.2949408827985
 30
0.0
 11
679.5420803387798
 21
363.2949408827985
 31
0.0
  0
LINE
  5
2EE56
330
1F
100
AcDbEntity
  8
実線
100
AcDbLine
 10
681.5420803387795
 20
362.2949408827985
 30
0.0
 11
680.5420803387796
 21
362.2949408827985
 31
0.0
  0
ARC
  5
2EE57
330
1F
100
AcDbEntity
  8
実線
100
AcDbCircle
 10
680.5420803387796
 20
363.2949408827985
 30
0.0
 40
1.0
100
AcDbArc
 50
180.0
 51
270.0
  0
LINE
  5
2EE58
330
1F
100
AcDbEntity
  8
実線
100
AcDbLine
 10
666.5420803387795
 20
368.2949408827985
 30
0.0
 11
666.5420803387795
 21
363.2949408827985
 31
0.0
  0
ARC
  5
2EE59
330
1F
100
AcDbEntity
  8
実線
100
AcDbCircle
 10
668.5420803387795
 20
368.2949408827985
 30
0.0
 40
2.0
100
AcDbArc
 50
90.0
 51
180.0
  0
LINE
  5
2EE5A
330
1F
100
AcDbEntity
  8
実線
100
AcDbLine
 10
671.5420803387798
 20
368.2949408827985
 30
0.0
 11
671.5420803387798
 21
363.2949408827985
 31
0.0
  0
ARC
  5
2EE5B
330
1F
100
AcDbEntity
  8
実線
100
AcDbCircle
 10
669.5420803387795
 20
363.2949408827985
 30
0.0
 40
2.0
100
AcDbArc
 50
270.0
 51
0.0
  0
LINE
  5
2EE5C
330
1F
100
AcDbEntity
  8
実線
100
AcDbLine
 10
669.5420803387795
 20
361.2949408827985
 30
0.0
 11
668.5420803387795
 21
361.2949408827985
 31
0.0
  0
ARC
  5
2EE5D
330
1F
100
AcDbEntity
  8
実線
100
AcDbCircle
 10
668.5420803387795
 20
363.2949408827985
 30
0.0
 40
2.0
100
AcDbArc
 50
180.0
 51
270.0
  0
LINE
  5
2EE5E
330
1F
100
AcDbEntity
  8
実線
100
AcDbLine
 10
669.5420803387795
 20
370.2949408827985
 30
0.0
 11
668.5420803387795
 21
370.2949408827985
 31
0.0
  0
ARC
  5
2EE5F
330
1F
100
AcDbEntity
  8
実線
100
AcDbCircle
 10
669.5420803387795
 20
368.2949408827985
 30
0.0
 40
2.0
100
AcDbArc
 50
0.0
 51
90.0
  0
LINE
  5
2EE60
330
1F
100
AcDbEntity
  8
実線
100
AcDbLine
 10
670.5420803387795
 20
368.2949408827985
 30
0.0
 11
670.5420803387795
 21
363.2949408827985
 31
0.0
  0
ARC
  5
2EE61
330
1F
100
AcDbEntity
  8
実線
100
AcDbCircle
 10
669.5420803387795
 20
363.2949408827985
 30
0.0
 40
1.0
100
AcDbArc
 50
270.0
 51
0.0
  0
LINE
  5
2EE62
330
1F
100
AcDbEntity
  8
実線
100
AcDbLine
 10
669.5420803387795
 20
369.2949408827985
 30
0.0
 11
668.5420803387795
 21
369.2949408827985
 31
0.0
  0
ARC
  5
2EE63
330
1F
100
AcDbEntity
  8
実線
100
AcDbCircle
 10
669.5420803387795
 20
368.2949408827985
 30
0.0
 40
1.0
100
AcDbArc
 50
0.0
 51
90.0
  0
ARC
  5
2EE64
330
1F
100
AcDbEntity
  8
実線
100
AcDbCircle
 10
668.5420803387795
 20
368.2949408827985
 30
0.0
 40
1.0
100
AcDbArc
 50
90.0
 51
180.0
  0
LINE
  5
2EE65
330
1F
100
AcDbEntity
  8
実線
100
AcDbLine
 10
667.5420803387797
 20
368.2949408827985
 30
0.0
 11
667.5420803387797
 21
363.2949408827985
 31
0.0
  0
LINE
  5
2EE66
330
1F
100
AcDbEntity
  8
実線
100
AcDbLine
 10
669.5420803387795
 20
362.2949408827985
 30
0.0
 11
668.5420803387795
 21
362.2949408827985
 31
0.0
  0
ARC
  5
2EE67
330
1F
100
AcDbEntity
  8
実線
100
AcDbCircle
 10
668.5420803387795
 20
363.2949408827985
 30
0.0
 40
1.0
100
AcDbArc
 50
180.0
 51
270.0
  0
LINE
  5
2EE68
330
1F
100
AcDbEntity
  8
実線
100
AcDbLine
 10
654.5420803387798
 20
368.2949408827985
 30
0.0
 11
654.5420803387798
 21
363.2949408827985
 31
0.0
  0
ARC
  5
2EE69
330
1F
100
AcDbEntity
  8
実線
100
AcDbCircle
 10
656.5420803387795
 20
368.2949408827985
 30
0.0
 40
2.0
100
AcDbArc
 50
90.0
 51
180.0
  0
LINE
  5
2EE6A
330
1F
100
AcDbEntity
  8
実線
100
AcDbLine
 10
659.5420803387797
 20
368.2949408827985
 30
0.0
 11
659.5420803387797
 21
363.2949408827985
 31
0.0
  0
ARC
  5
2EE6B
330
1F
100
AcDbEntity
  8
実線
100
AcDbCircle
 10
657.5420803387795
 20
363.2949408827985
 30
0.0
 40
2.0
100
AcDbArc
 50
270.0
 51
0.0
  0
LINE
  5
2EE6C
330
1F
100
AcDbEntity
  8
実線
100
AcDbLine
 10
657.5420803387795
 20
361.2949408827985
 30
0.0
 11
656.5420803387795
 21
361.2949408827985
 31
0.0
  0
ARC
  5
2EE6D
330
1F
100
AcDbEntity
  8
実線
100
AcDbCircle
 10
656.5420803387795
 20
363.2949408827985
 30
0.0
 40
2.0
100
AcDbArc
 50
180.0
 51
270.0
  0
LINE
  5
2EE6E
330
1F
100
AcDbEntity
  8
実線
100
AcDbLine
 10
657.5420803387795
 20
370.2949408827985
 30
0.0
 11
656.5420803387795
 21
370.2949408827985
 31
0.0
  0
ARC
  5
2EE6F
330
1F
100
AcDbEntity
  8
実線
100
AcDbCircle
 10
657.5420803387795
 20
368.2949408827985
 30
0.0
 40
2.0
100
AcDbArc
 50
0.0
 51
90.0
  0
LINE
  5
2EE70
330
1F
100
AcDbEntity
  8
実線
100
AcDbLine
 10
658.5420803387798
 20
368.2949408827985
 30
0.0
 11
658.5420803387798
 21
363.2949408827985
 31
0.0
  0
ARC
  5
2EE71
330
1F
100
AcDbEntity
  8
実線
100
AcDbCircle
 10
657.5420803387795
 20
363.2949408827985
 30
0.0
 40
1.0
100
AcDbArc
 50
270.0
 51
0.0
  0
LINE
  5
2EE72
330
1F
100
AcDbEntity
  8
実線
100
AcDbLine
 10
657.5420803387795
 20
369.2949408827985
 30
0.0
 11
656.5420803387795
 21
369.2949408827985
 31
0.0
  0
ARC
  5
2EE73
330
1F
100
AcDbEntity
  8
実線
100
AcDbCircle
 10
657.5420803387795
 20
368.2949408827985
 30
0.0
 40
1.0
100
AcDbArc
 50
0.0
 51
90.0
  0
ARC
  5
2EE74
330
1F
100
AcDbEntity
  8
実線
100
AcDbCircle
 10
656.5420803387795
 20
368.2949408827985
 30
0.0
 40
1.0
100
AcDbArc
 50
90.0
 51
180.0
  0
LINE
  5
2EE75
330
1F
100
AcDbEntity
  8
実線
100
AcDbLine
 10
655.5420803387796
 20
368.2949408827985
 30
0.0
 11
655.5420803387796
 21
363.2949408827985
 31
0.0
  0
LINE
  5
2EE76
330
1F
100
AcDbEntity
  8
実線
100
AcDbLine
 10
657.5420803387795
 20
362.2949408827985
 30
0.0
 11
656.5420803387795
 21
362.2949408827985
 31
0.0
  0
ARC
  5
2EE77
330
1F
100
AcDbEntity
  8
実線
100
AcDbCircle
 10
656.5420803387795
 20
363.2949408827985
 30
0.0
 40
1.0
100
AcDbArc
 50
180.0
 51
270.0
  0
LINE
  5
2EE78
330
1F
100
AcDbEntity
  8
実線
100
AcDbLine
 10
642.5420803387797
 20
368.2949408827985
 30
0.0
 11
642.5420803387797
 21
363.2949408827985
 31
0.0
  0
ARC
  5
2EE79
330
1F
100
AcDbEntity
  8
実線
100
AcDbCircle
 10
644.5420803387795
 20
368.2949408827985
 30
0.0
 40
2.0
100
AcDbArc
 50
90.0
 51
180.0
  0
LINE
  5
2EE7A
330
1F
100
AcDbEntity
  8
実線
100
AcDbLine
 10
647.5420803387796
 20
368.2949408827985
 30
0.0
 11
647.5420803387796
 21
363.2949408827985
 31
0.0
  0
ARC
  5
2EE7B
330
1F
100
AcDbEntity
  8
実線
100
AcDbCircle
 10
645.5420803387795
 20
363.2949408827985
 30
0.0
 40
2.0
100
AcDbArc
 50
270.0
 51
0.0
  0
LINE
  5
2EE7C
330
1F
100
AcDbEntity
  8
実線
100
AcDbLine
 10
645.5420803387795
 20
361.2949408827985
 30
0.0
 11
644.5420803387795
 21
361.2949408827985
 31
0.0
  0
ARC
  5
2EE7D
330
1F
100
AcDbEntity
  8
実線
100
AcDbCircle
 10
644.5420803387795
 20
363.2949408827985
 30
0.0
 40
2.0
100
AcDbArc
 50
180.0
 51
270.0
  0
LINE
  5
2EE7E
330
1F
100
AcDbEntity
  8
実線
100
AcDbLine
 10
645.5420803387795
 20
370.2949408827985
 30
0.0
 11
644.5420803387795
 21
370.2949408827985
 31
0.0
  0
ARC
  5
2EE7F
330
1F
100
AcDbEntity
  8
実線
100
AcDbCircle
 10
645.5420803387795
 20
368.2949408827985
 30
0.0
 40
2.0
100
AcDbArc
 50
0.0
 51
90.0
  0
LINE
  5
2EE80
330
1F
100
AcDbEntity
  8
実線
100
AcDbLine
 10
646.5420803387798
 20
368.2949408827985
 30
0.0
 11
646.5420803387798
 21
363.2949408827985
 31
0.0
  0
ARC
  5
2EE81
330
1F
100
AcDbEntity
  8
実線
100
AcDbCircle
 10
645.5420803387795
 20
363.2949408827985
 30
0.0
 40
1.0
100
AcDbArc
 50
270.0
 51
0.0
  0
LINE
  5
2EE82
330
1F
100
AcDbEntity
  8
実線
100
AcDbLine
 10
645.5420803387795
 20
369.2949408827985
 30
0.0
 11
644.5420803387795
 21
369.2949408827985
 31
0.0
  0
ARC
  5
2EE83
330
1F
100
AcDbEntity
  8
実線
100
AcDbCircle
 10
645.5420803387795
 20
368.2949408827985
 30
0.0
 40
1.0
100
AcDbArc
 50
0.0
 51
90.0
  0
ARC
  5
2EE84
330
1F
100
AcDbEntity
  8
実線
100
AcDbCircle
 10
644.5420803387795
 20
368.2949408827985
 30
0.0
 40
1.0
100
AcDbArc
 50
90.0
 51
180.0
  0
LINE
  5
2EE85
330
1F
100
AcDbEntity
  8
実線
100
AcDbLine
 10
643.5420803387795
 20
368.2949408827985
 30
0.0
 11
643.5420803387795
 21
363.2949408827985
 31
0.0
  0
LINE
  5
2EE86
330
1F
100
AcDbEntity
  8
実線
100
AcDbLine
 10
645.5420803387795
 20
362.2949408827985
 30
0.0
 11
644.5420803387795
 21
362.2949408827985
 31
0.0
  0
ARC
  5
2EE87
330
1F
100
AcDbEntity
  8
実線
100
AcDbCircle
 10
644.5420803387795
 20
363.2949408827985
 30
0.0
 40
1.0
100
AcDbArc
 50
180.0
 51
270.0
  0
LINE
  5
2EE88
330
1F
100
AcDbEntity
  8
実線
100
AcDbLine
 10
630.5420803387796
 20
368.2949408827985
 30
0.0
 11
630.5420803387796
 21
363.2949408827985
 31
0.0
  0
ARC
  5
2EE89
330
1F
100
AcDbEntity
  8
実線
100
AcDbCircle
 10
632.5420803387795
 20
368.2949408827985
 30
0.0
 40
2.0
100
AcDbArc
 50
90.0
 51
180.0
  0
LINE
  5
2EE8A
330
1F
100
AcDbEntity
  8
実線
100
AcDbLine
 10
635.5420803387795
 20
368.2949408827985
 30
0.0
 11
635.5420803387795
 21
363.2949408827985
 31
0.0
  0
ARC
  5
2EE8B
330
1F
100
AcDbEntity
  8
実線
100
AcDbCircle
 10
633.5420803387798
 20
363.2949408827985
 30
0.0
 40
2.0
100
AcDbArc
 50
270.0
 51
0.0
  0
LINE
  5
2EE8C
330
1F
100
AcDbEntity
  8
実線
100
AcDbLine
 10
633.5420803387798
 20
361.2949408827985
 30
0.0
 11
632.5420803387795
 21
361.2949408827985
 31
0.0
  0
ARC
  5
2EE8D
330
1F
100
AcDbEntity
  8
実線
100
AcDbCircle
 10
632.5420803387795
 20
363.2949408827985
 30
0.0
 40
2.0
100
AcDbArc
 50
180.0
 51
270.0
  0
LINE
  5
2EE8E
330
1F
100
AcDbEntity
  8
実線
100
AcDbLine
 10
633.5420803387798
 20
370.2949408827985
 30
0.0
 11
632.5420803387795
 21
370.2949408827985
 31
0.0
  0
ARC
  5
2EE8F
330
1F
100
AcDbEntity
  8
実線
100
AcDbCircle
 10
633.5420803387798
 20
368.2949408827985
 30
0.0
 40
2.0
100
AcDbArc
 50
0.0
 51
90.0
  0
LINE
  5
2EE90
330
1F
100
AcDbEntity
  8
実線
100
AcDbLine
 10
634.5420803387797
 20
368.2949408827985
 30
0.0
 11
634.5420803387797
 21
363.2949408827985
 31
0.0
  0
ARC
  5
2EE91
330
1F
100
AcDbEntity
  8
実線
100
AcDbCircle
 10
633.5420803387798
 20
363.2949408827985
 30
0.0
 40
1.0
100
AcDbArc
 50
270.0
 51
0.0
  0
LINE
  5
2EE92
330
1F
100
AcDbEntity
  8
実線
100
AcDbLine
 10
633.5420803387798
 20
369.2949408827985
 30
0.0
 11
632.5420803387795
 21
369.2949408827985
 31
0.0
  0
ARC
  5
2EE93
330
1F
100
AcDbEntity
  8
実線
100
AcDbCircle
 10
633.5420803387798
 20
368.2949408827985
 30
0.0
 40
1.0
100
AcDbArc
 50
0.0
 51
90.0
  0
ARC
  5
2EE94
330
1F
100
AcDbEntity
  8
実線
100
AcDbCircle
 10
632.5420803387795
 20
368.2949408827985
 30
0.0
 40
1.0
100
AcDbArc
 50
90.0
 51
180.0
  0
LINE
  5
2EE95
330
1F
100
AcDbEntity
  8
実線
100
AcDbLine
 10
631.5420803387795
 20
368.2949408827985
 30
0.0
 11
631.5420803387795
 21
363.2949408827985
 31
0.0
  0
LINE
  5
2EE96
330
1F
100
AcDbEntity
  8
実線
100
AcDbLine
 10
633.5420803387798
 20
362.2949408827985
 30
0.0
 11
632.5420803387795
 21
362.2949408827985
 31
0.0
  0
ARC
  5
2EE97
330
1F
100
AcDbEntity
  8
実線
100
AcDbCircle
 10
632.5420803387795
 20
363.2949408827985
 30
0.0
 40
1.0
100
AcDbArc
 50
180.0
 51
270.0
  0
LINE
  5
2EE98
330
1F
100
AcDbEntity
  8
実線
100
AcDbLine
 10
618.5420803387795
 20
368.2949408827985
 30
0.0
 11
618.5420803387795
 21
363.2949408827985
 31
0.0
  0
ARC
  5
2EE99
330
1F
100
AcDbEntity
  8
実線
100
AcDbCircle
 10
620.5420803387795
 20
368.2949408827985
 30
0.0
 40
2.0
100
AcDbArc
 50
90.0
 51
180.0
  0
LINE
  5
2EE9A
330
1F
100
AcDbEntity
  8
実線
100
AcDbLine
 10
623.5420803387795
 20
368.2949408827985
 30
0.0
 11
623.5420803387795
 21
363.2949408827985
 31
0.0
  0
ARC
  5
2EE9B
330
1F
100
AcDbEntity
  8
実線
100
AcDbCircle
 10
621.5420803387798
 20
363.2949408827985
 30
0.0
 40
2.0
100
AcDbArc
 50
270.0
 51
0.0
  0
LINE
  5
2EE9C
330
1F
100
AcDbEntity
  8
実線
100
AcDbLine
 10
621.5420803387798
 20
361.2949408827985
 30
0.0
 11
620.5420803387795
 21
361.2949408827985
 31
0.0
  0
ARC
  5
2EE9D
330
1F
100
AcDbEntity
  8
実線
100
AcDbCircle
 10
620.5420803387795
 20
363.2949408827985
 30
0.0
 40
2.0
100
AcDbArc
 50
180.0
 51
270.0
  0
LINE
  5
2EE9E
330
1F
100
AcDbEntity
  8
実線
100
AcDbLine
 10
621.5420803387798
 20
370.2949408827985
 30
0.0
 11
620.5420803387795
 21
370.2949408827985
 31
0.0
  0
ARC
  5
2EE9F
330
1F
100
AcDbEntity
  8
実線
100
AcDbCircle
 10
621.5420803387798
 20
368.2949408827985
 30
0.0
 40
2.0
100
AcDbArc
 50
0.0
 51
90.0
  0
LINE
  5
2EEA0
330
1F
100
AcDbEntity
  8
実線
100
AcDbLine
 10
622.5420803387796
 20
368.2949408827985
 30
0.0
 11
622.5420803387796
 21
363.2949408827985
 31
0.0
  0
ARC
  5
2EEA1
330
1F
100
AcDbEntity
  8
実線
100
AcDbCircle
 10
621.5420803387798
 20
363.2949408827985
 30
0.0
 40
1.0
100
AcDbArc
 50
270.0
 51
0.0
  0
LINE
  5
2EEA2
330
1F
100
AcDbEntity
  8
実線
100
AcDbLine
 10
621.5420803387798
 20
369.2949408827985
 30
0.0
 11
620.5420803387795
 21
369.2949408827985
 31
0.0
  0
ARC
  5
2EEA3
330
1F
100
AcDbEntity
  8
実線
100
AcDbCircle
 10
621.5420803387798
 20
368.2949408827985
 30
0.0
 40
1.0
100
AcDbArc
 50
0.0
 51
90.0
  0
ARC
  5
2EEA4
330
1F
100
AcDbEntity
  8
実線
100
AcDbCircle
 10
620.5420803387795
 20
368.2949408827985
 30
0.0
 40
1.0
100
AcDbArc
 50
90.0
 51
180.0
  0
LINE
  5
2EEA5
330
1F
100
AcDbEntity
  8
実線
100
AcDbLine
 10
619.5420803387795
 20
368.2949408827985
 30
0.0
 11
619.5420803387795
 21
363.2949408827985
 31
0.0
  0
LINE
  5
2EEA6
330
1F
100
AcDbEntity
  8
実線
100
AcDbLine
 10
621.5420803387798
 20
362.2949408827985
 30
0.0
 11
620.5420803387795
 21
362.2949408827985
 31
0.0
  0
ARC
  5
2EEA7
330
1F
100
AcDbEntity
  8
実線
100
AcDbCircle
 10
620.5420803387795
 20
363.2949408827985
 30
0.0
 40
1.0
100
AcDbArc
 50
180.0
 51
270.0
  0
LINE
  5
2EEA8
330
1F
100
AcDbEntity
  8
実線
100
AcDbLine
 10
626.0420803387797
 20
358.5949408827987
 30
0.0
 11
626.0420803387797
 21
372.9949408827989
 31
0.0
  0
LINE
  5
2EEA9
330
1F
100
AcDbEntity
  8
実線
100
AcDbLine
 10
626.4420803387797
 20
358.5949408827987
 30
0.0
 11
626.4420803387797
 21
372.9949408827989
 31
0.0
  0
LINE
  5
2EEAA
330
1F
100
AcDbEntity
  8
実線
100
AcDbLine
 10
638.0420803387798
 20
358.5949408827987
 30
0.0
 11
638.0420803387798
 21
372.9949408827989
 31
0.0
  0
LINE
  5
2EEAB
330
1F
100
AcDbEntity
  8
実線
100
AcDbLine
 10
650.0420803387798
 20
358.5949408827987
 30
0.0
 11
650.0420803387798
 21
372.9949408827989
 31
0.0
  0
LINE
  5
2EEAC
330
1F
100
AcDbEntity
  8
実線
100
AcDbLine
 10
662.0420803387795
 20
358.5949408827987
 30
0.0
 11
662.0420803387795
 21
372.9949408827989
 31
0.0
  0
LINE
  5
2EEAD
330
1F
100
AcDbEntity
  8
実線
100
AcDbLine
 10
662.4420803387797
 20
358.5949408827987
 30
0.0
 11
662.4420803387797
 21
372.9949408827989
 31
0.0
  0
LINE
  5
2EEAE
330
1F
100
AcDbEntity
  8
実線
100
AcDbLine
 10
650.4420803387797
 20
358.5949408827987
 30
0.0
 11
650.4420803387797
 21
372.9949408827989
 31
0.0
  0
LINE
  5
2EEAF
330
1F
100
AcDbEntity
  8
実線
100
AcDbLine
 10
638.4420803387797
 20
358.5949408827987
 30
0.0
 11
638.4420803387797
 21
372.9949408827989
 31
0.0
  0
ARC
  5
2EEB0
330
1F
100
AcDbEntity
  8
実線
100
AcDbCircle
 10
671.0786263387799
 20
309.7736908827987
 30
0.0
 40
5.0
100
AcDbArc
 50
276.8921029999975
 51
263.1078970000025
  0
LINE
  5
2EEB1
330
1F
100
AcDbEntity
  8
実線
100
AcDbLine
 10
670.8786263387795
 20
322.7736908827988
 30
0.0
 11
671.2786263387798
 21
322.7736908827988
 31
0.0
  0
ARC
  5
2EEB2
330
1F
100
AcDbEntity
  8
実線
100
AcDbCircle
 10
696.0040583387799
 20
326.4686848827987
 30
0.0
 40
25.0
100
AcDbArc
 50
188.4994390000005
 51
213.8140779999971
  0
ARC
  5
2EEB3
330
1F
100
AcDbEntity
  8
実線
100
AcDbCircle
 10
646.1531943387799
 20
326.4686848827987
 30
0.0
 40
25.0
100
AcDbArc
 50
326.1859220000029
 51
351.5005609999994
  0
ARC
  5
2EEB4
330
1F
100
AcDbEntity
  8
実線
100
AcDbCircle
 10
671.0786263387799
 20
309.7736908827987
 30
0.0
 40
3.316999999999999
100
AcDbArc
 50
280.4213910000026
 51
259.5786089999974
  0
LINE
  5
2EEB5
330
1F
100
AcDbEntity
  8
実線
100
AcDbLine
 10
671.6786263387797
 20
304.8098208827987
 30
0.0
 11
671.6786263387797
 21
308.6204348827987
 31
0.0
  0
LINE
  5
2EEB6
330
1F
100
AcDbEntity
  8
実線
100
AcDbLine
 10
670.47862633878
 20
304.8098208827987
 30
0.0
 11
670.47862633878
 21
308.6204348827987
 31
0.0
  0
ARC
  5
2EEB7
330
1F
100
AcDbEntity
  8
実線
100
AcDbCircle
 10
671.0786263387799
 20
309.7736908827987
 30
0.0
 40
1.3
100
AcDbArc
 50
242.5135740000021
 51
297.4864259999979
  0
ARC
  5
2EEB8
330
1F
100
AcDbEntity
  8
実線
100
AcDbCircle
 10
686.5877643387797
 20
335.0993388827987
 30
0.0
 40
5.0
100
AcDbArc
 50
276.8921029999975
 51
263.1078970000025
  0
LINE
  5
2EEB9
330
1F
100
AcDbEntity
  8
実線
100
AcDbLine
 10
686.38776433878
 20
348.0993388827987
 30
0.0
 11
686.7877643387796
 21
348.0993388827987
 31
0.0
  0
ARC
  5
2EEBA
330
1F
100
AcDbEntity
  8
実線
100
AcDbCircle
 10
711.5131963387796
 20
351.7943328827987
 30
0.0
 40
25.0
100
AcDbArc
 50
188.4994390000005
 51
213.8140779999971
  0
ARC
  5
2EEBB
330
1F
100
AcDbEntity
  8
実線
100
AcDbCircle
 10
661.6623323387797
 20
351.7943328827987
 30
0.0
 40
25.0
100
AcDbArc
 50
326.1859220000029
 51
351.5005609999994
  0
ARC
  5
2EEBC
330
1F
100
AcDbEntity
  8
実線
100
AcDbCircle
 10
686.5877643387797
 20
335.0993388827987
 30
0.0
 40
3.316999999999999
100
AcDbArc
 50
280.4213910000026
 51
259.5786089999974
  0
LINE
  5
2EEBD
330
1F
100
AcDbEntity
  8
実線
100
AcDbLine
 10
687.1877643387797
 20
330.1354688827987
 30
0.0
 11
687.1877643387797
 21
333.9460828827987
 31
0.0
  0
LINE
  5
2EEBE
330
1F
100
AcDbEntity
  8
実線
100
AcDbLine
 10
685.9877643387799
 20
330.1354688827987
 30
0.0
 11
685.9877643387799
 21
333.9460828827987
 31
0.0
  0
ARC
  5
2EEBF
330
1F
100
AcDbEntity
  8
実線
100
AcDbCircle
 10
686.5877643387797
 20
335.0993388827987
 30
0.0
 40
1.3
100
AcDbArc
 50
242.5135740000021
 51
297.4864259999979
  0
CIRCLE
  5
2EEC0
330
1F
100
AcDbEntity
  8
実線
100
AcDbCircle
 10
644.01295233878
 20
311.3550268827987
 30
0.0
 40
2.399999999999999
  0
LINE
  5
2EEC1
330
1F
100
AcDbEntity
  8
実線
100
AcDbLine
 10
641.8916323387797
 20
309.2337068827987
 30
0.0
 11
644.01295233878
 21
308.3550268827987
 31
0.0
  0
LINE
  5
2EEC2
330
1F
100
AcDbEntity
  8
実線
100
AcDbLine
 10
641.01295233878
 20
311.3550268827987
 30
0.0
 11
641.8916323387797
 21
309.2337068827987
 31
0.0
  0
LINE
  5
2EEC3
330
1F
100
AcDbEntity
  8
実線
100
AcDbLine
 10
641.8916323387797
 20
313.4763468827987
 30
0.0
 11
641.01295233878
 21
311.3550268827987
 31
0.0
  0
LINE
  5
2EEC4
330
1F
100
AcDbEntity
  8
実線
100
AcDbLine
 10
644.01295233878
 20
314.3550268827987
 30
0.0
 11
641.8916323387797
 21
313.4763468827987
 31
0.0
  0
LINE
  5
2EEC5
330
1F
100
AcDbEntity
  8
実線
100
AcDbLine
 10
646.1342723387797
 20
313.4763468827987
 30
0.0
 11
644.01295233878
 21
314.3550268827987
 31
0.0
  0
LINE
  5
2EEC6
330
1F
100
AcDbEntity
  8
実線
100
AcDbLine
 10
647.0129523387798
 20
311.3550268827987
 30
0.0
 11
646.1342723387797
 21
313.4763468827987
 31
0.0
  0
LINE
  5
2EEC7
330
1F
100
AcDbEntity
  8
実線
100
AcDbLine
 10
646.1342723387797
 20
309.2337068827987
 30
0.0
 11
647.0129523387798
 21
311.3550268827987
 31
0.0
  0
LINE
  5
2EEC8
330
1F
100
AcDbEntity
  8
実線
100
AcDbLine
 10
644.01295233878
 20
308.3550268827987
 30
0.0
 11
646.1342723387797
 21
309.2337068827987
 31
0.0
  0
LINE
  5
2EEC9
330
1F
100
AcDbEntity
  8
実線
100
AcDbLine
 10
646.1342723387797
 20
309.2337068827987
 30
0.0
 11
648.9627003387798
 21
306.4052788827987
 31
0.0
  0
LINE
  5
2EECA
330
1F
100
AcDbEntity
  8
実線
100
AcDbLine
 10
647.0129523387798
 20
311.3550268827987
 30
0.0
 11
651.0129523387798
 21
311.3550268827987
 31
0.0
  0
LINE
  5
2EECB
330
1F
100
AcDbEntity
  8
実線
100
AcDbLine
 10
646.1342723387797
 20
313.4763468827987
 30
0.0
 11
648.9627003387798
 21
316.3047748827987
 31
0.0
  0
LINE
  5
2EECC
330
1F
100
AcDbEntity
  8
実線
100
AcDbLine
 10
641.8916323387797
 20
313.4763468827987
 30
0.0
 11
639.06320433878
 21
316.3047748827987
 31
0.0
  0
LINE
  5
2EECD
330
1F
100
AcDbEntity
  8
実線
100
AcDbLine
 10
637.01295233878
 20
311.3550268827987
 30
0.0
 11
641.01295233878
 21
311.3550268827987
 31
0.0
  0
LINE
  5
2EECE
330
1F
100
AcDbEntity
  8
実線
100
AcDbLine
 10
641.8916323387797
 20
309.2337068827987
 30
0.0
 11
639.06320433878
 21
306.4052788827987
 31
0.0
  0
CIRCLE
  5
2EECF
330
1F
100
AcDbEntity
  8
実線
100
AcDbCircle
 10
644.01295233878
 20
311.3550268827987
 30
0.0
 40
7.0
  0
LINE
  5
2EED0
330
1F
100
AcDbEntity
  8
実線
100
AcDbLine
 10
640.03572633878
 20
305.5946728827987
 30
0.0
 11
639.0903363387796
 21
305.0488508827986
 31
0.0
  0
ARC
  5
2EED1
330
1F
100
AcDbEntity
  8
実線
100
AcDbCircle
 10
644.01295233878
 20
311.3550268827987
 30
0.0
 40
8.0
100
AcDbArc
 50
187.9756869999991
 51
232.0243130000015
  0
LINE
  5
2EED2
330
1F
100
AcDbEntity
  8
実線
100
AcDbLine
 10
637.03572633878
 20
310.7908248827987
 30
0.0
 11
636.0903363387797
 21
310.2450028827986
 31
0.0
  0
LINE
  5
2EED3
330
1F
100
AcDbEntity
  8
実線
100
AcDbLine
 10
641.01295233878
 20
317.6795828827987
 30
0.0
 11
641.01295233878
 21
318.7712248827986
 31
0.0
  0
ARC
  5
2EED4
330
1F
100
AcDbEntity
  8
実線
100
AcDbCircle
 10
644.01295233878
 20
311.3550268827987
 30
0.0
 40
8.0
100
AcDbArc
 50
67.97568699999835
 51
112.0243130000016
  0
LINE
  5
2EED5
330
1F
100
AcDbEntity
  8
実線
100
AcDbLine
 10
647.0129523387798
 20
317.6795828827987
 30
0.0
 11
647.0129523387798
 21
318.7712248827986
 31
0.0
  0
LINE
  5
2EED6
330
1F
100
AcDbEntity
  8
実線
100
AcDbLine
 10
650.99017833878
 20
310.7908248827987
 30
0.0
 11
651.9355683387797
 21
310.2450028827986
 31
0.0
  0
ARC
  5
2EED7
330
1F
100
AcDbEntity
  8
実線
100
AcDbCircle
 10
644.01295233878
 20
311.3550268827987
 30
0.0
 40
8.0
100
AcDbArc
 50
307.9756869999985
 51
352.0243130000009
  0
LINE
  5
2EED8
330
1F
100
AcDbEntity
  8
実線
100
AcDbLine
 10
647.9901783387798
 20
305.5946728827987
 30
0.0
 11
648.9355683387797
 21
305.0488508827986
 31
0.0
  0
LINE
  5
2EED9
330
1F
100
AcDbEntity
  8
実線
100
AcDbLine
 10
644.01295233878
 20
314.3550268827987
 30
0.0
 11
644.01295233878
 21
318.3550268827987
 31
0.0
  0
LINE
  5
2EEDA
330
1F
100
AcDbEntity
  8
実線
100
AcDbLine
 10
644.01295233878
 20
308.3550268827987
 30
0.0
 11
644.01295233878
 21
304.3550268827987
 31
0.0
  0
LINE
  5
2EEDB
330
1F
100
AcDbEntity
  8
実線
100
AcDbLine
 10
680.7639783387799
 20
328.4305468827986
 30
0.0
 11
680.38370633878
 21
328.2350048827987
 31
0.0
  0
LINE
  5
2EEDC
330
1F
100
AcDbEntity
  8
実線
100
AcDbLine
 10
682.3273683387797
 20
326.2794448827985
 30
0.0
 11
682.4541143387802
 21
326.7194428827986
 31
0.0
  0
LINE
  5
2EEDD
330
1F
100
AcDbEntity
  8
実線
100
AcDbLine
 10
678.5016543387796
 20
339.0459988827988
 30
0.0
 11
678.3748763387797
 21
339.3393388827988
 31
0.0
  0
LINE
  5
2EEDE
330
1F
100
AcDbEntity
  8
実線
100
AcDbLine
 10
696.6701483387796
 20
331.8012208827986
 30
0.0
 11
697.1772003387799
 21
331.5078808827987
 31
0.0
  0
LINE
  5
2EEDF
330
1F
100
AcDbEntity
  8
実線
100
AcDbLine
 10
679.7076383387796
 20
326.2794448827985
 30
0.0
 11
679.9611643387797
 21
325.9861308827987
 31
0.0
  0
LINE
  5
2EEE0
330
1F
100
AcDbEntity
  8
実線
100
AcDbLine
 10
694.6842503387797
 20
333.3167808827986
 30
0.0
 11
694.9377743387799
 21
333.6100948827986
 31
0.0
  0
LINE
  5
2EEE1
330
1F
100
AcDbEntity
  8
実線
100
AcDbLine
 10
687.7060863387796
 20
345.8181048827987
 30
0.0
 11
687.4525603387795
 21
346.1114448827987
 31
0.0
  0
LINE
  5
2EEE2
330
1F
100
AcDbEntity
  8
実線
100
AcDbLine
 10
680.8907243387797
 20
329.9461088827986
 30
0.0
 11
680.38370633878
 21
329.7505388827988
 31
0.0
  0
LINE
  5
2EEE3
330
1F
100
AcDbEntity
  8
実線
100
AcDbLine
 10
685.4680363387797
 20
326.2415788827987
 30
0.0
 11
685.0877643387796
 21
325.9482388827987
 31
0.0
  0
LINE
  5
2EEE4
330
1F
100
AcDbEntity
  8
実線
100
AcDbLine
 10
697.4578003387796
 20
338.1549468827986
 30
0.0
 11
697.2042743387795
 21
337.8616328827986
 31
0.0
  0
LINE
  5
2EEE5
330
1F
100
AcDbEntity
  8
実線
100
AcDbLine
 10
680.2448823387797
 20
341.7662748827986
 30
0.0
 11
679.8223403387797
 21
342.0596148827988
 31
0.0
  0
LINE
  5
2EEE6
330
1F
100
AcDbEntity
  8
実線
100
AcDbLine
 10
688.0877643387797
 20
325.5082428827986
 30
0.0
 11
687.9609863387798
 21
325.8015828827987
 31
0.0
  0
LINE
  5
2EEE7
330
1F
100
AcDbEntity
  8
実線
100
AcDbLine
 10
695.3873603387798
 20
339.6705068827987
 30
0.0
 11
695.8944103387797
 21
339.8660508827986
 31
0.0
  0
LINE
  5
2EEE8
330
1F
100
AcDbEntity
  8
実線
100
AcDbLine
 10
677.9946043387799
 20
337.6771208827986
 30
0.0
 11
677.5720623387798
 21
337.8237768827987
 31
0.0
  0
LINE
  5
2EEE9
330
1F
100
AcDbEntity
  8
実線
100
AcDbLine
 10
685.8905783387799
 20
323.8460248827987
 30
0.0
 11
686.2708503387797
 21
323.6993668827986
 31
0.0
  0
LINE
  5
2EEEA
330
1F
100
AcDbEntity
  8
実線
100
AcDbLine
 10
687.9596103387797
 20
345.3781068827987
 30
0.0
 11
687.7060863387796
 21
345.8181048827987
 31
0.0
  0
LINE
  5
2EEEB
330
1F
100
AcDbEntity
  8
実線
100
AcDbLine
 10
678.6458763387798
 20
333.8429628827987
 30
0.0
 11
676.7444543387796
 21
329.4429628827986
 31
0.0
  0
LINE
  5
2EEEC
330
1F
100
AcDbEntity
  8
実線
100
AcDbLine
 10
677.4453163387797
 20
335.4282208827986
 30
0.0
 11
677.9946043387799
 21
335.5749048827986
 31
0.0
  0
LINE
  5
2EEED
330
1F
100
AcDbEntity
  8
実線
100
AcDbLine
 10
685.0877643387796
 20
325.9482388827987
 30
0.0
 11
685.0877643387796
 21
328.0993408827987
 31
0.0
  0
LINE
  5
2EEEE
330
1F
100
AcDbEntity
  8
実線
100
AcDbLine
 10
681.6935383387799
 20
328.2350048827987
 30
0.0
 11
681.2710283387795
 21
328.4305468827986
 31
0.0
  0
LINE
  5
2EEEF
330
1F
100
AcDbEntity
  8
実線
100
AcDbLine
 10
676.2621983387797
 20
337.6771208827986
 30
0.0
 11
675.8819263387798
 21
337.3837788827986
 31
0.0
  0
LINE
  5
2EEF0
330
1F
100
AcDbEntity
  8
実線
100
AcDbLine
 10
697.4307243387798
 20
330.1390028827987
 30
0.0
 11
697.1772003387799
 21
329.8456608827987
 31
0.0
  0
LINE
  5
2EEF1
330
1F
100
AcDbEntity
  8
実線
100
AcDbLine
 10
685.0863583387798
 20
344.5958828827986
 30
0.0
 11
685.0863583387798
 21
343.8625708827985
 31
0.0
  0
LINE
  5
2EEF2
330
1F
100
AcDbEntity
  8
実線
100
AcDbLine
 10
681.8203163387797
 20
325.6927908827986
 30
0.0
 11
682.0738423387797
 21
325.8394488827987
 31
0.0
  0
LINE
  5
2EEF3
330
1F
100
AcDbEntity
  8
実線
100
AcDbLine
 10
675.7551803387796
 20
338.6060008827985
 30
0.0
 11
675.8819263387798
 21
338.3126608827988
 31
0.0
  0
LINE
  5
2EEF4
330
1F
100
AcDbEntity
  8
実線
100
AcDbLine
 10
678.1213503387797
 20
337.9704348827986
 30
0.0
 11
678.5016543387796
 21
338.6060008827985
 31
0.0
  0
LINE
  5
2EEF5
330
1F
100
AcDbEntity
  8
実線
100
AcDbLine
 10
697.1772003387799
 20
331.9478768827987
 30
0.0
 11
696.6701483387796
 21
331.8012208827986
 31
0.0
  0
LINE
  5
2EEF6
330
1F
100
AcDbEntity
  8
実線
100
AcDbLine
 10
679.4541143387796
 20
327.2083268827987
 30
0.0
 11
679.58086033878
 21
326.5727848827987
 31
0.0
  0
LINE
  5
2EEF7
330
1F
100
AcDbEntity
  8
実線
100
AcDbLine
 10
696.3743863387799
 20
333.9523208827986
 30
0.0
 11
696.9236743387796
 21
333.7567788827987
 31
0.0
  0
LINE
  5
2EEF8
330
1F
100
AcDbEntity
  8
実線
100
AcDbLine
 10
681.9350183387796
 20
340.5440528827987
 30
0.0
 11
681.5547463387797
 21
340.2507128827988
 31
0.0
  0
LINE
  5
2EEF9
330
1F
100
AcDbEntity
  8
実線
100
AcDbLine
 10
682.1885423387797
 20
340.9840508827985
 30
0.0
 11
681.9350183387796
 21
340.5440528827987
 31
0.0
  0
LINE
  5
2EEFA
330
1F
100
AcDbEntity
  8
実線
100
AcDbLine
 10
682.4420683387797
 20
342.7929268827988
 30
0.0
 11
682.4420683387797
 21
341.9129308827987
 31
0.0
  0
LINE
  5
2EEFB
330
1F
100
AcDbEntity
  8
実線
100
AcDbLine
 10
682.3152903387799
 20
343.4284928827985
 30
0.0
 11
682.4420683387797
 21
342.7929268827988
 31
0.0
  0
LINE
  5
2EEFC
330
1F
100
AcDbEntity
  8
実線
100
AcDbLine
 10
682.1885423387797
 20
343.7218068827988
 30
0.0
 11
682.3152903387799
 21
343.4284928827985
 31
0.0
  0
LINE
  5
2EEFD
330
1F
100
AcDbEntity
  8
実線
100
AcDbLine
 10
681.1322043387799
 20
344.5040308827988
 30
0.0
 11
681.5547463387797
 21
344.3084868827987
 31
0.0
  0
LINE
  5
2EEFE
330
1F
100
AcDbEntity
  8
実線
100
AcDbLine
 10
694.7113243387796
 20
335.9060728827988
 30
0.0
 11
694.5845463387798
 21
335.4660768827987
 31
0.0
  0
LINE
  5
2EEFF
330
1F
100
AcDbEntity
  8
実線
100
AcDbLine
 10
680.0758643387799
 20
344.3084868827987
 30
0.0
 11
680.6251543387798
 21
344.5040308827988
 31
0.0
  0
LINE
  5
2EF00
330
1F
100
AcDbEntity
  8
実線
100
AcDbLine
 10
679.8223403387797
 20
344.1618048827986
 30
0.0
 11
680.0758643387799
 21
344.3084868827987
 31
0.0
  0
LINE
  5
2EF01
330
1F
100
AcDbEntity
  8
実線
100
AcDbLine
 10
679.5688143387796
 20
343.7218068827988
 30
0.0
 11
679.8223403387797
 21
344.1618048827986
 31
0.0
  0
LINE
  5
2EF02
330
1F
100
AcDbEntity
  8
実線
100
AcDbLine
 10
679.4420683387798
 20
343.2818088827987
 30
0.0
 11
679.5688143387796
 21
343.7218068827988
 31
0.0
  0
LINE
  5
2EF03
330
1F
100
AcDbEntity
  8
実線
100
AcDbLine
 10
686.2708503387797
 20
326.5837788827987
 30
0.0
 11
685.7215603387799
 21
326.3882368827986
 31
0.0
  0
LINE
  5
2EF04
330
1F
100
AcDbEntity
  8
実線
100
AcDbLine
 10
681.1322043387799
 20
341.6195908827985
 30
0.0
 11
680.6251543387798
 21
341.6195908827985
 31
0.0
  0
LINE
  5
2EF05
330
1F
100
AcDbEntity
  8
実線
100
AcDbLine
 10
694.7113243387796
 20
339.0838528827988
 30
0.0
 11
694.9648503387797
 21
339.3771668827985
 31
0.0
  0
LINE
  5
2EF06
330
1F
100
AcDbEntity
  8
実線
100
AcDbLine
 10
681.5547463387797
 20
344.3084868827987
 30
0.0
 11
681.9350183387796
 21
344.0151468827985
 31
0.0
  0
LINE
  5
2EF07
330
1F
100
AcDbEntity
  8
実線
100
AcDbLine
 10
697.1772003387799
 20
333.6100948827986
 30
0.0
 11
697.4307243387798
 21
333.3167808827986
 31
0.0
  0
LINE
  5
2EF08
330
1F
100
AcDbEntity
  8
実線
100
AcDbLine
 10
681.2710283387795
 20
328.4305468827986
 30
0.0
 11
680.7639783387799
 21
328.4305468827986
 31
0.0
  0
LINE
  5
2EF09
330
1F
100
AcDbEntity
  8
実線
100
AcDbLine
 10
678.62840033878
 20
336.9437828827986
 30
0.0
 11
678.3748763387797
 21
337.3837788827986
 31
0.0
  0
LINE
  5
2EF0A
330
1F
100
AcDbEntity
  8
実線
100
AcDbLine
 10
685.0877643387796
 20
324.4326788827986
 30
0.0
 11
685.3412903387797
 21
324.1393648827986
 31
0.0
  0
LINE
  5
2EF0B
330
1F
100
AcDbEntity
  8
実線
100
AcDbLine
 10
688.0863583387799
 20
343.8625708827985
 30
0.0
 11
688.0863583387799
 21
344.5958828827986
 31
0.0
  0
LINE
  5
2EF0C
330
1F
100
AcDbEntity
  8
実線
100
AcDbLine
 10
679.7076383387796
 20
327.6483228827988
 30
0.0
 11
679.4541143387796
 21
327.2083268827987
 31
0.0
  0
LINE
  5
2EF0D
330
1F
100
AcDbEntity
  8
実線
100
AcDbLine
 10
676.2621983387797
 20
335.5749048827986
 30
0.0
 11
676.8115183387799
 21
335.4282208827986
 31
0.0
  0
LINE
  5
2EF0E
330
1F
100
AcDbEntity
  8
実線
100
AcDbLine
 10
682.3273683387797
 20
327.6483228827988
 30
0.0
 11
682.0738423387797
 21
327.9416628827987
 31
0.0
  0
LINE
  5
2EF0F
330
1F
100
AcDbEntity
  8
実線
100
AcDbLine
 10
677.4453163387797
 20
339.8282208827986
 30
0.0
 11
676.8115183387799
 21
339.8282208827986
 31
0.0
  0
LINE
  5
2EF10
330
1F
100
AcDbEntity
  8
実線
100
AcDbLine
 10
697.5574703387795
 20
330.9212248827987
 30
0.0
 11
697.5574703387795
 21
330.4323428827986
 31
0.0
  0
LINE
  5
2EF11
330
1F
100
AcDbEntity
  8
実線
100
AcDbLine
 10
685.4666283387796
 20
345.8181048827987
 30
0.0
 11
685.2131363387798
 21
345.3781068827987
 31
0.0
  0
LINE
  5
2EF12
330
1F
100
AcDbEntity
  8
実線
100
AcDbLine
 10
680.7639783387799
 20
325.5461328827987
 30
0.0
 11
681.2710283387795
 21
325.5461328827987
 31
0.0
  0
LINE
  5
2EF13
330
1F
100
AcDbEntity
  8
実線
100
AcDbLine
 10
676.6847403387796
 20
337.8237768827987
 30
0.0
 11
677.5720623387798
 21
337.8237768827987
 31
0.0
  0
LINE
  5
2EF14
330
1F
100
AcDbEntity
  8
実線
100
AcDbLine
 10
687.9609863387798
 20
324.4326788827986
 30
0.0
 11
688.0877643387797
 21
324.8726768827987
 31
0.0
  0
LINE
  5
2EF15
330
1F
100
AcDbEntity
  8
実線
100
AcDbLine
 10
697.4307243387798
 20
333.3167808827986
 30
0.0
 11
697.5574703387795
 21
333.0234408827987
 31
0.0
  0
LINE
  5
2EF16
330
1F
100
AcDbEntity
  8
実線
100
AcDbLine
 10
680.6251543387798
 20
344.5040308827988
 30
0.0
 11
681.1322043387799
 21
344.5040308827988
 31
0.0
  0
LINE
  5
2EF17
330
1F
100
AcDbEntity
  8
実線
100
AcDbLine
 10
695.1913003387799
 20
329.6990048827986
 30
0.0
 11
694.8109963387795
 21
329.9923448827986
 31
0.0
  0
LINE
  5
2EF18
330
1F
100
AcDbEntity
  8
実線
100
AcDbLine
 10
682.4541143387802
 20
329.0172268827987
 30
0.0
 11
682.2005883387796
 21
329.4572248827985
 31
0.0
  0
LINE
  5
2EF19
330
1F
100
AcDbEntity
  8
実線
100
AcDbLine
 10
695.3873603387798
 20
336.8349548827987
 30
0.0
 11
694.9648503387797
 21
336.3460708827986
 31
0.0
  0
LINE
  5
2EF1A
330
1F
100
AcDbEntity
  8
実線
100
AcDbLine
 10
687.3271883387797
 20
326.3882368827986
 30
0.0
 11
686.7779003387799
 21
326.5837788827987
 31
0.0
  0
LINE
  5
2EF1B
330
1F
100
AcDbEntity
  8
実線
100
AcDbLine
 10
696.9507503387799
 20
339.6705068827987
 30
0.0
 11
697.3310523387799
 21
339.3771668827985
 31
0.0
  0
LINE
  5
2EF1C
330
1F
100
AcDbEntity
  8
実線
100
AcDbLine
 10
682.2005883387796
 20
329.4572248827985
 30
0.0
 11
681.8203163387797
 21
329.7505388827988
 31
0.0
  0
LINE
  5
2EF1D
330
1F
100
AcDbEntity
  8
実線
100
AcDbLine
 10
687.3271883387797
 20
323.8460248827987
 30
0.0
 11
687.7074603387799
 21
324.1393648827986
 31
0.0
  0
LINE
  5
2EF1E
330
1F
100
AcDbEntity
  8
実線
100
AcDbLine
 10
675.8819263387798
 20
339.3393388827988
 30
0.0
 11
675.7551803387796
 21
339.0459988827988
 31
0.0
  0
LINE
  5
2EF1F
330
1F
100
AcDbEntity
  8
実線
100
AcDbLine
 10
678.5016543387796
 20
336.0149028827986
 30
0.0
 11
678.62840033878
 21
336.4548988827987
 31
0.0
  0
LINE
  5
2EF20
330
1F
100
AcDbEntity
  8
実線
100
AcDbLine
 10
680.38370633878
 20
328.2350048827987
 30
0.0
 11
679.9611643387797
 21
327.9416628827987
 31
0.0
  0
LINE
  5
2EF21
330
1F
100
AcDbEntity
  8
実線
100
AcDbLine
 10
675.7551803387796
 20
336.0149028827986
 30
0.0
 11
676.0086723387797
 21
335.7215608827987
 31
0.0
  0
LINE
  5
2EF22
330
1F
100
AcDbEntity
  8
実線
100
AcDbLine
 10
696.3743863387799
 20
329.5523468827987
 30
0.0
 11
695.7405883387799
 21
329.5523468827987
 31
0.0
  0
LINE
  5
2EF23
330
1F
100
AcDbEntity
  8
実線
100
AcDbLine
 10
682.4541143387802
 20
326.7194428827986
 30
0.0
 11
682.4541143387802
 21
327.2083268827987
 31
0.0
  0
LINE
  5
2EF24
330
1F
100
AcDbEntity
  8
実線
100
AcDbLine
 10
678.3748763387797
 20
339.3393388827988
 30
0.0
 11
678.1213503387797
 21
339.6326528827986
 31
0.0
  0
LINE
  5
2EF25
330
1F
100
AcDbEntity
  8
実線
100
AcDbLine
 10
697.1772003387799
 20
331.5078808827987
 30
0.0
 11
697.4307243387798
 21
331.2145648827987
 31
0.0
  0
LINE
  5
2EF26
330
1F
100
AcDbEntity
  8
実線
100
AcDbLine
 10
686.0448823387796
 20
346.2724448827987
 30
0.0
 11
685.7201543387799
 21
346.1114448827987
 31
0.0
  0
LINE
  5
2EF27
330
1F
100
AcDbEntity
  8
実線
100
AcDbLine
 10
679.9611643387797
 20
325.9861308827987
 30
0.0
 11
680.38370633878
 21
325.6927908827986
 31
0.0
  0
LINE
  5
2EF28
330
1F
100
AcDbEntity
  8
実線
100
AcDbLine
 10
681.8203163387797
 20
329.7505388827988
 30
0.0
 11
681.2710283387795
 21
329.9461088827986
 31
0.0
  0
LINE
  5
2EF29
330
1F
100
AcDbEntity
  8
実線
100
AcDbLine
 10
675.8819263387798
 20
338.3126608827988
 30
0.0
 11
676.1354523387799
 21
337.9704348827986
 31
0.0
  0
LINE
  5
2EF2A
330
1F
100
AcDbEntity
  8
実線
100
AcDbLine
 10
676.0086723387797
 20
335.7215608827987
 30
0.0
 11
676.2621983387797
 21
335.5749048827986
 31
0.0
  0
LINE
  5
2EF2B
330
1F
100
AcDbEntity
  8
実線
100
AcDbLine
 10
680.6251543387798
 20
340.1040568827986
 30
0.0
 11
680.0758643387799
 21
340.2507128827988
 31
0.0
  0
LINE
  5
2EF2C
330
1F
100
AcDbEntity
  8
実線
100
AcDbLine
 10
697.5574703387795
 20
332.5834428827986
 30
0.0
 11
697.4307243387798
 21
332.2412168827987
 31
0.0
  0
LINE
  5
2EF2D
330
1F
100
AcDbEntity
  8
実線
100
AcDbLine
 10
697.2042743387795
 20
337.8616328827986
 30
0.0
 11
695.8944103387797
 21
337.2749508827987
 31
0.0
  0
LINE
  5
2EF2E
330
1F
100
AcDbEntity
  8
実線
100
AcDbLine
 10
687.9609863387798
 20
325.8015828827987
 30
0.0
 11
687.7074603387799
 21
326.0948968827986
 31
0.0
  0
LINE
  5
2EF2F
330
1F
100
AcDbEntity
  8
実線
100
AcDbLine
 10
695.8944103387797
 20
339.8660508827986
 30
0.0
 11
696.4014603387798
 21
339.8660508827986
 31
0.0
  0
LINE
  5
2EF30
330
1F
100
AcDbEntity
  8
実線
100
AcDbLine
 10
681.9350183387796
 20
342.0596148827988
 30
0.0
 11
681.5547463387797
 21
341.7662748827986
 31
0.0
  0
LINE
  5
2EF31
330
1F
100
AcDbEntity
  8
実線
100
AcDbLine
 10
682.4420683387797
 20
341.9129308827987
 30
0.0
 11
682.1885423387797
 21
340.9840508827985
 31
0.0
  0
LINE
  5
2EF32
330
1F
100
AcDbEntity
  8
実線
100
AcDbLine
 10
682.4420683387797
 20
342.7929268827988
 30
0.0
 11
682.1885423387797
 21
342.3529288827986
 31
0.0
  0
LINE
  5
2EF33
330
1F
100
AcDbEntity
  8
実線
100
AcDbLine
 10
686.2708503387797
 20
323.6993668827986
 30
0.0
 11
686.7779003387799
 21
323.6993668827986
 31
0.0
  0
LINE
  5
2EF34
330
1F
100
AcDbEntity
  8
実線
100
AcDbLine
 10
676.8115183387799
 20
339.8282208827986
 30
0.0
 11
676.1354523387799
 21
339.6326528827986
 31
0.0
  0
LINE
  5
2EF35
330
1F
100
AcDbEntity
  8
実線
100
AcDbLine
 10
677.9946043387799
 20
335.5749048827986
 30
0.0
 11
678.2481283387795
 21
335.7215608827987
 31
0.0
  0
LINE
  5
2EF36
330
1F
100
AcDbEntity
  8
実線
100
AcDbLine
 10
675.8819263387798
 20
337.3837788827986
 30
0.0
 11
675.62840033878
 21
336.9437828827986
 31
0.0
  0
LINE
  5
2EF37
330
1F
100
AcDbEntity
  8
実線
100
AcDbLine
 10
697.1772003387799
 20
329.8456608827987
 30
0.0
 11
696.9236743387796
 21
329.6990048827986
 31
0.0
  0
LINE
  5
2EF38
330
1F
100
AcDbEntity
  8
実線
100
AcDbLine
 10
685.0863583387798
 20
343.8625708827985
 30
0.0
 11
685.1767563387798
 21
343.3048188827988
 31
0.0
  0
LINE
  5
2EF39
330
1F
100
AcDbEntity
  8
実線
100
AcDbLine
 10
682.0738423387797
 20
325.8394488827987
 30
0.0
 11
682.3273683387797
 21
326.2794448827985
 31
0.0
  0
LINE
  5
2EF3A
330
1F
100
AcDbEntity
  8
実線
100
AcDbLine
 10
678.5016543387796
 20
338.6060008827985
 30
0.0
 11
678.5016543387796
 21
339.0459988827988
 31
0.0
  0
LINE
  5
2EF3B
330
1F
100
AcDbEntity
  8
実線
100
AcDbLine
 10
696.6701483387796
 20
331.8012208827986
 30
0.0
 11
695.3602843387796
 21
331.8012208827986
 31
0.0
  0
LINE
  5
2EF3C
330
1F
100
AcDbEntity
  8
実線
100
AcDbLine
 10
679.58086033878
 20
326.5727848827987
 30
0.0
 11
679.7076383387796
 21
326.2794448827985
 31
0.0
  0
LINE
  5
2EF3D
330
1F
100
AcDbEntity
  8
実線
100
AcDbLine
 10
681.5547463387797
 20
341.7662748827986
 30
0.0
 11
681.1322043387799
 21
341.6195908827985
 31
0.0
  0
LINE
  5
2EF3E
330
1F
100
AcDbEntity
  8
実線
100
AcDbLine
 10
696.9236743387796
 20
333.7567788827987
 30
0.0
 11
697.1772003387799
 21
333.6100948827986
 31
0.0
  0
LINE
  5
2EF3F
330
1F
100
AcDbEntity
  8
実線
100
AcDbLine
 10
681.2710283387795
 20
329.9461088827986
 30
0.0
 11
680.8907243387797
 21
329.9461088827986
 31
0.0
  0
LINE
  5
2EF40
330
1F
100
AcDbEntity
  8
実線
100
AcDbLine
 10
694.5845463387798
 20
335.4660768827987
 30
0.0
 11
697.5845463387798
 21
335.4660768827987
 31
0.0
  0
LINE
  5
2EF41
330
1F
100
AcDbEntity
  8
実線
100
AcDbLine
 10
678.9465563387797
 20
345.6165608827987
 30
0.0
 11
679.5343403387796
 21
344.8075448827986
 31
0.0
  0
LINE
  5
2EF42
330
1F
100
AcDbEntity
  8
実線
100
AcDbLine
 10
697.5845463387798
 20
338.4971728827986
 30
0.0
 11
697.4578003387796
 21
338.1549468827986
 31
0.0
  0
LINE
  5
2EF43
330
1F
100
AcDbEntity
  8
実線
100
AcDbLine
 10
674.2240303387797
 20
331.0821208827986
 30
0.0
 11
675.1750863387798
 21
331.3911368827987
 31
0.0
  0
LINE
  5
2EF44
330
1F
100
AcDbEntity
  8
実線
100
AcDbLine
 10
678.9465563387797
 20
324.5821208827986
 30
0.0
 11
679.5343403387796
 21
325.3911368827987
 31
0.0
  0
LINE
  5
2EF45
330
1F
100
AcDbEntity
  8
実線
100
AcDbLine
 10
686.5877643387797
 20
322.0993408827987
 30
0.0
 11
686.5877643387797
 21
323.0993408827988
 31
0.0
  0
LINE
  5
2EF46
330
1F
100
AcDbEntity
  8
実線
100
AcDbLine
 10
694.2289723387797
 20
324.5821208827986
 30
0.0
 11
693.6411883387799
 21
325.3911368827987
 31
0.0
  0
LINE
  5
2EF47
330
1F
100
AcDbEntity
  8
実線
100
AcDbLine
 10
698.9514983387797
 20
331.0821208827986
 30
0.0
 11
698.0004423387798
 21
331.3911368827987
 31
0.0
  0
LINE
  5
2EF48
330
1F
100
AcDbEntity
  8
実線
100
AcDbLine
 10
680.6251543387798
 20
341.6195908827985
 30
0.0
 11
680.2448823387797
 21
341.7662748827986
 31
0.0
  0
LINE
  5
2EF49
330
1F
100
AcDbEntity
  8
実線
100
AcDbLine
 10
688.0877643387797
 20
324.8726768827987
 30
0.0
 11
688.0877643387797
 21
325.5082428827986
 31
0.0
  0
LINE
  5
2EF4A
330
1F
100
AcDbEntity
  8
実線
100
AcDbLine
 10
694.2289723387797
 20
345.6165608827987
 30
0.0
 11
693.6411883387799
 21
344.8075448827986
 31
0.0
  0
LINE
  5
2EF4B
330
1F
100
AcDbEntity
  8
実線
100
AcDbLine
 10
694.9648503387797
 20
339.3771668827985
 30
0.0
 11
695.3873603387798
 21
339.6705068827987
 31
0.0
  0
LINE
  5
2EF4C
330
1F
100
AcDbEntity
  8
実線
100
AcDbLine
 10
694.5574703387798
 20
333.0234408827987
 30
0.0
 11
694.6842503387797
 21
333.3167808827986
 31
0.0
  0
LINE
  5
2EF4D
330
1F
100
AcDbEntity
  8
実線
100
AcDbLine
 10
678.3748763387797
 20
337.3837788827986
 30
0.0
 11
677.9946043387799
 21
337.6771208827986
 31
0.0
  0
LINE
  5
2EF4E
330
1F
100
AcDbEntity
  8
実線
100
AcDbLine
 10
685.3412903387797
 20
324.1393648827986
 30
0.0
 11
685.8905783387799
 21
323.8460248827987
 31
0.0
  0
LINE
  5
2EF4F
330
1F
100
AcDbEntity
  8
実線
100
AcDbLine
 10
688.0863583387799
 20
344.5958828827986
 30
0.0
 11
687.9596103387797
 21
345.3781068827987
 31
0.0
  0
LINE
  5
2EF50
330
1F
100
AcDbEntity
  8
実線
100
AcDbLine
 10
675.64587633878
 20
333.8429628827987
 30
0.0
 11
678.6458763387798
 21
333.8429628827987
 31
0.0
  0
LINE
  5
2EF51
330
1F
100
AcDbEntity
  8
実線
100
AcDbLine
 10
676.8115183387799
 20
335.4282208827986
 30
0.0
 11
677.4453163387797
 21
335.4282208827986
 31
0.0
  0
LINE
  5
2EF52
330
1F
100
AcDbEntity
  8
実線
100
AcDbLine
 10
694.8109963387795
 20
329.9923448827986
 30
0.0
 11
694.5574703387798
 21
330.2856588827986
 31
0.0
  0
LINE
  5
2EF53
330
1F
100
AcDbEntity
  8
実線
100
AcDbLine
 10
681.9350183387796
 20
344.0151468827985
 30
0.0
 11
682.1885423387797
 21
343.7218068827988
 31
0.0
  0
LINE
  5
2EF54
330
1F
100
AcDbEntity
  8
実線
100
AcDbLine
 10
682.0738423387797
 20
327.9416628827987
 30
0.0
 11
681.6935383387799
 21
328.2350048827987
 31
0.0
  0
LINE
  5
2EF55
330
1F
100
AcDbEntity
  8
実線
100
AcDbLine
 10
676.6847403387796
 20
337.8237768827987
 30
0.0
 11
676.2621983387797
 21
337.6771208827986
 31
0.0
  0
LINE
  5
2EF56
330
1F
100
AcDbEntity
  8
実線
100
AcDbLine
 10
697.5574703387795
 20
330.4323428827986
 30
0.0
 11
697.4307243387798
 21
330.1390028827987
 31
0.0
  0
LINE
  5
2EF57
330
1F
100
AcDbEntity
  8
実線
100
AcDbLine
 10
674.2240303387797
 20
339.1165608827987
 30
0.0
 11
675.1750863387798
 21
338.8075448827986
 31
0.0
  0
LINE
  5
2EF58
330
1F
100
AcDbEntity
  8
実線
100
AcDbLine
 10
685.2131363387798
 20
345.3781068827987
 30
0.0
 11
685.0863583387798
 21
344.5958828827986
 31
0.0
  0
LINE
  5
2EF59
330
1F
100
AcDbEntity
  8
実線
100
AcDbLine
 10
681.2710283387795
 20
325.5461328827987
 30
0.0
 11
681.8203163387797
 21
325.6927908827986
 31
0.0
  0
LINE
  5
2EF5A
330
1F
100
AcDbEntity
  8
実線
100
AcDbLine
 10
677.5720623387798
 20
337.8237768827987
 30
0.0
 11
678.1213503387797
 21
337.9704348827986
 31
0.0
  0
LINE
  5
2EF5B
330
1F
100
AcDbEntity
  8
実線
100
AcDbLine
 10
697.4307243387798
 20
332.2412168827987
 30
0.0
 11
697.1772003387799
 21
331.9478768827987
 31
0.0
  0
LINE
  5
2EF5C
330
1F
100
AcDbEntity
  8
実線
100
AcDbLine
 10
695.7405883387799
 20
333.9523208827986
 30
0.0
 11
696.3743863387799
 21
333.9523208827986
 31
0.0
  0
LINE
  5
2EF5D
330
1F
100
AcDbEntity
  8
実線
100
AcDbLine
 10
693.1217463387797
 20
329.9086388827987
 30
0.0
 11
690.6287643387798
 21
326.5353168827987
 31
0.0
  0
LINE
  5
2EF5E
330
1F
100
AcDbEntity
  8
実線
100
AcDbLine
 10
694.9648503387797
 20
336.3460708827986
 30
0.0
 11
694.7113243387796
 21
335.9060728827988
 31
0.0
  0
LINE
  5
2EF5F
330
1F
100
AcDbEntity
  8
実線
100
AcDbLine
 10
679.9611643387797
 20
329.4572248827985
 30
0.0
 11
679.7076383387796
 21
329.0172268827987
 31
0.0
  0
LINE
  5
2EF60
330
1F
100
AcDbEntity
  8
実線
100
AcDbLine
 10
697.3310523387799
 20
339.3771668827985
 30
0.0
 11
697.5845463387798
 21
338.9371708827987
 31
0.0
  0
LINE
  5
2EF61
330
1F
100
AcDbEntity
  8
実線
100
AcDbLine
 10
686.7779003387799
 20
326.5837788827987
 30
0.0
 11
686.2708503387797
 21
326.5837788827987
 31
0.0
  0
LINE
  5
2EF62
330
1F
100
AcDbEntity
  8
実線
100
AcDbLine
 10
687.7074603387799
 20
324.1393648827986
 30
0.0
 11
687.9609863387798
 21
324.4326788827986
 31
0.0
  0
LINE
  5
2EF63
330
1F
100
AcDbEntity
  8
実線
100
AcDbLine
 10
694.5845463387798
 20
338.7905128827986
 30
0.0
 11
694.7113243387796
 21
339.0838528827988
 31
0.0
  0
LINE
  5
2EF64
330
1F
100
AcDbEntity
  8
実線
100
AcDbLine
 10
675.7551803387796
 20
339.0459988827988
 30
0.0
 11
675.7551803387796
 21
338.6060008827985
 31
0.0
  0
LINE
  5
2EF65
330
1F
100
AcDbEntity
  8
実線
100
AcDbLine
 10
678.62840033878
 20
336.4548988827987
 30
0.0
 11
678.62840033878
 21
336.9437828827986
 31
0.0
  0
LINE
  5
2EF66
330
1F
100
AcDbEntity
  8
実線
100
AcDbLine
 10
690.6287643387798
 20
326.5353168827987
 30
0.0
 11
693.7555423387797
 21
326.5353168827987
 31
0.0
  0
LINE
  5
2EF67
330
1F
100
AcDbEntity
  8
実線
100
AcDbLine
 10
687.9968463387799
 20
343.3101548827985
 30
0.0
 11
688.0863583387799
 21
343.8625708827985
 31
0.0
  0
LINE
  5
2EF68
330
1F
100
AcDbEntity
  8
実線
100
AcDbLine
 10
679.9611643387797
 20
327.9416628827987
 30
0.0
 11
679.7076383387796
 21
327.6483228827988
 31
0.0
  0
LINE
  5
2EF69
330
1F
100
AcDbEntity
  8
実線
100
AcDbLine
 10
695.7405883387799
 20
329.5523468827987
 30
0.0
 11
695.1913003387799
 21
329.6990048827986
 31
0.0
  0
LINE
  5
2EF6A
330
1F
100
AcDbEntity
  8
実線
100
AcDbLine
 10
679.7076383387796
 20
329.0172268827987
 30
0.0
 11
679.4541143387796
 21
328.0883468827988
 31
0.0
  0
LINE
  5
2EF6B
330
1F
100
AcDbEntity
  8
実線
100
AcDbLine
 10
678.1213503387797
 20
339.6326528827986
 30
0.0
 11
677.4453163387797
 21
339.8282208827986
 31
0.0
  0
LINE
  5
2EF6C
330
1F
100
AcDbEntity
  8
実線
100
AcDbLine
 10
685.7201543387799
 20
346.1114448827987
 30
0.0
 11
685.4666283387796
 21
345.8181048827987
 31
0.0
  0
LINE
  5
2EF6D
330
1F
100
AcDbEntity
  8
実線
100
AcDbLine
 10
680.38370633878
 20
325.6927908827986
 30
0.0
 11
680.7639783387799
 21
325.5461328827987
 31
0.0
  0
LINE
  5
2EF6E
330
1F
100
AcDbEntity
  8
実線
100
AcDbLine
 10
676.1354523387799
 20
337.9704348827986
 30
0.0
 11
676.6847403387796
 21
337.8237768827987
 31
0.0
  0
LINE
  5
2EF6F
330
1F
100
AcDbEntity
  8
実線
100
AcDbLine
 10
697.5574703387795
 20
333.0234408827987
 30
0.0
 11
697.5574703387795
 21
332.5834428827986
 31
0.0
  0
LINE
  5
2EF70
330
1F
100
AcDbEntity
  8
実線
100
AcDbLine
 10
681.5547463387797
 20
340.2507128827988
 30
0.0
 11
681.0054563387796
 21
340.1040568827986
 31
0.0
  0
LINE
  5
2EF71
330
1F
100
AcDbEntity
  8
実線
100
AcDbLine
 10
694.9377743387799
 20
333.6100948827986
 30
0.0
 11
695.1913003387799
 21
333.7567788827987
 31
0.0
  0
LINE
  5
2EF72
330
1F
100
AcDbEntity
  8
実線
100
AcDbLine
 10
680.0758643387799
 20
340.2507128827988
 30
0.0
 11
679.6955923387798
 21
340.5440528827987
 31
0.0
  0
LINE
  5
2EF73
330
1F
100
AcDbEntity
  8
実線
100
AcDbLine
 10
685.0877643387796
 20
328.0993408827987
 30
0.0
 11
688.0877643387797
 21
328.0993408827987
 31
0.0
  0
LINE
  5
2EF74
330
1F
100
AcDbEntity
  8
実線
100
AcDbLine
 10
695.1913003387799
 20
333.7567788827987
 30
0.0
 11
695.7405883387799
 21
333.9523208827986
 31
0.0
  0
LINE
  5
2EF75
330
1F
100
AcDbEntity
  8
実線
100
AcDbLine
 10
682.4541143387802
 20
327.2083268827987
 30
0.0
 11
682.3273683387797
 21
327.6483228827988
 31
0.0
  0
LINE
  5
2EF76
330
1F
100
AcDbEntity
  8
実線
100
AcDbLine
 10
680.38370633878
 20
329.7505388827988
 30
0.0
 11
679.9611643387797
 21
329.4572248827985
 31
0.0
  0
LINE
  5
2EF77
330
1F
100
AcDbEntity
  8
実線
100
AcDbLine
 10
679.8223403387797
 20
342.0596148827988
 30
0.0
 11
679.5688143387796
 21
342.3529288827986
 31
0.0
  0
LINE
  5
2EF78
330
1F
100
AcDbEntity
  8
実線
100
AcDbLine
 10
679.6955923387798
 20
340.5440528827987
 30
0.0
 11
679.4420683387798
 21
340.9840508827985
 31
0.0
  0
LINE
  5
2EF79
330
1F
100
AcDbEntity
  8
実線
100
AcDbLine
 10
681.0054563387796
 20
340.1040568827986
 30
0.0
 11
680.6251543387798
 21
340.1040568827986
 31
0.0
  0
LINE
  5
2EF7A
330
1F
100
AcDbEntity
  8
実線
100
AcDbLine
 10
679.4420683387798
 20
342.7929268827988
 30
0.0
 11
679.4420683387798
 21
343.2818088827987
 31
0.0
  0
LINE
  5
2EF7B
330
1F
100
AcDbEntity
  8
実線
100
AcDbLine
 10
679.5688143387796
 20
342.3529288827986
 30
0.0
 11
679.4420683387798
 21
342.7929268827988
 31
0.0
  0
LINE
  5
2EF7C
330
1F
100
AcDbEntity
  8
実線
100
AcDbLine
 10
687.7074603387799
 20
326.0948968827986
 30
0.0
 11
687.3271883387797
 21
326.3882368827986
 31
0.0
  0
LINE
  5
2EF7D
330
1F
100
AcDbEntity
  8
実線
100
AcDbLine
 10
697.5845463387798
 20
338.9371708827987
 30
0.0
 11
697.5845463387798
 21
338.4971728827986
 31
0.0
  0
LINE
  5
2EF7E
330
1F
100
AcDbEntity
  8
実線
100
AcDbLine
 10
692.4674663387799
 20
344.5254468827986
 30
0.0
 11
691.4533983387801
 21
343.3032248827985
 31
0.0
  0
LINE
  5
2EF7F
330
1F
100
AcDbEntity
  8
実線
100
AcDbLine
 10
679.4541143387796
 20
328.0883468827988
 30
0.0
 11
679.4541143387796
 21
327.2083268827987
 31
0.0
  0
LINE
  5
2EF80
330
1F
100
AcDbEntity
  8
実線
100
AcDbLine
 10
696.4014603387798
 20
339.8660508827986
 30
0.0
 11
696.9507503387799
 21
339.6705068827987
 31
0.0
  0
LINE
  5
2EF81
330
1F
100
AcDbEntity
  8
実線
100
AcDbLine
 10
695.8944103387797
 20
337.2749508827987
 30
0.0
 11
695.3873603387798
 21
336.8349548827987
 31
0.0
  0
LINE
  5
2EF82
330
1F
100
AcDbEntity
  8
実線
100
AcDbLine
 10
682.1885423387797
 20
342.3529288827986
 30
0.0
 11
681.9350183387796
 21
342.0596148827988
 31
0.0
  0
LINE
  5
2EF83
330
1F
100
AcDbEntity
  8
実線
100
AcDbLine
 10
686.7779003387799
 20
323.6993668827986
 30
0.0
 11
687.3271883387797
 21
323.8460248827987
 31
0.0
  0
LINE
  5
2EF84
330
1F
100
AcDbEntity
  8
実線
100
AcDbLine
 10
675.62840033878
 20
336.9437828827986
 30
0.0
 11
675.62840033878
 21
336.4548988827987
 31
0.0
  0
LINE
  5
2EF85
330
1F
100
AcDbEntity
  8
実線
100
AcDbLine
 10
687.4525603387795
 20
346.1114448827987
 30
0.0
 11
687.1240963387799
 21
346.3014488827987
 31
0.0
  0
LINE
  5
2EF86
330
1F
100
AcDbEntity
  8
実線
100
AcDbLine
 10
685.7215603387799
 20
326.3882368827986
 30
0.0
 11
685.4680363387797
 21
326.2415788827987
 31
0.0
  0
LINE
  5
2EF87
330
1F
100
AcDbEntity
  8
実線
100
AcDbLine
 10
692.4674663387799
 20
340.1254728827987
 30
0.0
 11
692.4674663387799
 21
344.5254468827986
 31
0.0
  0
LINE
  5
2EF88
330
1F
100
AcDbEntity
  8
実線
100
AcDbLine
 10
676.1354523387799
 20
339.6326528827986
 30
0.0
 11
675.8819263387798
 21
339.3393388827988
 31
0.0
  0
LINE
  5
2EF89
330
1F
100
AcDbEntity
  8
実線
100
AcDbLine
 10
693.1217463387797
 20
325.5086388827986
 30
0.0
 11
693.1217463387797
 21
329.9086388827987
 31
0.0
  0
LINE
  5
2EF8A
330
1F
100
AcDbEntity
  8
実線
100
AcDbLine
 10
678.2481283387795
 20
335.7215608827987
 30
0.0
 11
678.5016543387796
 21
336.0149028827986
 31
0.0
  0
LINE
  5
2EF8B
330
1F
100
AcDbEntity
  8
実線
100
AcDbLine
 10
697.4307243387798
 20
331.2145648827987
 30
0.0
 11
697.5574703387795
 21
330.9212248827987
 31
0.0
  0
LINE
  5
2EF8C
330
1F
100
AcDbEntity
  8
実線
100
AcDbLine
 10
698.9514983387797
 20
339.1165608827987
 30
0.0
 11
698.0004423387798
 21
338.8075448827986
 31
0.0
  0
LINE
  5
2EF8D
330
1F
100
AcDbEntity
  8
実線
100
AcDbLine
 10
675.62840033878
 20
336.4548988827987
 30
0.0
 11
675.7551803387796
 21
336.0149028827986
 31
0.0
  0
LINE
  5
2EF8E
330
1F
100
AcDbEntity
  8
実線
100
AcDbLine
 10
696.9236743387796
 20
329.6990048827986
 30
0.0
 11
696.3743863387799
 21
329.5523468827987
 31
0.0
  0
CIRCLE
  5
2EF8F
330
1F
100
AcDbEntity
  8
実線
100
AcDbCircle
 10
686.5877643387797
 20
335.0993408827987
 30
0.0
 40
13.0
  0
LINE
  5
2EF90
330
1F
100
AcDbEntity
  8
実線
100
AcDbLine
 10
665.2548403387799
 20
303.1048968827987
 30
0.0
 11
664.8745683387796
 21
302.9093548827987
 31
0.0
  0
LINE
  5
2EF91
330
1F
100
AcDbEntity
  8
実線
100
AcDbLine
 10
666.8182303387797
 20
300.9537948827987
 30
0.0
 11
666.9449763387797
 21
301.3937928827986
 31
0.0
  0
LINE
  5
2EF92
330
1F
100
AcDbEntity
  8
実線
100
AcDbLine
 10
662.9925163387797
 20
313.7203488827986
 30
0.0
 11
662.8657383387799
 21
314.0136888827986
 31
0.0
  0
LINE
  5
2EF93
330
1F
100
AcDbEntity
  8
実線
100
AcDbLine
 10
681.1610103387797
 20
306.4755708827986
 30
0.0
 11
681.6680623387798
 21
306.1822308827987
 31
0.0
  0
LINE
  5
2EF94
330
1F
100
AcDbEntity
  8
実線
100
AcDbLine
 10
664.1985003387799
 20
300.9537948827987
 30
0.0
 11
664.4520263387797
 21
300.6604808827987
 31
0.0
  0
LINE
  5
2EF95
330
1F
100
AcDbEntity
  8
実線
100
AcDbLine
 10
679.1751123387797
 20
307.9911308827986
 30
0.0
 11
679.4286363387799
 21
308.2844448827986
 31
0.0
  0
LINE
  5
2EF96
330
1F
100
AcDbEntity
  8
実線
100
AcDbLine
 10
672.1969483387797
 20
320.4924548827987
 30
0.0
 11
671.9434223387797
 21
320.7857948827987
 31
0.0
  0
LINE
  5
2EF97
330
1F
100
AcDbEntity
  8
実線
100
AcDbLine
 10
665.3815863387799
 20
304.6204588827986
 30
0.0
 11
664.8745683387796
 21
304.4248888827987
 31
0.0
  0
LINE
  5
2EF98
330
1F
100
AcDbEntity
  8
実線
100
AcDbLine
 10
669.9588983387797
 20
300.9159288827987
 30
0.0
 11
669.5786263387799
 21
300.6225888827987
 31
0.0
  0
LINE
  5
2EF99
330
1F
100
AcDbEntity
  8
実線
100
AcDbLine
 10
681.9486623387797
 20
312.8292968827986
 30
0.0
 11
681.6951363387797
 21
312.5359828827986
 31
0.0
  0
LINE
  5
2EF9A
330
1F
100
AcDbEntity
  8
実線
100
AcDbLine
 10
664.73574433878
 20
316.4406248827986
 30
0.0
 11
664.3132023387797
 21
316.7339648827987
 31
0.0
  0
LINE
  5
2EF9B
330
1F
100
AcDbEntity
  8
実線
100
AcDbLine
 10
672.5786263387799
 20
300.1825928827987
 30
0.0
 11
672.4518483387798
 21
300.4759328827986
 31
0.0
  0
LINE
  5
2EF9C
330
1F
100
AcDbEntity
  8
実線
100
AcDbLine
 10
679.8782223387798
 20
314.3448568827987
 30
0.0
 11
680.3852723387799
 21
314.5404008827986
 31
0.0
  0
LINE
  5
2EF9D
330
1F
100
AcDbEntity
  8
実線
100
AcDbLine
 10
662.4854663387799
 20
312.3514708827986
 30
0.0
 11
662.0629243387798
 21
312.4981268827987
 31
0.0
  0
LINE
  5
2EF9E
330
1F
100
AcDbEntity
  8
実線
100
AcDbLine
 10
670.3814403387799
 20
298.5203748827987
 30
0.0
 11
670.7617123387799
 21
298.3737168827986
 31
0.0
  0
LINE
  5
2EF9F
330
1F
100
AcDbEntity
  8
実線
100
AcDbLine
 10
672.4504723387799
 20
320.0524568827987
 30
0.0
 11
672.1969483387797
 21
320.4924548827987
 31
0.0
  0
LINE
  5
2EFA0
330
1F
100
AcDbEntity
  8
実線
100
AcDbLine
 10
663.1367383387797
 20
308.5173128827987
 30
0.0
 11
661.2353163387797
 21
304.1173128827986
 31
0.0
  0
LINE
  5
2EFA1
330
1F
100
AcDbEntity
  8
実線
100
AcDbLine
 10
661.9361783387797
 20
310.1025708827986
 30
0.0
 11
662.4854663387799
 21
310.2492548827986
 31
0.0
  0
LINE
  5
2EFA2
330
1F
100
AcDbEntity
  8
実線
100
AcDbLine
 10
669.5786263387799
 20
300.6225888827987
 30
0.0
 11
669.5786263387799
 21
302.7736908827987
 31
0.0
  0
LINE
  5
2EFA3
330
1F
100
AcDbEntity
  8
実線
100
AcDbLine
 10
666.1844003387799
 20
302.9093548827987
 30
0.0
 11
665.7618903387797
 21
303.1048968827987
 31
0.0
  0
LINE
  5
2EFA4
330
1F
100
AcDbEntity
  8
実線
100
AcDbLine
 10
660.7530603387799
 20
312.3514708827986
 30
0.0
 11
660.3727883387796
 21
312.0581288827986
 31
0.0
  0
LINE
  5
2EFA5
330
1F
100
AcDbEntity
  8
実線
100
AcDbLine
 10
681.9215863387799
 20
304.8133528827987
 30
0.0
 11
681.6680623387798
 21
304.5200108827987
 31
0.0
  0
LINE
  5
2EFA6
330
1F
100
AcDbEntity
  8
実線
100
AcDbLine
 10
669.5772203387796
 20
319.2702328827986
 30
0.0
 11
669.5772203387796
 21
318.5369208827987
 31
0.0
  0
LINE
  5
2EFA7
330
1F
100
AcDbEntity
  8
実線
100
AcDbLine
 10
666.3111783387797
 20
300.3671408827986
 30
0.0
 11
666.5647043387799
 21
300.5137988827987
 31
0.0
  0
LINE
  5
2EFA8
330
1F
100
AcDbEntity
  8
実線
100
AcDbLine
 10
660.2460423387797
 20
313.2803508827988
 30
0.0
 11
660.3727883387796
 21
312.9870108827987
 31
0.0
  0
LINE
  5
2EFA9
330
1F
100
AcDbEntity
  8
実線
100
AcDbLine
 10
662.61221233878
 20
312.6447848827986
 30
0.0
 11
662.9925163387797
 21
313.2803508827988
 31
0.0
  0
LINE
  5
2EFAA
330
1F
100
AcDbEntity
  8
実線
100
AcDbLine
 10
681.6680623387798
 20
306.6222268827987
 30
0.0
 11
681.1610103387797
 21
306.4755708827986
 31
0.0
  0
LINE
  5
2EFAB
330
1F
100
AcDbEntity
  8
実線
100
AcDbLine
 10
663.9449763387797
 20
301.8826768827987
 30
0.0
 11
664.0717223387796
 21
301.2471348827987
 31
0.0
  0
LINE
  5
2EFAC
330
1F
100
AcDbEntity
  8
実線
100
AcDbLine
 10
680.86524833878
 20
308.6266708827986
 30
0.0
 11
681.4145363387797
 21
308.4311288827987
 31
0.0
  0
LINE
  5
2EFAD
330
1F
100
AcDbEntity
  8
実線
100
AcDbLine
 10
666.4258803387797
 20
315.2184028827987
 30
0.0
 11
666.0456083387797
 21
314.9250628827987
 31
0.0
  0
LINE
  5
2EFAE
330
1F
100
AcDbEntity
  8
実線
100
AcDbLine
 10
666.6794043387799
 20
315.6584008827987
 30
0.0
 11
666.4258803387797
 21
315.2184028827987
 31
0.0
  0
LINE
  5
2EFAF
330
1F
100
AcDbEntity
  8
実線
100
AcDbLine
 10
666.9329303387797
 20
317.4672768827986
 30
0.0
 11
666.9329303387797
 21
316.5872808827987
 31
0.0
  0
LINE
  5
2EFB0
330
1F
100
AcDbEntity
  8
実線
100
AcDbLine
 10
666.8061523387796
 20
318.1028428827986
 30
0.0
 11
666.9329303387797
 21
317.4672768827986
 31
0.0
  0
LINE
  5
2EFB1
330
1F
100
AcDbEntity
  8
実線
100
AcDbLine
 10
666.6794043387799
 20
318.3961568827986
 30
0.0
 11
666.8061523387796
 21
318.1028428827986
 31
0.0
  0
LINE
  5
2EFB2
330
1F
100
AcDbEntity
  8
実線
100
AcDbLine
 10
665.6230663387799
 20
319.1783808827986
 30
0.0
 11
666.0456083387797
 21
318.9828368827987
 31
0.0
  0
LINE
  5
2EFB3
330
1F
100
AcDbEntity
  8
実線
100
AcDbLine
 10
679.2021863387799
 20
310.5804228827986
 30
0.0
 11
679.0754083387796
 21
310.1404268827987
 31
0.0
  0
LINE
  5
2EFB4
330
1F
100
AcDbEntity
  8
実線
100
AcDbLine
 10
664.56672633878
 20
318.9828368827987
 30
0.0
 11
665.1160163387799
 21
319.1783808827986
 31
0.0
  0
LINE
  5
2EFB5
330
1F
100
AcDbEntity
  8
実線
100
AcDbLine
 10
664.3132023387797
 20
318.8361548827986
 30
0.0
 11
664.56672633878
 21
318.9828368827987
 31
0.0
  0
LINE
  5
2EFB6
330
1F
100
AcDbEntity
  8
実線
100
AcDbLine
 10
664.0596763387797
 20
318.3961568827986
 30
0.0
 11
664.3132023387797
 21
318.8361548827986
 31
0.0
  0
LINE
  5
2EFB7
330
1F
100
AcDbEntity
  8
実線
100
AcDbLine
 10
663.9329303387799
 20
317.9561588827987
 30
0.0
 11
664.0596763387797
 21
318.3961568827986
 31
0.0
  0
LINE
  5
2EFB8
330
1F
100
AcDbEntity
  8
実線
100
AcDbLine
 10
670.7617123387799
 20
301.2581288827987
 30
0.0
 11
670.21242233878
 21
301.0625868827986
 31
0.0
  0
LINE
  5
2EFB9
330
1F
100
AcDbEntity
  8
実線
100
AcDbLine
 10
665.6230663387799
 20
316.2939408827987
 30
0.0
 11
665.1160163387799
 21
316.2939408827987
 31
0.0
  0
LINE
  5
2EFBA
330
1F
100
AcDbEntity
  8
実線
100
AcDbLine
 10
679.2021863387799
 20
313.7582028827988
 30
0.0
 11
679.4557123387797
 21
314.0515168827986
 31
0.0
  0
LINE
  5
2EFBB
330
1F
100
AcDbEntity
  8
実線
100
AcDbLine
 10
666.0456083387797
 20
318.9828368827987
 30
0.0
 11
666.4258803387797
 21
318.6894968827987
 31
0.0
  0
LINE
  5
2EFBC
330
1F
100
AcDbEntity
  8
実線
100
AcDbLine
 10
681.6680623387798
 20
308.2844448827986
 30
0.0
 11
681.9215863387799
 21
307.9911308827986
 31
0.0
  0
LINE
  5
2EFBD
330
1F
100
AcDbEntity
  8
実線
100
AcDbLine
 10
665.7618903387797
 20
303.1048968827987
 30
0.0
 11
665.2548403387799
 21
303.1048968827987
 31
0.0
  0
LINE
  5
2EFBE
330
1F
100
AcDbEntity
  8
実線
100
AcDbLine
 10
663.1192623387796
 20
311.6181328827986
 30
0.0
 11
662.8657383387799
 21
312.0581288827986
 31
0.0
  0
LINE
  5
2EFBF
330
1F
100
AcDbEntity
  8
実線
100
AcDbLine
 10
669.5786263387799
 20
299.1070288827986
 30
0.0
 11
669.8321523387797
 21
298.8137148827986
 31
0.0
  0
LINE
  5
2EFC0
330
1F
100
AcDbEntity
  8
実線
100
AcDbLine
 10
672.5772203387796
 20
318.5369208827987
 30
0.0
 11
672.5772203387796
 21
319.2702328827986
 31
0.0
  0
LINE
  5
2EFC1
330
1F
100
AcDbEntity
  8
実線
100
AcDbLine
 10
664.1985003387799
 20
302.3226728827987
 30
0.0
 11
663.9449763387797
 21
301.8826768827987
 31
0.0
  0
LINE
  5
2EFC2
330
1F
100
AcDbEntity
  8
実線
100
AcDbLine
 10
660.7530603387799
 20
310.2492548827986
 30
0.0
 11
661.30238033878
 21
310.1025708827986
 31
0.0
  0
LINE
  5
2EFC3
330
1F
100
AcDbEntity
  8
実線
100
AcDbLine
 10
666.8182303387797
 20
302.3226728827987
 30
0.0
 11
666.5647043387799
 21
302.6160128827987
 31
0.0
  0
LINE
  5
2EFC4
330
1F
100
AcDbEntity
  8
実線
100
AcDbLine
 10
661.9361783387797
 20
314.5025708827986
 30
0.0
 11
661.30238033878
 21
314.5025708827986
 31
0.0
  0
LINE
  5
2EFC5
330
1F
100
AcDbEntity
  8
実線
100
AcDbLine
 10
682.0483323387797
 20
305.5955748827987
 30
0.0
 11
682.0483323387797
 21
305.1066928827986
 31
0.0
  0
LINE
  5
2EFC6
330
1F
100
AcDbEntity
  8
実線
100
AcDbLine
 10
669.9574903387797
 20
320.4924548827987
 30
0.0
 11
669.7039983387798
 21
320.0524568827987
 31
0.0
  0
LINE
  5
2EFC7
330
1F
100
AcDbEntity
  8
実線
100
AcDbLine
 10
665.2548403387799
 20
300.2204828827987
 30
0.0
 11
665.7618903387797
 21
300.2204828827987
 31
0.0
  0
LINE
  5
2EFC8
330
1F
100
AcDbEntity
  8
実線
100
AcDbLine
 10
661.1756023387798
 20
312.4981268827987
 30
0.0
 11
662.0629243387798
 21
312.4981268827987
 31
0.0
  0
LINE
  5
2EFC9
330
1F
100
AcDbEntity
  8
実線
100
AcDbLine
 10
672.4518483387798
 20
299.1070288827986
 30
0.0
 11
672.5786263387799
 21
299.5470268827987
 31
0.0
  0
LINE
  5
2EFCA
330
1F
100
AcDbEntity
  8
実線
100
AcDbLine
 10
681.9215863387799
 20
307.9911308827986
 30
0.0
 11
682.0483323387797
 21
307.6977908827987
 31
0.0
  0
LINE
  5
2EFCB
330
1F
100
AcDbEntity
  8
実線
100
AcDbLine
 10
665.1160163387799
 20
319.1783808827986
 30
0.0
 11
665.6230663387799
 21
319.1783808827986
 31
0.0
  0
LINE
  5
2EFCC
330
1F
100
AcDbEntity
  8
実線
100
AcDbLine
 10
679.68216233878
 20
304.3733548827986
 30
0.0
 11
679.3018583387797
 21
304.6666948827986
 31
0.0
  0
LINE
  5
2EFCD
330
1F
100
AcDbEntity
  8
実線
100
AcDbLine
 10
666.9449763387797
 20
303.6915768827987
 30
0.0
 11
666.6914503387797
 21
304.1315748827987
 31
0.0
  0
LINE
  5
2EFCE
330
1F
100
AcDbEntity
  8
実線
100
AcDbLine
 10
679.8782223387798
 20
311.5093048827987
 30
0.0
 11
679.4557123387797
 21
311.0204208827986
 31
0.0
  0
LINE
  5
2EFCF
330
1F
100
AcDbEntity
  8
実線
100
AcDbLine
 10
671.8180503387797
 20
301.0625868827986
 30
0.0
 11
671.2687623387796
 21
301.2581288827987
 31
0.0
  0
LINE
  5
2EFD0
330
1F
100
AcDbEntity
  8
実線
100
AcDbLine
 10
681.44161233878
 20
314.3448568827987
 30
0.0
 11
681.8219143387799
 21
314.0515168827986
 31
0.0
  0
LINE
  5
2EFD1
330
1F
100
AcDbEntity
  8
実線
100
AcDbLine
 10
666.6914503387797
 20
304.1315748827987
 30
0.0
 11
666.3111783387797
 21
304.4248888827987
 31
0.0
  0
LINE
  5
2EFD2
330
1F
100
AcDbEntity
  8
実線
100
AcDbLine
 10
671.8180503387797
 20
298.5203748827987
 30
0.0
 11
672.1983223387796
 21
298.8137148827986
 31
0.0
  0
LINE
  5
2EFD3
330
1F
100
AcDbEntity
  8
実線
100
AcDbLine
 10
660.3727883387796
 20
314.0136888827986
 30
0.0
 11
660.2460423387797
 21
313.7203488827986
 31
0.0
  0
LINE
  5
2EFD4
330
1F
100
AcDbEntity
  8
実線
100
AcDbLine
 10
662.9925163387797
 20
310.6892528827986
 30
0.0
 11
663.1192623387796
 21
311.1292488827987
 31
0.0
  0
LINE
  5
2EFD5
330
1F
100
AcDbEntity
  8
実線
100
AcDbLine
 10
664.8745683387796
 20
302.9093548827987
 30
0.0
 11
664.4520263387797
 21
302.6160128827987
 31
0.0
  0
LINE
  5
2EFD6
330
1F
100
AcDbEntity
  8
実線
100
AcDbLine
 10
660.2460423387797
 20
310.6892528827986
 30
0.0
 11
660.4995343387798
 21
310.3959108827987
 31
0.0
  0
LINE
  5
2EFD7
330
1F
100
AcDbEntity
  8
実線
100
AcDbLine
 10
680.86524833878
 20
304.2266968827987
 30
0.0
 11
680.2314503387797
 21
304.2266968827987
 31
0.0
  0
LINE
  5
2EFD8
330
1F
100
AcDbEntity
  8
実線
100
AcDbLine
 10
666.9449763387797
 20
301.3937928827986
 30
0.0
 11
666.9449763387797
 21
301.8826768827987
 31
0.0
  0
LINE
  5
2EFD9
330
1F
100
AcDbEntity
  8
実線
100
AcDbLine
 10
662.8657383387799
 20
314.0136888827986
 30
0.0
 11
662.61221233878
 21
314.3070028827986
 31
0.0
  0
LINE
  5
2EFDA
330
1F
100
AcDbEntity
  8
実線
100
AcDbLine
 10
681.6680623387798
 20
306.1822308827987
 30
0.0
 11
681.9215863387799
 21
305.8889148827987
 31
0.0
  0
LINE
  5
2EFDB
330
1F
100
AcDbEntity
  8
実線
100
AcDbLine
 10
670.5357443387797
 20
320.9467948827987
 30
0.0
 11
670.2110163387795
 21
320.7857948827987
 31
0.0
  0
LINE
  5
2EFDC
330
1F
100
AcDbEntity
  8
実線
100
AcDbLine
 10
664.4520263387797
 20
300.6604808827987
 30
0.0
 11
664.8745683387796
 21
300.3671408827986
 31
0.0
  0
LINE
  5
2EFDD
330
1F
100
AcDbEntity
  8
実線
100
AcDbLine
 10
666.3111783387797
 20
304.4248888827987
 30
0.0
 11
665.7618903387797
 21
304.6204588827986
 31
0.0
  0
LINE
  5
2EFDE
330
1F
100
AcDbEntity
  8
実線
100
AcDbLine
 10
660.3727883387796
 20
312.9870108827987
 30
0.0
 11
660.6263143387799
 21
312.6447848827986
 31
0.0
  0
LINE
  5
2EFDF
330
1F
100
AcDbEntity
  8
実線
100
AcDbLine
 10
660.4995343387798
 20
310.3959108827987
 30
0.0
 11
660.7530603387799
 21
310.2492548827986
 31
0.0
  0
LINE
  5
2EFE0
330
1F
100
AcDbEntity
  8
実線
100
AcDbLine
 10
665.1160163387799
 20
314.7784068827987
 30
0.0
 11
664.56672633878
 21
314.9250628827987
 31
0.0
  0
LINE
  5
2EFE1
330
1F
100
AcDbEntity
  8
実線
100
AcDbLine
 10
682.0483323387797
 20
307.2577928827986
 30
0.0
 11
681.9215863387799
 21
306.9155668827987
 31
0.0
  0
LINE
  5
2EFE2
330
1F
100
AcDbEntity
  8
実線
100
AcDbLine
 10
681.6951363387797
 20
312.5359828827986
 30
0.0
 11
680.3852723387799
 21
311.9493008827987
 31
0.0
  0
LINE
  5
2EFE3
330
1F
100
AcDbEntity
  8
実線
100
AcDbLine
 10
672.4518483387798
 20
300.4759328827986
 30
0.0
 11
672.1983223387796
 21
300.7692468827986
 31
0.0
  0
LINE
  5
2EFE4
330
1F
100
AcDbEntity
  8
実線
100
AcDbLine
 10
680.3852723387799
 20
314.5404008827986
 30
0.0
 11
680.8923223387796
 21
314.5404008827986
 31
0.0
  0
LINE
  5
2EFE5
330
1F
100
AcDbEntity
  8
実線
100
AcDbLine
 10
666.4258803387797
 20
316.7339648827987
 30
0.0
 11
666.0456083387797
 21
316.4406248827986
 31
0.0
  0
LINE
  5
2EFE6
330
1F
100
AcDbEntity
  8
実線
100
AcDbLine
 10
666.9329303387797
 20
316.5872808827987
 30
0.0
 11
666.6794043387799
 21
315.6584008827987
 31
0.0
  0
LINE
  5
2EFE7
330
1F
100
AcDbEntity
  8
実線
100
AcDbLine
 10
666.9329303387797
 20
317.4672768827986
 30
0.0
 11
666.6794043387799
 21
317.0272788827987
 31
0.0
  0
LINE
  5
2EFE8
330
1F
100
AcDbEntity
  8
実線
100
AcDbLine
 10
670.7617123387799
 20
298.3737168827986
 30
0.0
 11
671.2687623387796
 21
298.3737168827986
 31
0.0
  0
LINE
  5
2EFE9
330
1F
100
AcDbEntity
  8
実線
100
AcDbLine
 10
661.30238033878
 20
314.5025708827986
 30
0.0
 11
660.6263143387799
 21
314.3070028827986
 31
0.0
  0
LINE
  5
2EFEA
330
1F
100
AcDbEntity
  8
実線
100
AcDbLine
 10
662.4854663387799
 20
310.2492548827986
 30
0.0
 11
662.7389903387798
 21
310.3959108827987
 31
0.0
  0
LINE
  5
2EFEB
330
1F
100
AcDbEntity
  8
実線
100
AcDbLine
 10
660.3727883387796
 20
312.0581288827986
 30
0.0
 11
660.1192623387795
 21
311.6181328827986
 31
0.0
  0
LINE
  5
2EFEC
330
1F
100
AcDbEntity
  8
実線
100
AcDbLine
 10
681.6680623387798
 20
304.5200108827987
 30
0.0
 11
681.4145363387797
 21
304.3733548827986
 31
0.0
  0
LINE
  5
2EFED
330
1F
100
AcDbEntity
  8
実線
100
AcDbLine
 10
669.5772203387796
 20
318.5369208827987
 30
0.0
 11
669.6676183387799
 21
317.9791688827986
 31
0.0
  0
LINE
  5
2EFEE
330
1F
100
AcDbEntity
  8
実線
100
AcDbLine
 10
666.5647043387799
 20
300.5137988827987
 30
0.0
 11
666.8182303387797
 21
300.9537948827987
 31
0.0
  0
LINE
  5
2EFEF
330
1F
100
AcDbEntity
  8
実線
100
AcDbLine
 10
662.9925163387797
 20
313.2803508827988
 30
0.0
 11
662.9925163387797
 21
313.7203488827986
 31
0.0
  0
LINE
  5
2EFF0
330
1F
100
AcDbEntity
  8
実線
100
AcDbLine
 10
681.1610103387797
 20
306.4755708827986
 30
0.0
 11
679.8511463387799
 21
306.4755708827986
 31
0.0
  0
LINE
  5
2EFF1
330
1F
100
AcDbEntity
  8
実線
100
AcDbLine
 10
664.0717223387796
 20
301.2471348827987
 30
0.0
 11
664.1985003387799
 21
300.9537948827987
 31
0.0
  0
LINE
  5
2EFF2
330
1F
100
AcDbEntity
  8
実線
100
AcDbLine
 10
666.0456083387797
 20
316.4406248827986
 30
0.0
 11
665.6230663387799
 21
316.2939408827987
 31
0.0
  0
LINE
  5
2EFF3
330
1F
100
AcDbEntity
  8
実線
100
AcDbLine
 10
681.4145363387797
 20
308.4311288827987
 30
0.0
 11
681.6680623387798
 21
308.2844448827986
 31
0.0
  0
LINE
  5
2EFF4
330
1F
100
AcDbEntity
  8
実線
100
AcDbLine
 10
665.7618903387797
 20
304.6204588827986
 30
0.0
 11
665.3815863387799
 21
304.6204588827986
 31
0.0
  0
LINE
  5
2EFF5
330
1F
100
AcDbEntity
  8
実線
100
AcDbLine
 10
679.0754083387796
 20
310.1404268827987
 30
0.0
 11
682.0754083387797
 21
310.1404268827987
 31
0.0
  0
LINE
  5
2EFF6
330
1F
100
AcDbEntity
  8
実線
100
AcDbLine
 10
663.4374183387799
 20
320.2909108827987
 30
0.0
 11
664.0252023387797
 21
319.4818948827987
 31
0.0
  0
LINE
  5
2EFF7
330
1F
100
AcDbEntity
  8
実線
100
AcDbLine
 10
682.0754083387797
 20
313.1715228827986
 30
0.0
 11
681.9486623387797
 21
312.8292968827986
 31
0.0
  0
LINE
  5
2EFF8
330
1F
100
AcDbEntity
  8
実線
100
AcDbLine
 10
658.7148923387799
 20
305.7564708827986
 30
0.0
 11
659.6659483387798
 21
306.0654868827987
 31
0.0
  0
LINE
  5
2EFF9
330
1F
100
AcDbEntity
  8
実線
100
AcDbLine
 10
663.4374183387799
 20
299.2564708827986
 30
0.0
 11
664.0252023387797
 21
300.0654868827987
 31
0.0
  0
LINE
  5
2EFFA
330
1F
100
AcDbEntity
  8
実線
100
AcDbLine
 10
671.0786263387799
 20
296.7736908827987
 30
0.0
 11
671.0786263387799
 21
297.7736908827988
 31
0.0
  0
LINE
  5
2EFFB
330
1F
100
AcDbEntity
  8
実線
100
AcDbLine
 10
678.71983433878
 20
299.2564708827986
 30
0.0
 11
678.1320503387795
 21
300.0654868827987
 31
0.0
  0
LINE
  5
2EFFC
330
1F
100
AcDbEntity
  8
実線
100
AcDbLine
 10
683.4423603387799
 20
305.7564708827986
 30
0.0
 11
682.4913043387796
 21
306.0654868827987
 31
0.0
  0
LINE
  5
2EFFD
330
1F
100
AcDbEntity
  8
実線
100
AcDbLine
 10
665.1160163387799
 20
316.2939408827987
 30
0.0
 11
664.73574433878
 21
316.4406248827986
 31
0.0
  0
LINE
  5
2EFFE
330
1F
100
AcDbEntity
  8
実線
100
AcDbLine
 10
672.5786263387799
 20
299.5470268827987
 30
0.0
 11
672.5786263387799
 21
300.1825928827987
 31
0.0
  0
LINE
  5
2EFFF
330
1F
100
AcDbEntity
  8
実線
100
AcDbLine
 10
678.71983433878
 20
320.2909108827987
 30
0.0
 11
678.1320503387795
 21
319.4818948827987
 31
0.0
  0
LINE
  5
2F000
330
1F
100
AcDbEntity
  8
実線
100
AcDbLine
 10
679.4557123387797
 20
314.0515168827986
 30
0.0
 11
679.8782223387798
 21
314.3448568827987
 31
0.0
  0
LINE
  5
2F001
330
1F
100
AcDbEntity
  8
実線
100
AcDbLine
 10
679.0483323387798
 20
307.6977908827987
 30
0.0
 11
679.1751123387797
 21
307.9911308827986
 31
0.0
  0
LINE
  5
2F002
330
1F
100
AcDbEntity
  8
実線
100
AcDbLine
 10
662.8657383387799
 20
312.0581288827986
 30
0.0
 11
662.4854663387799
 21
312.3514708827986
 31
0.0
  0
LINE
  5
2F003
330
1F
100
AcDbEntity
  8
実線
100
AcDbLine
 10
669.8321523387797
 20
298.8137148827986
 30
0.0
 11
670.3814403387799
 21
298.5203748827987
 31
0.0
  0
LINE
  5
2F004
330
1F
100
AcDbEntity
  8
実線
100
AcDbLine
 10
672.5772203387796
 20
319.2702328827986
 30
0.0
 11
672.4504723387799
 21
320.0524568827987
 31
0.0
  0
LINE
  5
2F005
330
1F
100
AcDbEntity
  8
実線
100
AcDbLine
 10
660.1367383387796
 20
308.5173128827987
 30
0.0
 11
663.1367383387797
 21
308.5173128827987
 31
0.0
  0
LINE
  5
2F006
330
1F
100
AcDbEntity
  8
実線
100
AcDbLine
 10
661.30238033878
 20
310.1025708827986
 30
0.0
 11
661.9361783387797
 21
310.1025708827986
 31
0.0
  0
LINE
  5
2F007
330
1F
100
AcDbEntity
  8
実線
100
AcDbLine
 10
679.3018583387797
 20
304.6666948827986
 30
0.0
 11
679.0483323387798
 21
304.9600088827987
 31
0.0
  0
LINE
  5
2F008
330
1F
100
AcDbEntity
  8
実線
100
AcDbLine
 10
666.4258803387797
 20
318.6894968827987
 30
0.0
 11
666.6794043387799
 21
318.3961568827986
 31
0.0
  0
LINE
  5
2F009
330
1F
100
AcDbEntity
  8
実線
100
AcDbLine
 10
666.5647043387799
 20
302.6160128827987
 30
0.0
 11
666.1844003387799
 21
302.9093548827987
 31
0.0
  0
LINE
  5
2F00A
330
1F
100
AcDbEntity
  8
実線
100
AcDbLine
 10
661.1756023387798
 20
312.4981268827987
 30
0.0
 11
660.7530603387799
 21
312.3514708827986
 31
0.0
  0
LINE
  5
2F00B
330
1F
100
AcDbEntity
  8
実線
100
AcDbLine
 10
682.0483323387797
 20
305.1066928827986
 30
0.0
 11
681.9215863387799
 21
304.8133528827987
 31
0.0
  0
LINE
  5
2F00C
330
1F
100
AcDbEntity
  8
実線
100
AcDbLine
 10
658.7148923387799
 20
313.7909108827987
 30
0.0
 11
659.6659483387798
 21
313.4818948827986
 31
0.0
  0
LINE
  5
2F00D
330
1F
100
AcDbEntity
  8
実線
100
AcDbLine
 10
669.7039983387798
 20
320.0524568827987
 30
0.0
 11
669.5772203387796
 21
319.2702328827986
 31
0.0
  0
LINE
  5
2F00E
330
1F
100
AcDbEntity
  8
実線
100
AcDbLine
 10
665.7618903387797
 20
300.2204828827987
 30
0.0
 11
666.3111783387797
 21
300.3671408827986
 31
0.0
  0
LINE
  5
2F00F
330
1F
100
AcDbEntity
  8
実線
100
AcDbLine
 10
662.0629243387798
 20
312.4981268827987
 30
0.0
 11
662.61221233878
 21
312.6447848827986
 31
0.0
  0
LINE
  5
2F010
330
1F
100
AcDbEntity
  8
実線
100
AcDbLine
 10
681.9215863387799
 20
306.9155668827987
 30
0.0
 11
681.6680623387798
 21
306.6222268827987
 31
0.0
  0
LINE
  5
2F011
330
1F
100
AcDbEntity
  8
実線
100
AcDbLine
 10
680.2314503387797
 20
308.6266708827986
 30
0.0
 11
680.86524833878
 21
308.6266708827986
 31
0.0
  0
LINE
  5
2F012
330
1F
100
AcDbEntity
  8
実線
100
AcDbLine
 10
677.6126083387797
 20
304.5829888827987
 30
0.0
 11
675.1196263387797
 21
301.2096668827986
 31
0.0
  0
LINE
  5
2F013
330
1F
100
AcDbEntity
  8
実線
100
AcDbLine
 10
679.4557123387797
 20
311.0204208827986
 30
0.0
 11
679.2021863387799
 21
310.5804228827986
 31
0.0
  0
LINE
  5
2F014
330
1F
100
AcDbEntity
  8
実線
100
AcDbLine
 10
664.4520263387797
 20
304.1315748827987
 30
0.0
 11
664.1985003387799
 21
303.6915768827987
 31
0.0
  0
LINE
  5
2F015
330
1F
100
AcDbEntity
  8
実線
100
AcDbLine
 10
681.8219143387799
 20
314.0515168827986
 30
0.0
 11
682.0754083387797
 21
313.6115208827987
 31
0.0
  0
LINE
  5
2F016
330
1F
100
AcDbEntity
  8
実線
100
AcDbLine
 10
671.2687623387796
 20
301.2581288827987
 30
0.0
 11
670.7617123387799
 21
301.2581288827987
 31
0.0
  0
LINE
  5
2F017
330
1F
100
AcDbEntity
  8
実線
100
AcDbLine
 10
672.1983223387796
 20
298.8137148827986
 30
0.0
 11
672.4518483387798
 21
299.1070288827986
 31
0.0
  0
LINE
  5
2F018
330
1F
100
AcDbEntity
  8
実線
100
AcDbLine
 10
679.0754083387796
 20
313.4648628827987
 30
0.0
 11
679.2021863387799
 21
313.7582028827988
 31
0.0
  0
LINE
  5
2F019
330
1F
100
AcDbEntity
  8
実線
100
AcDbLine
 10
660.2460423387797
 20
313.7203488827986
 30
0.0
 11
660.2460423387797
 21
313.2803508827988
 31
0.0
  0
LINE
  5
2F01A
330
1F
100
AcDbEntity
  8
実線
100
AcDbLine
 10
663.1192623387796
 20
311.1292488827987
 30
0.0
 11
663.1192623387796
 21
311.6181328827986
 31
0.0
  0
LINE
  5
2F01B
330
1F
100
AcDbEntity
  8
実線
100
AcDbLine
 10
675.1196263387797
 20
301.2096668827986
 30
0.0
 11
678.2464043387799
 21
301.2096668827986
 31
0.0
  0
LINE
  5
2F01C
330
1F
100
AcDbEntity
  8
実線
100
AcDbLine
 10
672.4877083387796
 20
317.9845048827987
 30
0.0
 11
672.5772203387796
 21
318.5369208827987
 31
0.0
  0
LINE
  5
2F01D
330
1F
100
AcDbEntity
  8
実線
100
AcDbLine
 10
664.4520263387797
 20
302.6160128827987
 30
0.0
 11
664.1985003387799
 21
302.3226728827987
 31
0.0
  0
LINE
  5
2F01E
330
1F
100
AcDbEntity
  8
実線
100
AcDbLine
 10
680.2314503387797
 20
304.2266968827987
 30
0.0
 11
679.68216233878
 21
304.3733548827986
 31
0.0
  0
LINE
  5
2F01F
330
1F
100
AcDbEntity
  8
実線
100
AcDbLine
 10
664.1985003387799
 20
303.6915768827987
 30
0.0
 11
663.9449763387797
 21
302.7626968827986
 31
0.0
  0
LINE
  5
2F020
330
1F
100
AcDbEntity
  8
実線
100
AcDbLine
 10
662.61221233878
 20
314.3070028827986
 30
0.0
 11
661.9361783387797
 21
314.5025708827986
 31
0.0
  0
LINE
  5
2F021
330
1F
100
AcDbEntity
  8
実線
100
AcDbLine
 10
670.2110163387795
 20
320.7857948827987
 30
0.0
 11
669.9574903387797
 21
320.4924548827987
 31
0.0
  0
LINE
  5
2F022
330
1F
100
AcDbEntity
  8
実線
100
AcDbLine
 10
664.8745683387796
 20
300.3671408827986
 30
0.0
 11
665.2548403387799
 21
300.2204828827987
 31
0.0
  0
LINE
  5
2F023
330
1F
100
AcDbEntity
  8
実線
100
AcDbLine
 10
660.6263143387799
 20
312.6447848827986
 30
0.0
 11
661.1756023387798
 21
312.4981268827987
 31
0.0
  0
LINE
  5
2F024
330
1F
100
AcDbEntity
  8
実線
100
AcDbLine
 10
682.0483323387797
 20
307.6977908827987
 30
0.0
 11
682.0483323387797
 21
307.2577928827986
 31
0.0
  0
LINE
  5
2F025
330
1F
100
AcDbEntity
  8
実線
100
AcDbLine
 10
666.0456083387797
 20
314.9250628827987
 30
0.0
 11
665.4963183387799
 21
314.7784068827987
 31
0.0
  0
LINE
  5
2F026
330
1F
100
AcDbEntity
  8
実線
100
AcDbLine
 10
679.4286363387799
 20
308.2844448827986
 30
0.0
 11
679.68216233878
 21
308.4311288827987
 31
0.0
  0
LINE
  5
2F027
330
1F
100
AcDbEntity
  8
実線
100
AcDbLine
 10
664.56672633878
 20
314.9250628827987
 30
0.0
 11
664.1864543387796
 21
315.2184028827987
 31
0.0
  0
LINE
  5
2F028
330
1F
100
AcDbEntity
  8
実線
100
AcDbLine
 10
669.5786263387799
 20
302.7736908827987
 30
0.0
 11
672.5786263387799
 21
302.7736908827987
 31
0.0
  0
LINE
  5
2F029
330
1F
100
AcDbEntity
  8
実線
100
AcDbLine
 10
679.68216233878
 20
308.4311288827987
 30
0.0
 11
680.2314503387797
 21
308.6266708827986
 31
0.0
  0
LINE
  5
2F02A
330
1F
100
AcDbEntity
  8
実線
100
AcDbLine
 10
666.9449763387797
 20
301.8826768827987
 30
0.0
 11
666.8182303387797
 21
302.3226728827987
 31
0.0
  0
LINE
  5
2F02B
330
1F
100
AcDbEntity
  8
実線
100
AcDbLine
 10
664.8745683387796
 20
304.4248888827987
 30
0.0
 11
664.4520263387797
 21
304.1315748827987
 31
0.0
  0
LINE
  5
2F02C
330
1F
100
AcDbEntity
  8
実線
100
AcDbLine
 10
664.3132023387797
 20
316.7339648827987
 30
0.0
 11
664.0596763387797
 21
317.0272788827987
 31
0.0
  0
LINE
  5
2F02D
330
1F
100
AcDbEntity
  8
実線
100
AcDbLine
 10
664.1864543387796
 20
315.2184028827987
 30
0.0
 11
663.9329303387799
 21
315.6584008827987
 31
0.0
  0
LINE
  5
2F02E
330
1F
100
AcDbEntity
  8
実線
100
AcDbLine
 10
665.4963183387799
 20
314.7784068827987
 30
0.0
 11
665.1160163387799
 21
314.7784068827987
 31
0.0
  0
LINE
  5
2F02F
330
1F
100
AcDbEntity
  8
実線
100
AcDbLine
 10
663.9329303387799
 20
317.4672768827986
 30
0.0
 11
663.9329303387799
 21
317.9561588827987
 31
0.0
  0
LINE
  5
2F030
330
1F
100
AcDbEntity
  8
実線
100
AcDbLine
 10
664.0596763387797
 20
317.0272788827987
 30
0.0
 11
663.9329303387799
 21
317.4672768827986
 31
0.0
  0
LINE
  5
2F031
330
1F
100
AcDbEntity
  8
実線
100
AcDbLine
 10
672.1983223387796
 20
300.7692468827986
 30
0.0
 11
671.8180503387797
 21
301.0625868827986
 31
0.0
  0
LINE
  5
2F032
330
1F
100
AcDbEntity
  8
実線
100
AcDbLine
 10
682.0754083387797
 20
313.6115208827987
 30
0.0
 11
682.0754083387797
 21
313.1715228827986
 31
0.0
  0
LINE
  5
2F033
330
1F
100
AcDbEntity
  8
実線
100
AcDbLine
 10
676.9583283387795
 20
319.1997968827986
 30
0.0
 11
675.9442603387797
 21
317.9775748827986
 31
0.0
  0
LINE
  5
2F034
330
1F
100
AcDbEntity
  8
実線
100
AcDbLine
 10
663.9449763387797
 20
302.7626968827986
 30
0.0
 11
663.9449763387797
 21
301.8826768827987
 31
0.0
  0
LINE
  5
2F035
330
1F
100
AcDbEntity
  8
実線
100
AcDbLine
 10
680.8923223387796
 20
314.5404008827986
 30
0.0
 11
681.44161233878
 21
314.3448568827987
 31
0.0
  0
LINE
  5
2F036
330
1F
100
AcDbEntity
  8
実線
100
AcDbLine
 10
680.3852723387799
 20
311.9493008827987
 30
0.0
 11
679.8782223387798
 21
311.5093048827987
 31
0.0
  0
LINE
  5
2F037
330
1F
100
AcDbEntity
  8
実線
100
AcDbLine
 10
666.6794043387799
 20
317.0272788827987
 30
0.0
 11
666.4258803387797
 21
316.7339648827987
 31
0.0
  0
LINE
  5
2F038
330
1F
100
AcDbEntity
  8
実線
100
AcDbLine
 10
671.2687623387796
 20
298.3737168827986
 30
0.0
 11
671.8180503387797
 21
298.5203748827987
 31
0.0
  0
LINE
  5
2F039
330
1F
100
AcDbEntity
  8
実線
100
AcDbLine
 10
660.1192623387795
 20
311.6181328827986
 30
0.0
 11
660.1192623387795
 21
311.1292488827987
 31
0.0
  0
LINE
  5
2F03A
330
1F
100
AcDbEntity
  8
実線
100
AcDbLine
 10
671.9434223387797
 20
320.7857948827987
 30
0.0
 11
671.6149583387796
 21
320.9757988827987
 31
0.0
  0
LINE
  5
2F03B
330
1F
100
AcDbEntity
  8
実線
100
AcDbLine
 10
670.21242233878
 20
301.0625868827986
 30
0.0
 11
669.9588983387797
 21
300.9159288827987
 31
0.0
  0
LINE
  5
2F03C
330
1F
100
AcDbEntity
  8
実線
100
AcDbLine
 10
676.9583283387795
 20
314.7998228827987
 30
0.0
 11
676.9583283387795
 21
319.1997968827986
 31
0.0
  0
LINE
  5
2F03D
330
1F
100
AcDbEntity
  8
実線
100
AcDbLine
 10
660.6263143387799
 20
314.3070028827986
 30
0.0
 11
660.3727883387796
 21
314.0136888827986
 31
0.0
  0
LINE
  5
2F03E
330
1F
100
AcDbEntity
  8
実線
100
AcDbLine
 10
677.6126083387797
 20
300.1829888827987
 30
0.0
 11
677.6126083387797
 21
304.5829888827987
 31
0.0
  0
LINE
  5
2F03F
330
1F
100
AcDbEntity
  8
実線
100
AcDbLine
 10
662.7389903387798
 20
310.3959108827987
 30
0.0
 11
662.9925163387797
 21
310.6892528827986
 31
0.0
  0
LINE
  5
2F040
330
1F
100
AcDbEntity
  8
実線
100
AcDbLine
 10
681.9215863387799
 20
305.8889148827987
 30
0.0
 11
682.0483323387797
 21
305.5955748827987
 31
0.0
  0
LINE
  5
2F041
330
1F
100
AcDbEntity
  8
実線
100
AcDbLine
 10
683.4423603387799
 20
313.7909108827987
 30
0.0
 11
682.4913043387796
 21
313.4818948827986
 31
0.0
  0
LINE
  5
2F042
330
1F
100
AcDbEntity
  8
実線
100
AcDbLine
 10
660.1192623387795
 20
311.1292488827987
 30
0.0
 11
660.2460423387797
 21
310.6892528827986
 31
0.0
  0
LINE
  5
2F043
330
1F
100
AcDbEntity
  8
実線
100
AcDbLine
 10
681.4145363387797
 20
304.3733548827986
 30
0.0
 11
680.86524833878
 21
304.2266968827987
 31
0.0
  0
CIRCLE
  5
2F044
330
1F
100
AcDbEntity
  8
実線
100
AcDbCircle
 10
671.0786263387799
 20
309.7736908827987
 30
0.0
 40
13.0
  0
HATCH
  5
2F045
330
1F
100
AcDbEntity
  8
細線
100
AcDbHatch
 10
0.0
 20
0.0
 30
0.0
210
0.0
220
0.0
230
1.0
  2
ANSI31
 70
     0
 71
     1
 91
        7
 92
        7
 72
     1
 73
     1
 93
        2
 10
581.8118189014207
 20
353.0719748827987
 42
0.0
 10
710.6723417761391
 20
353.0719748827987
 42
0.8479230842965712
 97
        2
330
2F0E0
330
2F0DF
 92
       22
 72
     1
 73
     1
 93
       15
 10
665.0420803387795
 20
382.9949408827989
 42
0.0
 10
666.0420803387795
 20
382.9949408827989
 42
0.0
 10
666.0420803387795
 20
382.6157695761859
 42
-0.3879073040668011
 10
669.0420803387795
 20
382.159154445172
 42
-0.7071067811865371
 10
673.0420803387795
 20
380.7449408827988
 42
0.0
 10
673.0420803387795
 20
376.9949408827989
 42
0.0
 10
672.0420803387797
 20
376.9949408827989
 42
0.0
 10
672.0420803387796
 20
380.7449408827988
 42
1.0
 10
669.5420803387795
 20
380.7449408827988
 42
0.0
 10
669.5420803387795
 20
376.9949408827989
 42
0.0
 10
668.5420803387795
 20
376.9949408827989
 42
0.0
 10
668.5420803387795
 20
380.7449408827988
 42
1.0
 10
666.0420803387795
 20
380.7449408827988
 42
0.0
 10
666.0420803387795
 20
376.9949408827989
 42
0.0
 10
665.0420803387795
 20
376.9949408827989
 42
0.0
 97
       15
330
2F060
330
2F056
330
2F059
330
2F05C
330
2F05F
330
2F063
330
2F05E
330
2F05D
330
2F05B
330
2F062
330
2F05A
330
2F058
330
2F055
330
2F061
330
2F057
 92
       22
 72
     0
 73
     1
 93
        4
 10
673.0420803387795
 20
372.9949408827989
 10
673.0420803387795
 20
358.5949408827987
 10
617.0420803387798
 20
358.5949408827987
 10
617.0420803387798
 20
372.9949408827989
 97
        4
330
2F0E3
330
2F0E2
330
2F0E1
330
2F0E4
 92
       22
 72
     0
 73
     1
 93
       43
 10
673.7969603387796
 20
384.8776168827985
 10
674.0511291317176
 20
385.4122463643387
 10
674.9656178138108
 20
385.8932448827986
 10
675.9321523387797
 20
385.8932448827986
 10
676.7820710356073
 20
385.6181866791591
 10
677.3679003387798
 20
385.002026934198
 10
677.3679003387798
 20
384.0511705418247
 10
676.9114303387794
 20
383.5710268827988
 10
677.3679003387798
 20
383.0909191132952
 10
677.3679003387798
 20
382.1400680568343
 10
676.755492919493
 20
381.4958936122283
 10
675.9207043387796
 20
381.2932688827986
 10
674.7971665585569
 20
381.2932688827986
 10
673.792305964929
 20
381.9978858480165
 10
674.2853143387796
 20
382.4666308827986
 10
674.5181963387799
 20
382.2216948827986
 10
674.8275663387799
 20
382.0047628827986
 10
675.2869063387797
 20
381.8932688827985
 10
675.8489283387797
 20
381.8932688827985
 10
676.3272983387796
 20
382.0093808827987
 10
676.5042563387797
 20
382.1024388827987
 10
676.6907483387799
 20
382.2986048827986
 10
676.7679003387797
 20
382.4609308827987
 10
676.7679003387797
 20
382.7700368827986
 10
676.6907523387799
 20
382.9323588827985
 10
676.5042583387797
 20
383.1285068827988
 10
676.1065003387797
 20
383.3377008827986
 10
674.8707143387796
 20
383.3377008827986
 10
674.8707143387796
 20
383.9377008827987
 10
676.1417963387797
 20
383.9377008827987
 10
676.5289243387798
 20
384.0394908827986
 10
676.6846983387798
 20
384.2033448827988
 10
676.7679003387797
 20
384.4075748827986
 10
676.7679003387797
 20
384.6811428827987
 10
676.6907523387799
 20
384.8434628827986
 10
676.5042543387798
 20
385.0396148827986
 10
676.3172363387797
 20
385.1379828827987
 10
675.8374803387796
 20
385.2932448827987
 10
675.29835433878
 20
385.2932448827987
 10
674.8185983387798
 20
385.1379828827987
 10
674.6315803387797
 20
385.0396148827986
 10
674.4450723387799
 20
384.8434508827986
 10
674.3388403387797
 20
384.6200008827986
 97
       53
330
2F06F
330
2F070
330
2F071
330
2F072
330
2F073
330
2F074
330
2F075
330
2F076
330
2F077
330
2F078
330
2F079
330
2F07A
330
2F06E
330
2F06D
330
2F06C
330
2F06B
330
2F06A
330
2F069
330
2F068
330
2F067
330
2F066
330
2F065
330
2F064
330
2F096
330
2F07B
330
2F07C
330
2F07D
330
2F07E
330
2F07F
330
2F080
330
2F081
330
2F082
330
2F083
330
2F084
330
2F085
330
2F086
330
2F087
330
2F097
330
2F088
330
2F089
330
2F08A
330
2F08B
330
2F08C
330
2F08D
330
2F08E
330
2F08F
330
2F090
330
2F091
330
2F092
330
2F093
330
2F094
330
2F095
330
2F098
 92
       22
 72
     0
 73
     1
 93
        4
 10
677.0420803387795
 20
372.9949408827989
 10
685.0420803387796
 20
372.9949408827989
 10
685.0420803387796
 20
358.5949408827987
 10
677.0420803387795
 20
358.5949408827987
 97
        4
330
2F0E8
330
2F0E6
330
2F0E5
330
2F0E7
 92
       22
 72
     1
 73
     1
 93
        2
 10
677.2420803387799
 20
356.1949408827986
 42
-1.0
 10
673.2420803387799
 20
356.1949408827986
 42
-1.0
 97
        1
330
2F049
 92
       22
 72
     0
 73
     1
 93
        3
 10
685.4420803387797
 20
365.5949408827987
 10
692.0420803387798
 20
367.5949408827987
 10
692.0420803387798
 20
363.5949408827987
 97
        3
330
2F047
330
2F046
330
2F048
 75
     0
 76
     1
 52
0.0
 41
1.0
 77
     0
 78
     1
 53
45.0
 43
416.6478158905589
 44
-8.440960614232606
 45
-2.245064030267287
 46
2.245064030267287
 79
     0
 47
0.1355684681925611
 98
        7
 10
648.7517136773294
 20
393.1117449007647
 10
648.7517136773294
 20
393.1117449007647
 10
648.7517136773294
 20
393.1117449007647
 10
648.7517136773294
 20
393.1117449007647
 10
648.7517136773294
 20
393.1117449007647
 10
648.7517136773294
 20
393.1117449007647
 10
648.7517136773294
 20
393.1117449007647
1001
ACAD
1010
0.0
1020
0.0
1030
0.0
  0
LINE
  5
2F046
102
{ACAD_REACTORS
330
2F045
102
}
330
1F
100
AcDbEntity
  8
実線
100
AcDbLine
 10
692.0420803387798
 20
367.5949408827987
 30
0.0
 11
692.0420803387798
 21
363.5949408827987
 31
0.0
  0
LINE
  5
2F047
102
{ACAD_REACTORS
330
2F045
102
}
330
1F
100
AcDbEntity
  8
実線
100
AcDbLine
 10
685.4420803387797
 20
365.5949408827987
 30
0.0
 11
692.0420803387798
 21
367.5949408827987
 31
0.0
  0
LINE
  5
2F048
102
{ACAD_REACTORS
330
2F045
102
}
330
1F
100
AcDbEntity
  8
実線
100
AcDbLine
 10
685.4420803387797
 20
365.5949408827987
 30
0.0
 11
692.0420803387798
 21
363.5949408827987
 31
0.0
  0
CIRCLE
  5
2F049
102
{ACAD_REACTORS
330
2F045
102
}
330
1F
100
AcDbEntity
  8
実線
100
AcDbCircle
 10
675.2420803387799
 20
356.1949408827986
 30
0.0
 40
2.0
  0
TEXT
  5
2F04A
330
1F
100
AcDbEntity
  8
実線
100
AcDbText
 10
698.6791323387797
 20
343.4280048827986
 30
0.0
 40
4.666666
  1
0
100
AcDbText
  0
LINE
  5
2F04B
330
1F
100
AcDbEntity
  8
実線
100
AcDbLine
 10
697.2815203387799
 20
346.4584608827986
 30
0.0
 11
697.9138363387797
 21
347.3391888827987
 31
0.0
  0
LINE
  5
2F04C
330
1F
100
AcDbEntity
  8
実線
100
AcDbLine
 10
697.9138363387797
 20
347.3391888827987
 30
0.0
 11
697.9128583387796
 21
343.3992988827986
 31
0.0
  0
LINE
  5
2F04D
330
1F
100
AcDbEntity
  8
実線
100
AcDbLine
 10
701.0420803387797
 20
343.3949408827987
 30
0.0
 11
701.0420803387797
 21
347.3949408827987
 31
0.0
  0
LINE
  5
2F04E
330
1F
100
AcDbEntity
  8
実線
100
AcDbLine
 10
701.0420803387797
 20
343.3949408827987
 30
0.0
 11
703.2420803387799
 21
343.3949408827987
 31
0.0
  0
LINE
  5
2F04F
330
1F
100
AcDbEntity
  8
実線
100
AcDbLine
 10
686.51383633878
 20
312.3391888827987
 30
0.0
 11
686.51285833878
 21
308.3992988827987
 31
0.0
  0
LINE
  5
2F050
330
1F
100
AcDbEntity
  8
実線
100
AcDbLine
 10
685.8815203387798
 20
311.4584608827987
 30
0.0
 11
686.51383633878
 21
312.3391888827987
 31
0.0
  0
LINE
  5
2F051
330
1F
100
AcDbEntity
  8
実線
100
AcDbLine
 10
687.6420803387799
 20
308.3949408827987
 30
0.0
 11
687.6420803387799
 21
312.3949408827987
 31
0.0
  0
LINE
  5
2F052
330
1F
100
AcDbEntity
  8
実線
100
AcDbLine
 10
687.6420803387799
 20
308.3949408827987
 30
0.0
 11
689.8420803387797
 21
308.3949408827987
 31
0.0
  0
TEXT
  5
2F053
330
1F
100
AcDbEntity
  8
実線
100
AcDbText
 10
606.2420803387799
 20
332.3949408827987
 30
0.0
 40
5.625
  1
Q3=16
100
AcDbText
  0
TEXT
  5
2F054
330
1F
100
AcDbEntity
  8
実線
100
AcDbText
 10
610.2420803387799
 20
324.3949408827987
 30
0.0
 40
5.625
  1
R=100
100
AcDbText
  0
LINE
  5
2F055
102
{ACAD_REACTORS
330
2F045
102
}
330
1F
100
AcDbEntity
  8
実線
100
AcDbLine
 10
666.0420803387795
 20
376.9949408827989
 30
0.0
 11
666.0420803387795
 21
380.7449408827988
 31
0.0
  0
LINE
  5
2F056
102
{ACAD_REACTORS
330
2F045
102
}
330
1F
100
AcDbEntity
  8
実線
100
AcDbLine
 10
666.0420803387795
 20
382.6157688827986
 30
0.0
 11
666.0420803387795
 21
382.9949408827989
 31
0.0
  0
LINE
  5
2F057
102
{ACAD_REACTORS
330
2F045
102
}
330
1F
100
AcDbEntity
  8
実線
100
AcDbLine
 10
665.0420803387795
 20
376.9949408827989
 30
0.0
 11
665.0420803387795
 21
382.9949408827989
 31
0.0
  0
ARC
  5
2F058
102
{ACAD_REACTORS
330
2F045
102
}
330
1F
100
AcDbEntity
  8
実線
100
AcDbCircle
 10
667.2920803387795
 20
380.7449408827988
 30
0.0
 40
1.25
100
AcDbArc
 50
0.0
 51
180.0
  0
ARC
  5
2F059
102
{ACAD_REACTORS
330
2F045
102
}
330
1F
100
AcDbEntity
  8
実線
100
AcDbCircle
 10
667.2920803387795
 20
380.7449408827988
 30
0.0
 40
2.25
100
AcDbArc
 50
38.94244099999634
 51
123.7489890000025
  0
LINE
  5
2F05A
102
{ACAD_REACTORS
330
2F045
102
}
330
1F
100
AcDbEntity
  8
実線
100
AcDbLine
 10
668.5420803387795
 20
376.9949408827989
 30
0.0
 11
668.5420803387795
 21
380.7449408827988
 31
0.0
  0
LINE
  5
2F05B
102
{ACAD_REACTORS
330
2F045
102
}
330
1F
100
AcDbEntity
  8
実線
100
AcDbLine
 10
669.5420803387795
 20
376.9949408827989
 30
0.0
 11
669.5420803387795
 21
380.7449408827988
 31
0.0
  0
ARC
  5
2F05C
102
{ACAD_REACTORS
330
2F045
102
}
330
1F
100
AcDbEntity
  8
実線
100
AcDbCircle
 10
670.7920803387795
 20
380.7449408827988
 30
0.0
 40
2.25
100
AcDbArc
 50
0.0
 51
141.0575590000035
  0
ARC
  5
2F05D
102
{ACAD_REACTORS
330
2F045
102
}
330
1F
100
AcDbEntity
  8
実線
100
AcDbCircle
 10
670.7920803387795
 20
380.7449408827988
 30
0.0
 40
1.25
100
AcDbArc
 50
0.0
 51
180.0
  0
LINE
  5
2F05E
102
{ACAD_REACTORS
330
2F045
102
}
330
1F
100
AcDbEntity
  8
実線
100
AcDbLine
 10
672.0420803387797
 20
376.9949408827989
 30
0.0
 11
672.0420803387797
 21
380.7449408827988
 31
0.0
  0
LINE
  5
2F05F
102
{ACAD_REACTORS
330
2F045
102
}
330
1F
100
AcDbEntity
  8
実線
100
AcDbLine
 10
673.0420803387795
 20
376.9949408827989
 30
0.0
 11
673.0420803387795
 21
380.7449408827988
 31
0.0
  0
LINE
  5
2F060
102
{ACAD_REACTORS
330
2F045
102
}
330
1F
100
AcDbEntity
  8
実線
100
AcDbLine
 10
665.0420803387795
 20
382.9949408827989
 30
0.0
 11
666.0420803387795
 21
382.9949408827989
 31
0.0
  0
LINE
  5
2F061
102
{ACAD_REACTORS
330
2F045
102
}
330
1F
100
AcDbEntity
  8
実線
100
AcDbLine
 10
665.0420803387795
 20
376.9949408827989
 30
0.0
 11
666.0420803387795
 21
376.9949408827989
 31
0.0
  0
LINE
  5
2F062
102
{ACAD_REACTORS
330
2F045
102
}
330
1F
100
AcDbEntity
  8
実線
100
AcDbLine
 10
668.5420803387795
 20
376.9949408827989
 30
0.0
 11
669.5420803387795
 21
376.9949408827989
 31
0.0
  0
LINE
  5
2F063
102
{ACAD_REACTORS
330
2F045
102
}
330
1F
100
AcDbEntity
  8
実線
100
AcDbLine
 10
672.0420803387797
 20
376.9949408827989
 30
0.0
 11
673.0420803387795
 21
376.9949408827989
 31
0.0
  0
LINE
  5
2F064
102
{ACAD_REACTORS
330
2F045
102
}
330
1F
100
AcDbEntity
  8
実線
100
AcDbLine
 10
674.1246563387798
 20
381.7648388827988
 30
0.0
 11
673.8504863387797
 21
382.0532028827989
 31
0.0
  0
LINE
  5
2F065
102
{ACAD_REACTORS
330
2F045
102
}
330
1F
100
AcDbEntity
  8
実線
100
AcDbLine
 10
674.57589433878
 20
381.4484268827987
 30
0.0
 11
674.1246563387798
 21
381.7648388827988
 31
0.0
  0
LINE
  5
2F066
102
{ACAD_REACTORS
330
2F045
102
}
330
1F
100
AcDbEntity
  8
実線
100
AcDbLine
 10
675.2151303387798
 20
381.2932688827986
 30
0.0
 11
674.57589433878
 21
381.4484268827987
 31
0.0
  0
LINE
  5
2F067
102
{ACAD_REACTORS
330
2F045
102
}
330
1F
100
AcDbEntity
  8
実線
100
AcDbLine
 10
675.9207043387796
 20
381.2932688827986
 30
0.0
 11
675.2151303387798
 21
381.2932688827986
 31
0.0
  0
LINE
  5
2F068
102
{ACAD_REACTORS
330
2F045
102
}
330
1F
100
AcDbEntity
  8
実線
100
AcDbLine
 10
676.5409103387796
 20
381.4438088827987
 30
0.0
 11
675.9207043387796
 21
381.2932688827986
 31
0.0
  0
LINE
  5
2F069
102
{ACAD_REACTORS
330
2F045
102
}
330
1F
100
AcDbEntity
  8
実線
100
AcDbLine
 10
676.87100433878
 20
381.6173968827986
 30
0.0
 11
676.5409103387796
 21
381.4438088827987
 31
0.0
  0
LINE
  5
2F06A
102
{ACAD_REACTORS
330
2F045
102
}
330
1F
100
AcDbEntity
  8
実線
100
AcDbLine
 10
677.1915603387797
 20
381.9545808827988
 30
0.0
 11
676.87100433878
 21
381.6173968827986
 31
0.0
  0
LINE
  5
2F06B
102
{ACAD_REACTORS
330
2F045
102
}
330
1F
100
AcDbEntity
  8
実線
100
AcDbLine
 10
677.3679003387798
 20
382.3255988827987
 30
0.0
 11
677.1915603387797
 21
381.9545808827988
 31
0.0
  0
LINE
  5
2F06C
102
{ACAD_REACTORS
330
2F045
102
}
330
1F
100
AcDbEntity
  8
実線
100
AcDbLine
 10
677.3679003387798
 20
382.9053688827987
 30
0.0
 11
677.3679003387798
 21
382.3255988827987
 31
0.0
  0
LINE
  5
2F06D
102
{ACAD_REACTORS
330
2F045
102
}
330
1F
100
AcDbEntity
  8
実線
100
AcDbLine
 10
677.1915563387797
 20
383.2763948827988
 30
0.0
 11
677.3679003387798
 21
382.9053688827987
 31
0.0
  0
LINE
  5
2F06E
102
{ACAD_REACTORS
330
2F045
102
}
330
1F
100
AcDbEntity
  8
実線
100
AcDbLine
 10
676.9114303387794
 20
383.5710268827988
 30
0.0
 11
677.1915563387797
 21
383.2763948827988
 31
0.0
  0
LINE
  5
2F06F
102
{ACAD_REACTORS
330
2F045
102
}
330
1F
100
AcDbEntity
  8
実線
100
AcDbLine
 10
673.7969603387796
 20
384.8776168827985
 30
0.0
 11
673.9442883387796
 21
385.1875128827987
 31
0.0
  0
LINE
  5
2F070
102
{ACAD_REACTORS
330
2F045
102
}
330
1F
100
AcDbEntity
  8
実線
100
AcDbLine
 10
673.9442883387796
 20
385.1875128827987
 30
0.0
 11
674.2648283387798
 21
385.5246468827986
 31
0.0
  0
LINE
  5
2F071
102
{ACAD_REACTORS
330
2F045
102
}
330
1F
100
AcDbEntity
  8
実線
100
AcDbLine
 10
674.2648283387798
 20
385.5246468827986
 30
0.0
 11
674.5848623387797
 21
385.6929768827986
 31
0.0
  0
LINE
  5
2F072
102
{ACAD_REACTORS
330
2F045
102
}
330
1F
100
AcDbEntity
  8
実線
100
AcDbLine
 10
674.5848623387797
 20
385.6929768827986
 30
0.0
 11
675.2036823387798
 21
385.8932448827986
 31
0.0
  0
LINE
  5
2F073
102
{ACAD_REACTORS
330
2F045
102
}
330
1F
100
AcDbEntity
  8
実線
100
AcDbLine
 10
675.2036823387798
 20
385.8932448827986
 30
0.0
 11
675.9321523387797
 21
385.8932448827986
 31
0.0
  0
LINE
  5
2F074
102
{ACAD_REACTORS
330
2F045
102
}
330
1F
100
AcDbEntity
  8
実線
100
AcDbLine
 10
675.9321523387797
 20
385.8932448827986
 30
0.0
 11
676.55097233878
 21
385.6929768827986
 31
0.0
  0
LINE
  5
2F075
102
{ACAD_REACTORS
330
2F045
102
}
330
1F
100
AcDbEntity
  8
実線
100
AcDbLine
 10
676.55097233878
 20
385.6929768827986
 30
0.0
 11
676.8710063387798
 21
385.5246468827986
 31
0.0
  0
LINE
  5
2F076
102
{ACAD_REACTORS
330
2F045
102
}
330
1F
100
AcDbEntity
  8
実線
100
AcDbLine
 10
676.8710063387798
 20
385.5246468827986
 30
0.0
 11
677.1915563387797
 21
385.1875008827988
 31
0.0
  0
LINE
  5
2F077
102
{ACAD_REACTORS
330
2F045
102
}
330
1F
100
AcDbEntity
  8
実線
100
AcDbLine
 10
677.1915563387797
 20
385.1875008827988
 30
0.0
 11
677.3679003387798
 21
384.8164748827987
 31
0.0
  0
LINE
  5
2F078
102
{ACAD_REACTORS
330
2F045
102
}
330
1F
100
AcDbEntity
  8
実線
100
AcDbLine
 10
677.3679003387798
 20
384.8164748827987
 30
0.0
 11
677.3679003387798
 21
384.2900468827986
 31
0.0
  0
LINE
  5
2F079
102
{ACAD_REACTORS
330
2F045
102
}
330
1F
100
AcDbEntity
  8
実線
100
AcDbLine
 10
677.3679003387798
 20
384.2900468827986
 30
0.0
 11
677.1976103387795
 21
383.8720488827987
 31
0.0
  0
LINE
  5
2F07A
102
{ACAD_REACTORS
330
2F045
102
}
330
1F
100
AcDbEntity
  8
実線
100
AcDbLine
 10
677.1976103387795
 20
383.8720488827987
 30
0.0
 11
676.9114303387794
 21
383.5710268827988
 31
0.0
  0
LINE
  5
2F07B
102
{ACAD_REACTORS
330
2F045
102
}
330
1F
100
AcDbEntity
  8
実線
100
AcDbLine
 10
674.5181963387799
 20
382.2216948827986
 30
0.0
 11
674.2853143387796
 21
382.4666308827986
 31
0.0
  0
LINE
  5
2F07C
102
{ACAD_REACTORS
330
2F045
102
}
330
1F
100
AcDbEntity
  8
実線
100
AcDbLine
 10
674.8275663387799
 20
382.0047628827986
 30
0.0
 11
674.5181963387799
 21
382.2216948827986
 31
0.0
  0
LINE
  5
2F07D
102
{ACAD_REACTORS
330
2F045
102
}
330
1F
100
AcDbEntity
  8
実線
100
AcDbLine
 10
675.2869063387797
 20
381.8932688827985
 30
0.0
 11
674.8275663387799
 21
382.0047628827986
 31
0.0
  0
LINE
  5
2F07E
102
{ACAD_REACTORS
330
2F045
102
}
330
1F
100
AcDbEntity
  8
実線
100
AcDbLine
 10
675.8489283387797
 20
381.8932688827985
 30
0.0
 11
675.2869063387797
 21
381.8932688827985
 31
0.0
  0
LINE
  5
2F07F
102
{ACAD_REACTORS
330
2F045
102
}
330
1F
100
AcDbEntity
  8
実線
100
AcDbLine
 10
676.3272983387796
 20
382.0093808827987
 30
0.0
 11
675.8489283387797
 21
381.8932688827985
 31
0.0
  0
LINE
  5
2F080
102
{ACAD_REACTORS
330
2F045
102
}
330
1F
100
AcDbEntity
  8
実線
100
AcDbLine
 10
676.5042563387797
 20
382.1024388827987
 30
0.0
 11
676.3272983387796
 21
382.0093808827987
 31
0.0
  0
LINE
  5
2F081
102
{ACAD_REACTORS
330
2F045
102
}
330
1F
100
AcDbEntity
  8
実線
100
AcDbLine
 10
676.6907483387799
 20
382.2986048827986
 30
0.0
 11
676.5042563387797
 21
382.1024388827987
 31
0.0
  0
LINE
  5
2F082
102
{ACAD_REACTORS
330
2F045
102
}
330
1F
100
AcDbEntity
  8
実線
100
AcDbLine
 10
676.7679003387797
 20
382.4609308827987
 30
0.0
 11
676.6907483387799
 21
382.2986048827986
 31
0.0
  0
LINE
  5
2F083
102
{ACAD_REACTORS
330
2F045
102
}
330
1F
100
AcDbEntity
  8
実線
100
AcDbLine
 10
676.7679003387797
 20
382.7700368827986
 30
0.0
 11
676.7679003387797
 21
382.4609308827987
 31
0.0
  0
LINE
  5
2F084
102
{ACAD_REACTORS
330
2F045
102
}
330
1F
100
AcDbEntity
  8
実線
100
AcDbLine
 10
676.6907523387799
 20
382.9323588827985
 30
0.0
 11
676.7679003387797
 21
382.7700368827986
 31
0.0
  0
LINE
  5
2F085
102
{ACAD_REACTORS
330
2F045
102
}
330
1F
100
AcDbEntity
  8
実線
100
AcDbLine
 10
676.5042583387797
 20
383.1285068827988
 30
0.0
 11
676.6907523387799
 21
382.9323588827985
 31
0.0
  0
LINE
  5
2F086
102
{ACAD_REACTORS
330
2F045
102
}
330
1F
100
AcDbEntity
  8
実線
100
AcDbLine
 10
676.1065003387797
 20
383.3377008827986
 30
0.0
 11
676.5042583387797
 21
383.1285068827988
 31
0.0
  0
LINE
  5
2F087
102
{ACAD_REACTORS
330
2F045
102
}
330
1F
100
AcDbEntity
  8
実線
100
AcDbLine
 10
676.1065003387797
 20
383.3377008827986
 30
0.0
 11
674.8707143387796
 21
383.3377008827986
 31
0.0
  0
LINE
  5
2F088
102
{ACAD_REACTORS
330
2F045
102
}
330
1F
100
AcDbEntity
  8
実線
100
AcDbLine
 10
676.1417963387797
 20
383.9377008827987
 30
0.0
 11
674.8707143387796
 21
383.9377008827987
 31
0.0
  0
LINE
  5
2F089
102
{ACAD_REACTORS
330
2F045
102
}
330
1F
100
AcDbEntity
  8
実線
100
AcDbLine
 10
676.5289243387798
 20
384.0394908827986
 30
0.0
 11
676.1417963387797
 21
383.9377008827987
 31
0.0
  0
LINE
  5
2F08A
102
{ACAD_REACTORS
330
2F045
102
}
330
1F
100
AcDbEntity
  8
実線
100
AcDbLine
 10
676.6846983387798
 20
384.2033448827988
 30
0.0
 11
676.5289243387798
 21
384.0394908827986
 31
0.0
  0
LINE
  5
2F08B
102
{ACAD_REACTORS
330
2F045
102
}
330
1F
100
AcDbEntity
  8
実線
100
AcDbLine
 10
676.7679003387797
 20
384.4075748827986
 30
0.0
 11
676.6846983387798
 21
384.2033448827988
 31
0.0
  0
LINE
  5
2F08C
102
{ACAD_REACTORS
330
2F045
102
}
330
1F
100
AcDbEntity
  8
実線
100
AcDbLine
 10
676.7679003387797
 20
384.6811428827987
 30
0.0
 11
676.7679003387797
 21
384.4075748827986
 31
0.0
  0
LINE
  5
2F08D
102
{ACAD_REACTORS
330
2F045
102
}
330
1F
100
AcDbEntity
  8
実線
100
AcDbLine
 10
676.6907523387799
 20
384.8434628827986
 30
0.0
 11
676.7679003387797
 21
384.6811428827987
 31
0.0
  0
LINE
  5
2F08E
102
{ACAD_REACTORS
330
2F045
102
}
330
1F
100
AcDbEntity
  8
実線
100
AcDbLine
 10
676.5042543387798
 20
385.0396148827986
 30
0.0
 11
676.6907523387799
 21
384.8434628827986
 31
0.0
  0
LINE
  5
2F08F
102
{ACAD_REACTORS
330
2F045
102
}
330
1F
100
AcDbEntity
  8
実線
100
AcDbLine
 10
676.3172363387797
 20
385.1379828827987
 30
0.0
 11
676.5042543387798
 21
385.0396148827986
 31
0.0
  0
LINE
  5
2F090
102
{ACAD_REACTORS
330
2F045
102
}
330
1F
100
AcDbEntity
  8
実線
100
AcDbLine
 10
675.8374803387796
 20
385.2932448827987
 30
0.0
 11
676.3172363387797
 21
385.1379828827987
 31
0.0
  0
LINE
  5
2F091
102
{ACAD_REACTORS
330
2F045
102
}
330
1F
100
AcDbEntity
  8
実線
100
AcDbLine
 10
675.29835433878
 20
385.2932448827987
 30
0.0
 11
675.8374803387796
 21
385.2932448827987
 31
0.0
  0
LINE
  5
2F092
102
{ACAD_REACTORS
330
2F045
102
}
330
1F
100
AcDbEntity
  8
実線
100
AcDbLine
 10
674.8185983387798
 20
385.1379828827987
 30
0.0
 11
675.29835433878
 21
385.2932448827987
 31
0.0
  0
LINE
  5
2F093
102
{ACAD_REACTORS
330
2F045
102
}
330
1F
100
AcDbEntity
  8
実線
100
AcDbLine
 10
674.6315803387797
 20
385.0396148827986
 30
0.0
 11
674.8185983387798
 21
385.1379828827987
 31
0.0
  0
LINE
  5
2F094
102
{ACAD_REACTORS
330
2F045
102
}
330
1F
100
AcDbEntity
  8
実線
100
AcDbLine
 10
674.4450723387799
 20
384.8434508827986
 30
0.0
 11
674.6315803387797
 21
385.0396148827986
 31
0.0
  0
LINE
  5
2F095
102
{ACAD_REACTORS
330
2F045
102
}
330
1F
100
AcDbEntity
  8
実線
100
AcDbLine
 10
674.3388403387797
 20
384.6200008827986
 30
0.0
 11
674.4450723387799
 21
384.8434508827986
 31
0.0
  0
LINE
  5
2F096
102
{ACAD_REACTORS
330
2F045
102
}
330
1F
100
AcDbEntity
  8
実線
100
AcDbLine
 10
674.2853143387796
 20
382.4666308827986
 30
0.0
 11
673.8504863387797
 21
382.0532028827989
 31
0.0
  0
LINE
  5
2F097
102
{ACAD_REACTORS
330
2F045
102
}
330
1F
100
AcDbEntity
  8
実線
100
AcDbLine
 10
674.8707143387796
 20
383.3377008827986
 30
0.0
 11
674.8707143387796
 21
383.9377008827987
 31
0.0
  0
LINE
  5
2F098
102
{ACAD_REACTORS
330
2F045
102
}
330
1F
100
AcDbEntity
  8
実線
100
AcDbLine
 10
674.3388403387797
 20
384.6200008827986
 30
0.0
 11
673.7969603387796
 21
384.8776168827985
 31
0.0
  0
LINE
  5
2F099
330
1F
100
AcDbEntity
  8
実線
100
AcDbLine
 10
628.01295233878
 20
310.3550268827987
 30
0.0
 11
632.01295233878
 21
311.3550268827987
 31
0.0
  0
LINE
  5
2F09A
330
1F
100
AcDbEntity
  8
実線
100
AcDbLine
 10
628.01295233878
 20
310.3550268827987
 30
0.0
 11
628.01295233878
 21
312.3550268827987
 31
0.0
  0
LINE
  5
2F09B
330
1F
100
AcDbEntity
  8
実線
100
AcDbLine
 10
628.01295233878
 20
312.3550268827987
 30
0.0
 11
632.01295233878
 21
311.3550268827987
 31
0.0
  0
LINE
  5
2F09C
330
1F
100
AcDbEntity
  8
実線
100
AcDbLine
 10
652.2420803387799
 20
322.3949408827987
 30
0.0
 11
654.2420803387799
 21
329.3949408827987
 31
0.0
  0
LINE
  5
2F09D
330
1F
100
AcDbEntity
  8
実線
100
AcDbLine
 10
652.7420803387799
 20
329.3949408827987
 30
0.0
 11
654.2420803387799
 21
329.3949408827987
 31
0.0
  0
LINE
  5
2F09E
330
1F
100
AcDbEntity
  8
実線
100
AcDbLine
 10
652.7420803387799
 20
329.3949408827987
 30
0.0
 11
652.7420803387799
 21
336.3949408827987
 31
0.0
  0
LINE
  5
2F09F
330
1F
100
AcDbEntity
  8
実線
100
AcDbLine
 10
651.7420803387799
 20
329.3949408827987
 30
0.0
 11
651.7420803387799
 21
336.3949408827987
 31
0.0
  0
LINE
  5
2F0A0
330
1F
100
AcDbEntity
  8
実線
100
AcDbLine
 10
652.7420803387799
 20
336.3949408827987
 30
0.0
 11
651.7420803387799
 21
336.3949408827987
 31
0.0
  0
LINE
  5
2F0A1
330
1F
100
AcDbEntity
  8
実線
100
AcDbLine
 10
650.2420803387799
 20
329.3949408827987
 30
0.0
 11
651.7420803387799
 21
329.3949408827987
 31
0.0
  0
LINE
  5
2F0A2
330
1F
100
AcDbEntity
  8
実線
100
AcDbLine
 10
650.2420803387799
 20
329.3949408827987
 30
0.0
 11
652.2420803387799
 21
322.3949408827987
 31
0.0
  0
TEXT
  5
2F0A3
330
1F
100
AcDbEntity
  8
実線
100
AcDbText
 10
596.2420803387799
 20
340.3949408827987
 30
0.0
 40
5.0
  1
H
100
AcDbText
  0
LINE
  5
2F0A4
330
1F
100
AcDbEntity
  8
実線
100
AcDbLine
 10
591.7948463387797
 20
332.5888248827987
 30
0.0
 11
590.8774443387796
 21
332.3430068827988
 31
0.0
  0
LINE
  5
2F0A5
330
1F
100
AcDbEntity
  8
実線
100
AcDbLine
 10
592.2051443387799
 20
327.2325048827986
 30
0.0
 11
590.50511433878
 21
326.7769828827986
 31
0.0
  0
LINE
  5
2F0A6
330
1F
100
AcDbEntity
  8
実線
100
AcDbLine
 10
588.6198483387797
 20
326.4995888827987
 30
0.0
 11
587.5821723387797
 21
326.2215448827987
 31
0.0
  0
LINE
  5
2F0A7
330
1F
100
AcDbEntity
  8
実線
100
AcDbLine
 10
595.01420433878
 20
328.2129508827986
 30
0.0
 11
593.9765303387797
 21
327.9349068827987
 31
0.0
  0
LINE
  5
2F0A8
330
1F
100
AcDbEntity
  8
実線
100
AcDbLine
 10
588.3920863387798
 20
327.3496028827985
 30
0.0
 11
587.3544123387796
 21
327.0715588827986
 31
0.0
  0
LINE
  5
2F0A9
330
1F
100
AcDbEntity
  8
実線
100
AcDbLine
 10
590.0455043387795
 20
331.8923288827987
 30
0.0
 11
588.3920863387798
 21
327.3496028827985
 31
0.0
  0
LINE
  5
2F0AA
330
1F
100
AcDbEntity
  8
実線
100
AcDbLine
 10
591.4911723387799
 20
322.9415028827987
 30
0.0
 11
587.5821723387797
 21
326.2215448827987
 31
0.0
  0
LINE
  5
2F0AB
330
1F
100
AcDbEntity
  8
実線
100
AcDbLine
 10
592.3231123387799
 20
323.3921808827986
 30
0.0
 11
588.6198483387797
 21
326.4995888827987
 31
0.0
  0
LINE
  5
2F0AC
330
1F
100
AcDbEntity
  8
実線
100
AcDbLine
 10
590.8015323387799
 20
321.8456708827987
 30
0.0
 11
590.5737703387798
 21
322.6956868827988
 31
0.0
  0
LINE
  5
2F0AD
330
1F
100
AcDbEntity
  8
実線
100
AcDbLine
 10
593.2689323387799
 20
323.4178528827988
 30
0.0
 11
594.1863343387799
 21
323.6636688827987
 31
0.0
  0
LINE
  5
2F0AE
330
1F
100
AcDbEntity
  8
実線
100
AcDbLine
 10
589.0996843387797
 20
331.8666588827987
 30
0.0
 11
588.1822823387797
 21
331.6208408827988
 31
0.0
  0
LINE
  5
2F0AF
330
1F
100
AcDbEntity
  8
実線
100
AcDbLine
 10
591.5670843387797
 20
333.4388388827988
 30
0.0
 11
591.7948463387797
 21
332.5888248827987
 31
0.0
  0
LINE
  5
2F0B0
330
1F
100
AcDbEntity
  8
実線
100
AcDbLine
 10
592.3231123387799
 20
323.3921808827986
 30
0.0
 11
593.9765303387797
 21
327.9349068827987
 31
0.0
  0
LINE
  5
2F0B1
330
1F
100
AcDbEntity
  8
実線
100
AcDbLine
 10
593.2689323387799
 20
323.4178528827988
 30
0.0
 11
595.01420433878
 21
328.2129508827986
 31
0.0
  0
LINE
  5
2F0B2
330
1F
100
AcDbEntity
  8
実線
100
AcDbLine
 10
591.8635023387796
 20
328.5075268827986
 30
0.0
 11
590.1634723387798
 21
328.0520048827987
 31
0.0
  0
LINE
  5
2F0B3
330
1F
100
AcDbEntity
  8
実線
100
AcDbLine
 10
594.1863343387799
 20
323.6636688827987
 30
0.0
 11
594.4140943387797
 21
322.8136548827988
 31
0.0
  0
LINE
  5
2F0B4
330
1F
100
AcDbEntity
  8
実線
100
AcDbLine
 10
588.1822823387797
 20
331.6208408827988
 30
0.0
 11
587.95452233878
 21
332.4708548827987
 31
0.0
  0
LINE
  5
2F0B5
330
1F
100
AcDbEntity
  8
実線
100
AcDbLine
 10
592.3759643387797
 20
326.5949948827988
 30
0.0
 11
590.6759343387797
 21
326.1394728827986
 31
0.0
  0
LINE
  5
2F0B6
330
1F
100
AcDbEntity
  8
実線
100
AcDbLine
 10
590.8774443387796
 20
332.3430068827988
 30
0.0
 11
594.7864443387798
 21
329.0629668827987
 31
0.0
  0
LINE
  5
2F0B7
330
1F
100
AcDbEntity
  8
実線
100
AcDbLine
 10
591.5670843387797
 20
333.4388388827988
 30
0.0
 11
587.95452233878
 21
332.4708548827987
 31
0.0
  0
LINE
  5
2F0B8
330
1F
100
AcDbEntity
  8
実線
100
AcDbLine
 10
590.5737703387798
 20
322.6956868827988
 30
0.0
 11
591.4911723387799
 21
322.9415028827987
 31
0.0
  0
LINE
  5
2F0B9
330
1F
100
AcDbEntity
  8
実線
100
AcDbLine
 10
589.0996843387797
 20
331.8666588827987
 30
0.0
 11
587.3544123387796
 21
327.0715588827986
 31
0.0
  0
LINE
  5
2F0BA
330
1F
100
AcDbEntity
  8
実線
100
AcDbLine
 10
590.0455043387795
 20
331.8923288827987
 30
0.0
 11
593.7487683387797
 21
328.7849228827986
 31
0.0
  0
LINE
  5
2F0BB
330
1F
100
AcDbEntity
  8
実線
100
AcDbLine
 10
594.4140943387797
 20
322.8136548827988
 30
0.0
 11
590.8015323387799
 21
321.8456708827987
 31
0.0
  0
LINE
  5
2F0BC
330
1F
100
AcDbEntity
  8
実線
100
AcDbLine
 10
591.6926823387797
 20
329.1450388827986
 30
0.0
 11
589.9926523387797
 21
328.6895168827987
 31
0.0
  0
LINE
  5
2F0BD
330
1F
100
AcDbEntity
  8
実線
100
AcDbLine
 10
594.7864443387798
 20
329.0629668827987
 30
0.0
 11
593.7487683387797
 21
328.7849228827986
 31
0.0
  0
ARC
  5
2F0BE
330
1F
100
AcDbEntity
  8
実線
100
AcDbCircle
 10
592.0343223387799
 20
327.8700168827986
 30
0.0
 40
1.32
100
AcDbArc
 50
285.0000000000012
 51
105.0000000000012
  0
ARC
  5
2F0BF
330
1F
100
AcDbEntity
  8
実線
100
AcDbCircle
 10
590.3342943387797
 20
327.4144948827987
 30
0.0
 40
1.32
100
AcDbArc
 50
105.0000000000012
 51
285.0000000000012
  0
ARC
  5
2F0C0
330
1F
100
AcDbEntity
  8
実線
100
AcDbCircle
 10
592.0343223387799
 20
327.8700168827986
 30
0.0
 40
0.6600000000000002
100
AcDbArc
 50
285.0000000000012
 51
105.0000000000012
  0
ARC
  5
2F0C1
330
1F
100
AcDbEntity
  8
実線
100
AcDbCircle
 10
590.3342943387797
 20
327.4144948827987
 30
0.0
 40
0.6600000000000002
100
AcDbArc
 50
105.0000000000012
 51
285.0000000000012
  0
TEXT
  5
2F0C2
330
1F
100
AcDbEntity
  8
実線
100
AcDbText
 10
623.6674676730831
 20
286.7445639493549
 30
0.0
 40
5.44
  1
3          
 50
336.0000000000008
100
AcDbText
  0
TEXT
  5
2F0C3
330
1F
100
AcDbEntity
  8
実線
100
AcDbText
 10
619.6391794198289
 20
289.2414661734886
 30
0.0
 40
5.44
  1
2          
 50
332.0000000000002
100
AcDbText
  0
TEXT
  5
2F0C4
330
1F
100
AcDbEntity
  8
実線
100
AcDbText
 10
614.3045032861071
 20
291.8561236572127
 30
0.0
 40
5.44
  1
号
 50
328.0000000000001
  7
BIGFONT
100
AcDbText
  0
TEXT
  5
2F0C5
330
1F
100
AcDbEntity
  8
実線
100
AcDbText
 10
610.5458043387796
 20
295.1433188827987
 30
0.0
 40
5.44
  1
8   
 50
322.0000000000005
100
AcDbText
  0
TEXT
  5
2F0C6
330
1F
100
AcDbEntity
  8
実線
100
AcDbText
 10
607.22486233878
 20
297.6787688827986
 30
0.0
 40
5.44
  1
3   
 50
319.9999999999997
100
AcDbText
  0
TEXT
  5
2F0C7
330
1F
100
AcDbEntity
  8
実線
100
AcDbText
 10
604.1439203387799
 20
300.3507368827986
 30
0.0
 40
5.44
  1
1   
 50
315.9999999999997
100
AcDbText
  0
TEXT
  5
2F0C8
330
1F
100
AcDbEntity
  8
実線
100
AcDbText
 10
601.2810983387797
 20
303.3771488827987
 30
0.0
 40
5.44
  1
1   
 50
312.0000000000001
100
AcDbText
  0
TEXT
  5
2F0C9
330
1F
100
AcDbEntity
  8
実線
100
AcDbText
 10
598.8318783387799
 20
306.5734768827987
 30
0.0
 40
5.44
  1
L    
 50
307.9999999999996
100
AcDbText
  0
TEXT
  5
2F0CA
330
1F
100
AcDbEntity
  8
実線
100
AcDbText
 10
595.7757583387797
 20
310.3747988827987
 30
0.0
 40
5.44
  1
承
 50
303.9999999999997
  7
BIGFONT
100
AcDbText
  0
TEXT
  5
2F0CB
330
1F
100
AcDbEntity
  8
実線
100
AcDbText
 10
592.4932148699476
 20
315.6122691895951
 30
0.0
 40
5.44
  1
型
 50
299.9999999999999
  7
BIGFONT
100
AcDbText
  0
CIRCLE
  5
2F0CC
330
1F
100
AcDbEntity
  8
実線
100
AcDbCircle
 10
646.2420803387799
 20
342.3949408827987
 30
0.0
 40
68.59999999999999
  0
CIRCLE
  5
2F0CD
330
1F
100
AcDbEntity
  8
実線
100
AcDbCircle
 10
646.2420803387799
 20
342.3949408827987
 30
0.0
 40
67.32086800000001
  0
ARC
  5
2F0CE
330
1F
100
AcDbEntity
  8
実線
100
AcDbCircle
 10
646.2420803387799
 20
342.3949408827987
 30
0.0
 40
69.0
100
AcDbArc
 50
180.0
 51
0.0
  0
ARC
  5
2F0CF
330
1F
100
AcDbEntity
  8
実線
100
AcDbCircle
 10
646.2420803387799
 20
342.3949408827987
 30
0.0
 40
69.0
100
AcDbArc
 50
0.0
 51
180.0
  0
CIRCLE
  5
2F0D0
330
1F
100
AcDbEntity
  8
実線
100
AcDbCircle
 10
646.2420803387799
 20
342.3949408827987
 30
0.0
 40
66.93039399999999
  0
ARC
  5
2F0D1
330
1F
100
AcDbEntity
  8
実線
100
AcDbCircle
 10
646.2420803387799
 20
342.3949408827987
 30
0.0
 40
65.17401600000001
100
AcDbArc
 50
173.4500839999999
 51
6.549915999999981
  0
LINE
  5
2F0D2
330
1F
100
AcDbEntity
  8
実線
100
AcDbLine
 10
711.6378863387799
 20
351.3474228827986
 30
0.0
 11
711.3252403387799
 21
350.6049648827986
 31
0.0
  0
LINE
  5
2F0D3
330
1F
100
AcDbEntity
  8
実線
100
AcDbLine
 10
711.3252403387799
 20
350.6049648827986
 30
0.0
 11
710.9906963387798
 21
349.8292608827987
 31
0.0
  0
ARC
  5
2F0D4
330
1F
100
AcDbEntity
  8
実線
100
AcDbCircle
 10
707.4550183387795
 20
352.2839648827987
 30
0.0
 40
4.286431999999998
100
AcDbArc
 50
347.3796410000022
 51
12.77187700000008
  0
ARC
  5
2F0D5
330
1F
100
AcDbEntity
  8
実線
100
AcDbCircle
 10
646.2420803387799
 20
342.3949408827987
 30
0.0
 40
66.285126
100
AcDbArc
 50
9.409236999999796
 51
170.5907630000002
  0
ARC
  5
2F0D6
330
1F
100
AcDbEntity
  8
実線
100
AcDbCircle
 10
585.0505483387795
 20
352.2839368827986
 30
0.0
 40
4.307316
100
AcDbArc
 50
167.2907029999985
 51
192.5577799999998
  0
LINE
  5
2F0D7
330
1F
100
AcDbEntity
  8
実線
100
AcDbLine
 10
581.4934643387796
 20
349.8292608827987
 30
0.0
 11
581.1732363387799
 21
350.5713808827986
 31
0.0
  0
LINE
  5
2F0D8
330
1F
100
AcDbEntity
  8
実線
100
AcDbLine
 10
581.1732363387799
 20
350.5713808827986
 30
0.0
 11
580.8462743387799
 21
351.3474228827986
 31
0.0
  0
ARC
  5
2F0D9
330
1F
100
AcDbEntity
  8
実線
100
AcDbCircle
 10
582.8015323387798
 20
352.6094628827987
 30
0.0
 40
1.092451999999998
100
AcDbArc
 50
154.9524719999978
 51
205.2476960000021
  0
LINE
  5
2F0DA
330
1F
100
AcDbEntity
  8
実線
100
AcDbLine
 10
580.8462743387799
 20
351.3474228827986
 30
0.0
 11
581.8134403387797
 21
352.1434988827987
 31
0.0
  0
LINE
  5
2F0DB
330
1F
100
AcDbEntity
  8
実線
100
AcDbLine
 10
580.84876633878
 20
353.2315668827987
 30
0.0
 11
581.8118183387796
 21
353.0719748827987
 31
0.0
  0
ARC
  5
2F0DC
330
1F
100
AcDbEntity
  8
実線
100
AcDbCircle
 10
709.6842003387796
 20
352.6094608827987
 30
0.0
 40
1.091028
100
AcDbArc
 50
334.7171939999963
 51
25.08263899999736
  0
LINE
  5
2F0DD
330
1F
100
AcDbEntity
  8
実線
100
AcDbLine
 10
711.6353943387799
 20
353.2315668827987
 30
0.0
 11
710.6723423387798
 21
353.0719748827987
 31
0.0
  0
LINE
  5
2F0DE
330
1F
100
AcDbEntity
  8
実線
100
AcDbLine
 10
710.6707203387799
 20
352.1434988827987
 30
0.0
 11
711.6378863387799
 21
351.3474228827986
 31
0.0
  0
ARC
  5
2F0DF
102
{ACAD_REACTORS
330
2F045
102
}
330
1F
100
AcDbEntity
  8
実線
100
AcDbCircle
 10
646.2420803387799
 20
342.3949408827987
 30
0.0
 40
65.30894
100
AcDbArc
 50
9.409236999999796
 51
170.5907630000002
  0
LINE
  5
2F0E0
102
{ACAD_REACTORS
330
2F045
102
}
330
1F
100
AcDbEntity
  8
実線
100
AcDbLine
 10
581.8118183387796
 20
353.0719748827987
 30
0.0
 11
710.6723423387798
 21
353.0719748827987
 31
0.0
  0
LINE
  5
2F0E1
102
{ACAD_REACTORS
330
2F045
102
}
330
1F
100
AcDbEntity
  8
実線
100
AcDbLine
 10
617.0420803387798
 20
372.9949408827989
 30
0.0
 11
617.0420803387798
 21
358.5949408827987
 31
0.0
  0
LINE
  5
2F0E2
102
{ACAD_REACTORS
330
2F045
102
}
330
1F
100
AcDbEntity
  8
実線
100
AcDbLine
 10
617.0420803387798
 20
358.5949408827987
 30
0.0
 11
673.0420803387795
 21
358.5949408827987
 31
0.0
  0
LINE
  5
2F0E3
102
{ACAD_REACTORS
330
2F045
102
}
330
1F
100
AcDbEntity
  8
実線
100
AcDbLine
 10
673.0420803387795
 20
358.5949408827987
 30
0.0
 11
673.0420803387795
 21
372.9949408827989
 31
0.0
  0
LINE
  5
2F0E4
102
{ACAD_REACTORS
330
2F045
102
}
330
1F
100
AcDbEntity
  8
実線
100
AcDbLine
 10
673.0420803387795
 20
372.9949408827989
 30
0.0
 11
617.0420803387798
 21
372.9949408827989
 31
0.0
  0
LINE
  5
2F0E5
102
{ACAD_REACTORS
330
2F045
102
}
330
1F
100
AcDbEntity
  8
実線
100
AcDbLine
 10
685.0420803387796
 20
358.5949408827987
 30
0.0
 11
677.0420803387795
 21
358.5949408827987
 31
0.0
  0
LINE
  5
2F0E6
102
{ACAD_REACTORS
330
2F045
102
}
330
1F
100
AcDbEntity
  8
実線
100
AcDbLine
 10
685.0420803387796
 20
372.9949408827989
 30
0.0
 11
685.0420803387796
 21
358.5949408827987
 31
0.0
  0
LINE
  5
2F0E7
102
{ACAD_REACTORS
330
2F045
102
}
330
1F
100
AcDbEntity
  8
実線
100
AcDbLine
 10
677.0420803387795
 20
358.5949408827987
 30
0.0
 11
677.0420803387795
 21
372.9949408827989
 31
0.0
  0
LINE
  5
2F0E8
102
{ACAD_REACTORS
330
2F045
102
}
330
1F
100
AcDbEntity
  8
実線
100
AcDbLine
 10
677.0420803387795
 20
372.9949408827989
 30
0.0
 11
685.0420803387796
 21
372.9949408827989
 31
0.0
  0
LINE
  5
2F0E9
330
1F
100
AcDbEntity
  8
実線
100
AcDbLine
 10
710.6707203387799
 20
352.1434988827987
 30
0.0
 11
581.8134403387797
 21
352.1434988827987
 31
0.0
  0
LINE
  5
2F0EA
330
1F
100
AcDbEntity
  8
実線
100
AcDbLine
 10
710.0208803387799
 20
350.6463848827987
 30
0.0
 11
710.6707203387799
 21
352.1434988827987
 31
0.0
  0
LINE
  5
2F0EB
330
1F
100
AcDbEntity
  8
実線
100
AcDbLine
 10
710.0208803387799
 20
350.6463848827987
 30
0.0
 11
710.9906963387798
 21
349.8292608827987
 31
0.0
  0
LINE
  5
2F0EC
330
1F
100
AcDbEntity
  8
実線
100
AcDbLine
 10
581.4934643387796
 20
349.8292608827987
 30
0.0
 11
582.4632803387799
 21
350.6463848827987
 31
0.0
  0
LINE
  5
2F0ED
330
1F
100
AcDbEntity
  8
実線
100
AcDbLine
 10
581.8134403387797
 20
352.1434988827987
 30
0.0
 11
582.4632803387799
 21
350.6463848827987
 31
0.0
  0
LINE
  5
2F0EE
330
1F
100
AcDbEntity
  8
実線
100
AcDbLine
 10
705.6719863387797
 20
350.6463848827987
 30
0.0
 11
710.0208803387799
 21
350.6463848827987
 31
0.0
  0
LINE
  5
2F0EF
330
1F
100
AcDbEntity
  8
実線
100
AcDbLine
 10
705.7063563387796
 20
350.3949408827986
 30
0.0
 11
681.8926003387796
 21
350.3949408827986
 31
0.0
  0
LINE
  5
2F0F0
330
1F
100
AcDbEntity
  8
実線
100
AcDbLine
 10
582.4632803387799
 20
350.6463848827987
 30
0.0
 11
682.8076343387797
 21
350.6463848827987
 31
0.0
  0
LINE
  5
2F0F1
330
1F
100
AcDbEntity
  8
実線
100
AcDbLine
 10
680.0841163387799
 20
349.7179088827986
 30
0.0
 11
582.4632803387799
 21
349.7179088827986
 31
0.0
  0
LINE
  5
2F0F2
330
1F
100
AcDbEntity
  8
実線
100
AcDbLine
 10
582.4632803387799
 20
350.6463848827987
 30
0.0
 11
582.4632803387799
 21
349.7179088827986
 31
0.0
  0
ARC
  5
2F0F3
330
1F
100
AcDbEntity
  8
実線
100
AcDbCircle
 10
686.5879183387797
 20
335.0988868827985
 30
0.0
 40
16.000476
100
AcDbArc
 50
103.6659480000029
 51
113.9836289999967
  0
LINE
  5
2F0F4
330
1F
100
AcDbEntity
  8
実線
100
AcDbLine
 10
710.0208803387799
 20
349.7179088827986
 30
0.0
 11
710.9906963387798
 21
349.8292608827987
 31
0.0
  0
LINE
  5
2F0F5
330
1F
100
AcDbEntity
  8
実線
100
AcDbLine
 10
581.4934643387796
 20
349.8292608827987
 30
0.0
 11
582.4632803387799
 21
349.7179088827986
 31
0.0
  0
ARC
  5
2F0F6
330
1F
100
AcDbEntity
  8
実線
100
AcDbCircle
 10
646.2420803387799
 20
342.3949408827987
 30
0.0
 40
64.197828
100
AcDbArc
 50
173.4500839999999
 51
6.549915999999981
  0
LINE
  5
2F0F7
330
1F
100
AcDbEntity
  8
実線
100
AcDbLine
 10
710.0208803387799
 20
349.7179088827986
 30
0.0
 11
710.0208803387799
 21
350.6463848827987
 31
0.0
  0
LINE
  5
2F0F8
330
1F
100
AcDbEntity
  8
実線
100
AcDbLine
 10
710.0208803387799
 20
349.7179088827986
 30
0.0
 11
705.7935223387799
 21
349.7179088827986
 31
0.0
  0
ARC
  5
2F0F9
330
1F
100
AcDbEntity
  8
実線
100
AcDbCircle
 10
646.2001303387795
 20
342.3894508827987
 30
0.0
 40
60.042306
100
AcDbArc
 50
7.010711999998177
 51
7.904284999999877
  0
CIRCLE
  5
2F0FA
330
1F
100
AcDbEntity
  8
実線
100
AcDbCircle
 10
644.01295233878
 20
311.3550268827987
 30
0.0
 40
11.0
  0
CIRCLE
  5
2F0FB
330
1F
100
AcDbEntity
  8
実線
100
AcDbCircle
 10
644.01295233878
 20
311.3550268827987
 30
0.0
 40
9.0
  0
ARC
  5
2F0FC
330
1F
100
AcDbEntity
  8
実線
100
AcDbCircle
 10
671.7740403387797
 20
326.7594608827987
 30
0.0
 40
1.0
100
AcDbArc
 50
267.6555649999978
 51
29.37878200000017
  0
ARC
  5
2F0FD
330
1F
100
AcDbEntity
  8
実線
100
AcDbCircle
 10
671.0786263387799
 20
309.7736908827987
 30
0.0
 40
16.0
100
AcDbArc
 50
87.6555649999978
 51
270.0
  0
LINE
  5
2F0FE
330
1F
100
AcDbEntity
  8
実線
100
AcDbLine
 10
671.0786263387799
 20
293.7736908827988
 30
0.0
 11
681.3985023387799
 21
293.7736908827988
 31
0.0
  0
ARC
  5
2F0FF
330
1F
100
AcDbEntity
  8
実線
100
AcDbCircle
 10
646.2420803387799
 20
342.3949408827987
 30
0.0
 40
60.0
100
AcDbArc
 50
305.8694499999967
 51
7.010396999999143
  0
ARC
  5
2F100
330
1F
100
AcDbEntity
  8
実線
100
AcDbCircle
 10
686.5877643387797
 20
335.0993408827987
 30
0.0
 40
16.0
100
AcDbArc
 50
113.9837820000036
 51
209.3787820000001
  0
CIRCLE
  5
2F101
330
1F
100
AcDbEntity
  8
実線
100
AcDbCircle
 10
646.2420803387799
 20
342.3949408827987
 30
0.0
 40
80.0
  0
CIRCLE
  5
2F102
330
1F
100
AcDbEntity
  8
実線
100
AcDbCircle
 10
646.2420803387799
 20
342.3949408827987
 30
0.0
 40
83.0
  0
CIRCLE
  5
2F103
330
1F
100
AcDbEntity
  8
実線
100
AcDbCircle
 10
646.2420803387799
 20
342.3949408827987
 30
0.0
 40
77.0
  0
CIRCLE
  5
2F104
330
1F
100
AcDbEntity
  8
実線
100
AcDbCircle
 10
646.2420803387799
 20
342.3949408827987
 30
0.0
 40
75.0
  0
LINE
  5
2F111
330
1F
100
AcDbEntity
  8
実線
100
AcDbLine
 10
321.6905126101837
 20
132.6726996496423
 30
0.0
 11
321.6905126101837
 21
129.6726996496422
 31
0.0
  0
LINE
  5
2F112
330
1F
100
AcDbEntity
  8
一点鎖線
100
AcDbLine
 10
284.1905126101837
 20
298.2377226462256
 30
0.0
 11
284.1905126101837
 21
112.0428706496424
 31
0.0
  0
LINE
  5
2F113
330
1F
100
AcDbEntity
  8
実線
100
AcDbLine
 10
246.6905126101837
 20
132.6726996496423
 30
0.0
 11
246.6905126101837
 21
129.6726996496422
 31
0.0
  0
LINE
  5
2F114
330
1F
100
AcDbEntity
  8
実線
100
AcDbLine
 10
365.1905126101838
 20
156.1726996496424
 30
0.0
 11
339.2839986101837
 21
156.1726996496424
 31
0.0
  0
LINE
  5
2F116
330
1F
100
AcDbEntity
  8
実線
100
AcDbLine
 10
174.1905126101837
 20
224.2646996496424
 30
0.0
 11
174.1905126101837
 21
149.0806996496424
 31
0.0
  0
LINE
  5
2F117
330
1F
100
AcDbEntity
  8
実線
100
AcDbLine
 10
150.2008756101836
 20
149.0806996496424
 30
0.0
 11
174.1905126101837
 21
149.0806996496424
 31
0.0
  0
LINE
  5
2F118
330
1F
100
AcDbEntity
  8
実線
100
AcDbLine
 10
316.6905126101838
 20
132.6726996496423
 30
0.0
 11
316.6905126101838
 21
129.6726996496422
 31
0.0
  0
LINE
  5
2F119
330
1F
100
AcDbEntity
  8
実線
100
AcDbLine
 10
149.1905126101837
 20
222.5146996496424
 30
0.0
 11
149.1905126101837
 21
150.8306996496424
 31
0.0
  0
LINE
  5
2F11A
330
1F
100
AcDbEntity
  8
実線
100
AcDbLine
 10
393.1801496101839
 20
149.0806996496424
 30
0.0
 11
369.1905126101838
 21
149.0806996496424
 31
0.0
  0
LINE
  5
2F11C
330
1F
100
AcDbEntity
  8
実線
100
AcDbLine
 10
286.6905126101837
 20
132.6726996496423
 30
0.0
 11
286.6905126101837
 21
129.6726996496422
 31
0.0
  0
LINE
  5
2F11D
330
1F
100
AcDbEntity
  8
実線
100
AcDbLine
 10
322.8814776101838
 20
133.6726996496423
 30
0.0
 11
245.4995476101839
 21
133.6726996496423
 31
0.0
  0
LINE
  5
2F11E
330
1F
100
AcDbEntity
  8
実線
100
AcDbLine
 10
177.3061546101837
 20
218.6749296496424
 30
0.0
 11
228.2234146101837
 21
220.6391116496424
 31
0.0
  0
LINE
  5
2F11F
102
{ACAD_REACTORS
330
2F2B8
330
2F439
102
}
330
1F
100
AcDbEntity
  8
実線
100
AcDbLine
 10
321.6905126101837
 20
129.6726996496422
 30
0.0
 11
246.6905126101837
 21
129.6726996496422
 31
0.0
  0
LINE
  5
2F120
330
1F
100
AcDbEntity
  8
実線
100
AcDbLine
 10
281.6905126101838
 20
132.6726996496423
 30
0.0
 11
281.6905126101838
 21
129.6726996496422
 31
0.0
  0
LINE
  5
2F121
102
{ACAD_REACTORS
330
2F451
102
}
330
1F
100
AcDbEntity
  8
実線
100
AcDbLine
 10
149.1905126101837
 20
150.8306996496424
 30
0.0
 11
150.2008756101836
 21
149.0806996496424
 31
0.0
  0
LINE
  5
2F122
330
1F
100
AcDbEntity
  8
実線
100
AcDbLine
 10
233.1905126101838
 20
234.7137367449385
 30
0.0
 11
233.1905126101838
 21
226.4430296496424
 31
0.0
  0
LINE
  5
2F123
330
1F
100
AcDbEntity
  8
実線
100
AcDbLine
 10
393.1801496101839
 20
224.2646996496424
 30
0.0
 11
369.1905126101838
 21
224.2646996496424
 31
0.0
  0
LINE
  5
2F124
330
1F
100
AcDbEntity
  8
実線
100
AcDbLine
 10
394.1905126101838
 20
150.8306996496424
 30
0.0
 11
393.1801496101839
 21
149.0806996496424
 31
0.0
  0
LINE
  5
2F125
330
1F
100
AcDbEntity
  8
実線
100
AcDbLine
 10
393.1801496101839
 20
224.2646996496424
 30
0.0
 11
394.1905126101838
 21
222.5146996496424
 31
0.0
  0
LINE
  5
2F126
330
1F
100
AcDbEntity
  8
実線
100
AcDbLine
 10
364.1490336101838
 20
217.3106636496423
 30
0.0
 11
337.7792186101838
 21
224.4218356496423
 31
0.0
  0
LINE
  5
2F127
330
1F
100
AcDbEntity
  8
実線
100
AcDbLine
 10
150.2008756101836
 20
224.2646996496424
 30
0.0
 11
149.1905126101837
 21
222.5146996496424
 31
0.0
  0
LINE
  5
2F128
330
1F
100
AcDbEntity
  8
実線
100
AcDbLine
 10
369.1905126101838
 20
224.2646996496424
 30
0.0
 11
369.1905126101838
 21
149.0806996496424
 31
0.0
  0
LINE
  5
2F129
330
1F
100
AcDbEntity
  8
実線
100
AcDbLine
 10
150.2008756101836
 20
224.2646996496424
 30
0.0
 11
174.1905126101837
 21
224.2646996496424
 31
0.0
  0
LINE
  5
2F12A
330
1F
100
AcDbEntity
  8
実線
100
AcDbLine
 10
233.1905126101838
 20
228.6726996496424
 30
0.0
 11
218.9197366101839
 21
228.6726996496424
 31
0.0
  0
LINE
  5
2F12B
102
{ACAD_REACTORS
330
2F439
102
}
330
1F
100
AcDbEntity
  8
一点鎖線
100
AcDbLine
 10
397.6261166101838
 20
186.6726996496423
 30
0.0
 11
141.6363026101837
 21
186.6726996496423
 31
0.0
  0
LINE
  5
2F12C
330
1F
100
AcDbEntity
  8
実線
100
AcDbLine
 10
218.9197366101839
 20
228.6726996496424
 30
0.0
 11
210.1905126101838
 21
219.9434756496424
 31
0.0
  0
LINE
  5
2F12F
330
1F
100
AcDbEntity
  8
実線
100
AcDbLine
 10
335.1905126101838
 20
234.7137367449385
 30
0.0
 11
335.1905126101838
 21
227.8011176496423
 31
0.0
  0
LINE
  5
2F130
102
{ACAD_REACTORS
330
2F451
102
}
330
1F
100
AcDbEntity
  8
実線
100
AcDbLine
 10
394.1905126101838
 20
222.5146996496424
 30
0.0
 11
394.1905126101838
 21
150.8306996496424
 31
0.0
  0
LINE
  5
2F131
330
1F
100
AcDbEntity
  8
実線
100
AcDbLine
 10
251.6905126101838
 20
132.6726996496423
 30
0.0
 11
251.6905126101838
 21
129.6726996496422
 31
0.0
  0
ARC
  5
2F132
330
1F
100
AcDbEntity
  8
実線
100
AcDbCircle
 10
365.1905126101838
 20
152.1726996496424
 30
0.0
 40
4.0
100
AcDbArc
 50
0.0
 51
90.0
  0
ARC
  5
2F133
330
1F
100
AcDbEntity
  8
実線
100
AcDbCircle
 10
365.1905126101838
 20
221.1726996496424
 30
0.0
 40
4.0
100
AcDbArc
 50
254.9079999999993
 51
0.0
  0
ARC
  5
2F134
330
1F
100
AcDbEntity
  8
実線
100
AcDbCircle
 10
245.6905126101838
 20
132.6726996496423
 30
0.0
 40
1.0
100
AcDbArc
 50
0.0
 51
90.0
  0
ARC
  5
2F135
330
1F
100
AcDbEntity
  8
実線
100
AcDbCircle
 10
245.4995476101839
 20
136.6726996496423
 30
0.0
 40
3.0
100
AcDbArc
 50
231.4493880000026
 51
270.0
  0
ARC
  5
2F136
330
1F
100
AcDbEntity
  8
実線
100
AcDbCircle
 10
252.6905126101838
 20
132.6726996496423
 30
0.0
 40
1.0
100
AcDbArc
 50
90.0
 51
180.0
  0
ARC
  5
2F138
330
1F
100
AcDbEntity
  8
実線
100
AcDbCircle
 10
280.6905126101838
 20
132.6726996496423
 30
0.0
 40
1.0
100
AcDbArc
 50
0.0
 51
90.0
  0
ARC
  5
2F139
330
1F
100
AcDbEntity
  8
実線
100
AcDbCircle
 10
231.1905126101838
 20
226.4430296496424
 30
0.0
 40
2.0
100
AcDbArc
 50
319.2509459999958
 51
0.0
  0
ARC
  5
2F13A
330
1F
100
AcDbEntity
  8
実線
100
AcDbCircle
 10
228.1077726101839
 20
223.6368816496423
 30
0.0
 40
3.0
100
AcDbArc
 50
272.2091450000028
 51
332.9288800000004
  0
ARC
  5
2F13B
330
1F
100
AcDbEntity
  8
実線
100
AcDbCircle
 10
175.5927876101837
 20
153.2704246496423
 30
0.0
 40
1.402274999999999
100
AcDbArc
 50
59.31375999999679
 51
180.0
  0
CIRCLE
  5
2F13C
330
1F
100
AcDbEntity
  8
実線
100
AcDbCircle
 10
219.1905126101838
 20
224.6726996496424
 30
0.0
 40
1.5
  0
ARC
  5
2F13D
330
1F
100
AcDbEntity
  8
実線
100
AcDbCircle
 10
322.6905126101838
 20
132.6726996496423
 30
0.0
 40
1.0
100
AcDbArc
 50
90.0
 51
180.0
  0
ARC
  5
2F13E
330
1F
100
AcDbEntity
  8
実線
100
AcDbCircle
 10
287.6905126101838
 20
132.6726996496423
 30
0.0
 40
1.0
100
AcDbArc
 50
90.0
 51
180.0
  0
ARC
  5
2F13F
330
1F
100
AcDbEntity
  8
実線
100
AcDbCircle
 10
322.8814776101838
 20
136.6726996496423
 30
0.0
 40
3.0
100
AcDbArc
 50
270.0
 51
317.8655099999947
  0
ARC
  5
2F140
330
1F
100
AcDbEntity
  8
実線
100
AcDbCircle
 10
284.6905126101837
 20
171.2226666496423
 30
0.0
 40
54.5
100
AcDbArc
 50
317.8655099999947
 51
341.7048270000029
  0
ARC
  5
2F141
330
1F
100
AcDbEntity
  8
実線
100
AcDbCircle
 10
315.6905126101837
 20
132.6726996496423
 30
0.0
 40
1.0
100
AcDbArc
 50
0.0
 51
90.0
  0
ARC
  5
2F142
330
1F
100
AcDbEntity
  8
実線
100
AcDbCircle
 10
250.3071996101837
 20
279.1726996496424
 30
0.0
 40
145.0
100
AcDbArc
 50
239.3137599999968
 51
267.3605889999975
  0
ARC
  5
2F143
330
1F
100
AcDbEntity
  8
実線
100
AcDbCircle
 10
177.1905126101836
 20
221.6726996496424
 30
0.0
 40
3.0
100
AcDbArc
 50
180.0
 51
272.2091450000028
  0
ARC
  5
2F144
330
1F
100
AcDbEntity
  8
実線
100
AcDbCircle
 10
339.2839986101837
 20
153.1726996496423
 30
0.0
 40
3.0
100
AcDbArc
 50
90.0
 51
161.7048270000063
  0
ARC
  5
2F145
330
1F
100
AcDbEntity
  8
実線
100
AcDbCircle
 10
243.6905126101838
 20
215.6726996496423
 30
0.0
 40
14.5
100
AcDbArc
 50
139.2509459999958
 51
152.9288800000003
  0
ARC
  5
2F146
330
1F
100
AcDbEntity
  8
実線
100
AcDbCircle
 10
338.6905126101837
 20
227.8011176496423
 30
0.0
 40
3.5
100
AcDbArc
 50
180.0
 51
254.9079999999993
  0
LINE
  5
2F147
330
1F
100
AcDbEntity
  8
0
100
AcDbLine
 10
333.1214594295967
 20
234.6425305627636
 30
0.0
 11
333.1926656117714
 21
234.7137367449384
 31
0.0
  0
LINE
  5
2F148
330
1F
100
AcDbEntity
  8
実線
 48
1.5
100
AcDbLine
 10
228.6476728474613
 20
234.7137367449384
 30
0.0
 11
339.7333523729058
 21
234.7137367449384
 31
0.0
  0
LINE
  5
2F149
330
1F
100
AcDbEntity
  8
実線
 48
1.5
100
AcDbLine
 10
341.7904945863396
 20
236.7708789583726
 30
0.0
 11
341.7904945863396
 21
237.7994500650897
 31
0.0
  0
ARC
  5
2F14A
330
1F
100
AcDbEntity
  8
実線
 48
1.5
100
AcDbCircle
 10
339.7333523729058
 20
236.7708789583726
 30
0.0
 40
2.05714221343415
100
AcDbArc
 50
270.0
 51
0.0
  0
LINE
  5
2F14B
330
1F
100
AcDbEntity
  8
実線
 48
1.5
100
AcDbLine
 10
350.0190634400766
 20
240.885163385241
 30
0.0
 11
350.0190634400766
 21
257.3423010927141
 31
0.0
  0
LINE
  5
2F14C
330
1F
100
AcDbEntity
  8
実線
 48
1.5
100
AcDbLine
 10
350.0190634400766
 20
240.885163385241
 30
0.0
 11
350.0190634400766
 21
245.3193281585476
 31
0.0
  0
LINE
  5
2F14D
330
1F
100
AcDbEntity
  8
実線
 48
1.5
100
AcDbLine
 10
341.7904945863396
 20
237.7994500650897
 30
0.0
 11
341.7904945863396
 21
258.3708721994314
 31
0.0
  0
LINE
  5
2F14E
330
1F
100
AcDbEntity
  8
実線
 48
1.5
100
AcDbLine
 10
341.7904945863396
 20
238.8280211718068
 30
0.0
 11
347.9619212266422
 21
238.8280211718068
 31
0.0
  0
LINE
  5
2F14F
330
1F
100
AcDbEntity
  8
実線
 48
1.5
100
AcDbLine
 10
350.0190634400766
 20
240.885163385241
 30
0.0
 11
350.0190634400766
 21
257.3423010927141
 31
0.0
  0
ARC
  5
2F150
330
1F
100
AcDbEntity
  8
実線
 48
1.5
100
AcDbCircle
 10
347.9619212266422
 20
240.885163385241
 30
0.0
 40
2.05714221343415
100
AcDbArc
 50
270.0
 51
0.0
  0
LINE
  5
2F151
330
1F
100
AcDbEntity
  8
実線
 48
1.5
100
AcDbLine
 10
347.9619212266422
 20
259.3994433061484
 30
0.0
 11
341.7904945863396
 21
259.3994433061484
 31
0.0
  0
ARC
  5
2F152
330
1F
100
AcDbEntity
  8
実線
 48
1.5
100
AcDbCircle
 10
347.9619212266422
 20
257.3423010927141
 30
0.0
 40
2.05714221343415
100
AcDbArc
 50
0.0
 51
90.0
  0
ARC
  5
2F153
330
1F
100
AcDbEntity
  8
実線
 48
1.5
100
AcDbCircle
 10
340.7619234796225
 20
258.3708721994314
 30
0.0
 40
1.028571106717074
100
AcDbArc
 50
0.0
 51
90.0
  0
LINE
  5
2F154
330
1F
100
AcDbEntity
  8
実線
 48
1.5
100
AcDbLine
 10
339.7333523729058
 20
234.7137367449384
 30
0.0
 11
228.6476728474613
 21
234.7137367449384
 31
0.0
  0
LINE
  5
2F155
330
1F
100
AcDbEntity
  8
実線
 48
1.5
100
AcDbLine
 10
226.5905306340278
 20
236.7708789583726
 30
0.0
 11
226.5905306340278
 21
237.7994500650897
 31
0.0
  0
ARC
  5
2F156
330
1F
100
AcDbEntity
  8
実線
 48
1.5
100
AcDbCircle
 10
228.6476728474613
 20
236.7708789583726
 30
0.0
 40
2.05714221343415
100
AcDbArc
 50
180.0
 51
270.0
  0
LINE
  5
2F157
330
1F
100
AcDbEntity
  8
実線
 48
1.5
100
AcDbLine
 10
226.5905306340278
 20
237.7994500650897
 30
0.0
 11
226.5905306340278
 21
258.3708721994314
 31
0.0
  0
LINE
  5
2F158
330
1F
100
AcDbEntity
  8
実線
 48
1.5
100
AcDbLine
 10
291.9047959105618
 20
259.3303230539204
 30
0.0
 11
341.7904945863396
 21
259.3994433061483
 31
0.0
  0
LINE
  5
2F159
330
1F
100
AcDbEntity
  8
実線
 48
1.5
100
AcDbLine
 10
340.7619234796225
 20
259.3994433061483
 30
0.0
 11
340.7619234796225
 21
259.3994433061484
 31
0.0
  0
ARC
  5
2F15A
330
1F
100
AcDbEntity
  8
実線
 48
1.5
100
AcDbCircle
 10
227.6191017407446
 20
258.3708721994314
 30
0.0
 40
1.028571106717074
100
AcDbArc
 50
90.0
 51
180.0
  0
LINE
  5
2F15B
330
1F
100
AcDbEntity
  8
実線
100
AcDbLine
 10
291.9047959105618
 20
259.3303230539204
 30
0.0
 11
276.4762293098056
 21
259.3303230539204
 31
0.0
  0
LINE
  5
2F15C
330
1F
100
AcDbEntity
  8
実線
100
AcDbLine
 10
280.0762281833154
 20
259.3303230539204
 30
0.0
 11
280.0762281833154
 21
239.8565922785239
 31
0.0
  0
LINE
  5
2F15D
330
1F
100
AcDbEntity
  8
実線
100
AcDbLine
 10
288.3047970370517
 20
259.3303230539204
 30
0.0
 11
288.3047970370517
 21
239.8565922785239
 31
0.0
  0
LINE
  5
2F15E
330
1F
100
AcDbEntity
  8
実線
100
AcDbLine
 10
280.0762281833154
 20
239.8565922785239
 30
0.0
 11
288.3047970370517
 21
239.8565922785239
 31
0.0
  0
LINE
  5
2F15F
330
1F
100
AcDbEntity
  8
実線
 48
1.5
100
AcDbLine
 10
276.4762293098056
 20
259.3303230539204
 30
0.0
 11
227.5663793304775
 21
259.3980911970307
 31
0.0
  0
ARC
  5
2F160
330
1F
100
AcDbEntity
  8
実線
 48
1.5
100
AcDbCircle
 10
340.7619234796225
 20
258.3708721994314
 30
0.0
 40
1.028571106717074
100
AcDbArc
 50
0.0
 51
90.0
  0
LINE
  5
2F161
330
1F
100
AcDbEntity
  8
実線
 48
1.5
100
AcDbLine
 10
340.7619234796225
 20
259.3994433061483
 30
0.0
 11
340.7619234796225
 21
259.3994433061484
 31
0.0
  0
LINE
  5
2F162
330
1F
100
AcDbEntity
  8
実線
100
AcDbLine
 10
291.9047959105618
 20
259.3303230539204
 30
0.0
 11
276.4762293098056
 21
259.3303230539204
 31
0.0
  0
LINE
  5
2F163
330
1F
100
AcDbEntity
  8
実線
100
AcDbLine
 10
217.1217750462388
 20
279.6770187193867
 30
0.0
 11
217.1217750462388
 21
265.3589736214661
 31
0.0
  0
LINE
  5
2F164
330
1F
100
AcDbEntity
  8
実線
100
AcDbLine
 10
228.4254948603866
 20
262.8829207097952
 30
0.0
 11
339.9555303599805
 21
262.8829207097952
 31
0.0
  0
LINE
  5
2F165
330
1F
100
AcDbEntity
  8
実線
100
AcDbLine
 10
227.6719135394437
 20
273.648368151841
 30
0.0
 11
338.4483677180942
 21
273.648368151841
 31
0.0
  0
LINE
  5
2F166
330
1F
100
AcDbEntity
  8
実線
100
AcDbLine
 10
229.3170421240093
 20
270.6340428680675
 30
0.0
 11
229.932657502273
 21
273.648368151841
 31
0.0
  0
LINE
  5
2F167
330
1F
100
AcDbEntity
  8
実線
100
AcDbLine
 10
227.6719135394437
 20
273.648368151841
 30
0.0
 11
217.1217750462388
 21
273.648368151841
 31
0.0
  0
ARC
  5
2F168
330
1F
100
AcDbEntity
  8
実線
100
AcDbCircle
 10
222.3968442928408
 20
265.3589736214661
 30
0.0
 40
5.275069246602405
100
AcDbArc
 50
180.0
 51
0.0
  0
CIRCLE
  5
2F169
330
1F
100
AcDbEntity
  8
実線
100
AcDbCircle
 10
222.3968442928408
 20
265.3589736214661
 30
0.0
 40
2.034669566546642
  0
LINE
  5
2F16B
330
1F
100
AcDbEntity
  8
実線
100
AcDbLine
 10
227.6719135394437
 20
273.648368151841
 30
0.0
 11
227.6719135394437
 21
265.3589736214661
 31
0.0
  0
LINE
  5
2F16D
330
1F
100
AcDbEntity
  8
実線
100
AcDbLine
 10
217.1217750462388
 20
265.3589736214661
 30
0.0
 11
217.1217750462388
 21
239.7372087093973
 31
0.0
  0
LINE
  5
2F16E
330
1F
100
AcDbEntity
  8
実線
100
AcDbLine
 10
218.628937688125
 20
238.2300460675109
 30
0.0
 11
224.6575882556708
 21
238.2300460675109
 31
0.0
  0
LINE
  5
2F16F
330
1F
100
AcDbEntity
  8
実線
100
AcDbLine
 10
339.9555303599805
 20
273.648368151841
 30
0.0
 11
339.9555303599805
 21
259.3303230539204
 31
0.0
  0
LINE
  5
2F170
330
1F
100
AcDbEntity
  8
実線
100
AcDbLine
 10
228.4254948603866
 20
264.9821829609943
 30
0.0
 11
228.4254948603866
 21
259.3303230539204
 31
0.0
  0
CIRCLE
  5
2F171
330
1F
100
AcDbEntity
  8
実線
100
AcDbCircle
 10
222.3968442928408
 20
265.3589736214661
 30
0.0
 40
2.034669566546642
  0
ARC
  5
2F172
330
1F
100
AcDbEntity
  8
実線
100
AcDbCircle
 10
184.2981408987929
 20
274.8392585179931
 30
0.0
 40
45.21487925659203
100
AcDbArc
 50
316.5477361277674
 51
354.6634862983412
  0
LINE
  5
2F173
330
1F
100
AcDbEntity
  8
細線
100
AcDbLine
 10
222.3968442928408
 20
265.3589736214661
 30
0.0
 11
222.3968442928408
 21
265.3589736214661
 31
0.0
  0
ARC
  5
2F174
330
1F
100
AcDbEntity
  8
実線
100
AcDbCircle
 10
224.6575882556708
 20
236.7228834256244
 30
0.0
 40
1.5071626418864
100
AcDbArc
 50
0.0
 51
90.0
  0
ARC
  5
2F175
330
1F
100
AcDbEntity
  8
実線
100
AcDbCircle
 10
218.628937688125
 20
239.7372087093973
 30
0.0
 40
1.5071626418864
100
AcDbArc
 50
180.0
 51
270.0
  0
LINE
  5
2F176
330
1F
100
AcDbEntity
  8
実線
100
AcDbLine
 10
217.1217750462388
 20
279.6770187193867
 30
0.0
 11
227.6719135394437
 21
279.6770187193867
 31
0.0
  0
LINE
  5
2F177
330
1F
100
AcDbEntity
  8
実線
100
AcDbLine
 10
217.9028415600728
 20
279.6770187193867
 30
0.0
 11
217.9028415600728
 21
281.6726996496424
 31
0.0
  0
LINE
  5
2F178
330
1F
100
AcDbEntity
  8
実線
100
AcDbLine
 10
234.0510127231414
 20
281.6726996496424
 30
0.0
 11
234.0510127231414
 21
279.6125272069029
 31
0.0
  0
LINE
  5
2F179
330
1F
100
AcDbEntity
  8
実線
100
AcDbLine
 10
228.6682890021186
 20
279.6125272069029
 30
0.0
 11
227.6719135394437
 21
279.6770187193867
 31
0.0
  0
LINE
  5
2F17A
330
1F
100
AcDbEntity
  8
実線
100
AcDbLine
 10
227.6719135394437
 20
276.9856568588751
 30
0.0
 11
227.6719135394437
 21
273.648368151841
 31
0.0
  0
ARC
  5
2F17B
330
1F
100
AcDbEntity
  8
実線
100
AcDbCircle
 10
229.0175944696994
 20
276.9856568588751
 30
0.0
 40
1.345680930255714
100
AcDbArc
 50
90.0
 51
180.0
  0
LINE
  5
2F17C
330
1F
100
AcDbEntity
  8
実線
100
AcDbLine
 10
229.0175944696994
 20
278.3313377891307
 30
0.0
 11
340.7091116809234
 21
278.3313377891307
 31
0.0
  0
LINE
  5
2F17D
330
1F
100
AcDbEntity
  8
実線
100
AcDbLine
 10
340.7091116809234
 20
278.3313377891307
 30
0.0
 11
340.7091116809234
 21
279.6125272069029
 31
0.0
  0
LINE
  5
2F17E
330
1F
100
AcDbEntity
  8
実線
100
AcDbLine
 10
340.7091116809234
 20
279.6125272069029
 30
0.0
 11
228.6682890021186
 21
279.6125272069029
 31
0.0
  0
LINE
  5
2F17F
330
1F
100
AcDbEntity
  8
実線
100
AcDbLine
 10
340.7091116809234
 20
278.3313377891307
 30
0.0
 11
345.1145021398092
 21
278.3313377891307
 31
0.0
  0
LINE
  5
2F180
330
1F
100
AcDbEntity
  8
実線
100
AcDbLine
 10
345.1145021398092
 20
278.3313377891307
 30
0.0
 11
345.1145021398092
 21
273.648368151841
 31
0.0
  0
LINE
  5
2F181
330
1F
100
AcDbEntity
  8
実線
100
AcDbLine
 10
345.1145021398092
 20
273.648368151841
 30
0.0
 11
338.4483677180942
 21
273.648368151841
 31
0.0
  0
LINE
  5
2F182
330
1F
100
AcDbEntity
  8
実線
100
AcDbLine
 10
345.1145021398092
 20
278.3313377891307
 30
0.0
 11
349.6898173026786
 21
278.3313377891307
 31
0.0
  0
LINE
  5
2F183
330
1F
100
AcDbEntity
  8
実線
100
AcDbLine
 10
350.4972258608323
 20
277.5239292309775
 30
0.0
 11
350.4972258608323
 21
273.648368151841
 31
0.0
  0
ARC
  5
2F184
330
1F
100
AcDbEntity
  8
実線
100
AcDbCircle
 10
349.6898173026786
 20
277.5239292309775
 30
0.0
 40
0.8074085581534294
100
AcDbArc
 50
0.0
 51
90.0
  0
LINE
  5
2F185
330
1F
100
AcDbEntity
  8
実線
100
AcDbLine
 10
350.4972258608323
 20
273.648368151841
 30
0.0
 11
345.1145021398092
 21
273.648368151841
 31
0.0
  0
LINE
  5
2F186
330
1F
100
AcDbEntity
  8
実線
100
AcDbLine
 10
339.9555303599805
 20
273.648368151841
 30
0.0
 11
229.3170421240093
 21
273.6483681518403
 31
0.0
  0
LINE
  5
2F187
330
1F
100
AcDbEntity
  8
実線
100
AcDbLine
 10
231.3596508626299
 20
279.6125272069029
 30
0.0
 11
231.3596508626299
 21
278.3313377891307
 31
0.0
  0
LINE
  5
2F188
102
{ACAD_REACTORS
330
2F2B8
102
}
330
1F
100
AcDbEntity
  8
実線
100
AcDbLine
 10
217.9028415600728
 20
281.6726996496424
 30
0.0
 11
234.0510127231414
 21
281.6726996496424
 31
0.0
  0
LINE
  5
2F189
330
1F
100
AcDbEntity
  8
実線
100
AcDbLine
 10
150.2008756101836
 20
224.2646996496424
 30
0.0
 11
150.2008756101836
 21
149.0806996496424
 31
0.0
  0
LINE
  5
2F18A
330
1F
100
AcDbEntity
  8
実線
100
AcDbLine
 10
393.1801496101839
 20
224.2646996496424
 30
0.0
 11
393.1801496101839
 21
149.0806996496424
 31
0.0
  0
LINE
  5
2F18B
330
1F
100
AcDbEntity
  8
実線
100
AcDbLine
 10
258.6928438456839
 20
168.6702453637703
 30
0.0
 11
309.6881813746839
 21
168.6702453637703
 31
0.0
  0
LINE
  5
2F18C
330
1F
100
AcDbEntity
  8
実線
100
AcDbLine
 10
309.6881813746839
 20
168.6702453637703
 30
0.0
 11
309.6881813746839
 21
172.1699253902703
 31
0.0
  0
LINE
  5
2F18D
330
1F
100
AcDbEntity
  8
実線
100
AcDbLine
 10
309.6881813746839
 20
172.1699253902703
 30
0.0
 11
258.6928438456839
 21
172.1699253902703
 31
0.0
  0
LINE
  5
2F18E
330
1F
100
AcDbEntity
  8
実線
100
AcDbLine
 10
258.6928438456839
 20
172.1699253902703
 30
0.0
 11
258.6928438456839
 21
168.6702453637703
 31
0.0
  0
LINE
  5
2F193
330
1F
100
AcDbEntity
  8
実線
100
AcDbLine
 10
258.6928438456839
 20
201.1672741812703
 30
0.0
 11
280.1908782941837
 21
201.1672741812703
 31
0.0
  0
LINE
  5
2F194
330
1F
100
AcDbEntity
  8
実線
100
AcDbLine
 10
258.6928438456839
 20
203.6670456287703
 30
0.0
 11
258.6928438456839
 21
207.6666799447703
 31
0.0
  0
LINE
  5
2F195
330
1F
100
AcDbEntity
  8
実線
100
AcDbLine
 10
258.6928438456839
 20
210.1664513922703
 30
0.0
 11
280.1908782941837
 21
210.1664513922703
 31
0.0
  0
LINE
  5
2F196
330
1F
100
AcDbEntity
  8
実線
100
AcDbLine
 10
288.6901012156836
 20
201.1672741812703
 30
0.0
 11
288.6901012156836
 21
203.6670456287703
 31
0.0
  0
LINE
  5
2F197
330
1F
100
AcDbEntity
  8
実線
100
AcDbLine
 10
288.6901012156836
 20
210.1664513922703
 30
0.0
 11
299.6890955846838
 21
205.6668627867704
 31
0.0
  0
LINE
  5
2F198
330
1F
100
AcDbEntity
  8
実線
100
AcDbLine
 10
299.6890955846838
 20
205.6668627867704
 30
0.0
 11
288.6901012156836
 21
201.1672741812703
 31
0.0
  0
LINE
  5
2F199
330
1F
100
AcDbEntity
  8
実線
100
AcDbLine
 10
288.6901012156836
 20
203.6670456287703
 30
0.0
 11
258.6928438456839
 21
203.6670456287703
 31
0.0
  0
LINE
  5
2F19A
330
1F
100
AcDbEntity
  8
実線
100
AcDbLine
 10
288.6901012156836
 20
207.6666799447703
 30
0.0
 11
258.6928438456839
 21
207.6666799447703
 31
0.0
  0
LINE
  5
2F19B
330
1F
100
AcDbEntity
  8
実線
100
AcDbLine
 10
288.6901012156836
 20
203.6670456287703
 30
0.0
 11
281.6907418941012
 21
203.6702454588631
 31
0.0
  0
LINE
  5
2F19C
330
1F
100
AcDbEntity
  8
実線
100
AcDbLine
 10
281.6907418941012
 20
203.6702454588631
 30
0.0
 11
280.1908782941837
 21
201.1672741812703
 31
0.0
  0
LINE
  5
2F19D
330
1F
100
AcDbEntity
  8
実線
100
AcDbLine
 10
281.6907418941012
 20
207.6634801146776
 30
0.0
 11
280.1908782941837
 21
210.1664513922703
 31
0.0
  0
LINE
  5
2F19E
330
1F
100
AcDbEntity
  8
実線
100
AcDbLine
 10
258.6928438456839
 20
210.1664513922703
 30
0.0
 11
259.9580532428358
 21
207.6666799447703
 31
0.0
  0
LINE
  5
2F19F
330
1F
100
AcDbEntity
  8
実線
100
AcDbLine
 10
258.6928438456839
 20
201.1672741812703
 30
0.0
 11
259.9580532428358
 21
203.6670456287703
 31
0.0
  0
LINE
  5
2F1A0
330
1F
100
AcDbEntity
  8
実線
100
AcDbLine
 10
288.6901012156836
 20
207.6666799447703
 30
0.0
 11
288.6901012156836
 21
210.1664513922703
 31
0.0
  0
TEXT
  5
2F1A1
330
1F
100
AcDbEntity
  8
文字
100
AcDbText
 10
286.0108140077963
 20
178.7107362888479
 30
0.0
 40
9.99908579
  1
mm
 41
1.199999999999999
  7
カシケイ
 72
     1
 11
297.9941339649547
 21
183.7102791838479
 31
0.0
100
AcDbText
 73
     2
  0
TEXT
  5
2F1A6
330
1F
100
AcDbEntity
  8
文字
100
AcDbText
 10
259.4374969309845
 20
178.4083825286974
 30
0.0
 40
15.0
  1
50
 41
1.199999999999999
  7
カシケイ
 72
     1
 11
271.4063280998157
 21
185.9083825286974
 31
0.0
100
AcDbText
 73
     2
  0
LINE
  5
2F1B3
330
1F
100
AcDbEntity
  8
一点鎖線
100
AcDbLine
 10
284.1905126101837
 20
510.2094987927626
 30
0.0
 11
284.1905126101837
 21
345.9911913446782
 31
0.0
  0
LINE
  5
2F1B5
330
1F
100
AcDbEntity
  8
実線
100
AcDbLine
 10
288.1905126101838
 20
458.1003450687203
 30
0.0
 11
288.1905126101838
 21
398.1003450687205
 31
0.0
  0
LINE
  5
2F1B6
330
1F
100
AcDbEntity
  8
実線
100
AcDbLine
 10
299.1905126101837
 20
458.1003450687204
 30
0.0
 11
299.1905126101837
 21
398.1003450687206
 31
0.0
  0
LINE
  5
2F1B7
330
1F
100
AcDbEntity
  8
実線
100
AcDbLine
 10
335.6953667503518
 20
440.6003450687205
 30
0.0
 11
338.3638455333112
 21
440.6003450687205
 31
0.0
  0
LINE
  5
2F1B8
330
1F
100
AcDbEntity
  8
実線
100
AcDbLine
 10
335.6953667503518
 20
415.6003450687205
 30
0.0
 11
338.3638455333112
 21
415.6003450687205
 31
0.0
  0
LINE
  5
2F1B9
330
1F
100
AcDbEntity
  8
一点鎖線
100
AcDbLine
 10
126.5061517100025
 20
428.1003450687203
 30
0.0
 11
410.1743444044441
 21
428.1003450687206
 31
0.0
  0
LINE
  5
2F1BA
330
1F
100
AcDbEntity
  8
実線
100
AcDbLine
 10
288.1905126101838
 20
398.1003450687205
 30
0.0
 11
299.1905126101837
 21
398.1003450687206
 31
0.0
  0
LINE
  5
2F1BB
330
1F
100
AcDbEntity
  8
実線
100
AcDbLine
 10
288.1905126101838
 20
458.1003450687203
 30
0.0
 11
299.1905126101837
 21
458.1003450687204
 31
0.0
  0
LINE
  5
2F1BC
330
1F
100
AcDbEntity
  8
実線
100
AcDbLine
 10
220.1905126101838
 20
418.1003450687204
 30
0.0
 11
239.2906239688964
 21
418.1003450687204
 31
0.0
  0
LINE
  5
2F1BD
330
1F
100
AcDbEntity
  8
実線
100
AcDbLine
 10
220.6905126101838
 20
418.6003450687204
 30
0.0
 11
244.1905126101838
 21
418.6003450687204
 31
0.0
  0
LINE
  5
2F1BE
330
1F
100
AcDbEntity
  8
実線
100
AcDbLine
 10
220.1905126101838
 20
424.1003450687204
 30
0.0
 11
238.3647556606254
 21
424.1003450687204
 31
0.0
  0
LINE
  5
2F1BF
330
1F
100
AcDbEntity
  8
実線
100
AcDbLine
 10
220.6905126101838
 20
423.6003450687205
 30
0.0
 11
244.1905126101838
 21
423.6003450687205
 31
0.0
  0
LINE
  5
2F1C0
330
1F
100
AcDbEntity
  8
実線
100
AcDbLine
 10
220.1905126101838
 20
438.1003450687203
 30
0.0
 11
239.2906239688964
 21
438.1003450687203
 31
0.0
  0
LINE
  5
2F1C1
330
1F
100
AcDbEntity
  8
実線
100
AcDbLine
 10
220.6905126101838
 20
437.6003450687203
 30
0.0
 11
244.1905126101838
 21
437.6003450687203
 31
0.0
  0
LINE
  5
2F1C2
330
1F
100
AcDbEntity
  8
実線
100
AcDbLine
 10
220.1905126101838
 20
432.1003450687205
 30
0.0
 11
238.3647556606254
 21
432.1003450687205
 31
0.0
  0
LINE
  5
2F1C3
330
1F
100
AcDbEntity
  8
実線
100
AcDbLine
 10
220.6905126101838
 20
432.6003450687204
 30
0.0
 11
244.1905126101838
 21
432.6003450687204
 31
0.0
  0
ARC
  5
2F1C4
330
1F
100
AcDbEntity
  8
実線
100
AcDbCircle
 10
284.1905126101837
 20
428.1003450687205
 30
0.0
 40
53.0
100
AcDbArc
 50
13.64167702901359
 51
169.1242835053715
  0
ARC
  5
2F1C5
330
1F
100
AcDbEntity
  8
実線
100
AcDbCircle
 10
284.1905126101837
 20
428.1003450687205
 30
0.0
 40
53.0
100
AcDbArc
 50
190.8757164946285
 51
346.3583229709864
  0
ARC
  5
2F1C6
330
1F
100
AcDbEntity
  8
実線
100
AcDbCircle
 10
284.1905126101837
 20
428.1003450687205
 30
0.0
 40
58.0
100
AcDbArc
 50
350.0535735270299
 51
9.946426472969946
  0
ARC
  5
2F1C7
330
1F
100
AcDbEntity
  8
実線
100
AcDbCircle
 10
338.3638455333112
 20
437.6003450687203
 30
0.0
 40
3.0
100
AcDbArc
 50
9.946426472969946
 51
90.0
  0
ARC
  5
2F1C8
330
1F
100
AcDbEntity
  8
実線
100
AcDbCircle
 10
338.3638455333112
 20
418.6003450687204
 30
0.0
 40
3.0
100
AcDbArc
 50
270.0
 51
350.0535735270299
  0
ARC
  5
2F1C9
330
1F
100
AcDbEntity
  8
実線
100
AcDbCircle
 10
284.1905126101837
 20
428.1003450687205
 30
0.0
 40
46.0
100
AcDbArc
 50
174.3859994136977
 51
185.614000586299
  0
ARC
  5
2F1CA
330
1F
100
AcDbEntity
  8
実線
100
AcDbCircle
 10
284.1905126101837
 20
428.1003450687205
 30
0.0
 40
46.0
100
AcDbArc
 50
191.9185947308656
 51
168.0814052691344
  0
CIRCLE
  5
2F1CB
330
1F
100
AcDbEntity
  8
実線
100
AcDbCircle
 10
284.1905126101837
 20
428.1003450687205
 30
0.0
 40
39.0
  0
LINE
  5
2F1CC
330
1F
100
AcDbEntity
  8
実線
100
AcDbLine
 10
220.1905126101838
 20
438.1003450687203
 30
0.0
 11
220.1905126101838
 21
418.1003450687204
 31
0.0
  0
LINE
  5
2F1CD
330
1F
100
AcDbEntity
  8
実線
100
AcDbLine
 10
220.6905126101838
 20
437.6003450687203
 30
0.0
 11
220.6905126101838
 21
432.6003450687204
 31
0.0
  0
LINE
  5
2F1CE
330
1F
100
AcDbEntity
  8
実線
100
AcDbLine
 10
220.6905126101838
 20
423.6003450687205
 30
0.0
 11
220.6905126101838
 21
418.6003450687204
 31
0.0
  0
LINE
  5
2F1CF
330
1F
100
AcDbEntity
  8
実線
100
AcDbLine
 10
244.1905126101838
 20
437.6003450687203
 30
0.0
 11
244.1905126101838
 21
432.6003450687204
 31
0.0
  0
LINE
  5
2F1D0
330
1F
100
AcDbEntity
  8
実線
100
AcDbLine
 10
244.1905126101838
 20
423.6003450687205
 30
0.0
 11
244.1905126101838
 21
418.6003450687204
 31
0.0
  0
TEXT
  5
2F1D1
330
1F
100
AcDbEntity
  8
文字
100
AcDbText
 10
314.1905126101837
 20
410.5924713804474
 30
0.0
 40
10.0
  1
50
 50
90.0
 41
1.3
  7
スタイル3
 72
     1
 11
309.1905126101837
 21
419.2366272246031
 31
0.0
100
AcDbText
 73
     2
  0
TEXT
  5
2F1D2
330
1F
100
AcDbEntity
  8
文字
100
AcDbText
 10
313.9520930950634
 20
428.9447892624157
 30
0.0
 40
8.0
  1
mm
 50
90.0
 41
1.05
  7
スタイル3
 72
     1
 11
309.9520930950634
 21
437.3338801715067
 31
0.0
100
AcDbText
 73
     2
  0
LINE
  5
2F1D3
330
1F
100
AcDbEntity
  8
実線
100
AcDbLine
 10
276.1905126101837
 20
419.5003450687075
 30
0.0
 11
270.5343998205931
 21
427.1403450687256
 31
0.0
  0
LINE
  5
2F1D4
330
1F
100
AcDbEntity
  8
実線
100
AcDbLine
 10
276.1905126101837
 20
419.5003450687075
 30
0.0
 11
281.8466253997744
 21
427.1403450687256
 31
0.0
  0
LINE
  5
2F1D5
330
1F
100
AcDbEntity
  8
実線
100
AcDbLine
 10
278.1983002022544
 20
419.02034506871
 30
0.0
 11
284.1905126101837
 21
427.1403450687256
 31
0.0
  0
LINE
  5
2F1D6
330
1F
100
AcDbEntity
  8
実線
100
AcDbLine
 10
276.1905126101837
 20
436.7003450687334
 30
0.0
 11
270.5343998205931
 21
429.0603450687152
 31
0.0
  0
LINE
  5
2F1D7
330
1F
100
AcDbEntity
  8
実線
100
AcDbLine
 10
274.1827250181134
 20
419.02034506871
 30
0.0
 11
268.1905126101838
 21
427.1403450687256
 31
0.0
  0
LINE
  5
2F1D8
330
1F
100
AcDbEntity
  8
実線
100
AcDbLine
 10
274.1827250181134
 20
437.1803450687308
 30
0.0
 11
268.1905126101838
 21
429.0603450687152
 31
0.0
  0
LINE
  5
2F1D9
330
1F
100
AcDbEntity
  8
実線
100
AcDbLine
 10
276.1905126101837
 20
436.7003450687334
 30
0.0
 11
281.8466253997744
 21
429.0603450687152
 31
0.0
  0
LINE
  5
2F1DA
330
1F
100
AcDbEntity
  8
実線
100
AcDbLine
 10
278.1983002022544
 20
437.1803450687308
 30
0.0
 11
284.1905126101837
 21
429.0603450687152
 31
0.0
  0
LINE
  5
2F1DB
330
1F
100
AcDbEntity
  8
実線
100
AcDbLine
 10
278.1983002022544
 20
437.1803450687308
 30
0.0
 11
280.2705126101616
 21
437.1803450687308
 31
0.0
  0
LINE
  5
2F1DC
330
1F
100
AcDbEntity
  8
実線
100
AcDbLine
 10
280.2705126101616
 20
439.1003450687204
 30
0.0
 11
272.110512610206
 21
439.1003450687204
 31
0.0
  0
LINE
  5
2F1DD
330
1F
100
AcDbEntity
  8
実線
100
AcDbLine
 10
272.110512610206
 20
439.1003450687204
 30
0.0
 11
272.110512610206
 21
437.1803450687308
 31
0.0
  0
LINE
  5
2F1DE
330
1F
100
AcDbEntity
  8
実線
100
AcDbLine
 10
272.110512610206
 20
437.1803450687308
 30
0.0
 11
274.1827250181134
 21
437.1803450687308
 31
0.0
  0
LINE
  5
2F1DF
330
1F
100
AcDbEntity
  8
実線
100
AcDbLine
 10
280.2705126101616
 20
437.1803450687308
 30
0.0
 11
280.2705126101616
 21
439.1003450687204
 31
0.0
  0
LINE
  5
2F1E0
330
1F
100
AcDbEntity
  8
実線
100
AcDbLine
 10
270.5343998205931
 20
427.1403450687256
 30
0.0
 11
268.1905126101838
 21
427.1403450687256
 31
0.0
  0
LINE
  5
2F1E1
330
1F
100
AcDbEntity
  8
実線
100
AcDbLine
 10
270.5343998205931
 20
429.0603450687152
 30
0.0
 11
268.1905126101838
 21
429.0603450687152
 31
0.0
  0
ARC
  5
2F1E2
330
1F
100
AcDbEntity
  8
実線
100
AcDbCircle
 10
274.2705126101942
 20
428.1003450687205
 30
0.0
 40
2.879999999984399
100
AcDbArc
 50
90.0
 51
270.0
  0
ARC
  5
2F1E3
330
1F
100
AcDbEntity
  8
実線
100
AcDbCircle
 10
274.2705126101942
 20
428.1003450687205
 30
0.0
 40
1.439999999992198
100
AcDbArc
 50
90.0
 51
270.0
  0
ARC
  5
2F1E4
330
1F
100
AcDbEntity
  8
実線
100
AcDbCircle
 10
278.1105126101734
 20
428.1003450687205
 30
0.0
 40
2.879999999984399
100
AcDbArc
 50
270.0
 51
90.0
  0
ARC
  5
2F1E5
330
1F
100
AcDbEntity
  8
実線
100
AcDbCircle
 10
278.1105126101734
 20
428.1003450687205
 30
0.0
 40
1.439999999992198
100
AcDbArc
 50
270.0
 51
90.0
  0
LINE
  5
2F1E6
330
1F
100
AcDbEntity
  8
実線
100
AcDbLine
 10
278.1105126101734
 20
429.5403450687127
 30
0.0
 11
274.2705126101942
 21
429.5403450687127
 31
0.0
  0
LINE
  5
2F1E7
330
1F
100
AcDbEntity
  8
実線
100
AcDbLine
 10
278.1105126101734
 20
430.9803450687049
 30
0.0
 11
274.2705126101942
 21
430.9803450687049
 31
0.0
  0
LINE
  5
2F1E8
330
1F
100
AcDbEntity
  8
実線
100
AcDbLine
 10
284.1905126101837
 20
429.0603450687152
 30
0.0
 11
281.8466253997744
 21
429.0603450687152
 31
0.0
  0
LINE
  5
2F1E9
330
1F
100
AcDbEntity
  8
実線
100
AcDbLine
 10
278.1105126101734
 20
426.6603450687282
 30
0.0
 11
274.2705126101942
 21
426.6603450687282
 31
0.0
  0
LINE
  5
2F1EA
330
1F
100
AcDbEntity
  8
実線
100
AcDbLine
 10
278.1105126101734
 20
425.220345068736
 30
0.0
 11
274.2705126101942
 21
425.220345068736
 31
0.0
  0
LINE
  5
2F1EB
330
1F
100
AcDbEntity
  8
実線
100
AcDbLine
 10
284.1905126101837
 20
427.1403450687256
 30
0.0
 11
281.8466253997744
 21
427.1403450687256
 31
0.0
  0
LINE
  5
2F1EC
330
1F
100
AcDbEntity
  8
実線
100
AcDbLine
 10
280.2705126101616
 20
417.1003450687203
 30
0.0
 11
272.110512610206
 21
417.1003450687203
 31
0.0
  0
LINE
  5
2F1ED
330
1F
100
AcDbEntity
  8
実線
100
AcDbLine
 10
280.2705126101616
 20
419.02034506871
 30
0.0
 11
278.1983002022544
 21
419.02034506871
 31
0.0
  0
LINE
  5
2F1EE
330
1F
100
AcDbEntity
  8
実線
100
AcDbLine
 10
272.110512610206
 20
419.02034506871
 30
0.0
 11
272.110512610206
 21
417.1003450687203
 31
0.0
  0
LINE
  5
2F1EF
330
1F
100
AcDbEntity
  8
実線
100
AcDbLine
 10
274.1827250181134
 20
419.02034506871
 30
0.0
 11
272.110512610206
 21
419.02034506871
 31
0.0
  0
LINE
  5
2F1F0
330
1F
100
AcDbEntity
  8
実線
100
AcDbLine
 10
280.2705126101616
 20
417.1003450687203
 30
0.0
 11
280.2705126101616
 21
419.02034506871
 31
0.0
  0
TEXT
  5
2F1F1
330
1F
100
AcDbEntity
  8
文字
100
AcDbText
 10
259.2603885738122
 20
426.4021701097167
 30
0.0
 40
10.0
  1
I
 50
90.0
  7
スタイル3
 72
     1
 11
254.2603885738122
 21
428.1846376421842
 31
0.0
100
AcDbText
 73
     2
  0
TEXT
  5
2F1F2
330
1F
100
AcDbEntity
  8
文字
100
AcDbText
 10
261.6835527196375
 20
416.6940689265187
 30
0.0
 40
10.0
  1
H
 50
108.0000000000005
  7
スタイル3
 72
     1
 11
255.6992252741704
 21
418.9315950989996
 31
0.0
100
AcDbText
 73
     2
  0
TEXT
  5
2F1F3
330
1F
100
AcDbEntity
  8
文字
100
AcDbText
 10
266.1132903661038
 20
410.5678466100993
 30
0.0
 40
9.999999999999998
  1
S
 50
125.9999999999993
  7
スタイル3
 72
     1
 11
259.9269876894493
 21
410.5760536852886
 31
0.0
100
AcDbText
 73
     2
  0
TEXT
  5
2F1F4
330
1F
100
AcDbEntity
  8
文字
100
AcDbText
 10
272.4106392188958
 20
405.8435960655532
 30
0.0
 40
10.0
  1
A
 50
144.0000000000007
  7
スタイル3
 72
     1
 11
266.5298329778882
 21
403.9359120111056
 31
0.0
100
AcDbText
 73
     2
  0
TEXT
  5
2F1F5
330
1F
100
AcDbEntity
  8
文字
100
AcDbText
 10
279.8587252501198
 20
403.2947444320789
 30
0.0
 40
10.0
  1
K
 50
161.9999999999994
  7
スタイル3
 72
     1
 11
274.8614286379269
 21
399.6611534081072
 31
0.0
100
AcDbText
 73
     2
  0
TEXT
  5
2F1F6
330
1F
100
AcDbEntity
  8
文字
100
AcDbText
 10
273.108460280355
 20
450.7126516618945
 30
0.0
 40
9.999999999999998
  1
A
 50
17.99999999999898
  7
スタイル3
 72
     1
 11
275.0217626404628
 21
456.5916324047337
 31
0.0
100
AcDbText
 73
     2
  0
TEXT
  5
2F1F7
330
1F
100
AcDbEntity
  8
文字
100
AcDbText
 10
266.5004134383727
 20
446.0630636922239
 30
0.0
 40
10.0
  1
R
 50
35.99999999999911
  7
スタイル3
 72
     1
 11
266.666221226752
 21
452.3638699894548
 31
0.0
100
AcDbText
 73
     2
  0
TEXT
  5
2F1F8
330
1F
100
AcDbEntity
  8
文字
100
AcDbText
 10
261.9337636070165
 20
439.8802184600084
 30
0.0
 40
10.0
  1
A
 50
54.0000000000005
  7
スタイル3
 72
     1
 11
260.0260795525689
 21
445.761024701016
 31
0.0
100
AcDbText
 73
     2
  0
TEXT
  5
2F1F9
330
1F
100
AcDbEntity
  8
文字
100
AcDbText
 10
259.2775586670547
 20
432.1017329247469
 30
0.0
 40
9.999999999999998
  1
H
 50
71.99999999999945
  7
スタイル3
 72
     1
 11
255.7513209495703
 21
437.4294290409774
 31
0.0
100
AcDbText
 73
     2
  0
LINE
  5
2F1FA
330
1F
100
AcDbEntity
  8
実線
100
AcDbLine
 10
347.1106409641504
 20
432.1003450687205
 30
0.0
 11
342.0524171761415
 21
432.1003450687205
 31
0.0
  0
ARC
  5
2F1FB
330
1F
100
AcDbEntity
  8
実線
100
AcDbCircle
 10
347.1106409641504
 20
431.1003450687204
 30
0.0
 40
1.0
100
AcDbArc
 50
0.0
 51
90.0
  0
LINE
  5
2F1FC
330
1F
100
AcDbEntity
  8
実線
100
AcDbLine
 10
347.1106409641504
 20
424.1003450687204
 30
0.0
 11
342.0524171761415
 21
424.1003450687204
 31
0.0
  0
ARC
  5
2F1FD
330
1F
100
AcDbEntity
  8
実線
100
AcDbCircle
 10
347.1106409641504
 20
425.1003450687203
 30
0.0
 40
1.0
100
AcDbArc
 50
270.0
 51
0.0
  0
LINE
  5
2F1FE
330
1F
100
AcDbEntity
  8
実線
100
AcDbLine
 10
348.1106409641504
 20
425.1003450687203
 30
0.0
 11
348.1106409641504
 21
431.1003450687204
 31
0.0
  0
LINE
  5
2F1FF
330
1F
100
AcDbEntity
  8
実線
100
AcDbLine
 10
280.1106409641507
 20
491.1003450687204
 30
0.0
 11
280.1106409641507
 21
484.8806233350341
 31
0.0
  0
ARC
  5
2F200
330
1F
100
AcDbEntity
  8
実線
100
AcDbCircle
 10
281.1106409641507
 20
491.1003450687204
 30
0.0
 40
1.0
100
AcDbArc
 50
90.0
 51
180.0
  0
LINE
  5
2F201
330
1F
100
AcDbEntity
  8
実線
100
AcDbLine
 10
288.1106409641507
 20
491.1003450687204
 30
0.0
 11
288.1106409641507
 21
484.8806233350341
 31
0.0
  0
ARC
  5
2F202
330
1F
100
AcDbEntity
  8
実線
100
AcDbCircle
 10
287.1106409641507
 20
491.1003450687204
 30
0.0
 40
1.0
100
AcDbArc
 50
0.0
 51
90.0
  0
LINE
  5
2F203
102
{ACAD_REACTORS
330
2F308
102
}
330
1F
100
AcDbEntity
  8
実線
100
AcDbLine
 10
287.1106409641507
 20
492.1003450687203
 30
0.0
 11
281.1106409641507
 21
492.1003450687203
 31
0.0
  0
LINE
  5
2F204
330
1F
100
AcDbEntity
  8
実線
100
AcDbLine
 10
288.1106409641504
 20
365.1003450687205
 30
0.0
 11
288.1106409641504
 21
371.320066802407
 31
0.0
  0
ARC
  5
2F205
330
1F
100
AcDbEntity
  8
実線
100
AcDbCircle
 10
287.1106409641504
 20
365.1003450687205
 30
0.0
 40
1.0
100
AcDbArc
 50
270.0
 51
0.0
  0
LINE
  5
2F206
330
1F
100
AcDbEntity
  8
実線
100
AcDbLine
 10
280.1106409641505
 20
365.1003450687205
 30
0.0
 11
280.1106409641505
 21
371.320066802407
 31
0.0
  0
ARC
  5
2F207
330
1F
100
AcDbEntity
  8
実線
100
AcDbCircle
 10
281.1106409641504
 20
365.1003450687205
 30
0.0
 40
1.0
100
AcDbArc
 50
180.0
 51
270.0
  0
LINE
  5
2F208
102
{ACAD_REACTORS
330
2F308
102
}
330
1F
100
AcDbEntity
  8
実線
100
AcDbLine
 10
281.1106409641504
 20
364.1003450687204
 30
0.0
 11
287.1106409641504
 21
364.1003450687204
 31
0.0
  0
ARC
  5
2F209
330
1F
100
AcDbEntity
  8
実線
100
AcDbCircle
 10
284.1106409641504
 20
428.1003450687205
 30
0.0
 40
56.0
100
AcDbArc
 50
12.87781456371257
 51
84.96758650449951
  0
ARC
  5
2F20A
330
1F
100
AcDbEntity
  8
実線
100
AcDbCircle
 10
284.1106409641504
 20
428.1003450687205
 30
0.0
 40
56.0
100
AcDbArc
 50
95.0324134955005
 51
169.7134393885241
  0
ARC
  5
2F20B
330
1F
100
AcDbEntity
  8
実線
100
AcDbCircle
 10
284.1106409641504
 20
428.1003450687205
 30
0.0
 40
56.0
100
AcDbArc
 50
190.2865606114726
 51
264.9675865044995
  0
ARC
  5
2F20C
330
1F
100
AcDbEntity
  8
実線
100
AcDbCircle
 10
284.1106409641504
 20
428.1003450687205
 30
0.0
 40
56.0
100
AcDbArc
 50
275.0324134955003
 51
347.1221854362874
  0
ARC
  5
2F20D
330
1F
100
AcDbEntity
  8
実線
100
AcDbCircle
 10
279.1106409641507
 20
484.8806233350341
 30
0.0
 40
1.0
100
AcDbArc
 50
275.0324134955003
 51
0.0
  0
ARC
  5
2F20E
330
1F
100
AcDbEntity
  8
実線
100
AcDbCircle
 10
289.1106409641507
 20
484.8806233350341
 30
0.0
 40
1.0
100
AcDbArc
 50
180.0
 51
264.9675865044995
  0
ARC
  5
2F20F
330
1F
100
AcDbEntity
  8
実線
100
AcDbCircle
 10
279.1106409641504
 20
371.320066802407
 30
0.0
 40
1.0
100
AcDbArc
 50
0.0
 51
84.96758650449951
  0
ARC
  5
2F210
330
1F
100
AcDbEntity
  8
実線
100
AcDbCircle
 10
289.1106409641504
 20
371.320066802407
 30
0.0
 40
1.0
100
AcDbArc
 50
95.0324134955005
 51
180.0
  0
ARC
  5
2F211
330
1F
100
AcDbEntity
  8
実線
100
AcDbCircle
 10
284.1106409641504
 20
428.1003450687205
 30
0.0
 40
54.0
100
AcDbArc
 50
190.6719292857608
 51
346.6156915477345
  0
ARC
  5
2F212
330
1F
100
AcDbEntity
  8
実線
100
AcDbCircle
 10
284.1106409641504
 20
428.1003450687205
 30
0.0
 40
54.0
100
AcDbArc
 50
13.38430845226554
 51
169.3280707142392
  0
MTEXT
  5
2F213
330
1F
100
AcDbEntity
  8
文字
370
     9
100
AcDbMText
 10
282.4548239598469
 20
370.129258927608
 30
0.0
 40
5.0
 41
19.85484558976438
 46
0.0
 71
     1
 72
     5
  1
{\fMS PMincho|b0|i0|c128|p18;\W1.05;E}
  7
寸法
 73
     1
 44
1.0
  0
LINE
  5
2F214
330
1F
100
AcDbEntity
  8
実線
100
AcDbLine
 10
149.1905126101835
 20
463.9423450687204
 30
0.0
 11
149.1905126101835
 21
392.2583450687207
 31
0.0
  0
LINE
  5
2F216
330
1F
100
AcDbEntity
  8
実線
100
AcDbLine
 10
150.2008756101836
 20
390.5083450687206
 30
0.0
 11
174.1905126101834
 21
390.5083450687206
 31
0.0
  0
LINE
  5
2F217
330
1F
100
AcDbEntity
  8
実線
100
AcDbLine
 10
393.1801496101834
 20
390.5083450687206
 30
0.0
 11
369.1905126101835
 21
390.5083450687206
 31
0.0
  0
LINE
  5
2F219
330
1F
100
AcDbEntity
  8
実線
100
AcDbLine
 10
149.1905126101835
 20
392.2583450687207
 30
0.0
 11
150.2008756101836
 21
390.5083450687206
 31
0.0
  0
LINE
  5
2F21A
330
1F
100
AcDbEntity
  8
実線
100
AcDbLine
 10
394.1905126101835
 20
463.9423450687204
 30
0.0
 11
394.1905126101835
 21
392.2583450687207
 31
0.0
  0
LINE
  5
2F21B
330
1F
100
AcDbEntity
  8
実線
100
AcDbLine
 10
393.1801496101834
 20
465.6923450687204
 30
0.0
 11
369.1905126101835
 21
465.6923450687204
 31
0.0
  0
LINE
  5
2F21C
330
1F
100
AcDbEntity
  8
実線
100
AcDbLine
 10
394.1905126101835
 20
392.2583450687207
 30
0.0
 11
393.1801496101834
 21
390.5083450687206
 31
0.0
  0
LINE
  5
2F21D
330
1F
100
AcDbEntity
  8
実線
100
AcDbLine
 10
393.1801496101834
 20
465.6923450687204
 30
0.0
 11
394.1905126101835
 21
463.9423450687204
 31
0.0
  0
LINE
  5
2F21E
330
1F
100
AcDbEntity
  8
実線
100
AcDbLine
 10
150.2008756101836
 20
465.6923450687204
 30
0.0
 11
149.1905126101835
 21
463.9423450687204
 31
0.0
  0
LINE
  5
2F21F
330
1F
100
AcDbEntity
  8
実線
100
AcDbLine
 10
369.1905126101835
 20
465.6923450687204
 30
0.0
 11
369.1905126101835
 21
390.5083450687206
 31
0.0
  0
LINE
  5
2F220
330
1F
100
AcDbEntity
  8
実線
100
AcDbLine
 10
174.1905126101834
 20
465.6923450687204
 30
0.0
 11
174.1905126101834
 21
390.5083450687206
 31
0.0
  0
LINE
  5
2F221
330
1F
100
AcDbEntity
  8
実線
100
AcDbLine
 10
150.2008756101836
 20
465.6923450687204
 30
0.0
 11
174.1905126101834
 21
465.6923450687204
 31
0.0
  0
LINE
  5
2F223
330
1F
100
AcDbEntity
  8
実線
100
AcDbLine
 10
150.2008756101836
 20
465.6923450687204
 30
0.0
 11
150.2008756101836
 21
390.5083450687206
 31
0.0
  0
LINE
  5
2F225
330
1F
100
AcDbEntity
  8
実線
100
AcDbLine
 10
393.1801496101834
 20
465.6923450687204
 30
0.0
 11
393.1801496101834
 21
390.5083450687206
 31
0.0
  0
ARC
  5
2F229
330
1F
100
AcDbEntity
  8
実線
100
AcDbCircle
 10
175.5927876101837
 20
394.6980700687203
 30
0.0
 40
1.402274999999999
100
AcDbArc
 50
59.31375999999671
 51
180.0
  0
ARC
  5
2F22A
330
1F
100
AcDbEntity
  8
実線
100
AcDbCircle
 10
177.1905126101835
 20
463.1003450687203
 30
0.0
 40
3.0
100
AcDbArc
 50
180.0
 51
272.2091450000029
  0
ARC
  5
2F22B
330
1F
100
AcDbEntity
  8
実線
100
AcDbCircle
 10
365.1905126101835
 20
393.6003450687207
 30
0.0
 40
4.0
100
AcDbArc
 50
0.0
 51
90.0
  0
ARC
  5
2F22C
330
1F
100
AcDbEntity
  8
実線
100
AcDbCircle
 10
365.1905126101835
 20
462.6003450687204
 30
0.0
 40
4.0
100
AcDbArc
 50
254.9079999999993
 51
0.0
  0
ARC
  5
2F22D
330
1F
100
AcDbEntity
  8
実線
100
AcDbCircle
 10
284.1905126101837
 20
428.1003450687205
 30
0.0
 40
57.0
100
AcDbArc
 50
239.2723043187377
 51
265.8954475764641
  0
ARC
  5
2F22E
330
1F
100
AcDbEntity
  8
実線
100
AcDbCircle
 10
284.1905126101837
 20
428.1003450687205
 30
0.0
 40
57.0
100
AcDbArc
 50
273.94396396333
 51
305.0974709899127
  0
ARC
  5
2F22F
330
1F
100
AcDbEntity
  8
実線
100
AcDbCircle
 10
342.83736475967
 20
344.6464851642421
 30
0.0
 40
45.0
100
AcDbArc
 50
105.5871376765317
 51
125.0974709899125
  0
ARC
  5
2F230
330
1F
100
AcDbEntity
  8
実線
100
AcDbCircle
 10
232.0727461863562
 20
340.4205958503784
 30
0.0
 40
45.0
100
AcDbArc
 50
59.27230431873769
 51
80.03808279702097
  0
ARC
  5
2F231
330
1F
100
AcDbEntity
  8
実線
100
AcDbCircle
 10
284.1905126101837
 20
428.1003450687205
 30
0.0
 40
57.0
100
AcDbArc
 50
54.85211436385704
 51
86.05641669111911
  0
ARC
  5
2F232
330
1F
100
AcDbEntity
  8
実線
100
AcDbCircle
 10
284.1905126101837
 20
428.1003450687205
 30
0.0
 40
57.0
100
AcDbArc
 50
94.10984903420589
 51
120.8025334255833
  0
ARC
  5
2F233
330
1F
100
AcDbEntity
  8
実線
100
AcDbCircle
 10
342.9107732293892
 20
511.5025692165968
 30
0.0
 40
45.0
100
AcDbArc
 50
234.8521143638571
 51
254.2198232771489
  0
ARC
  5
2F234
330
1F
100
AcDbEntity
  8
実線
100
AcDbCircle
 10
231.9582664536972
 20
515.7119451080315
 30
0.0
 40
45.0
100
AcDbArc
 50
280.2472042765708
 51
300.8025334255832
  0
LINE
  5
2F235
330
1F
100
AcDbEntity
  8
実線
100
AcDbLine
 10
239.857456701126
 20
384.7421287909393
 30
0.0
 11
176.3084195902422
 21
395.903991311896
 31
0.0
  0
LINE
  5
2F236
330
1F
100
AcDbEntity
  8
実線
100
AcDbLine
 10
177.306154514119
 20
460.1025747389495
 30
0.0
 11
239.9635652771794
 21
471.4297230460486
 31
0.0
  0
LINE
  5
2F237
330
1F
100
AcDbEntity
  8
実線
100
AcDbLine
 10
364.1490338074084
 20
458.7383090896842
 30
0.0
 11
330.6731437767557
 21
468.1985229232069
 31
0.0
  0
LINE
  5
2F238
330
1F
100
AcDbEntity
  8
実線
100
AcDbLine
 10
365.1905126101835
 20
397.6003450687206
 30
0.0
 11
330.7457030486416
 21
387.9915162181708
 31
0.0
  0
DIMENSION
  5
2F2A1
102
{ACAD_XDICTIONARY
360
2F2AE
102
}
102
{ACAD_REACTORS
330
2F2B8
102
}
330
1F
100
AcDbEntity
  8
寸法
100
AcDbDimension
280
     0
  2
*D7
 10
70.33162759536231
 20
281.6726996496424
 30
0.0
 11
65.83162759536225
 21
205.6726996496424
 31
0.0
 70
    32
 71
     5
 42
152.0
 73
     0
 74
     0
 75
     0
  3
ｺﾋﾟｰ - ISO-25
100
AcDbAlignedDimension
 13
246.6905126101837
 23
129.6726996496422
 33
0.0
 14
217.9028415600728
 24
281.6726996496424
 34
0.0
 50
90.0
100
AcDbRotatedDimension
  0
DIMENSION
  5
2F2F1
102
{ACAD_XDICTIONARY
360
2F2FE
102
}
102
{ACAD_REACTORS
330
2F308
102
}
330
1F
100
AcDbEntity
  8
寸法
100
AcDbDimension
280
     0
  2
*D8
 10
461.8549356289057
 20
492.1003450687203
 30
0.0
 11
457.3549356289056
 21
428.1003450687205
 31
0.0
 70
    32
 71
     5
 42
128.0
 73
     0
 74
     0
 75
     0
  3
ｺﾋﾟｰ - ISO-25
100
AcDbAlignedDimension
 13
287.1106409641504
 23
364.1003450687204
 33
0.0
 14
287.1106409641504
 24
492.1003450687203
 34
0.0
 50
90.0
100
AcDbRotatedDimension
  0
DIMENSION
  5
2F422
102
{ACAD_XDICTIONARY
360
2F42F
102
}
102
{ACAD_REACTORS
330
2F439
102
}
330
1F
100
AcDbEntity
  8
寸法
100
AcDbDimension
280
     0
  2
*D9
 10
97.0774883354268
 20
186.6726996496423
 30
0.0
 11
92.57748833542676
 21
158.1726996496424
 31
0.0
 70
    32
 71
     5
 42
56.99999999999997
 73
     0
 74
     0
 75
     0
  3
ｺﾋﾟｰ - ISO-25
100
AcDbAlignedDimension
 13
246.6905126101837
 23
129.6726996496422
 33
0.0
 14
141.6363026101837
 24
186.6726996496423
 34
0.0
 50
90.0
100
AcDbRotatedDimension
  0
DIMENSION
  5
2F43A
102
{ACAD_XDICTIONARY
360
2F447
102
}
102
{ACAD_REACTORS
330
2F451
102
}
330
1F
100
AcDbEntity
  8
寸法
100
AcDbDimension
280
     0
  2
*D10
 10
394.1905126101838
 20
76.37340132942586
 30
0.0
 11
271.6905126101837
 21
80.87340132942586
 31
0.0
 70
    32
 71
     5
 42
245.0
 73
     0
 74
     0
 75
     0
  3
ｺﾋﾟｰ - ISO-25
100
AcDbAlignedDimension
 13
149.1905126101837
 23
150.8306996496424
 33
0.0
 14
394.1905126101838
 24
150.8306996496424
 34
0.0
100
AcDbRotatedDimension
  0
SOLID
  5
2F467
330
1F
100
AcDbEntity
  8
寸法
100
AcDbTrace
 10
383.4415361513432
 20
228.8038607237497
 30
0.0
 11
381.1853311101838
 21
224.2646996496424
 31
0.0
 12
384.7917394704505
 22
227.8267584901787
 32
0.0
 13
384.7917394704505
 23
227.8267584901787
 33
0.0
1001
ACAD
1000
DSTYLE
1002
{
1070
   147
1040
1.0
1070
    77
1070
     0
1002
}
  0
LWPOLYLINE
  5
2F468
330
1F
100
AcDbEntity
  8
寸法
100
AcDbPolyline
 90
        3
 70
     0
 43
0.0
 10
384.1166378108967
 20
228.3153096069642
 10
402.9746339115273
 20
254.3741272536374
 10
494.5501504420572
 20
254.3741272536374
1001
ACAD
1000
DSTYLE
1002
{
1070
   147
1040
1.0
1070
    77
1070
     0
1002
}
  0
TEXT
  5
2F4AE
330
1F
100
AcDbEntity
  8
0
100
AcDbText
 10
719.1620659890463
 20
101.8103299452338
 30
0.0
 40
7.0
  1
A-220830
 41
0.9
 72
     1
 11
743.4620659890464
 21
105.3103299452338
 31
0.0
100
AcDbText
 73
     2
  0
LINE
  5
2F4C7
330
1F
100
AcDbEntity
  8
0
100
AcDbLine
 10
45.0
 20
554.0
 30
0.0
 11
45.0
 21
40.0
 31
0.0
  0
LINE
  5
2F4C8
330
1F
100
AcDbEntity
  8
0
100
AcDbLine
 10
805.0
 20
554.0
 30
0.0
 11
45.0
 21
554.0
 31
0.0
  0
LINE
  5
2F4C9
330
1F
100
AcDbEntity
  8
0
100
AcDbLine
 10
805.0
 20
40.0
 30
0.0
 11
805.0
 21
554.0
 31
0.0
  0
LINE
  5
2F4CA
330
1F
100
AcDbEntity
  8
0
100
AcDbLine
 10
45.0
 20
40.0
 30
0.0
 11
805.0
 21
40.0
 31
0.0
  0
VIEWPORT
  5
6B
330
50
100
AcDbEntity
 67
     1
  8
0
348
276B
100
AcDbViewport
 10
433.5371052199573
 20
123.3251464112375
 30
0.0
 40
833.2744282326544
 41
415.0001327249073
 68
     1
 69
     1
 12
433.5371052199573
 22
123.3251464112375
 13
0.0
 23
0.0
 14
10.0
 24
10.0
 15
10.0
 25
10.0
 16
0.0
 26
0.0
 36
1.0
 17
0.0
 27
0.0
 37
0.0
 42
50.0
 43
0.0
 44
0.0
 45
415.0001327249073
 50
0.0
 51
0.0
 72
   100
 90
    32800
  1

281
     0
 71
     1
 74
     0
110
0.0
120
0.0
130
0.0
111
1.0
121
0.0
131
0.0
112
0.0
122
1.0
132
0.0
 79
     0
146
0.0
170
     0
 61
     5
292
     1
282
     1
141
0.0
142
0.0
 63
   250
421
  3355443
  0
VIEWPORT
  5
6D
330
50
100
AcDbEntity
 67
     1
  8
0
348
276B
100
AcDbViewport
 10
194.6747247325147
 20
118.9168694143202
 30
0.0
 40
506.9942499588641
 41
411.2802053937703
 68
     2
 69
     2
 12
200.9197229890301
 22
122.5631282670758
 13
0.0
 23
0.0
 14
10.0
 24
10.0
 15
10.0
 25
10.0
 16
0.0
 26
0.0
 36
1.0
 17
0.0
 27
0.0
 37
0.0
 42
50.0
 43
0.0
 44
0.0
 45
411.2802071812528
 50
0.0
 51
0.0
 72
   100
 90
    32864
  1

281
     0
 71
     1
 74
     0
110
0.0
120
0.0
130
0.0
111
1.0
121
0.0
131
0.0
112
0.0
122
1.0
132
0.0
 79
     0
146
0.0
170
     0
 61
     5
292
     1
282
     1
141
0.0
142
0.0
 63
   250
421
  3355443
  0
ENDSEC
  0
SECTION
  2
OBJECTS
  0
DICTIONARY
  5
C
330
0
100
AcDbDictionary
281
     1
  3
ACAD_CIP_PREVIOUS_PRODUCT_INFO
350
2F4EC
  3
ACAD_COLOR
350
2776
  3
ACAD_DETAILVIEWSTYLE
350
2F4DC
  3
ACAD_GROUP
350
D
  3
ACAD_LAYOUT
350
1A
  3
ACAD_MATERIAL
350
2761
  3
ACAD_MLEADERSTYLE
350
247F1
  3
ACAD_MLINESTYLE
350
17
  3
ACAD_PLOTSETTINGS
350
19
  3
ACAD_PLOTSTYLENAME
350
E
  3
ACAD_SCALELIST
350
247DF
  3
ACAD_SECTIONVIEWSTYLE
350
2F4DA
  3
ACAD_TABLESTYLE
350
2777
  3
ACAD_VISUALSTYLE
350
2765
  3
ACDB_RECOMPOSE_DATA
350
2F519
  3
AcDbVariableDictionary
350
5E
  0
DICTIONARY
  5
279F
330
2
100
AcDbDictionary
280
     1
281
     1
  3
ACAD_LAYERFILTERS
360
2DF9
  3
ACAD_LAYERSTATES
360
2E2E
  3
ACLYDICTIONARY
360
2DF8
  0
DICTIONARY
  5
24E13
330
10
100
AcDbDictionary
280
     1
281
     1
  3
ADSK_XREC_LAYER_RECONCILED
360
24E14
  0
DICTIONARY
  5
24E15
330
A7
100
AcDbDictionary
280
     1
281
     1
  3
ADSK_XREC_LAYER_RECONCILED
360
24E16
  0
DICTIONARY
  5
24E17
330
A8
100
AcDbDictionary
280
     1
281
     1
  3
ADSK_XREC_LAYER_RECONCILED
360
24E18
  0
DICTIONARY
  5
24E19
330
A9
100
AcDbDictionary
280
     1
281
     1
  3
ADSK_XREC_LAYER_RECONCILED
360
24E1A
  0
DICTIONARY
  5
24E1B
330
AA
100
AcDbDictionary
280
     1
281
     1
  3
ADSK_XREC_LAYER_RECONCILED
360
24E1C
  0
DICTIONARY
  5
24E1D
330
AB
100
AcDbDictionary
280
     1
281
     1
  3
ADSK_XREC_LAYER_RECONCILED
360
24E1E
  0
DICTIONARY
  5
24E1F
330
AC
100
AcDbDictionary
280
     1
281
     1
  3
ADSK_XREC_LAYER_RECONCILED
360
24E20
  0
DICTIONARY
  5
24E21
330
58C
100
AcDbDictionary
280
     1
281
     1
  3
ADSK_XREC_LAYER_RECONCILED
360
24E22
  0
DICTIONARY
  5
24E23
330
1023
100
AcDbDictionary
280
     1
281
     1
  3
ADSK_XREC_LAYER_RECONCILED
360
24E24
  0
DICTIONARY
  5
24E25
330
2366
100
AcDbDictionary
280
     1
281
     1
  3
ADSK_XREC_LAYER_RECONCILED
360
24E26
  0
DICTIONARY
  5
2D98
330
1F
100
AcDbDictionary
280
     1
281
     1
  3
ACAD_SORTENTS
360
2D99
  0
DICTIONARY
  5
29CF
330
341
100
AcDbDictionary
280
     1
281
     1
  3
ACAD_SORTENTS
360
29D1
  0
DICTIONARY
  5
2F2AE
330
2F2A1
100
AcDbDictionary
280
     1
281
     1
  3
ACAD_DIMASSOC
360
2F2B8
  0
DICTIONARY
  5
2F2FE
330
2F2F1
100
AcDbDictionary
280
     1
281
     1
  3
ACAD_DIMASSOC
360
2F308
  0
DICTIONARY
  5
2F42F
330
2F422
100
AcDbDictionary
280
     1
281
     1
  3
ACAD_DIMASSOC
360
2F439
  0
DICTIONARY
  5
2F447
330
2F43A
100
AcDbDictionary
280
     1
281
     1
  3
ACAD_DIMASSOC
360
2F451
  0
XRECORD
  5
2F4EC
102
{ACAD_REACTORS
330
C
102
}
330
C
100
AcDbXrecord
280
     1
300
ACDLT
300
2021
300

  0
DICTIONARY
  5
2776
102
{ACAD_REACTORS
330
C
102
}
330
C
100
AcDbDictionary
281
     1
  0
DICTIONARY
  5
2F4DC
102
{ACAD_REACTORS
330
C
102
}
330
C
100
AcDbDictionary
281
     1
  3
Metric50
350
2F4DD
  0
DICTIONARY
  5
D
102
{ACAD_REACTORS
330
C
102
}
330
C
100
AcDbDictionary
281
     1
  3
*A1
350
29F6
  0
DICTIONARY
  5
1A
102
{ACAD_REACTORS
330
C
102
}
330
C
100
AcDbDictionary
281
     1
  3
Model
350
22
  3
ﾚｲｱｳﾄ1
350
51
  3
ﾚｲｱｳﾄ2
350
56
  0
DICTIONARY
  5
2761
102
{ACAD_REACTORS
330
C
102
}
330
C
100
AcDbDictionary
281
     1
  3
ByBlock
350
2763
  3
ByLayer
350
2762
  3
Global
350
2764
  0
DICTIONARY
  5
247F1
102
{ACAD_REACTORS
330
C
102
}
330
C
100
AcDbDictionary
281
     1
  3
Standard
350
247F2
  0
DICTIONARY
  5
17
102
{ACAD_REACTORS
330
C
102
}
330
C
100
AcDbDictionary
281
     1
  3
Standard
350
18
  0
DICTIONARY
  5
19
102
{ACAD_REACTORS
330
C
102
}
330
C
100
AcDbDictionary
281
     1
  3
印刷
350
E74
  0
ACDBDICTIONARYWDFLT
  5
E
102
{ACAD_REACTORS
330
C
102
}
330
C
100
AcDbDictionary
281
     1
  3
Normal
350
F
100
AcDbDictionaryWithDefault
340
F
  0
DICTIONARY
  5
247DF
102
{ACAD_REACTORS
330
C
102
}
330
C
100
AcDbDictionary
281
     1
  3
A0
350
247E0
  3
A1
350
247E1
  3
A2
350
247E2
  3
A3
350
247E3
  3
A4
350
247E4
  3
A5
350
247E5
  3
A6
350
247E6
  3
A7
350
247E7
  3
A8
350
247E8
  3
A9
350
247E9
  3
B0
350
247EA
  3
B1
350
247EB
  3
B2
350
247EC
  3
B3
350
247ED
  3
B4
350
247EE
  3
B5
350
247EF
  3
B6
350
247F0
  0
DICTIONARY
  5
2F4DA
102
{ACAD_REACTORS
330
C
102
}
330
C
100
AcDbDictionary
281
     1
  3
Metric50
350
2F4DB
  0
DICTIONARY
  5
2777
102
{ACAD_REACTORS
330
C
102
}
330
C
100
AcDbDictionary
281
     1
  3
Standard
350
2778
  3
コピー - Standard
350
2688B
  0
DICTIONARY
  5
2765
102
{ACAD_REACTORS
330
C
102
}
330
C
100
AcDbDictionary
281
     1
  3
2dWireframe
350
276B
  3
3D Hidden
350
276D
  3
3dWireframe
350
276C
  3
Basic
350
276A
  3
Brighten
350
2771
  3
ColorChange
350
2775
  3
Conceptual
350
276E
  3
Dim
350
2770
  3
EdgeColorOff
350
247DE
  3
Facepattern
350
2774
  3
Flat
350
2766
  3
FlatWithEdges
350
2767
  3
Gouraud
350
2768
  3
GouraudWithEdges
350
2769
  3
Hidden
350
2F4D4
  3
JitterOff
350
247DC
  3
Linepattern
350
2773
  3
OverhangOff
350
247DD
  3
Realistic
350
276F
  3
Shaded
350
2F4D9
  3
Shaded with edges
350
2F4D8
  3
Shades of Gray
350
2F4D5
  3
Sketchy
350
2F4D6
  3
Thicken
350
2772
  3
Wireframe
350
2F4D3
  3
X-Ray
350
2F4D7
  0
XRECORD
  5
2F519
102
{ACAD_REACTORS
330
C
102
}
330
C
100
AcDbXrecord
280
     1
 90
        1
330
2778
330
2688B
  0
DICTIONARY
  5
5E
102
{ACAD_REACTORS
330
C
102
}
330
C
100
AcDbDictionary
281
     1
  3
CANNOSCALE
350
24E32
  3
CMLEADERSTYLE
350
24E30
  3
CTABLESTYLE
350
2792
  3
CVIEWDETAILSTYLE
350
2F4FA
  3
CVIEWSECTIONSTYLE
350
2F4FB
  3
DIMASSOC
350
5F
  3
HIDETEXT
350
63
  3
LAYEREVAL
350
24E34
  3
LAYERNOTIFY
350
24E35
  3
LIGHTINGUNITS
350
24E33
  3
MSLTSCALE
350
24E31
  0
DICTIONARY
  5
2DF9
102
{ACAD_REACTORS
330
279F
102
}
330
279F
100
AcDbDictionary
281
     1
  0
DICTIONARY
  5
2E2E
102
{ACAD_REACTORS
330
279F
102
}
330
279F
100
AcDbDictionary
281
     1
  0
DICTIONARY
  5
2DF8
102
{ACAD_REACTORS
330
279F
102
}
330
279F
100
AcDbDictionary
281
     1
1001
ACAD
1000
<All
  0
XRECORD
  5
24E14
102
{ACAD_REACTORS
330
24E13
102
}
330
24E13
100
AcDbXrecord
280
     1
290
     1
  0
XRECORD
  5
24E16
102
{ACAD_REACTORS
330
24E15
102
}
330
24E15
100
AcDbXrecord
280
     1
290
     1
  0
XRECORD
  5
24E18
102
{ACAD_REACTORS
330
24E17
102
}
330
24E17
100
AcDbXrecord
280
     1
290
     1
  0
XRECORD
  5
24E1A
102
{ACAD_REACTORS
330
24E19
102
}
330
24E19
100
AcDbXrecord
280
     1
290
     1
  0
XRECORD
  5
24E1C
102
{ACAD_REACTORS
330
24E1B
102
}
330
24E1B
100
AcDbXrecord
280
     1
290
     1
  0
XRECORD
  5
24E1E
102
{ACAD_REACTORS
330
24E1D
102
}
330
24E1D
100
AcDbXrecord
280
     1
290
     1
  0
XRECORD
  5
24E20
102
{ACAD_REACTORS
330
24E1F
102
}
330
24E1F
100
AcDbXrecord
280
     1
290
     1
  0
XRECORD
  5
24E22
102
{ACAD_REACTORS
330
24E21
102
}
330
24E21
100
AcDbXrecord
280
     1
290
     1
  0
XRECORD
  5
24E24
102
{ACAD_REACTORS
330
24E23
102
}
330
24E23
100
AcDbXrecord
280
     1
290
     1
  0
XRECORD
  5
24E26
102
{ACAD_REACTORS
330
24E25
102
}
330
24E25
100
AcDbXrecord
280
     1
290
     1
  0
SORTENTSTABLE
  5
2D99
102
{ACAD_REACTORS
330
2D98
102
}
330
2D98
100
AcDbSortentsTable
330
1F
331
108D
  5
29563
331
108F
  5
29564
331
1090
  5
29B3C
331
1581D
  5
29B3D
331
27C66
  5
29B3E
331
27C67
  5
29B3F
331
29A83
  5
29B40
331
29ABB
  5
29B5A
331
29B24
  5
29B75
331
29B27
  5
29B83
331
29B3C
  5
24DBE
331
29B3D
  5
24DB4
331
29B3E
  5
24DC2
331
29B3F
  5
24DBB
331
29B58
  5
29B85
331
29B59
  5
29B84
331
29B5A
  5
29B74
331
29B5B
  5
29B5C
331
29B74
  5
29B59
331
29B75
  5
29B58
331
29B76
  5
29B81
331
29B77
  5
29B76
331
29B81
  5
29B86
331
29B83
  5
29B87
331
29B84
  5
29B88
331
29B85
  5
29B89
331
29B86
  5
29B8A
331
29B87
  5
29B8B
331
29B88
  5
29B8C
331
29B89
  5
29B8D
331
29B8A
  5
29B8E
331
29B8B
  5
29B8F
331
29B8C
  5
29B90
331
29B8D
  5
29B91
331
29B8E
  5
2A35E
331
29B8F
  5
2A35F
331
29B90
  5
2A360
331
29B91
  5
2A361
331
2A351
  5
2A362
331
2A352
  5
2A363
331
2A353
  5
2A364
331
2A354
  5
2A365
331
2A355
  5
2A366
331
2A356
  5
2A367
331
2A357
  5
2A368
331
2A358
  5
2A369
331
2A359
  5
2A36A
331
2A35A
  5
2A36B
331
2A35B
  5
2A36C
331
2A35C
  5
2A36D
331
2A35D
  5
2A36E
331
2A35E
  5
2A36F
331
2A35F
  5
2A370
331
2A360
  5
2A371
331
2A361
  5
2A372
331
2A362
  5
2A373
331
2A363
  5
2A374
331
2A364
  5
2A376
331
2A365
  5
2A377
331
2A366
  5
2A378
331
2A367
  5
2A379
331
2A369
  5
2A37A
331
2A36A
  5
2A37B
331
2A36B
  5
2A37C
331
2A36C
  5
2A37D
331
2A36D
  5
2A37E
331
2A36E
  5
2A37F
331
2A36F
  5
2A380
331
2A370
  5
2A3C7
331
2A371
  5
2A3EC
331
2A372
  5
2A3ED
331
2A373
  5
2A3EE
331
2A374
  5
2A3EF
331
2A375
  5
2A3F0
331
2A376
  5
2A3F1
331
2A377
  5
2A3F2
331
2A378
  5
2A3F3
331
2A379
  5
2A3F4
331
2A37A
  5
2A3F5
331
2A37B
  5
2A3F6
331
2A37C
  5
2A3F7
331
2A37D
  5
2A77A
331
2A37E
  5
2A77B
331
2A37F
  5
2BF7F
331
2A380
  5
2CB94
331
2A77A
  5
2EE3C
331
2A77B
  5
2EE3D
331
2BF6C
  5
2EE3E
331
2CB93
  5
2EE3F
331
2EE3C
  5
2EE40
331
2EE3D
  5
2EE41
331
2EE3E
  5
2EE42
331
2EE3F
  5
2EE43
331
2EE40
  5
2EE44
331
2EE41
  5
2EE45
331
2EE42
  5
2EE46
331
2EE43
  5
2EE47
331
2EE44
  5
2EE48
331
2EE45
  5
2EE49
331
2EE46
  5
2EE4A
331
2EE47
  5
2EE4B
331
2EE48
  5
2EE4C
331
2EE49
  5
2EE4D
331
2EE4A
  5
2EE4E
331
2EE4B
  5
2EE4F
331
2EE4C
  5
2EE50
331
2EE4D
  5
2EE51
331
2EE4E
  5
2EE52
331
2EE4F
  5
2EE53
331
2EE50
  5
2EE54
331
2EE51
  5
2EE55
331
2EE52
  5
2EE56
331
2EE53
  5
2EE57
331
2EE54
  5
2EE58
331
2EE55
  5
2EE59
331
2EE56
  5
2EE5A
331
2EE57
  5
2EE5B
331
2EE58
  5
2EE5C
331
2EE59
  5
2EE5D
331
2EE5A
  5
2EE5E
331
2EE5B
  5
2EE5F
331
2EE5C
  5
2EE60
331
2EE5D
  5
2EE61
331
2EE5E
  5
2EE62
331
2EE5F
  5
2EE63
331
2EE60
  5
2EE64
331
2EE61
  5
2EE65
331
2EE62
  5
2EE66
331
2EE63
  5
2EE67
331
2EE64
  5
2EE68
331
2EE65
  5
2EE69
331
2EE66
  5
2EE6A
331
2EE67
  5
2EE6B
331
2EE68
  5
2EE6C
331
2EE69
  5
2EE6D
331
2EE6A
  5
2EE6E
331
2EE6B
  5
2EE6F
331
2EE6C
  5
2EE70
331
2EE6D
  5
2EE71
331
2EE6E
  5
2EE72
331
2EE6F
  5
2EE73
331
2EE70
  5
2EE74
331
2EE71
  5
2EE75
331
2EE72
  5
2EE76
331
2EE73
  5
2EE77
331
2EE74
  5
2EE78
331
2EE75
  5
2EE79
331
2EE76
  5
2EE7A
331
2EE77
  5
2EE7B
331
2EE78
  5
2EE7C
331
2EE79
  5
2EE7D
331
2EE7A
  5
2EE7E
331
2EE7B
  5
2EE7F
331
2EE7C
  5
2EE80
331
2EE7D
  5
2EE81
331
2EE7E
  5
2EE82
331
2EE7F
  5
2EE83
331
2EE80
  5
2EE84
331
2EE81
  5
2EE85
331
2EE82
  5
2EE86
331
2EE83
  5
2EE87
331
2EE84
  5
2EE88
331
2EE85
  5
2EE89
331
2EE86
  5
2EE8A
331
2EE87
  5
2EE8B
331
2EE88
  5
2EE8C
331
2EE89
  5
2EE8D
331
2EE8A
  5
2EE8E
331
2EE8B
  5
2EE8F
331
2EE8C
  5
2EE90
331
2EE8D
  5
2EE91
331
2EE8E
  5
2EE92
331
2EE8F
  5
2EE93
331
2EE90
  5
2EE94
331
2EE91
  5
2EE95
331
2EE92
  5
2EE96
331
2EE93
  5
2EE97
331
2EE94
  5
2EE98
331
2EE95
  5
2EE99
331
2EE96
  5
2EE9A
331
2EE97
  5
2EE9B
331
2EE98
  5
2EE9C
331
2EE99
  5
2EE9D
331
2EE9A
  5
2EE9E
331
2EE9B
  5
2EE9F
331
2EE9C
  5
2EEA0
331
2EE9D
  5
2EEA1
331
2EE9E
  5
2EEA2
331
2EE9F
  5
2EEA3
331
2EEA0
  5
2EEA4
331
2EEA1
  5
2EEA5
331
2EEA2
  5
2EEA6
331
2EEA3
  5
2EEA7
331
2EEA4
  5
2EEA8
331
2EEA5
  5
2EEA9
331
2EEA6
  5
2EEAA
331
2EEA7
  5
2EEAB
331
2EEA8
  5
2EEAC
331
2EEA9
  5
2EEAD
331
2EEAA
  5
2EEAE
331
2EEAB
  5
2EEAF
331
2EEAC
  5
2EEB0
331
2EEAD
  5
2EEB1
331
2EEAE
  5
2EEB2
331
2EEAF
  5
2EEB3
331
2EEB0
  5
2EEB4
331
2EEB1
  5
2EEB5
331
2EEB2
  5
2EEB6
331
2EEB3
  5
2EEB7
331
2EEB4
  5
2EEB8
331
2EEB5
  5
2EEB9
331
2EEB6
  5
2EEBA
331
2EEB7
  5
2EEBB
331
2EEB8
  5
2EEBC
331
2EEB9
  5
2EEBD
331
2EEBA
  5
2EEBE
331
2EEBB
  5
2EEBF
331
2EEBC
  5
2EEC0
331
2EEBD
  5
2EEC1
331
2EEBE
  5
2EEC2
331
2EEBF
  5
2EEC3
331
2EEC0
  5
2EEC4
331
2EEC1
  5
2EEC5
331
2EEC2
  5
2EEC6
331
2EEC3
  5
2EEC7
331
2EEC4
  5
2EEC8
331
2EEC5
  5
2EEC9
331
2EEC6
  5
2EECA
331
2EEC7
  5
2EECB
331
2EEC8
  5
2EECC
331
2EEC9
  5
2EECD
331
2EECA
  5
2EECE
331
2EECB
  5
2EECF
331
2EECC
  5
2EED0
331
2EECD
  5
2EED1
331
2EECE
  5
2EED2
331
2EECF
  5
2EED3
331
2EED0
  5
2EED4
331
2EED1
  5
2EED5
331
2EED2
  5
2EED6
331
2EED3
  5
2EED7
331
2EED4
  5
2EED8
331
2EED5
  5
2EED9
331
2EED6
  5
2EEDA
331
2EED7
  5
2EEDB
331
2EED8
  5
2EEDC
331
2EED9
  5
2EEDD
331
2EEDA
  5
2EEDE
331
2EEDB
  5
2EEDF
331
2EEDC
  5
2EEE0
331
2EEDD
  5
2EEE1
331
2EEDE
  5
2EEE2
331
2EEDF
  5
2EEE3
331
2EEE0
  5
2EEE4
331
2EEE1
  5
2EEE5
331
2EEE2
  5
2EEE6
331
2EEE3
  5
2EEE7
331
2EEE4
  5
2EEE8
331
2EEE5
  5
2EEE9
331
2EEE6
  5
2EEEA
331
2EEE7
  5
2EEEB
331
2EEE8
  5
2EEEC
331
2EEE9
  5
2EEED
331
2EEEA
  5
2EEEE
331
2EEEB
  5
2EEEF
331
2EEEC
  5
2EEF0
331
2EEED
  5
2EEF1
331
2EEEE
  5
2EEF2
331
2EEEF
  5
2EEF3
331
2EEF0
  5
2EEF4
331
2EEF1
  5
2EEF5
331
2EEF2
  5
2EEF6
331
2EEF3
  5
2EEF7
331
2EEF4
  5
2EEF8
331
2EEF5
  5
2EEF9
331
2EEF6
  5
2EEFA
331
2EEF7
  5
2EEFB
331
2EEF8
  5
2EEFC
331
2EEF9
  5
2EEFD
331
2EEFA
  5
2EEFE
331
2EEFB
  5
2EEFF
331
2EEFC
  5
2EF00
331
2EEFD
  5
2EF01
331
2EEFE
  5
2EF02
331
2EEFF
  5
2EF03
331
2EF00
  5
2EF04
331
2EF01
  5
2EF05
331
2EF02
  5
2EF06
331
2EF03
  5
2EF07
331
2EF04
  5
2EF08
331
2EF05
  5
2EF09
331
2EF06
  5
2EF0A
331
2EF07
  5
2EF0B
331
2EF08
  5
2EF0C
331
2EF09
  5
2EF0D
331
2EF0A
  5
2EF0E
331
2EF0B
  5
2EF0F
331
2EF0C
  5
2EF10
331
2EF0D
  5
2EF11
331
2EF0E
  5
2EF12
331
2EF0F
  5
2EF13
331
2EF10
  5
2EF14
331
2EF11
  5
2EF15
331
2EF12
  5
2EF16
331
2EF13
  5
2EF17
331
2EF14
  5
2EF18
331
2EF15
  5
2EF19
331
2EF16
  5
2EF1A
331
2EF17
  5
2EF1B
331
2EF18
  5
2EF1C
331
2EF19
  5
2EF1D
331
2EF1A
  5
2EF1E
331
2EF1B
  5
2EF1F
331
2EF1C
  5
2EF20
331
2EF1D
  5
2EF21
331
2EF1E
  5
2EF22
331
2EF1F
  5
2EF23
331
2EF20
  5
2EF24
331
2EF21
  5
2EF25
331
2EF22
  5
2EF26
331
2EF23
  5
2EF27
331
2EF24
  5
2EF28
331
2EF25
  5
2EF29
331
2EF26
  5
2EF2A
331
2EF27
  5
2EF2B
331
2EF28
  5
2EF2C
331
2EF29
  5
2EF2D
331
2EF2A
  5
2EF2E
331
2EF2B
  5
2EF2F
331
2EF2C
  5
2EF30
331
2EF2D
  5
2EF31
331
2EF2E
  5
2EF32
331
2EF2F
  5
2EF33
331
2EF30
  5
2EF34
331
2EF31
  5
2EF35
331
2EF32
  5
2EF36
331
2EF33
  5
2EF37
331
2EF34
  5
2EF38
331
2EF35
  5
2EF39
331
2EF36
  5
2EF3A
331
2EF37
  5
2EF3B
331
2EF38
  5
2EF3C
331
2EF39
  5
2EF3D
331
2EF3A
  5
2EF3E
331
2EF3B
  5
2EF3F
331
2EF3C
  5
2EF40
331
2EF3D
  5
2EF41
331
2EF3E
  5
2EF42
331
2EF3F
  5
2EF43
331
2EF40
  5
2EF44
331
2EF41
  5
2EF45
331
2EF42
  5
2EF46
331
2EF43
  5
2EF47
331
2EF44
  5
2EF48
331
2EF45
  5
2EF49
331
2EF46
  5
2EF4A
331
2EF47
  5
2EF4B
331
2EF48
  5
2EF4C
331
2EF49
  5
2EF4D
331
2EF4A
  5
2EF4E
331
2EF4B
  5
2EF4F
331
2EF4C
  5
2EF50
331
2EF4D
  5
2EF51
331
2EF4E
  5
2EF52
331
2EF4F
  5
2EF53
331
2EF50
  5
2EF54
331
2EF51
  5
2EF55
331
2EF52
  5
2EF56
331
2EF53
  5
2EF57
331
2EF54
  5
2EF58
331
2EF55
  5
2EF59
331
2EF56
  5
2EF5A
331
2EF57
  5
2EF5B
331
2EF58
  5
2EF5C
331
2EF59
  5
2EF5D
331
2EF5A
  5
2EF5E
331
2EF5B
  5
2EF5F
331
2EF5C
  5
2EF60
331
2EF5D
  5
2EF61
331
2EF5E
  5
2EF62
331
2EF5F
  5
2EF63
331
2EF60
  5
2EF64
331
2EF61
  5
2EF65
331
2EF62
  5
2EF66
331
2EF63
  5
2EF67
331
2EF64
  5
2EF68
331
2EF65
  5
2EF69
331
2EF66
  5
2EF6A
331
2EF67
  5
2EF6B
331
2EF68
  5
2EF6C
331
2EF69
  5
2EF6D
331
2EF6A
  5
2EF6E
331
2EF6B
  5
2EF6F
331
2EF6C
  5
2EF70
331
2EF6D
  5
2EF71
331
2EF6E
  5
2EF72
331
2EF6F
  5
2EF73
331
2EF70
  5
2EF74
331
2EF71
  5
2EF75
331
2EF72
  5
2EF76
331
2EF73
  5
2EF77
331
2EF74
  5
2EF78
331
2EF75
  5
2EF79
331
2EF76
  5
2EF7A
331
2EF77
  5
2EF7B
331
2EF78
  5
2EF7C
331
2EF79
  5
2EF7D
331
2EF7A
  5
2EF7E
331
2EF7B
  5
2EF7F
331
2EF7C
  5
2EF80
331
2EF7D
  5
2EF81
331
2EF7E
  5
2EF82
331
2EF7F
  5
2EF83
331
2EF80
  5
2EF84
331
2EF81
  5
2EF85
331
2EF82
  5
2EF86
331
2EF83
  5
2EF87
331
2EF84
  5
2EF88
331
2EF85
  5
2EF89
331
2EF86
  5
2EF8A
331
2EF87
  5
2EF8B
331
2EF88
  5
2EF8C
331
2EF89
  5
2EF8D
331
2EF8A
  5
2EF8E
331
2EF8B
  5
2EF8F
331
2EF8C
  5
2EF90
331
2EF8D
  5
2EF91
331
2EF8E
  5
2EF92
331
2EF8F
  5
2EF93
331
2EF90
  5
2EF94
331
2EF91
  5
2EF95
331
2EF92
  5
2EF96
331
2EF93
  5
2EF97
331
2EF94
  5
2EF98
331
2EF95
  5
2EF99
331
2EF96
  5
2EF9A
331
2EF97
  5
2EF9B
331
2EF98
  5
2EF9C
331
2EF99
  5
2EF9D
331
2EF9A
  5
2EF9E
331
2EF9B
  5
2EF9F
331
2EF9C
  5
2EFA0
331
2EF9D
  5
2EFA1
331
2EF9E
  5
2EFA2
331
2EF9F
  5
2EFA3
331
2EFA0
  5
2EFA4
331
2EFA1
  5
2EFA5
331
2EFA2
  5
2EFA6
331
2EFA3
  5
2EFA7
331
2EFA4
  5
2EFA8
331
2EFA5
  5
2EFA9
331
2EFA6
  5
2EFAA
331
2EFA7
  5
2EFAB
331
2EFA8
  5
2EFAC
331
2EFA9
  5
2EFAD
331
2EFAA
  5
2EFAE
331
2EFAB
  5
2EFAF
331
2EFAC
  5
2EFB0
331
2EFAD
  5
2EFB1
331
2EFAE
  5
2EFB2
331
2EFAF
  5
2EFB3
331
2EFB0
  5
2EFB4
331
2EFB1
  5
2EFB5
331
2EFB2
  5
2EFB6
331
2EFB3
  5
2EFB7
331
2EFB4
  5
2EFB8
331
2EFB5
  5
2EFB9
331
2EFB6
  5
2EFBA
331
2EFB7
  5
2EFBB
331
2EFB8
  5
2EFBC
331
2EFB9
  5
2EFBD
331
2EFBA
  5
2EFBE
331
2EFBB
  5
2EFBF
331
2EFBC
  5
2EFC0
331
2EFBD
  5
2EFC1
331
2EFBE
  5
2EFC2
331
2EFBF
  5
2EFC3
331
2EFC0
  5
2EFC4
331
2EFC1
  5
2EFC5
331
2EFC2
  5
2EFC6
331
2EFC3
  5
2EFC7
331
2EFC4
  5
2EFC8
331
2EFC5
  5
2EFC9
331
2EFC6
  5
2EFCA
331
2EFC7
  5
2EFCB
331
2EFC8
  5
2EFCC
331
2EFC9
  5
2EFCD
331
2EFCA
  5
2EFCE
331
2EFCB
  5
2EFCF
331
2EFCC
  5
2EFD0
331
2EFCD
  5
2EFD1
331
2EFCE
  5
2EFD2
331
2EFCF
  5
2EFD3
331
2EFD0
  5
2EFD4
331
2EFD1
  5
2EFD5
331
2EFD2
  5
2EFD6
331
2EFD3
  5
2EFD7
331
2EFD4
  5
2EFD8
331
2EFD5
  5
2EFD9
331
2EFD6
  5
2EFDA
331
2EFD7
  5
2EFDB
331
2EFD8
  5
2EFDC
331
2EFD9
  5
2EFDD
331
2EFDA
  5
2EFDE
331
2EFDB
  5
2EFDF
331
2EFDC
  5
2EFE0
331
2EFDD
  5
2EFE1
331
2EFDE
  5
2EFE2
331
2EFDF
  5
2EFE3
331
2EFE0
  5
2EFE4
331
2EFE1
  5
2EFE5
331
2EFE2
  5
2EFE6
331
2EFE3
  5
2EFE7
331
2EFE4
  5
2EFE8
331
2EFE5
  5
2EFE9
331
2EFE6
  5
2EFEA
331
2EFE7
  5
2EFEB
331
2EFE8
  5
2EFEC
331
2EFE9
  5
2EFED
331
2EFEA
  5
2EFEE
331
2EFEB
  5
2EFEF
331
2EFEC
  5
2EFF0
331
2EFED
  5
2EFF1
331
2EFEE
  5
2EFF2
331
2EFEF
  5
2EFF3
331
2EFF0
  5
2EFF4
331
2EFF1
  5
2EFF5
331
2EFF2
  5
2EFF6
331
2EFF3
  5
2EFF7
331
2EFF4
  5
2EFF8
331
2EFF5
  5
2EFF9
331
2EFF6
  5
2EFFA
331
2EFF7
  5
2EFFB
331
2EFF8
  5
2EFFC
331
2EFF9
  5
2EFFD
331
2EFFA
  5
2EFFE
331
2EFFB
  5
2EFFF
331
2EFFC
  5
2F000
331
2EFFD
  5
2F001
331
2EFFE
  5
2F002
331
2EFFF
  5
2F003
331
2F000
  5
2F004
331
2F001
  5
2F005
331
2F002
  5
2F006
331
2F003
  5
2F007
331
2F004
  5
2F008
331
2F005
  5
2F009
331
2F006
  5
2F00A
331
2F007
  5
2F00B
331
2F008
  5
2F00C
331
2F009
  5
2F00D
331
2F00A
  5
2F00E
331
2F00B
  5
2F00F
331
2F00C
  5
2F010
331
2F00D
  5
2F011
331
2F00E
  5
2F012
331
2F00F
  5
2F013
331
2F010
  5
2F014
331
2F011
  5
2F015
331
2F012
  5
2F016
331
2F013
  5
2F017
331
2F014
  5
2F018
331
2F015
  5
2F019
331
2F016
  5
2F01A
331
2F017
  5
2F01B
331
2F018
  5
2F01C
331
2F019
  5
2F01D
331
2F01A
  5
2F01E
331
2F01B
  5
2F01F
331
2F01C
  5
2F020
331
2F01D
  5
2F021
331
2F01E
  5
2F022
331
2F01F
  5
2F023
331
2F020
  5
2F024
331
2F021
  5
2F025
331
2F022
  5
2F026
331
2F023
  5
2F027
331
2F024
  5
2F028
331
2F025
  5
2F029
331
2F026
  5
2F02A
331
2F027
  5
2F02B
331
2F028
  5
2F02C
331
2F029
  5
2F02D
331
2F02A
  5
2F02E
331
2F02B
  5
2F02F
331
2F02C
  5
2F030
331
2F02D
  5
2F031
331
2F02E
  5
2F032
331
2F02F
  5
2F033
331
2F030
  5
2F034
331
2F031
  5
2F035
331
2F032
  5
2F036
331
2F033
  5
2F037
331
2F034
  5
2F038
331
2F035
  5
2F039
331
2F036
  5
2F03A
331
2F037
  5
2F03B
331
2F038
  5
2F03C
331
2F039
  5
2F03D
331
2F03A
  5
2F03E
331
2F03B
  5
2F03F
331
2F03C
  5
2F040
331
2F03D
  5
2F041
331
2F03E
  5
2F042
331
2F03F
  5
2F043
331
2F040
  5
2F044
331
2F041
  5
2F045
331
2F042
  5
2F046
331
2F043
  5
2F047
331
2F044
  5
2F048
331
2F045
  5
2F049
331
2F046
  5
2F04A
331
2F047
  5
2F04B
331
2F048
  5
2F04C
331
2F049
  5
2F04D
331
2F04A
  5
2F04E
331
2F04B
  5
2F04F
331
2F04C
  5
2F050
331
2F04D
  5
2F051
331
2F04E
  5
2F052
331
2F04F
  5
2F053
331
2F050
  5
2F054
331
2F051
  5
2F055
331
2F052
  5
2F056
331
2F053
  5
2F057
331
2F054
  5
2F058
331
2F055
  5
2F059
331
2F056
  5
2F05A
331
2F057
  5
2F05B
331
2F058
  5
2F05C
331
2F059
  5
2F05D
331
2F05A
  5
2F05E
331
2F05B
  5
2F05F
331
2F05C
  5
2F060
331
2F05D
  5
2F061
331
2F05E
  5
2F062
331
2F05F
  5
2F063
331
2F060
  5
2F064
331
2F061
  5
2F065
331
2F062
  5
2F066
331
2F063
  5
2F067
331
2F064
  5
2F068
331
2F065
  5
2F069
331
2F066
  5
2F06A
331
2F067
  5
2F06B
331
2F068
  5
2F06C
331
2F069
  5
2F06D
331
2F06A
  5
2F06E
331
2F06B
  5
2F06F
331
2F06C
  5
2F070
331
2F06D
  5
2F071
331
2F06E
  5
2F072
331
2F06F
  5
2F073
331
2F070
  5
2F074
331
2F071
  5
2F075
331
2F072
  5
2F076
331
2F073
  5
2F077
331
2F074
  5
2F078
331
2F075
  5
2F079
331
2F076
  5
2F07A
331
2F077
  5
2F07B
331
2F078
  5
2F07C
331
2F079
  5
2F07D
331
2F07A
  5
2F07E
331
2F07B
  5
2F07F
331
2F07C
  5
2F080
331
2F07D
  5
2F081
331
2F07E
  5
2F082
331
2F07F
  5
2F083
331
2F080
  5
2F084
331
2F081
  5
2F085
331
2F082
  5
2F086
331
2F083
  5
2F087
331
2F084
  5
2F088
331
2F085
  5
2F089
331
2F086
  5
2F08A
331
2F087
  5
2F08B
331
2F088
  5
2F08C
331
2F089
  5
2F08D
331
2F08A
  5
2F08E
331
2F08B
  5
2F08F
331
2F08C
  5
2F090
331
2F08D
  5
2F091
331
2F08E
  5
2F092
331
2F08F
  5
2F093
331
2F090
  5
2F094
331
2F091
  5
2F095
331
2F092
  5
2F096
331
2F093
  5
2F097
331
2F094
  5
2F098
331
2F095
  5
2F099
331
2F096
  5
2F09A
331
2F097
  5
2F09B
331
2F098
  5
2F09C
331
2F099
  5
2F09D
331
2F09A
  5
2F09E
331
2F09B
  5
2F09F
331
2F09C
  5
2F0A0
331
2F09D
  5
2F0A1
331
2F09E
  5
2F0A2
331
2F09F
  5
2F0A3
331
2F0A0
  5
2F0A4
331
2F0A1
  5
2F0A5
331
2F0A2
  5
2F0A6
331
2F0A3
  5
2F0A7
331
2F0A4
  5
2F0A8
331
2F0A5
  5
2F0A9
331
2F0A6
  5
2F0AA
331
2F0A7
  5
2F0AB
331
2F0A8
  5
2F0AC
331
2F0A9
  5
2F0AD
331
2F0AA
  5
2F0AE
331
2F0AB
  5
2F0AF
331
2F0AC
  5
2F0B0
331
2F0AD
  5
2F0B1
331
2F0AE
  5
2F0B2
331
2F0AF
  5
2F0B3
331
2F0B0
  5
2F0B4
331
2F0B1
  5
2F0B5
331
2F0B2
  5
2F0B6
331
2F0B3
  5
2F0B7
331
2F0B4
  5
2F0B8
331
2F0B5
  5
2F0B9
331
2F0B6
  5
2F0BA
331
2F0B7
  5
2F0BB
331
2F0B8
  5
2F0BC
331
2F0B9
  5
2F0BD
331
2F0BA
  5
2F0BE
331
2F0BB
  5
2F0BF
331
2F0BC
  5
2F0C0
331
2F0BD
  5
2F0C1
331
2F0BE
  5
2F0C2
331
2F0BF
  5
2F0C3
331
2F0C0
  5
2F0C4
331
2F0C1
  5
2F0C5
331
2F0C2
  5
2F0C6
331
2F0C3
  5
2F0C7
331
2F0C4
  5
2F0C8
331
2F0C5
  5
2F0C9
331
2F0C6
  5
2F0CA
331
2F0C7
  5
2F0CB
331
2F0C8
  5
2F0CC
331
2F0C9
  5
2F0CD
331
2F0CA
  5
2F0CE
331
2F0CB
  5
2F0CF
331
2F0CC
  5
2F0D0
331
2F0CD
  5
2F0D1
331
2F0CE
  5
2F0D2
331
2F0CF
  5
2F0D3
331
2F0D0
  5
2F0D4
331
2F0D1
  5
2F0D5
331
2F0D2
  5
2F0D6
331
2F0D3
  5
2F0D7
331
2F0D4
  5
2F0D8
331
2F0D5
  5
2F0D9
331
2F0D6
  5
2F0DA
331
2F0D7
  5
2F0DB
331
2F0D8
  5
2F0DC
331
2F0D9
  5
2F0DD
331
2F0DA
  5
2F0DE
331
2F0DB
  5
2F0DF
331
2F0DC
  5
2F0E0
331
2F0DD
  5
2F0E1
331
2F0DE
  5
2F0E2
331
2F0DF
  5
2F0E3
331
2F0E0
  5
2F0E4
331
2F0E1
  5
2F0E5
331
2F0E2
  5
2F0E6
331
2F0E3
  5
2F0E7
331
2F0E4
  5
2F0E8
331
2F0E5
  5
2F0E9
331
2F0E6
  5
2F0EA
331
2F0E7
  5
2F0EB
331
2F0E8
  5
2F0EC
331
2F0E9
  5
2F0ED
331
2F0EA
  5
2F0EE
331
2F0EB
  5
2F0EF
331
2F0EC
  5
2F0F0
331
2F0ED
  5
2F0F1
331
2F0EE
  5
2F0F2
331
2F0EF
  5
2F0F3
331
2F0F0
  5
2F0F4
331
2F0F1
  5
2F0F5
331
2F0F2
  5
2F0F6
331
2F0F3
  5
2F0F7
331
2F0F4
  5
2F0F8
331
2F0F5
  5
2F0F9
331
2F0F6
  5
2F0FA
331
2F0F7
  5
2F0FB
331
2F0F8
  5
2F0FC
331
2F0F9
  5
2F0FD
331
2F0FA
  5
2F0FE
331
2F0FB
  5
2F0FF
331
2F0FC
  5
2F100
331
2F0FD
  5
2F101
331
2F0FE
  5
2F102
331
2F0FF
  5
2F103
331
2F100
  5
2F104
331
2F101
  5
2F111
331
2F102
  5
2F112
331
2F103
  5
2F113
331
2F104
  5
2F114
331
2F111
  5
2F116
331
2F112
  5
2F117
331
2F113
  5
2F118
331
2F114
  5
2F119
331
2F116
  5
2F11A
331
2F117
  5
2F11C
331
2F118
  5
2F11D
331
2F119
  5
2F11E
331
2F11A
  5
2F11F
331
2F11C
  5
2F121
331
2F11D
  5
2F122
331
2F11E
  5
2F123
331
2F11F
  5
2F124
331
2F120
  5
2F125
331
2F121
  5
2F126
331
2F122
  5
2F127
331
2F123
  5
2F128
331
2F124
  5
2F129
331
2F125
  5
2F12A
331
2F126
  5
2F12B
331
2F127
  5
2F12C
331
2F128
  5
2F12F
331
2F129
  5
2F130
331
2F12A
  5
2F131
331
2F12B
  5
2F132
331
2F12C
  5
2F133
331
2F12F
  5
2F134
331
2F130
  5
2F135
331
2F131
  5
2F136
331
2F132
  5
2F137
331
2F133
  5
2F139
331
2F134
  5
2F13A
331
2F135
  5
2F13B
331
2F136
  5
2F13C
331
2F138
  5
2F13D
331
2F139
  5
2F13E
331
2F13A
  5
2F13F
331
2F13B
  5
2F140
331
2F13C
  5
2F141
331
2F13D
  5
2F142
331
2F13E
  5
2F143
331
2F13F
  5
2F144
331
2F140
  5
2F145
331
2F141
  5
2F146
331
2F142
  5
2F147
331
2F143
  5
2F148
331
2F144
  5
2F149
331
2F145
  5
2F14A
331
2F146
  5
2F14B
331
2F147
  5
2F14C
331
2F148
  5
2F14D
331
2F149
  5
2F14E
331
2F14A
  5
2F14F
331
2F14B
  5
2F150
331
2F14C
  5
2F151
331
2F14D
  5
2F152
331
2F14E
  5
2F153
331
2F14F
  5
2F154
331
2F150
  5
2F155
331
2F151
  5
2F156
331
2F152
  5
2F157
331
2F153
  5
2F158
331
2F154
  5
2F159
331
2F155
  5
2F15A
331
2F156
  5
2F15B
331
2F157
  5
2F15C
331
2F158
  5
2F15D
331
2F159
  5
2F15E
331
2F15A
  5
2F15F
331
2F15B
  5
2F160
331
2F15C
  5
2F161
331
2F15D
  5
2F162
331
2F15E
  5
2F163
331
2F15F
  5
2F164
331
2F160
  5
2F165
331
2F161
  5
2F166
331
2F162
  5
2F167
331
2F163
  5
2F168
331
2F164
  5
2F169
331
2F165
  5
2F16B
331
2F166
  5
2F16D
331
2F167
  5
2F16E
331
2F168
  5
2F16F
331
2F169
  5
2F170
331
2F16B
  5
2F171
331
2F16D
  5
2F172
331
2F16E
  5
2F173
331
2F16F
  5
2F174
331
2F170
  5
2F175
331
2F171
  5
2F176
331
2F172
  5
2F177
331
2F173
  5
2F178
331
2F174
  5
2F179
331
2F175
  5
2F17A
331
2F176
  5
2F17B
331
2F177
  5
2F17C
331
2F178
  5
2F17D
331
2F179
  5
2F17E
331
2F17A
  5
2F17F
331
2F17B
  5
2F180
331
2F17C
  5
2F181
331
2F17D
  5
2F182
331
2F17E
  5
2F183
331
2F17F
  5
2F184
331
2F180
  5
2F185
331
2F181
  5
2F186
331
2F182
  5
2F187
331
2F183
  5
2F188
331
2F184
  5
2F189
331
2F185
  5
2F18A
331
2F186
  5
2F18B
331
2F187
  5
2F18C
331
2F188
  5
2F18D
331
2F189
  5
2F18E
331
2F18A
  5
2F193
331
2F18B
  5
2F194
331
2F18C
  5
2F195
331
2F18D
  5
2F196
331
2F18E
  5
2F197
331
2F193
  5
2F198
331
2F194
  5
2F199
331
2F195
  5
2F19A
331
2F196
  5
2F19B
331
2F197
  5
2F19C
331
2F198
  5
2F19D
331
2F199
  5
2F19E
331
2F19A
  5
2F19F
331
2F19B
  5
2F1A0
331
2F19C
  5
2F1A1
331
2F19D
  5
2F1A6
331
2F19E
  5
2F1B0
331
2F19F
  5
2F1B5
331
2F1A0
  5
2F1B6
331
2F1A1
  5
2F1B7
331
2F1A6
  5
2F1B8
331
2F1B3
  5
2F1B9
331
2F1B5
  5
2F1BA
331
2F1B6
  5
2F1BB
331
2F1B7
  5
2F1BC
331
2F1B8
  5
2F1BD
331
2F1B9
  5
2F1BE
331
2F1BA
  5
2F1BF
331
2F1BB
  5
2F1C0
331
2F1BC
  5
2F1C1
331
2F1BD
  5
2F1C2
331
2F1BE
  5
2F1C3
331
2F1BF
  5
2F1C4
331
2F1C0
  5
2F1C5
331
2F1C1
  5
2F1C6
331
2F1C2
  5
2F1C7
331
2F1C3
  5
2F1C8
331
2F1C4
  5
2F1C9
331
2F1C5
  5
2F1CA
331
2F1C6
  5
2F1CB
331
2F1C7
  5
2F1CC
331
2F1C8
  5
2F1CD
331
2F1C9
  5
2F1CE
331
2F1CA
  5
2F1CF
331
2F1CB
  5
2F1D0
331
2F1CC
  5
2F1D1
331
2F1CD
  5
2F1D2
331
2F1CE
  5
2F1D3
331
2F1CF
  5
2F1D4
331
2F1D0
  5
2F1D5
331
2F1D1
  5
2F1D6
331
2F1D2
  5
2F1D7
331
2F1D3
  5
2F1D8
331
2F1D4
  5
2F1D9
331
2F1D5
  5
2F1DA
331
2F1D6
  5
2F1DB
331
2F1D7
  5
2F1DC
331
2F1D8
  5
2F1DD
331
2F1D9
  5
2F1DE
331
2F1DA
  5
2F1DF
331
2F1DB
  5
2F1E0
331
2F1DC
  5
2F1E1
331
2F1DD
  5
2F1E2
331
2F1DE
  5
2F1E3
331
2F1DF
  5
2F1E4
331
2F1E0
  5
2F1E5
331
2F1E1
  5
2F1E6
331
2F1E2
  5
2F1E7
331
2F1E3
  5
2F1E8
331
2F1E4
  5
2F1E9
331
2F1E5
  5
2F1EA
331
2F1E6
  5
2F1EB
331
2F1E7
  5
2F1EC
331
2F1E8
  5
2F1ED
331
2F1E9
  5
2F1EE
331
2F1EA
  5
2F1EF
331
2F1EB
  5
2F1F0
331
2F1EC
  5
2F1F1
331
2F1ED
  5
2F1F2
331
2F1EE
  5
2F1F3
331
2F1EF
  5
2F1F4
331
2F1F0
  5
2F1F5
331
2F1F1
  5
2F1F6
331
2F1F2
  5
2F1F7
331
2F1F3
  5
2F1F8
331
2F1F4
  5
2F1F9
331
2F1F5
  5
2F1FA
331
2F1F6
  5
2F1FB
331
2F1F7
  5
2F1FC
331
2F1F8
  5
2F1FD
331
2F1F9
  5
2F1FE
331
2F1FA
  5
2F1FF
331
2F1FB
  5
2F200
331
2F1FC
  5
2F201
331
2F1FD
  5
2F202
331
2F1FE
  5
2F203
331
2F1FF
  5
2F204
331
2F200
  5
2F205
331
2F201
  5
2F206
331
2F202
  5
2F207
331
2F203
  5
2F208
331
2F204
  5
2F209
331
2F205
  5
2F20A
331
2F206
  5
2F20B
331
2F207
  5
2F20C
331
2F208
  5
2F20D
331
2F209
  5
2F20E
331
2F20A
  5
2F20F
331
2F20B
  5
2F210
331
2F20C
  5
2F211
331
2F20D
  5
2F212
331
2F20E
  5
2F213
331
2F20F
  5
2F214
331
2F210
  5
2F216
331
2F211
  5
2F217
331
2F212
  5
2F219
331
2F213
  5
2F21A
331
2F214
  5
2F21B
331
2F216
  5
2F21C
331
2F217
  5
2F21D
331
2F219
  5
2F21E
331
2F21A
  5
2F21F
331
2F21B
  5
2F220
331
2F21C
  5
2F221
331
2F21D
  5
2F223
331
2F21E
  5
2F225
331
2F21F
  5
2F226
331
2F220
  5
2F22A
331
2F221
  5
2F22B
331
2F223
  5
2F22C
331
2F225
  5
2F22D
331
2F229
  5
2F22E
331
2F22A
  5
2F22F
331
2F22B
  5
2F230
331
2F22C
  5
2F231
331
2F22D
  5
2F232
331
2F22E
  5
2F233
331
2F22F
  5
2F234
331
2F230
  5
2F235
331
2F231
  5
2F236
331
2F232
  5
2F237
331
2F233
  5
2F238
331
2F234
  5
2F282
331
2F235
  5
2F2B9
331
2F236
  5
2F2F1
331
2F237
  5
2F422
331
2F238
  5
2F43A
331
2F2A1
  5
2F467
331
2F2F1
  5
2F468
331
2F422
  5
2F4AE
331
2F43A
  5
2F4C7
331
2F467
  5
2F4C8
331
2F468
  5
2F4C9
331
2F4AE
  5
2F4CA
331
2F4C7
  5
24DBD
331
2F4C8
  5
108F
331
2F4C9
  5
24DC1
331
2F4CA
  5
24DB9
  0
SORTENTSTABLE
  5
29D1
102
{ACAD_REACTORS
330
29CF
102
}
330
29CF
100
AcDbSortentsTable
330
341
  0
DIMASSOC
  5
2F2B8
102
{ACAD_REACTORS
330
2F2AE
102
}
330
2F2AE
100
AcDbDimAssoc
330
2F2A1
 90
        3
 70
     0
 71
     0
  1
AcDbOsnapPointRef
 72
     1
331
2F11F
 73
     2
 91
        0
 40
1.0
 10
0.0
 20
0.0
 30
2.000000000000000E+50
 75
     0
  1
AcDbOsnapPointRef
 72
    13
331
2F188
 73
     2
 91
        0
 40
0.0
 10
0.0
 20
0.0
 30
2.000000000000000E+50
 75
     0
  0
DIMASSOC
  5
2F308
102
{ACAD_REACTORS
330
2F2FE
102
}
330
2F2FE
100
AcDbDimAssoc
330
2F2F1
 90
        3
 70
     0
 71
     0
  1
AcDbOsnapPointRef
 72
     1
331
2F208
 73
     2
 91
        0
 40
1.0
 10
0.0
 20
0.0
 30
2.000000000000000E+50
 75
     0
  1
AcDbOsnapPointRef
 72
     8
331
2F203
 73
     2
 91
        0
 40
0.0
 10
0.0
 20
0.0
 30
0.0
 75
     1
  1
AcDbOsnapPointRef
 72
     1
331
2F208
 73
     2
 91
        0
 40
1.0
 10
0.0
 20
0.0
 30
2.000000000000000E+50
 75
     0
  0
DIMASSOC
  5
2F439
102
{ACAD_REACTORS
330
2F42F
102
}
330
2F42F
100
AcDbDimAssoc
330
2F422
 90
        3
 70
     0
 71
     0
  1
AcDbOsnapPointRef
 72
     1
331
2F11F
 73
     2
 91
        0
 40
1.0
 10
0.0
 20
0.0
 30
2.000000000000000E+50
 75
     0
  1
AcDbOsnapPointRef
 72
     1
331
2F12B
 73
     2
 91
        0
 40
1.0
 10
0.0
 20
0.0
 30
2.000000000000000E+50
 75
     0
  0
DIMASSOC
  5
2F451
102
{ACAD_REACTORS
330
2F447
102
}
330
2F447
100
AcDbDimAssoc
330
2F43A
 90
        3
 70
     0
 71
     0
  1
AcDbOsnapPointRef
 72
    13
331
2F121
 73
     2
 91
        0
 40
0.0
 10
0.0
 20
0.0
 30
2.000000000000000E+50
 75
     0
  1
AcDbOsnapPointRef
 72
     1
331
2F130
 73
     2
 91
        0
 40
1.0
 10
0.0
 20
0.0
 30
2.000000000000000E+50
 75
     0
  0
ACDBDETAILVIEWSTYLE
  5
2F4DD
102
{ACAD_REACTORS
330
2F4DC
102
}
330
2F4DC
100
AcDbModelDocViewStyle
 70
     0
  3
Metric50
290
     0
300
Metric50
 90
        0
100
AcDbDetailViewStyle
 70
     0
 71
     0
 90
        3
 71
     1
340
11
 62
   256
 40
5.0
340
0
 62
   256
 40
5.0
300

 40
0.0
280
     1
 71
     2
340
16
 90
       25
 62
   256
 71
     3
340
11
 62
   256
 40
5.0
 90
        0
 40
15.0
 90
        1
300
%<\AcVar ViewDetailId>% (%<\AcVar ViewScale \f "%sn">%)
 71
     4
340
16
 90
       25
 62
   256
340
16
 90
       25
 62
   256
280
     0
  0
GROUP
  5
29F6
102
{ACAD_REACTORS
330
D
102
}
330
D
100
AcDbGroup
300

 70
     1
 71
     1
340
29CE
340
29CD
340
29CC
340
29CB
340
29CA
340
29C9
340
29C8
340
29C7
340
29C6
340
29C5
340
29C4
340
29C3
340
29C2
340
29C1
340
29C0
340
29BF
340
29BE
340
29BD
340
29BC
340
29BB
340
29BA
340
29B9
340
29B8
340
29B7
  0
LAYOUT
  5
22
102
{ACAD_XDICTIONARY
360
24E2E
102
}
102
{ACAD_REACTORS
330
1A
102
}
330
1A
100
AcDbPlotSettings
  1

  2
Canon TS8130 series
  4
A4
  6

 40
4.180416584014891
 41
5.831417560577392
 42
4.180404663085936
 43
3.757080078125
 44
209.9733276367186
 45
296.9683227539062
 46
-0.0062006872036022
 47
1.756521382387688
 48
4.0
 49
2.0
140
82.0
141
57.4
142
1.0
143
1.374
 70
  3748
 72
     1
 73
     1
 74
     1
  7
monochrome.ctb
 75
     0
147
0.7277572728131228
 76
     1
 77
     2
 78
   300
148
-19.98230080583869
149
-9.983689057621743
100
AcDbLayout
  1
Model
 70
     1
 71
     0
 10
0.0
 20
0.0
 11
12.0
 21
9.0
 12
0.0
 22
0.0
 32
0.0
 14
0.0
 24
0.0
 34
0.0
 15
0.0
 25
0.0
 35
0.0
146
0.0
 13
0.0
 23
0.0
 33
0.0
 16
1.0
 26
0.0
 36
0.0
 17
0.0
 27
1.0
 37
0.0
 76
     0
330
1F
331
275F
1001
ACAD_PSEXT
1000
Canon TS8130 series
1000
Canon TS8130 series
1000
USB001
1000

1070
     0
  0
LAYOUT
  5
51
102
{ACAD_XDICTIONARY
360
2E30
102
}
102
{ACAD_REACTORS
330
1A
102
}
330
1A
100
AcDbPlotSettings
  1

  2
\\KASHIKEI2\EPSON PX-1001
  4
A3
  6

 40
3.757083415985106
 41
3.757076740264892
 42
3.757080078125
 43
3.757080078125
 44
296.9683227539062
 45
420.0172119140622
 46
0.0
 47
0.0
 48
0.0
 49
0.0
140
0.0
141
0.0
142
1.0
143
1.0
 70
   672
 72
     1
 73
     1
 74
     5
  7
monochrome.ctb
 75
    16
147
1.0
 76
     1
 77
     2
 78
   300
148
0.0
149
0.0
100
AcDbLayout
  1
ﾚｲｱｳﾄ1
 70
     1
 71
     1
 10
-3.757080078125
 20
-3.757083415985106
 11
416.2601318359373
 21
293.2112393379211
 12
0.0
 22
0.0
 32
0.0
 14
-58.82240024691737
 24
-86.72323328256494
 34
0.0
 15
448.1718497119468
 25
324.5569721112054
 35
0.0
146
0.0
 13
0.0
 23
0.0
 33
0.0
 16
1.0
 26
0.0
 36
0.0
 17
0.0
 27
1.0
 37
0.0
 76
     0
330
50
331
6B
1001
ACAD_PSEXT
1000
\\KASHIKEI2\EPSON PX-1001
1000
EPSON PX-1001
1000
\\KASHIKEI2
1000

1070
     0
  0
LAYOUT
  5
56
102
{ACAD_REACTORS
330
1A
102
}
330
1A
100
AcDbPlotSettings
  1

  2
none_device
  4
Letter_(8.50_x_11.00_Inches)
  6

 40
6.349999904632567
 41
6.349999904632567
 42
6.350006103515625
 43
6.350006103515625
 44
215.8999938964843
 45
279.3999938964843
 46
0.0
 47
0.0
 48
0.0
 49
0.0
140
0.0
141
0.0
142
1.0
143
1.0
 70
   688
 72
     1
 73
     1
 74
     5
  7
monochrome.ctb
 75
    16
147
1.0
 76
     0
 77
     2
 78
   300
148
0.0
149
0.0
100
AcDbLayout
  1
ﾚｲｱｳﾄ2
 70
     1
 71
     2
 10
-6.350006103515625
 20
-6.349999904632567
 11
273.0499877929687
 21
209.5499939918517
 12
0.0
 22
0.0
 32
0.0
 14
26.66076962115562
 24
20.31135699206657
 34
-0.0015258207003583
 15
240.039213369355
 25
182.8886381005154
 35
0.0000000349246037
146
0.0
 13
0.0
 23
0.0
 33
0.0
 16
1.0
 26
0.0
 36
0.0
 17
0.0
 27
1.0
 37
0.0
 76
     0
330
55
331
71
  0
MATERIAL
  5
2763
102
{ACAD_REACTORS
330
2761
102
}
330
2761
100
AcDbMaterial
  1
ByBlock
 73
     1
 78
     1
172
     1
176
     1
270
     1
274
     1
 94
       63
  0
MATERIAL
  5
2762
102
{ACAD_REACTORS
330
2761
102
}
330
2761
100
AcDbMaterial
  1
ByLayer
 73
     1
 78
     1
172
     1
176
     1
270
     1
274
     1
 94
       63
  0
MATERIAL
  5
2764
102
{ACAD_REACTORS
330
2761
102
}
330
2761
100
AcDbMaterial
  1
Global
 73
     1
 78
     1
172
     1
176
     1
270
     1
274
     1
 94
       63
  0
MLEADERSTYLE
  5
247F2
102
{ACAD_REACTORS
330
247F1
102
}
330
247F1
100
AcDbMLeaderStyle
179
     2
170
     2
171
     1
172
     0
 90
        2
 40
0.0
 41
0.0
173
     1
 91
-1056964608
340
14
 92
       -2
290
     1
 42
2.0
291
     1
 43
0.36
  3
Standard
 44
4.0
300

342
11
174
     1
178
     6
175
     1
176
     0
 93
-1056964608
 45
4.0
292
     0
297
     0
 46
4.0
 94
-1056964608
 47
1.0
 49
1.0
140
1.0
293
     1
141
0.0
294
     1
177
     0
142
1.0
295
     0
296
     0
143
0.125
271
     0
272
     9
273
     9
298
     0
  0
MLINESTYLE
  5
18
102
{ACAD_REACTORS
330
17
102
}
330
17
100
AcDbMlineStyle
  2
STANDARD
 70
     0
  3

 62
   256
 51
90.0
 52
90.0
 71
     2
 49
0.5
 62
   256
  6
BYLAYER
 49
-0.5
 62
   256
  6
BYLAYER
  0
PLOTSETTINGS
  5
E74
102
{ACAD_REACTORS
330
19
102
}
330
19
100
AcDbPlotSettings
  1
印刷
  2
EPSON PM-930C.pc3
  4
A4
  6

 40
3.757083177566528
 41
14.7637300491333
 42
3.757080078125
 43
3.757080078125
 44
209.9733276367186
 45
296.9683227539062
 46
-3.77
 47
-9.279999999999999
 48
0.0
 49
0.0
140
0.0
141
0.0
142
1.0
143
1.0
 70
  1716
 72
     1
 73
     0
 74
     2
  7
黒.ctb
 75
    16
147
1.0
 76
     0
 77
     2
 78
   300
148
0.0
149
0.0
  0
ACDBPLACEHOLDER
  5
F
102
{ACAD_REACTORS
330
E
102
}
330
E
  0
SCALE
  5
247E0
102
{ACAD_REACTORS
330
247DF
102
}
330
247DF
100
AcDbScale
 70
     0
300
1:1
140
1.0
141
1.0
290
     1
  0
SCALE
  5
247E1
102
{ACAD_REACTORS
330
247DF
102
}
330
247DF
100
AcDbScale
 70
     0
300
1:2
140
1.0
141
2.0
290
     0
  0
SCALE
  5
247E2
102
{ACAD_REACTORS
330
247DF
102
}
330
247DF
100
AcDbScale
 70
     0
300
1:4
140
1.0
141
4.0
290
     0
  0
SCALE
  5
247E3
102
{ACAD_REACTORS
330
247DF
102
}
330
247DF
100
AcDbScale
 70
     0
300
1:5
140
1.0
141
5.0
290
     0
  0
SCALE
  5
247E4
102
{ACAD_REACTORS
330
247DF
102
}
330
247DF
100
AcDbScale
 70
     0
300
1:8
140
1.0
141
8.0
290
     0
  0
SCALE
  5
247E5
102
{ACAD_REACTORS
330
247DF
102
}
330
247DF
100
AcDbScale
 70
     0
300
1:10
140
1.0
141
10.0
290
     0
  0
SCALE
  5
247E6
102
{ACAD_REACTORS
330
247DF
102
}
330
247DF
100
AcDbScale
 70
     0
300
1:16
140
1.0
141
16.0
290
     0
  0
SCALE
  5
247E7
102
{ACAD_REACTORS
330
247DF
102
}
330
247DF
100
AcDbScale
 70
     0
300
1:20
140
1.0
141
20.0
290
     0
  0
SCALE
  5
247E8
102
{ACAD_REACTORS
330
247DF
102
}
330
247DF
100
AcDbScale
 70
     0
300
1:30
140
1.0
141
30.0
290
     0
  0
SCALE
  5
247E9
102
{ACAD_REACTORS
330
247DF
102
}
330
247DF
100
AcDbScale
 70
     0
300
1:40
140
1.0
141
40.0
290
     0
  0
SCALE
  5
247EA
102
{ACAD_REACTORS
330
247DF
102
}
330
247DF
100
AcDbScale
 70
     0
300
1:50
140
1.0
141
50.0
290
     0
  0
SCALE
  5
247EB
102
{ACAD_REACTORS
330
247DF
102
}
330
247DF
100
AcDbScale
 70
     0
300
1:100
140
1.0
141
100.0
290
     0
  0
SCALE
  5
247EC
102
{ACAD_REACTORS
330
247DF
102
}
330
247DF
100
AcDbScale
 70
     0
300
2:1
140
2.0
141
1.0
290
     0
  0
SCALE
  5
247ED
102
{ACAD_REACTORS
330
247DF
102
}
330
247DF
100
AcDbScale
 70
     0
300
4:1
140
4.0
141
1.0
290
     0
  0
SCALE
  5
247EE
102
{ACAD_REACTORS
330
247DF
102
}
330
247DF
100
AcDbScale
 70
     0
300
8:1
140
8.0
141
1.0
290
     0
  0
SCALE
  5
247EF
102
{ACAD_REACTORS
330
247DF
102
}
330
247DF
100
AcDbScale
 70
     0
300
10:1
140
10.0
141
1.0
290
     0
  0
SCALE
  5
247F0
102
{ACAD_REACTORS
330
247DF
102
}
330
247DF
100
AcDbScale
 70
     0
300
100:1
140
100.0
141
1.0
290
     0
  0
ACDBSECTIONVIEWSTYLE
  5
2F4DB
102
{ACAD_REACTORS
330
2F4DA
102
}
330
2F4DA
100
AcDbModelDocViewStyle
 70
     0
  3
Metric50
290
     0
300
Metric50
 90
        0
100
AcDbSectionViewStyle
 70
     0
 71
     0
 90
      102
 71
     1
340
11
 62
   256
 40
5.0
340
0
340
0
 62
   256
 40
5.0
300
I, O, Q, S, X, Z
 40
10.0
 90
        0
 40
2.5
 90
        0
 71
     2
340
16
 90
       25
 62
   256
340
16
 90
       50
 62
   256
 40
5.0
 40
2.5
 40
5.0
 71
     3
340
11
 62
   256
 40
5.0
 90
        0
 40
15.0
 90
        1
300
%<\AcVar ViewSectionStartId>%-%<\AcVar ViewSectionEndId>% (%<\AcVar ViewScale \f "%sn">%)
 71
     4
 62
   256
 62
   257
300
ANSI31
 40
1.0
 90
        0
290
     0
290
     0
 90
        6
 40
0.0
 40
1.570796326794896
 40
0.2617993877991494
 40
1.308996938995747
 40
-0.2617993877991494
 40
1.832595714594045
  0
TABLESTYLE
  5
2778
102
{ACAD_XDICTIONARY
360
2F4FD
102
}
102
{ACAD_REACTORS
330
2777
102
}
330
2777
100
AcDbTableStyle
280
     0
  3
Standard
 70
     0
 71
     0
 40
1.5
 41
1.5
280
     0
281
     0
  7
Standard
140
4.5
170
     2
 62
     0
 63
     7
283
     0
 90
      512
 91
        0
  1

274
    -2
284
     1
 64
     0
275
    -2
285
     1
 65
     0
276
    -2
286
     1
 66
     0
277
    -2
287
     1
 67
     0
278
    -2
288
     1
 68
     0
279
    -2
289
     1
 69
     0
  7
Standard
140
6.0
170
     5
 62
     0
 63
     7
283
     0
 90
      512
 91
        0
  1

274
    -2
284
     1
 64
     0
275
    -2
285
     1
 65
     0
276
    -2
286
     1
 66
     0
277
    -2
287
     1
 67
     0
278
    -2
288
     1
 68
     0
279
    -2
289
     1
 69
     0
  7
Standard
140
4.5
170
     5
 62
     0
 63
     7
283
     0
 90
      512
 91
        0
  1

274
    -2
284
     1
 64
     0
275
    -2
285
     1
 65
     0
276
    -2
286
     1
 66
     0
277
    -2
287
     1
 67
     0
278
    -2
288
     1
 68
     0
279
    -2
289
     1
 69
     0
  0
TABLESTYLE
  5
2688B
102
{ACAD_XDICTIONARY
360
2F4FF
102
}
102
{ACAD_REACTORS
330
2777
102
}
330
2777
100
AcDbTableStyle
280
     0
  3
Standard
 70
     0
 71
     0
 40
1.5
 41
1.5
280
     0
281
     0
  7
ｽﾀｲﾙ1
140
4.5
170
     2
 62
     2
 63
     7
283
     0
 90
      512
 91
        0
  1

274
    -2
284
     1
 64
     0
275
    -2
285
     1
 65
     0
276
    -2
286
     1
 66
     0
277
    -2
287
     1
 67
     0
278
    -2
288
     1
 68
     0
279
    -2
289
     1
 69
     0
  7
Standard
140
6.0
170
     5
 62
     0
 63
     7
283
     0
 90
      512
 91
        0
  1

274
    -2
284
     1
 64
     0
275
    -2
285
     1
 65
     0
276
    -2
286
     1
 66
     0
277
    -2
287
     1
 67
     0
278
    -2
288
     1
 68
     0
279
    -2
289
     1
 69
     0
  7
ｽﾀｲﾙ1
140
4.5
170
     5
 62
     2
 63
     7
283
     0
 90
      512
 91
        0
  1

274
    -2
284
     1
 64
     0
275
    -2
285
     1
 65
     0
276
    -2
286
     1
 66
     0
277
    -2
287
     1
 67
     0
278
    -2
288
     1
 68
     0
279
    -2
289
     1
 69
     0
  0
VISUALSTYLE
  5
276B
102
{ACAD_REACTORS
330
2765
102
}
330
2765
100
AcDbVisualStyle
  2
2dWireframe
 70
     4
177
     3
291
     0
 70
    58
 90
        0
176
     1
 90
        2
176
     1
 90
        0
176
     1
 90
        0
176
     1
 40
0.6
176
     1
 40
30.0
176
     1
 62
     7
420
 16777215
176
     1
 90
        1
176
     1
 90
        4
176
     1
 62
     7
176
     1
 62
   257
176
     1
 90
        1
176
     1
 90
        1
176
     1
 40
1.0
176
     1
 90
        0
176
     1
 62
   257
176
     1
 40
1.0
176
     1
 90
        1
176
     1
 90
        6
176
     1
 90
        2
176
     1
 62
     7
176
     1
 90
        5
176
     1
 90
        0
176
     1
 90
        0
176
     1
290
     0
176
     1
 90
        1
176
     1
 40
0.0
176
     1
 90
        0
176
     1
290
     1
176
     1
290
     1
176
     1
290
     0
176
     1
290
     0
176
     1
290
     0
176
     1
290
     0
176
     1
290
     0
176
     1
290
     0
176
     1
290
     0
176
     1
 90
       50
176
     1
 40
0.0
176
     1
 40
1.0
176
     1
 90
        0
176
     1
 62
    18
176
     1
 90
       50
176
     1
 90
        3
176
     1
 62
     5
420
      255
176
     1
290
     0
176
     1
 90
       50
176
     1
 90
       50
176
     1
 90
       50
176
     1
290
     0
176
     1
 90
       50
176
     1
 62
   256
176
     0
 40
1.0
176
     0
 90
        2
176
     1
  1
strokes_ogs.tif
176
     1
290
     0
176
     1
 40
1.0
176
     1
 40
1.0
176
     1
  0
VISUALSTYLE
  5
276D
102
{ACAD_REACTORS
330
2765
102
}
330
2765
100
AcDbVisualStyle
  2
3D Hidden
 70
     6
177
     3
291
     0
 70
    58
 90
        1
176
     1
 90
        2
176
     1
 90
        2
176
     1
 90
        0
176
     1
 40
0.6
176
     1
 40
30.0
176
     1
 62
     7
420
 16777215
176
     1
 90
        2
176
     1
 90
        2
176
     1
 62
     7
176
     1
 62
   257
176
     1
 90
        2
176
     1
 90
        1
176
     1
 40
40.0
176
     1
 90
        0
176
     1
 62
   257
176
     1
 40
1.0
176
     1
 90
        1
176
     1
 90
        6
176
     1
 90
        2
176
     1
 62
     7
176
     1
 90
        3
176
     1
 90
        0
176
     1
 90
        0
176
     1
290
     0
176
     1
 90
        1
176
     1
 40
0.0
176
     1
 90
        0
176
     1
290
     0
176
     1
290
     1
176
     1
290
     1
176
     1
290
     0
176
     1
290
     0
176
     1
290
     0
176
     1
290
     0
176
     1
290
     0
176
     1
290
     0
176
     1
 90
       50
176
     1
 40
0.0
176
     1
 40
1.0
176
     1
 90
        0
176
     1
 62
    18
176
     1
 90
       50
176
     1
 90
        3
176
     1
 62
     5
420
      255
176
     1
290
     0
176
     1
 90
       50
176
     1
 90
       50
176
     1
 90
       50
176
     1
290
     0
176
     1
 90
       50
176
     1
 62
   256
176
     0
 40
1.0
176
     0
 90
        2
176
     1
  1
strokes_ogs.tif
176
     1
290
     0
176
     1
 40
1.0
176
     1
 40
1.0
176
     1
  0
VISUALSTYLE
  5
276C
102
{ACAD_REACTORS
330
2765
102
}
330
2765
100
AcDbVisualStyle
  2
3dWireframe
 70
     5
177
     3
291
     0
 70
    58
 90
        0
176
     1
 90
        2
176
     1
 90
        0
176
     1
 90
        0
176
     1
 40
0.6
176
     1
 40
30.0
176
     1
 62
     7
420
 16777215
176
     1
 90
        1
176
     1
 90
        4
176
     1
 62
     7
176
     1
 62
   257
176
     1
 90
        1
176
     1
 90
        1
176
     1
 40
1.0
176
     1
 90
        0
176
     1
 62
   257
176
     1
 40
1.0
176
     1
 90
        1
176
     1
 90
        6
176
     1
 90
        2
176
     1
 62
     7
176
     1
 90
        5
176
     1
 90
        0
176
     1
 90
        0
176
     1
290
     0
176
     1
 90
        1
176
     1
 40
0.0
176
     1
 90
        0
176
     1
290
     0
176
     1
290
     1
176
     1
290
     1
176
     1
290
     0
176
     1
290
     0
176
     1
290
     0
176
     1
290
     0
176
     1
290
     0
176
     1
290
     0
176
     1
 90
       50
176
     1
 40
0.0
176
     1
 40
1.0
176
     1
 90
        0
176
     1
 62
    18
176
     1
 90
       50
176
     1
 90
        3
176
     1
 62
     5
420
      255
176
     1
290
     0
176
     1
 90
       50
176
     1
 90
       50
176
     1
 90
       50
176
     1
290
     0
176
     1
 90
       50
176
     1
 62
   256
176
     0
 40
1.0
176
     0
 90
        2
176
     1
  1
strokes_ogs.tif
176
     1
290
     0
176
     1
 40
1.0
176
     1
 40
1.0
176
     1
  0
VISUALSTYLE
  5
276A
102
{ACAD_REACTORS
330
2765
102
}
330
2765
100
AcDbVisualStyle
  2
Basic
 70
     7
177
     3
291
     1
 70
    58
 90
        1
176
     1
 90
        0
176
     1
 90
        1
176
     1
 90
        0
176
     1
 40
0.6
176
     1
 40
30.0
176
     1
 62
     7
420
 16777215
176
     1
 90
        0
176
     1
 90
        4
176
     1
 62
     7
176
     1
 62
   257
176
     1
 90
        1
176
     1
 90
        1
176
     1
 40
1.0
176
     1
 90
        8
176
     1
 62
     7
176
     1
 40
1.0
176
     1
 90
        1
176
     1
 90
        6
176
     1
 90
        2
176
     1
 62
     7
176
     1
 90
        5
176
     1
 90
        0
176
     1
 90
        0
176
     1
290
     0
176
     1
 90
        1
176
     1
 40
0.0
176
     1
 90
        0
176
     1
290
     0
176
     1
290
     1
176
     1
290
     1
176
     1
290
     0
176
     1
290
     0
176
     1
290
     0
176
     1
290
     0
176
     1
290
     0
176
     1
290
     0
176
     1
 90
       50
176
     1
 40
0.0
176
     1
 40
1.0
176
     1
 90
        0
176
     1
 62
    18
176
     1
 90
       50
176
     1
 90
        3
176
     1
 62
     5
420
      255
176
     1
290
     0
176
     1
 90
       50
176
     1
 90
       50
176
     1
 90
       50
176
     1
290
     0
176
     1
 90
       50
176
     1
 62
   256
176
     0
 40
1.0
176
     0
 90
        2
176
     1
  1
strokes_ogs.tif
176
     1
290
     0
176
     1
 40
1.0
176
     1
 40
1.0
176
     1
  0
VISUALSTYLE
  5
2771
102
{ACAD_REACTORS
330
2765
102
}
330
2765
100
AcDbVisualStyle
  2
Brighten
 70
    12
177
     3
291
     1
 70
    58
 90
        2
176
     1
 90
        2
176
     1
 90
        0
176
     1
 90
        0
176
     1
 40
0.6
176
     1
 40
30.0
176
     1
 62
     7
420
 16777215
176
     1
 90
        1
176
     1
 90
        4
176
     1
 62
     7
176
     1
 62
   257
176
     1
 90
        1
176
     1
 90
        1
176
     1
 40
1.0
176
     1
 90
        8
176
     1
 62
     7
176
     1
 40
1.0
176
     1
 90
        1
176
     1
 90
        6
176
     1
 90
        2
176
     1
 62
     7
176
     1
 90
        5
176
     1
 90
        0
176
     1
 90
        0
176
     1
290
     0
176
     1
 90
        1
176
     1
 40
50.0
176
     1
 90
        0
176
     1
290
     0
176
     1
290
     1
176
     1
290
     1
176
     1
290
     0
176
     1
290
     0
176
     1
290
     0
176
     1
290
     0
176
     1
290
     0
176
     1
290
     0
176
     1
 90
       50
176
     1
 40
0.0
176
     1
 40
1.0
176
     1
 90
        0
176
     1
 62
    18
176
     1
 90
       50
176
     1
 90
        3
176
     1
 62
     5
420
      255
176
     1
290
     0
176
     1
 90
       50
176
     1
 90
       50
176
     1
 90
       50
176
     1
290
     0
176
     1
 90
       50
176
     1
 62
   256
176
     0
 40
1.0
176
     0
 90
        2
176
     1
  1
strokes_ogs.tif
176
     1
290
     0
176
     1
 40
1.0
176
     1
 40
1.0
176
     1
  0
VISUALSTYLE
  5
2775
102
{ACAD_REACTORS
330
2765
102
}
330
2765
100
AcDbVisualStyle
  2
ColorChange
 70
    16
177
     3
291
     1
 70
    58
 90
        2
176
     1
 90
        2
176
     1
 90
        3
176
     1
 90
        0
176
     1
 40
0.6
176
     1
 40
30.0
176
     1
 62
     8
420
  8421504
176
     1
 90
        1
176
     1
 90
        4
176
     1
 62
     7
176
     1
 62
   257
176
     1
 90
        1
176
     1
 90
        1
176
     1
 40
1.0
176
     1
 90
        8
176
     1
 62
     8
420
  8421504
176
     1
 40
1.0
176
     1
 90
        1
176
     1
 90
        6
176
     1
 90
        2
176
     1
 62
     7
176
     1
 90
        5
176
     1
 90
        0
176
     1
 90
        0
176
     1
290
     0
176
     1
 90
        1
176
     1
 40
0.0
176
     1
 90
        0
176
     1
290
     0
176
     1
290
     1
176
     1
290
     1
176
     1
290
     0
176
     1
290
     0
176
     1
290
     0
176
     1
290
     0
176
     1
290
     0
176
     1
290
     0
176
     1
 90
       50
176
     1
 40
0.0
176
     1
 40
1.0
176
     1
 90
        0
176
     1
 62
    18
176
     1
 90
       50
176
     1
 90
        3
176
     1
 62
     5
420
      255
176
     1
290
     0
176
     1
 90
       50
176
     1
 90
       50
176
     1
 90
       50
176
     1
290
     0
176
     1
 90
       50
176
     1
 62
   256
176
     0
 40
1.0
176
     0
 90
        2
176
     1
  1
strokes_ogs.tif
176
     1
290
     0
176
     1
 40
1.0
176
     1
 40
1.0
176
     1
  0
VISUALSTYLE
  5
276E
102
{ACAD_REACTORS
330
2765
102
}
330
2765
100
AcDbVisualStyle
  2
Conceptual
 70
     9
177
     3
291
     0
 70
    58
 90
        3
176
     1
 90
        2
176
     1
 90
        0
176
     1
 90
        0
176
     1
 40
0.6
176
     1
 40
30.0
176
     1
 62
     7
420
 16777215
176
     1
 90
        2
176
     1
 90
        2
176
     1
 62
     7
176
     1
 62
   257
176
     1
 90
        1
176
     1
 90
        1
176
     1
 40
40.0
176
     1
 90
        8
176
     1
 62
     7
176
     1
 40
1.0
176
     1
 90
        1
176
     1
 90
        6
176
     1
 90
        2
176
     1
 62
     7
176
     1
 90
        3
176
     1
 90
        0
176
     1
 90
        0
176
     1
290
     0
176
     1
 90
        1
176
     1
 40
0.0
176
     1
 90
        0
176
     1
290
     0
176
     1
290
     1
176
     1
290
     1
176
     1
290
     0
176
     1
290
     0
176
     1
290
     0
176
     1
290
     0
176
     1
290
     0
176
     1
290
     0
176
     1
 90
       50
176
     1
 40
0.0
176
     1
 40
1.0
176
     1
 90
        0
176
     1
 62
    18
176
     1
 90
       50
176
     1
 90
        3
176
     1
 62
     5
420
      255
176
     1
290
     0
176
     1
 90
       50
176
     1
 90
       50
176
     1
 90
       50
176
     1
290
     0
176
     1
 90
       50
176
     1
 62
   256
176
     0
 40
1.0
176
     0
 90
        2
176
     1
  1
strokes_ogs.tif
176
     1
290
     0
176
     1
 40
1.0
176
     1
 40
1.0
176
     1
  0
VISUALSTYLE
  5
2770
102
{ACAD_REACTORS
330
2765
102
}
330
2765
100
AcDbVisualStyle
  2
Dim
 70
    11
177
     3
291
     1
 70
    58
 90
        2
176
     1
 90
        2
176
     1
 90
        0
176
     1
 90
        0
176
     1
 40
0.6
176
     1
 40
30.0
176
     1
 62
     7
420
 16777215
176
     1
 90
        1
176
     1
 90
        4
176
     1
 62
     7
176
     1
 62
   257
176
     1
 90
        1
176
     1
 90
        1
176
     1
 40
1.0
176
     1
 90
        8
176
     1
 62
     7
176
     1
 40
1.0
176
     1
 90
        1
176
     1
 90
        6
176
     1
 90
        2
176
     1
 62
     7
176
     1
 90
        5
176
     1
 90
        0
176
     1
 90
        0
176
     1
290
     0
176
     1
 90
        1
176
     1
 40
-50.0
176
     1
 90
        0
176
     1
290
     0
176
     1
290
     1
176
     1
290
     1
176
     1
290
     0
176
     1
290
     0
176
     1
290
     0
176
     1
290
     0
176
     1
290
     0
176
     1
290
     0
176
     1
 90
       50
176
     1
 40
0.0
176
     1
 40
1.0
176
     1
 90
        0
176
     1
 62
    18
176
     1
 90
       50
176
     1
 90
        3
176
     1
 62
     5
420
      255
176
     1
290
     0
176
     1
 90
       50
176
     1
 90
       50
176
     1
 90
       50
176
     1
290
     0
176
     1
 90
       50
176
     1
 62
   256
176
     0
 40
1.0
176
     0
 90
        2
176
     1
  1
strokes_ogs.tif
176
     1
290
     0
176
     1
 40
1.0
176
     1
 40
1.0
176
     1
  0
VISUALSTYLE
  5
247DE
102
{ACAD_REACTORS
330
2765
102
}
330
2765
100
AcDbVisualStyle
  2
EdgeColorOff
 70
    22
177
     3
291
     1
 70
    58
 90
        2
176
     0
 90
        2
176
     0
 90
        0
176
     0
 90
        0
176
     0
 40
0.6
176
     0
 40
30.0
176
     0
 62
     7
420
 16777215
176
     0
 90
        1
176
     0
 90
        4
176
     0
 62
     7
176
     0
 62
   257
176
     0
 90
        1
176
     0
 90
        1
176
     0
 40
1.0
176
     0
 90
        8
176
     2
 62
     7
176
     0
 40
1.0
176
     0
 90
        1
176
     0
 90
        6
176
     0
 90
        2
176
     0
 62
     7
176
     0
 90
        5
176
     0
 90
        0
176
     0
 90
        0
176
     0
290
     0
176
     0
 90
        1
176
     0
 40
0.0
176
     0
 90
        0
176
     0
290
     0
176
     1
290
     1
176
     1
290
     1
176
     1
290
     0
176
     1
290
     0
176
     1
290
     0
176
     1
290
     0
176
     1
290
     0
176
     1
290
     0
176
     1
 90
       50
176
     1
 40
0.0
176
     1
 40
1.0
176
     1
 90
        0
176
     1
 62
    18
176
     1
 90
       50
176
     1
 90
        3
176
     1
 62
     5
420
      255
176
     1
290
     0
176
     1
 90
       50
176
     1
 90
       50
176
     1
 90
       50
176
     1
290
     0
176
     1
 90
       50
176
     1
 62
   256
176
     0
 40
1.0
176
     0
 90
        2
176
     1
  1
strokes_ogs.tif
176
     1
290
     0
176
     1
 40
1.0
176
     1
 40
1.0
176
     1
  0
VISUALSTYLE
  5
2774
102
{ACAD_REACTORS
330
2765
102
}
330
2765
100
AcDbVisualStyle
  2
Facepattern
 70
    15
177
     3
291
     1
 70
    58
 90
        2
176
     1
 90
        2
176
     1
 90
        0
176
     1
 90
        0
176
     1
 40
0.6
176
     1
 40
30.0
176
     1
 62
     7
420
 16777215
176
     1
 90
        1
176
     1
 90
        4
176
     1
 62
     7
176
     1
 62
   257
176
     1
 90
        1
176
     1
 90
        1
176
     1
 40
1.0
176
     1
 90
        8
176
     1
 62
     7
176
     1
 40
1.0
176
     1
 90
        1
176
     1
 90
        6
176
     1
 90
        2
176
     1
 62
     7
176
     1
 90
        5
176
     1
 90
        0
176
     1
 90
        0
176
     1
290
     0
176
     1
 90
        1
176
     1
 40
0.0
176
     1
 90
        0
176
     1
290
     0
176
     1
290
     1
176
     1
290
     1
176
     1
290
     0
176
     1
290
     0
176
     1
290
     0
176
     1
290
     0
176
     1
290
     0
176
     1
290
     0
176
     1
 90
       50
176
     1
 40
0.0
176
     1
 40
1.0
176
     1
 90
        0
176
     1
 62
    18
176
     1
 90
       50
176
     1
 90
        3
176
     1
 62
     5
420
      255
176
     1
290
     0
176
     1
 90
       50
176
     1
 90
       50
176
     1
 90
       50
176
     1
290
     0
176
     1
 90
       50
176
     1
 62
   256
176
     0
 40
1.0
176
     0
 90
        2
176
     1
  1
strokes_ogs.tif
176
     1
290
     0
176
     1
 40
1.0
176
     1
 40
1.0
176
     1
  0
VISUALSTYLE
  5
2766
102
{ACAD_REACTORS
330
2765
102
}
330
2765
100
AcDbVisualStyle
  2
Flat
 70
     0
177
     3
291
     1
 70
    58
 90
        2
176
     1
 90
        1
176
     1
 90
        1
176
     1
 90
        2
176
     1
 40
0.6
176
     1
 40
30.0
176
     1
 62
     7
420
 16777215
176
     1
 90
        0
176
     1
 90
        4
176
     1
 62
     7
176
     1
 62
   257
176
     1
 90
        1
176
     1
 90
        1
176
     1
 40
1.0
176
     1
 90
        8
176
     1
 62
     7
176
     1
 40
1.0
176
     1
 90
        1
176
     1
 90
        6
176
     1
 90
        2
176
     1
 62
     7
176
     1
 90
        5
176
     1
 90
        0
176
     1
 90
        0
176
     1
290
     0
176
     1
 90
       13
176
     1
 40
0.0
176
     1
 90
        0
176
     1
290
     0
176
     1
290
     1
176
     1
290
     1
176
     1
290
     0
176
     1
290
     0
176
     1
290
     0
176
     1
290
     0
176
     1
290
     0
176
     1
290
     0
176
     1
 90
       50
176
     1
 40
0.0
176
     1
 40
1.0
176
     1
 90
        0
176
     1
 62
    18
176
     1
 90
       50
176
     1
 90
        3
176
     1
 62
     5
420
      255
176
     1
290
     0
176
     1
 90
       50
176
     1
 90
       50
176
     1
 90
       50
176
     1
290
     0
176
     1
 90
       50
176
     1
 62
   256
176
     0
 40
1.0
176
     0
 90
        2
176
     1
  1
strokes_ogs.tif
176
     1
290
     0
176
     1
 40
1.0
176
     1
 40
1.0
176
     1
  0
VISUALSTYLE
  5
2767
102
{ACAD_REACTORS
330
2765
102
}
330
2765
100
AcDbVisualStyle
  2
FlatWithEdges
 70
     1
177
     3
291
     1
 70
    58
 90
        2
176
     1
 90
        1
176
     1
 90
        1
176
     1
 90
        2
176
     1
 40
0.6
176
     1
 40
30.0
176
     1
 62
     7
420
 16777215
176
     1
 90
        1
176
     1
 90
        4
176
     1
 62
     7
176
     1
 62
   257
176
     1
 90
        1
176
     1
 90
        1
176
     1
 40
1.0
176
     1
 90
        0
176
     1
 62
   257
176
     1
 40
1.0
176
     1
 90
        1
176
     1
 90
        6
176
     1
 90
        2
176
     1
 62
     7
176
     1
 90
        5
176
     1
 90
        0
176
     1
 90
        0
176
     1
290
     0
176
     1
 90
       13
176
     1
 40
0.0
176
     1
 90
        0
176
     1
290
     0
176
     1
290
     1
176
     1
290
     1
176
     1
290
     0
176
     1
290
     0
176
     1
290
     0
176
     1
290
     0
176
     1
290
     0
176
     1
290
     0
176
     1
 90
       50
176
     1
 40
0.0
176
     1
 40
1.0
176
     1
 90
        0
176
     1
 62
    18
176
     1
 90
       50
176
     1
 90
        3
176
     1
 62
     5
420
      255
176
     1
290
     0
176
     1
 90
       50
176
     1
 90
       50
176
     1
 90
       50
176
     1
290
     0
176
     1
 90
       50
176
     1
 62
   256
176
     0
 40
1.0
176
     0
 90
        2
176
     1
  1
strokes_ogs.tif
176
     1
290
     0
176
     1
 40
1.0
176
     1
 40
1.0
176
     1
  0
VISUALSTYLE
  5
2768
102
{ACAD_REACTORS
330
2765
102
}
330
2765
100
AcDbVisualStyle
  2
Gouraud
 70
     2
177
     3
291
     1
 70
    58
 90
        2
176
     1
 90
        2
176
     1
 90
        1
176
     1
 90
        2
176
     1
 40
0.6
176
     1
 40
30.0
176
     1
 62
     7
420
 16777215
176
     1
 90
        0
176
     1
 90
        4
176
     1
 62
     7
176
     1
 62
   257
176
     1
 90
        1
176
     1
 90
        1
176
     1
 40
1.0
176
     1
 90
        0
176
     1
 62
     7
176
     1
 40
1.0
176
     1
 90
        1
176
     1
 90
        6
176
     1
 90
        2
176
     1
 62
     7
176
     1
 90
        5
176
     1
 90
        0
176
     1
 90
        0
176
     1
290
     0
176
     1
 90
       13
176
     1
 40
0.0
176
     1
 90
        0
176
     1
290
     0
176
     1
290
     1
176
     1
290
     1
176
     1
290
     0
176
     1
290
     0
176
     1
290
     0
176
     1
290
     0
176
     1
290
     0
176
     1
290
     0
176
     1
 90
       50
176
     1
 40
0.0
176
     1
 40
1.0
176
     1
 90
        0
176
     1
 62
    18
176
     1
 90
       50
176
     1
 90
        3
176
     1
 62
     5
420
      255
176
     1
290
     0
176
     1
 90
       50
176
     1
 90
       50
176
     1
 90
       50
176
     1
290
     0
176
     1
 90
       50
176
     1
 62
   256
176
     0
 40
1.0
176
     0
 90
        2
176
     1
  1
strokes_ogs.tif
176
     1
290
     0
176
     1
 40
1.0
176
     1
 40
1.0
176
     1
  0
VISUALSTYLE
  5
2769
102
{ACAD_REACTORS
330
2765
102
}
330
2765
100
AcDbVisualStyle
  2
GouraudWithEdges
 70
     3
177
     3
291
     1
 70
    58
 90
        2
176
     1
 90
        2
176
     1
 90
        1
176
     1
 90
        2
176
     1
 40
0.6
176
     1
 40
30.0
176
     1
 62
     7
420
 16777215
176
     1
 90
        1
176
     1
 90
        4
176
     1
 62
     7
176
     1
 62
   257
176
     1
 90
        1
176
     1
 90
        1
176
     1
 40
1.0
176
     1
 90
        0
176
     1
 62
   257
176
     1
 40
1.0
176
     1
 90
        1
176
     1
 90
        6
176
     1
 90
        2
176
     1
 62
     7
176
     1
 90
        5
176
     1
 90
        0
176
     1
 90
        0
176
     1
290
     0
176
     1
 90
       13
176
     1
 40
0.0
176
     1
 90
        0
176
     1
290
     0
176
     1
290
     1
176
     1
290
     1
176
     1
290
     0
176
     1
290
     0
176
     1
290
     0
176
     1
290
     0
176
     1
290
     0
176
     1
290
     0
176
     1
 90
       50
176
     1
 40
0.0
176
     1
 40
1.0
176
     1
 90
        0
176
     1
 62
    18
176
     1
 90
       50
176
     1
 90
        3
176
     1
 62
     5
420
      255
176
     1
290
     0
176
     1
 90
       50
176
     1
 90
       50
176
     1
 90
       50
176
     1
290
     0
176
     1
 90
       50
176
     1
 62
   256
176
     0
 40
1.0
176
     0
 90
        2
176
     1
  1
strokes_ogs.tif
176
     1
290
     0
176
     1
 40
1.0
176
     1
 40
1.0
176
     1
  0
VISUALSTYLE
  5
2F4D4
102
{ACAD_REACTORS
330
2765
102
}
330
2765
100
AcDbVisualStyle
  2
Hidden
 70
     6
177
     3
291
     0
 70
    58
 90
        1
176
     1
 90
        2
176
     1
 90
        2
176
     1
 90
        0
176
     1
 40
0.6
176
     1
 40
30.0
176
     1
 62
     7
420
 16777215
176
     1
 90
        2
176
     1
 90
        2
176
     1
 62
     7
176
     1
 62
   257
176
     1
 90
        2
176
     1
 90
        1
176
     1
 40
40.0
176
     1
 90
        0
176
     1
 62
   257
176
     1
 40
1.0
176
     1
 90
        1
176
     1
 90
        6
176
     1
 90
        2
176
     1
 62
     7
176
     1
 90
        3
176
     1
 90
        0
176
     1
 90
        0
176
     1
290
     0
176
     1
 90
        1
176
     1
 40
0.0
176
     1
 90
        0
176
     1
290
     0
176
     1
290
     1
176
     1
290
     1
176
     1
290
     0
176
     1
290
     0
176
     1
290
     0
176
     1
290
     0
176
     1
290
     0
176
     1
290
     0
176
     1
 90
       50
176
     1
 40
0.0
176
     1
 40
1.0
176
     1
 90
        0
176
     1
 62
    18
176
     1
 90
       50
176
     1
 90
        3
176
     1
 62
     5
420
      255
176
     1
290
     0
176
     1
 90
       50
176
     1
 90
       50
176
     1
 90
       50
176
     1
290
     0
176
     1
 90
       50
176
     1
 62
   256
176
     0
 40
1.0
176
     0
 90
        2
176
     1
  1
strokes_ogs.tif
176
     1
290
     0
176
     1
 40
1.0
176
     1
 40
1.0
176
     1
  0
VISUALSTYLE
  5
247DC
102
{ACAD_REACTORS
330
2765
102
}
330
2765
100
AcDbVisualStyle
  2
JitterOff
 70
    20
177
     3
291
     1
 70
    58
 90
        2
176
     0
 90
        2
176
     0
 90
        0
176
     0
 90
        0
176
     0
 40
0.6
176
     0
 40
30.0
176
     0
 62
     7
420
 16777215
176
     0
 90
        1
176
     0
 90
        4
176
     0
 62
     7
176
     0
 62
   257
176
     0
 90
        1
176
     0
 90
        1
176
     0
 40
1.0
176
     0
 90
       10
176
     2
 62
     7
176
     0
 40
1.0
176
     0
 90
        1
176
     0
 90
        6
176
     0
 90
        2
176
     0
 62
     7
176
     0
 90
        5
176
     0
 90
        0
176
     0
 90
        0
176
     0
290
     0
176
     0
 90
        1
176
     0
 40
0.0
176
     0
 90
        0
176
     0
290
     0
176
     1
290
     1
176
     1
290
     1
176
     1
290
     0
176
     1
290
     0
176
     1
290
     0
176
     1
290
     0
176
     1
290
     0
176
     1
290
     0
176
     1
 90
       50
176
     1
 40
0.0
176
     1
 40
1.0
176
     1
 90
        0
176
     1
 62
    18
176
     1
 90
       50
176
     1
 90
        3
176
     1
 62
     5
420
      255
176
     1
290
     0
176
     1
 90
       50
176
     1
 90
       50
176
     1
 90
       50
176
     1
290
     0
176
     1
 90
       50
176
     1
 62
   256
176
     0
 40
1.0
176
     0
 90
        2
176
     1
  1
strokes_ogs.tif
176
     1
290
     0
176
     1
 40
1.0
176
     1
 40
1.0
176
     1
  0
VISUALSTYLE
  5
2773
102
{ACAD_REACTORS
330
2765
102
}
330
2765
100
AcDbVisualStyle
  2
Linepattern
 70
    14
177
     3
291
     1
 70
    58
 90
        2
176
     1
 90
        2
176
     1
 90
        0
176
     1
 90
        0
176
     1
 40
0.6
176
     1
 40
30.0
176
     1
 62
     7
420
 16777215
176
     1
 90
        1
176
     1
 90
        4
176
     1
 62
     7
176
     1
 62
   257
176
     1
 90
        7
176
     1
 90
        7
176
     1
 40
1.0
176
     1
 90
        8
176
     1
 62
     7
176
     1
 40
1.0
176
     1
 90
        1
176
     1
 90
        6
176
     1
 90
        2
176
     1
 62
     7
176
     1
 90
        5
176
     1
 90
        0
176
     1
 90
        0
176
     1
290
     0
176
     1
 90
        1
176
     1
 40
0.0
176
     1
 90
        0
176
     1
290
     0
176
     1
290
     1
176
     1
290
     1
176
     1
290
     0
176
     1
290
     0
176
     1
290
     0
176
     1
290
     0
176
     1
290
     0
176
     1
290
     0
176
     1
 90
       50
176
     1
 40
0.0
176
     1
 40
1.0
176
     1
 90
        0
176
     1
 62
    18
176
     1
 90
       50
176
     1
 90
        3
176
     1
 62
     5
420
      255
176
     1
290
     0
176
     1
 90
       50
176
     1
 90
       50
176
     1
 90
       50
176
     1
290
     0
176
     1
 90
       50
176
     1
 62
   256
176
     0
 40
1.0
176
     0
 90
        2
176
     1
  1
strokes_ogs.tif
176
     1
290
     0
176
     1
 40
1.0
176
     1
 40
1.0
176
     1
  0
VISUALSTYLE
  5
247DD
102
{ACAD_REACTORS
330
2765
102
}
330
2765
100
AcDbVisualStyle
  2
OverhangOff
 70
    21
177
     3
291
     1
 70
    58
 90
        2
176
     0
 90
        2
176
     0
 90
        0
176
     0
 90
        0
176
     0
 40
0.6
176
     0
 40
30.0
176
     0
 62
     7
420
 16777215
176
     0
 90
        1
176
     0
 90
        4
176
     0
 62
     7
176
     0
 62
   257
176
     0
 90
        1
176
     0
 90
        1
176
     0
 40
1.0
176
     0
 90
        9
176
     2
 62
     7
176
     0
 40
1.0
176
     0
 90
        1
176
     0
 90
        6
176
     0
 90
        2
176
     0
 62
     7
176
     0
 90
        5
176
     0
 90
        0
176
     0
 90
        0
176
     0
290
     0
176
     0
 90
        1
176
     0
 40
0.0
176
     0
 90
        0
176
     0
290
     0
176
     1
290
     1
176
     1
290
     1
176
     1
290
     0
176
     1
290
     0
176
     1
290
     0
176
     1
290
     0
176
     1
290
     0
176
     1
290
     0
176
     1
 90
       50
176
     1
 40
0.0
176
     1
 40
1.0
176
     1
 90
        0
176
     1
 62
    18
176
     1
 90
       50
176
     1
 90
        3
176
     1
 62
     5
420
      255
176
     1
290
     0
176
     1
 90
       50
176
     1
 90
       50
176
     1
 90
       50
176
     1
290
     0
176
     1
 90
       50
176
     1
 62
   256
176
     0
 40
1.0
176
     0
 90
        2
176
     1
  1
strokes_ogs.tif
176
     1
290
     0
176
     1
 40
1.0
176
     1
 40
1.0
176
     1
  0
VISUALSTYLE
  5
276F
102
{ACAD_REACTORS
330
2765
102
}
330
2765
100
AcDbVisualStyle
  2
Realistic
 70
     8
177
     3
291
     0
 70
    58
 90
        2
176
     1
 90
        2
176
     1
 90
        0
176
     1
 90
        0
176
     1
 40
0.6
176
     1
 40
30.0
176
     1
 62
     7
420
 16777215
176
     1
 90
        1
176
     1
 90
        0
176
     1
 62
     7
176
     1
 62
   257
176
     1
 90
        1
176
     1
 90
        1
176
     1
 40
1.0
176
     1
 90
        8
176
     1
 62
     8
420
  7895160
176
     1
 40
1.0
176
     1
 90
        1
176
     1
 90
        6
176
     1
 90
        2
176
     1
 62
     7
176
     1
 90
        5
176
     1
 90
        0
176
     1
 90
        0
176
     1
290
     0
176
     1
 90
       13
176
     1
 40
0.0
176
     1
 90
        0
176
     1
290
     0
176
     1
290
     1
176
     1
290
     1
176
     1
290
     0
176
     1
290
     0
176
     1
290
     0
176
     1
290
     0
176
     1
290
     0
176
     1
290
     0
176
     1
 90
       50
176
     1
 40
0.0
176
     1
 40
1.0
176
     1
 90
        0
176
     1
 62
    18
176
     1
 90
       50
176
     1
 90
        3
176
     1
 62
     5
420
      255
176
     1
290
     0
176
     1
 90
       50
176
     1
 90
       50
176
     1
 90
       50
176
     1
290
     0
176
     1
 90
       50
176
     1
 62
   256
176
     0
 40
1.0
176
     0
 90
        2
176
     1
  1
strokes_ogs.tif
176
     1
290
     0
176
     1
 40
1.0
176
     1
 40
1.0
176
     1
  0
VISUALSTYLE
  5
2F4D9
102
{ACAD_REACTORS
330
2765
102
}
330
2765
100
AcDbVisualStyle
  2
Shaded
 70
    27
177
     3
291
     0
 70
    58
 90
        2
176
     1
 90
        2
176
     1
 90
        1
176
     1
 90
        2
176
     1
 40
0.6
176
     1
 40
30.0
176
     1
 62
     7
420
 16777215
176
     1
 90
        0
176
     1
 90
        4
176
     1
 62
     7
176
     1
 62
   257
176
     1
 90
        1
176
     1
 90
        1
176
     1
 40
1.0
176
     1
 90
        8
176
     1
 62
   257
176
     1
 40
1.0
176
     1
 90
        1
176
     1
 90
        6
176
     1
 90
        2
176
     1
 62
     8
420
  7895160
176
     1
 90
        3
176
     1
 90
        0
176
     1
 90
        0
176
     1
290
     0
176
     1
 90
        5
176
     1
 40
0.0
176
     1
 90
        0
176
     1
290
     0
176
     1
290
     1
176
     1
290
     1
176
     1
290
     0
176
     1
290
     0
176
     1
290
     0
176
     1
290
     0
176
     1
290
     0
176
     1
290
     0
176
     1
 90
       50
176
     1
 40
0.0
176
     1
 40
1.0
176
     1
 90
        0
176
     1
 62
    18
176
     1
 90
       50
176
     1
 90
        3
176
     1
 62
     5
420
      255
176
     1
290
     0
176
     1
 90
       50
176
     1
 90
       50
176
     1
 90
       50
176
     1
290
     0
176
     1
 90
       50
176
     1
 62
   256
176
     0
 40
1.0
176
     0
 90
        2
176
     1
  1
strokes_ogs.tif
176
     1
290
     0
176
     1
 40
1.0
176
     1
 40
1.0
176
     1
  0
VISUALSTYLE
  5
2F4D8
102
{ACAD_REACTORS
330
2765
102
}
330
2765
100
AcDbVisualStyle
  2
Shaded with edges
 70
    26
177
     3
291
     0
 70
    58
 90
        2
176
     1
 90
        2
176
     1
 90
        1
176
     1
 90
        2
176
     1
 40
0.6
176
     1
 40
30.0
176
     1
 62
     7
420
 16777215
176
     1
 90
        1
176
     1
 90
       10
176
     1
 62
     7
176
     1
 62
   257
176
     1
 90
        2
176
     1
 90
        1
176
     1
 40
1.0
176
     1
 90
        8
176
     1
 62
   257
176
     1
 40
1.0
176
     1
 90
        1
176
     1
 90
        6
176
     1
 90
        2
176
     1
 62
     7
176
     1
 90
        3
176
     1
 90
        0
176
     1
 90
        0
176
     1
290
     0
176
     1
 90
        5
176
     1
 40
0.0
176
     1
 90
        0
176
     1
290
     0
176
     1
290
     1
176
     1
290
     1
176
     1
290
     0
176
     1
290
     0
176
     1
290
     0
176
     1
290
     0
176
     1
290
     0
176
     1
290
     0
176
     1
 90
       50
176
     1
 40
0.0
176
     1
 40
1.0
176
     1
 90
        0
176
     1
 62
    18
176
     1
 90
       50
176
     1
 90
        3
176
     1
 62
     5
420
      255
176
     1
290
     0
176
     1
 90
       50
176
     1
 90
       50
176
     1
 90
       50
176
     1
290
     0
176
     1
 90
       50
176
     1
 62
   256
176
     0
 40
1.0
176
     0
 90
        2
176
     1
  1
strokes_ogs.tif
176
     1
290
     0
176
     1
 40
1.0
176
     1
 40
1.0
176
     1
  0
VISUALSTYLE
  5
2F4D5
102
{ACAD_REACTORS
330
2765
102
}
330
2765
100
AcDbVisualStyle
  2
Shades of Gray
 70
    23
177
     3
291
     0
 70
    58
 90
        2
176
     1
 90
        2
176
     1
 90
        3
176
     1
 90
        0
176
     1
 40
0.6
176
     1
 40
30.0
176
     1
 62
     7
420
 16777215
176
     1
 90
        2
176
     1
 90
        2
176
     1
 62
     7
176
     1
 62
     7
176
     1
 90
        1
176
     1
 90
        1
176
     1
 40
40.0
176
     1
 90
        8
176
     1
 62
     7
176
     1
 40
1.0
176
     1
 90
        1
176
     1
 90
        6
176
     1
 90
        2
176
     1
 62
     7
176
     1
 90
        3
176
     1
 90
        0
176
     1
 90
        0
176
     1
290
     0
176
     1
 90
        1
176
     1
 40
0.0
176
     1
 90
        0
176
     1
290
     0
176
     1
290
     1
176
     1
290
     1
176
     1
290
     0
176
     1
290
     0
176
     1
290
     0
176
     1
290
     0
176
     1
290
     0
176
     1
290
     0
176
     1
 90
       50
176
     1
 40
0.0
176
     1
 40
1.0
176
     1
 90
        0
176
     1
 62
    18
176
     1
 90
       50
176
     1
 90
        3
176
     1
 62
     5
420
      255
176
     1
290
     0
176
     1
 90
       50
176
     1
 90
       50
176
     1
 90
       50
176
     1
290
     0
176
     1
 90
       50
176
     1
 62
   256
176
     0
 40
1.0
176
     0
 90
        2
176
     1
  1
strokes_ogs.tif
176
     1
290
     0
176
     1
 40
1.0
176
     1
 40
1.0
176
     1
  0
VISUALSTYLE
  5
2F4D6
102
{ACAD_REACTORS
330
2765
102
}
330
2765
100
AcDbVisualStyle
  2
Sketchy
 70
    24
177
     3
291
     0
 70
    58
 90
        1
176
     1
 90
        2
176
     1
 90
        2
176
     1
 90
        0
176
     1
 40
0.6
176
     1
 40
30.0
176
     1
 62
     7
420
 16777215
176
     1
 90
        2
176
     1
 90
        2
176
     1
 62
     7
176
     1
 62
     7
176
     1
 90
        1
176
     1
 90
        1
176
     1
 40
40.0
176
     1
 90
       11
176
     1
 62
     7
176
     1
 40
1.0
176
     1
 90
        1
176
     1
 90
        6
176
     1
 90
        2
176
     1
 62
     7
176
     1
 90
        6
176
     1
 90
        0
176
     1
 90
        0
176
     1
290
     0
176
     1
 90
        1
176
     1
 40
0.0
176
     1
 90
        0
176
     1
290
     0
176
     1
290
     1
176
     1
290
     1
176
     1
290
     0
176
     1
290
     0
176
     1
290
     0
176
     1
290
     0
176
     1
290
     0
176
     1
290
     0
176
     1
 90
       50
176
     1
 40
0.0
176
     1
 40
1.0
176
     1
 90
        0
176
     1
 62
    18
176
     1
 90
       50
176
     1
 90
        3
176
     1
 62
     5
420
      255
176
     1
290
     0
176
     1
 90
       50
176
     1
 90
       50
176
     1
 90
       50
176
     1
290
     0
176
     1
 90
       50
176
     1
 62
   256
176
     0
 40
1.0
176
     0
 90
        2
176
     1
  1
strokes_ogs.tif
176
     1
290
     0
176
     1
 40
1.0
176
     1
 40
1.0
176
     1
  0
VISUALSTYLE
  5
2772
102
{ACAD_REACTORS
330
2765
102
}
330
2765
100
AcDbVisualStyle
  2
Thicken
 70
    13
177
     3
291
     1
 70
    58
 90
        2
176
     1
 90
        2
176
     1
 90
        0
176
     1
 90
        0
176
     1
 40
0.6
176
     1
 40
30.0
176
     1
 62
     7
420
 16777215
176
     1
 90
        1
176
     1
 90
        4
176
     1
 62
     7
176
     1
 62
   257
176
     1
 90
        1
176
     1
 90
        1
176
     1
 40
1.0
176
     1
 90
       12
176
     1
 62
     7
176
     1
 40
1.0
176
     1
 90
        1
176
     1
 90
        6
176
     1
 90
        2
176
     1
 62
     7
176
     1
 90
        5
176
     1
 90
        0
176
     1
 90
        0
176
     1
290
     0
176
     1
 90
        1
176
     1
 40
0.0
176
     1
 90
        0
176
     1
290
     0
176
     1
290
     1
176
     1
290
     1
176
     1
290
     0
176
     1
290
     0
176
     1
290
     0
176
     1
290
     0
176
     1
290
     0
176
     1
290
     0
176
     1
 90
       50
176
     1
 40
0.0
176
     1
 40
1.0
176
     1
 90
        0
176
     1
 62
    18
176
     1
 90
       50
176
     1
 90
        3
176
     1
 62
     5
420
      255
176
     1
290
     0
176
     1
 90
       50
176
     1
 90
       50
176
     1
 90
       50
176
     1
290
     0
176
     1
 90
       50
176
     1
 62
   256
176
     0
 40
1.0
176
     0
 90
        2
176
     1
  1
strokes_ogs.tif
176
     1
290
     0
176
     1
 40
1.0
176
     1
 40
1.0
176
     1
  0
VISUALSTYLE
  5
2F4D3
102
{ACAD_REACTORS
330
2765
102
}
330
2765
100
AcDbVisualStyle
  2
Wireframe
 70
     5
177
     3
291
     0
 70
    58
 90
        0
176
     1
 90
        2
176
     1
 90
        0
176
     1
 90
        0
176
     1
 40
0.6
176
     1
 40
30.0
176
     1
 62
     7
420
 16777215
176
     1
 90
        1
176
     1
 90
        4
176
     1
 62
     7
176
     1
 62
   257
176
     1
 90
        1
176
     1
 90
        1
176
     1
 40
1.0
176
     1
 90
        0
176
     1
 62
   257
176
     1
 40
1.0
176
     1
 90
        1
176
     1
 90
        6
176
     1
 90
        2
176
     1
 62
     7
176
     1
 90
        3
176
     1
 90
        0
176
     1
 90
        0
176
     1
290
     0
176
     1
 90
        1
176
     1
 40
0.0
176
     1
 90
        0
176
     1
290
     0
176
     1
290
     1
176
     1
290
     1
176
     1
290
     0
176
     1
290
     0
176
     1
290
     0
176
     1
290
     0
176
     1
290
     0
176
     1
290
     0
176
     1
 90
       50
176
     1
 40
0.0
176
     1
 40
1.0
176
     1
 90
        0
176
     1
 62
    18
176
     1
 90
       50
176
     1
 90
        3
176
     1
 62
     5
420
      255
176
     1
290
     0
176
     1
 90
       50
176
     1
 90
       50
176
     1
 90
       50
176
     1
290
     0
176
     1
 90
       50
176
     1
 62
   256
176
     0
 40
1.0
176
     0
 90
        2
176
     1
  1
strokes_ogs.tif
176
     1
290
     0
176
     1
 40
1.0
176
     1
 40
1.0
176
     1
  0
VISUALSTYLE
  5
2F4D7
102
{ACAD_REACTORS
330
2765
102
}
330
2765
100
AcDbVisualStyle
  2
X-Ray
 70
    25
177
     3
291
     0
 70
    58
 90
        2
176
     1
 90
        2
176
     1
 90
        1
176
     1
 90
        1
176
     1
 40
0.5
176
     1
 40
30.0
176
     1
 62
     7
420
 16777215
176
     1
 90
        1
176
     1
 90
        0
176
     1
 62
     7
176
     1
 62
   257
176
     1
 90
        1
176
     1
 90
        1
176
     1
 40
1.0
176
     1
 90
        8
176
     1
 62
     7
176
     1
 40
1.0
176
     1
 90
        1
176
     1
 90
        6
176
     1
 90
        2
176
     1
 62
     7
176
     1
 90
        3
176
     1
 90
        0
176
     1
 90
        0
176
     1
290
     0
176
     1
 90
       13
176
     1
 40
0.0
176
     1
 90
        0
176
     1
290
     0
176
     1
290
     1
176
     1
290
     1
176
     1
290
     0
176
     1
290
     0
176
     1
290
     0
176
     1
290
     0
176
     1
290
     0
176
     1
290
     0
176
     1
 90
       50
176
     1
 40
0.0
176
     1
 40
1.0
176
     1
 90
        0
176
     1
 62
    18
176
     1
 90
       50
176
     1
 90
        3
176
     1
 62
     5
420
      255
176
     1
290
     0
176
     1
 90
       50
176
     1
 90
       50
176
     1
 90
       50
176
     1
290
     0
176
     1
 90
       50
176
     1
 62
   256
176
     0
 40
1.0
176
     0
 90
        2
176
     1
  1
strokes_ogs.tif
176
     1
290
     0
176
     1
 40
1.0
176
     1
 40
1.0
176
     1
  0
DICTIONARYVAR
  5
24E32
102
{ACAD_REACTORS
330
5E
102
}
330
5E
100
DictionaryVariables
280
     0
  1
1:1
  0
DICTIONARYVAR
  5
24E30
102
{ACAD_REACTORS
330
5E
102
}
330
5E
100
DictionaryVariables
280
     0
  1
STANDARD
  0
DICTIONARYVAR
  5
2792
102
{ACAD_REACTORS
330
5E
102
}
330
5E
100
DictionaryVariables
280
     0
  1
STANDARD
  0
DICTIONARYVAR
  5
2F4FA
102
{ACAD_REACTORS
330
5E
102
}
330
5E
100
DictionaryVariables
280
     0
  1
Metric50
  0
DICTIONARYVAR
  5
2F4FB
102
{ACAD_REACTORS
330
5E
102
}
330
5E
100
DictionaryVariables
280
     0
  1
Metric50
  0
DICTIONARYVAR
  5
5F
102
{ACAD_REACTORS
330
5E
102
}
330
5E
100
DictionaryVariables
280
     0
  1
2
  0
DICTIONARYVAR
  5
63
102
{ACAD_REACTORS
330
5E
102
}
330
5E
100
DictionaryVariables
280
     0
  1
1
  0
DICTIONARYVAR
  5
24E34
102
{ACAD_REACTORS
330
5E
102
}
330
5E
100
DictionaryVariables
280
     0
  1
1
  0
DICTIONARYVAR
  5
24E35
102
{ACAD_REACTORS
330
5E
102
}
330
5E
100
DictionaryVariables
280
     0
  1
15
  0
DICTIONARYVAR
  5
24E33
102
{ACAD_REACTORS
330
5E
102
}
330
5E
100
DictionaryVariables
280
     0
  1
0
  0
DICTIONARYVAR
  5
24E31
102
{ACAD_REACTORS
330
5E
102
}
330
5E
100
DictionaryVariables
280
     0
  1
0
  0
DICTIONARY
  5
24E2E
330
22
100
AcDbDictionary
280
     1
281
     1
  3
AcPublish_PlotSettingsOverride
360
2F4F9
  0
DICTIONARY
  5
2E30
330
51
100
AcDbDictionary
280
     1
281
     1
  0
DICTIONARY
  5
2F4FD
330
2778
100
AcDbDictionary
280
     1
281
     1
  3
ACAD_ROUNDTRIP_2008_TABLESTYLE_CELLSTYLEMAP
360
2F517
  0
DICTIONARY
  5
2F4FF
330
2688B
100
AcDbDictionary
280
     1
281
     1
  3
ACAD_ROUNDTRIP_2008_TABLESTYLE_CELLSTYLEMAP
360
2F518
  0
PLOTSETTINGS
  5
2F4F9
102
{ACAD_REACTORS
330
24E2E
102
}
330
24E2E
100
AcDbPlotSettings
  1

  2
Canon TS8130 series
  4
A4
  6

 40
4.180416584014891
 41
5.831417560577392
 42
4.180404663085936
 43
3.757080078125
 44
209.9733276367186
 45
296.9683227539062
 46
-90.32049060947256
 47
-308.7240253082291
 48
4.0
 49
2.0
140
82.0
141
57.4
142
1.0
143
1.374
 70
  3748
 72
     1
 73
     1
 74
     0
  7
monochrome.ctb
 75
     0
147
0.7277572728131228
 76
     1
 77
     2
 78
   300
148
1.823354872728485
149
-55.92147040035275
1001
ACAD_PSEXT
1000
Canon TS8130 series
1000
Canon TS8130 series
1000
USB001
1000

1070
     0
  0
CELLSTYLEMAP
  5
2F517
102
{ACAD_REACTORS
330
2F4FD
102
}
330
2F4FD
100
AcDbCellStyleMap
 90
        3
300
CELLSTYLE
  1
TABLEFORMAT_BEGIN
 90
        5
170
     1
 91
        0
 92
    32768
 62
   257
 93
        1
300
CONTENTFORMAT
  1
CONTENTFORMAT_BEGIN
 90
        0
 91
        0
 92
      512
 93
        0
300

 40
0.0
140
1.0
 94
        5
 62
     0
340
11
144
6.0
309
CONTENTFORMAT_END
171
     1
301
MARGIN
  1
CELLMARGIN_BEGIN
 40
1.5
 40
1.5
 40
1.5
 40
1.5
 40
0.18
 40
0.18
309
CELLMARGIN_END
 94
        6
 95
        1
302
GRIDFORMAT
  1
GRIDFORMAT_BEGIN
 90
        0
 91
        1
 62
     0
 92
       -2
340
0
 93
        0
 40
0.045
309
GRIDFORMAT_END
 95
        2
302
GRIDFORMAT
  1
GRIDFORMAT_BEGIN
 90
        0
 91
        1
 62
     0
 92
       -2
340
0
 93
        0
 40
0.045
309
GRIDFORMAT_END
 95
        4
302
GRIDFORMAT
  1
GRIDFORMAT_BEGIN
 90
        0
 91
        1
 62
     0
 92
       -2
340
0
 93
        0
 40
0.045
309
GRIDFORMAT_END
 95
        8
302
GRIDFORMAT
  1
GRIDFORMAT_BEGIN
 90
        0
 91
        1
 62
     0
 92
       -2
340
0
 93
        0
 40
0.045
309
GRIDFORMAT_END
 95
       16
302
GRIDFORMAT
  1
GRIDFORMAT_BEGIN
 90
        0
 91
        1
 62
     0
 92
       -2
340
0
 93
        0
 40
0.045
309
GRIDFORMAT_END
 95
       32
302
GRIDFORMAT
  1
GRIDFORMAT_BEGIN
 90
        0
 91
        1
 62
     0
 92
       -2
340
0
 93
        0
 40
0.045
309
GRIDFORMAT_END
309
TABLEFORMAT_END
  1
CELLSTYLE_BEGIN
 90
        1
 91
        1
300
_TITLE
309
CELLSTYLE_END
300
CELLSTYLE
  1
TABLEFORMAT_BEGIN
 90
        5
170
     1
 91
        0
 92
        0
 62
   257
 93
        1
300
CONTENTFORMAT
  1
CONTENTFORMAT_BEGIN
 90
        0
 91
        0
 92
      512
 93
        0
300

 40
0.0
140
1.0
 94
        5
 62
     0
340
11
144
4.5
309
CONTENTFORMAT_END
171
     1
301
MARGIN
  1
CELLMARGIN_BEGIN
 40
1.5
 40
1.5
 40
1.5
 40
1.5
 40
0.18
 40
0.18
309
CELLMARGIN_END
 94
        6
 95
        1
302
GRIDFORMAT
  1
GRIDFORMAT_BEGIN
 90
        0
 91
        1
 62
     0
 92
       -2
340
0
 93
        0
 40
0.045
309
GRIDFORMAT_END
 95
        2
302
GRIDFORMAT
  1
GRIDFORMAT_BEGIN
 90
        0
 91
        1
 62
     0
 92
       -2
340
0
 93
        0
 40
0.045
309
GRIDFORMAT_END
 95
        4
302
GRIDFORMAT
  1
GRIDFORMAT_BEGIN
 90
        0
 91
        1
 62
     0
 92
       -2
340
0
 93
        0
 40
0.045
309
GRIDFORMAT_END
 95
        8
302
GRIDFORMAT
  1
GRIDFORMAT_BEGIN
 90
        0
 91
        1
 62
     0
 92
       -2
340
0
 93
        0
 40
0.045
309
GRIDFORMAT_END
 95
       16
302
GRIDFORMAT
  1
GRIDFORMAT_BEGIN
 90
        0
 91
        1
 62
     0
 92
       -2
340
0
 93
        0
 40
0.045
309
GRIDFORMAT_END
 95
       32
302
GRIDFORMAT
  1
GRIDFORMAT_BEGIN
 90
        0
 91
        1
 62
     0
 92
       -2
340
0
 93
        0
 40
0.045
309
GRIDFORMAT_END
309
TABLEFORMAT_END
  1
CELLSTYLE_BEGIN
 90
        2
 91
        1
300
_HEADER
309
CELLSTYLE_END
300
CELLSTYLE
  1
TABLEFORMAT_BEGIN
 90
        5
170
     1
 91
        0
 92
        0
 62
   257
 93
        1
300
CONTENTFORMAT
  1
CONTENTFORMAT_BEGIN
 90
        0
 91
        0
 92
      512
 93
        0
300

 40
0.0
140
1.0
 94
        2
 62
     0
340
11
144
4.5
309
CONTENTFORMAT_END
171
     1
301
MARGIN
  1
CELLMARGIN_BEGIN
 40
1.5
 40
1.5
 40
1.5
 40
1.5
 40
0.18
 40
0.18
309
CELLMARGIN_END
 94
        6
 95
        1
302
GRIDFORMAT
  1
GRIDFORMAT_BEGIN
 90
        0
 91
        1
 62
     0
 92
       -2
340
0
 93
        0
 40
0.045
309
GRIDFORMAT_END
 95
        2
302
GRIDFORMAT
  1
GRIDFORMAT_BEGIN
 90
        0
 91
        1
 62
     0
 92
       -2
340
0
 93
        0
 40
0.045
309
GRIDFORMAT_END
 95
        4
302
GRIDFORMAT
  1
GRIDFORMAT_BEGIN
 90
        0
 91
        1
 62
     0
 92
       -2
340
0
 93
        0
 40
0.045
309
GRIDFORMAT_END
 95
        8
302
GRIDFORMAT
  1
GRIDFORMAT_BEGIN
 90
        0
 91
        1
 62
     0
 92
       -2
340
0
 93
        0
 40
0.045
309
GRIDFORMAT_END
 95
       16
302
GRIDFORMAT
  1
GRIDFORMAT_BEGIN
 90
        0
 91
        1
 62
     0
 92
       -2
340
0
 93
        0
 40
0.045
309
GRIDFORMAT_END
 95
       32
302
GRIDFORMAT
  1
GRIDFORMAT_BEGIN
 90
        0
 91
        1
 62
     0
 92
       -2
340
0
 93
        0
 40
0.045
309
GRIDFORMAT_END
309
TABLEFORMAT_END
  1
CELLSTYLE_BEGIN
 90
        3
 91
        2
300
_DATA
309
CELLSTYLE_END
  0
CELLSTYLEMAP
  5
2F518
102
{ACAD_REACTORS
330
2F4FF
102
}
330
2F4FF
100
AcDbCellStyleMap
 90
        3
300
CELLSTYLE
  1
TABLEFORMAT_BEGIN
 90
        5
170
     1
 91
        0
 92
    32768
 62
   257
 93
        1
300
CONTENTFORMAT
  1
CONTENTFORMAT_BEGIN
 90
        0
 91
        0
 92
      512
 93
        0
300

 40
0.0
140
1.0
 94
        5
 62
     0
340
11
144
6.0
309
CONTENTFORMAT_END
171
     1
301
MARGIN
  1
CELLMARGIN_BEGIN
 40
1.5
 40
1.5
 40
1.5
 40
1.5
 40
0.18
 40
0.18
309
CELLMARGIN_END
 94
        6
 95
        1
302
GRIDFORMAT
  1
GRIDFORMAT_BEGIN
 90
        0
 91
        1
 62
     0
 92
       -2
340
0
 93
        0
 40
0.045
309
GRIDFORMAT_END
 95
        2
302
GRIDFORMAT
  1
GRIDFORMAT_BEGIN
 90
        0
 91
        1
 62
     0
 92
       -2
340
0
 93
        0
 40
0.045
309
GRIDFORMAT_END
 95
        4
302
GRIDFORMAT
  1
GRIDFORMAT_BEGIN
 90
        0
 91
        1
 62
     0
 92
       -2
340
0
 93
        0
 40
0.045
309
GRIDFORMAT_END
 95
        8
302
GRIDFORMAT
  1
GRIDFORMAT_BEGIN
 90
        0
 91
        1
 62
     0
 92
       -2
340
0
 93
        0
 40
0.045
309
GRIDFORMAT_END
 95
       16
302
GRIDFORMAT
  1
GRIDFORMAT_BEGIN
 90
        0
 91
        1
 62
     0
 92
       -2
340
0
 93
        0
 40
0.045
309
GRIDFORMAT_END
 95
       32
302
GRIDFORMAT
  1
GRIDFORMAT_BEGIN
 90
        0
 91
        1
 62
     0
 92
       -2
340
0
 93
        0
 40
0.045
309
GRIDFORMAT_END
309
TABLEFORMAT_END
  1
CELLSTYLE_BEGIN
 90
        1
 91
        1
300
_TITLE
309
CELLSTYLE_END
300
CELLSTYLE
  1
TABLEFORMAT_BEGIN
 90
        5
170
     1
 91
        0
 92
        0
 62
   257
 93
        1
300
CONTENTFORMAT
  1
CONTENTFORMAT_BEGIN
 90
        0
 91
        0
 92
      512
 93
        0
300

 40
0.0
140
1.0
 94
        5
 62
     2
340
10EC
144
4.5
309
CONTENTFORMAT_END
171
     1
301
MARGIN
  1
CELLMARGIN_BEGIN
 40
1.5
 40
1.5
 40
1.5
 40
1.5
 40
0.18
 40
0.18
309
CELLMARGIN_END
 94
        6
 95
        1
302
GRIDFORMAT
  1
GRIDFORMAT_BEGIN
 90
        0
 91
        1
 62
     0
 92
       -2
340
0
 93
        0
 40
0.045
309
GRIDFORMAT_END
 95
        2
302
GRIDFORMAT
  1
GRIDFORMAT_BEGIN
 90
        0
 91
        1
 62
     0
 92
       -2
340
0
 93
        0
 40
0.045
309
GRIDFORMAT_END
 95
        4
302
GRIDFORMAT
  1
GRIDFORMAT_BEGIN
 90
        0
 91
        1
 62
     0
 92
       -2
340
0
 93
        0
 40
0.045
309
GRIDFORMAT_END
 95
        8
302
GRIDFORMAT
  1
GRIDFORMAT_BEGIN
 90
        0
 91
        1
 62
     0
 92
       -2
340
0
 93
        0
 40
0.045
309
GRIDFORMAT_END
 95
       16
302
GRIDFORMAT
  1
GRIDFORMAT_BEGIN
 90
        0
 91
        1
 62
     0
 92
       -2
340
0
 93
        0
 40
0.045
309
GRIDFORMAT_END
 95
       32
302
GRIDFORMAT
  1
GRIDFORMAT_BEGIN
 90
        0
 91
        1
 62
     0
 92
       -2
340
0
 93
        0
 40
0.045
309
GRIDFORMAT_END
309
TABLEFORMAT_END
  1
CELLSTYLE_BEGIN
 90
        2
 91
        1
300
_HEADER
309
CELLSTYLE_END
300
CELLSTYLE
  1
TABLEFORMAT_BEGIN
 90
        5
170
     1
 91
        0
 92
        0
 62
   257
 93
        1
300
CONTENTFORMAT
  1
CONTENTFORMAT_BEGIN
 90
        0
 91
        0
 92
      512
 93
        0
300

 40
0.0
140
1.0
 94
        2
 62
     2
340
10EC
144
4.5
309
CONTENTFORMAT_END
171
     1
301
MARGIN
  1
CELLMARGIN_BEGIN
 40
1.5
 40
1.5
 40
1.5
 40
1.5
 40
0.18
 40
0.18
309
CELLMARGIN_END
 94
        6
 95
        1
302
GRIDFORMAT
  1
GRIDFORMAT_BEGIN
 90
        0
 91
        1
 62
     0
 92
       -2
340
0
 93
        0
 40
0.045
309
GRIDFORMAT_END
 95
        2
302
GRIDFORMAT
  1
GRIDFORMAT_BEGIN
 90
        0
 91
        1
 62
     0
 92
       -2
340
0
 93
        0
 40
0.045
309
GRIDFORMAT_END
 95
        4
302
GRIDFORMAT
  1
GRIDFORMAT_BEGIN
 90
        0
 91
        1
 62
     0
 92
       -2
340
0
 93
        0
 40
0.045
309
GRIDFORMAT_END
 95
        8
302
GRIDFORMAT
  1
GRIDFORMAT_BEGIN
 90
        0
 91
        1
 62
     0
 92
       -2
340
0
 93
        0
 40
0.045
309
GRIDFORMAT_END
 95
       16
302
GRIDFORMAT
  1
GRIDFORMAT_BEGIN
 90
        0
 91
        1
 62
     0
 92
       -2
340
0
 93
        0
 40
0.045
309
GRIDFORMAT_END
 95
       32
302
GRIDFORMAT
  1
GRIDFORMAT_BEGIN
 90
        0
 91
        1
 62
     0
 92
       -2
340
0
 93
        0
 40
0.045
309
GRIDFORMAT_END
309
TABLEFORMAT_END
  1
CELLSTYLE_BEGIN
 90
        3
 91
        2
300
_DATA
309
CELLSTYLE_END
  0
ENDSEC
  0
SECTION
  2
ACDSDATA
 70
     2
 71
     8
  0
ACDSSCHEMA
 90
        0
  1
AcDb_Thumbnail_Schema
  2
AcDbDs::ID
280
    10
 91
        8
  2
Thumbnail_Data
280
    15
 91
        0
101
ACDSRECORD
 95
        0
 90
        1
  2
AcDbDs::TreatedAsObjectData
280
     1
291
     1
101
ACDSRECORD
 95
        0
 90
        2
  2
AcDbDs::Legacy
280
     1
291
     1
101
ACDSRECORD
  1
AcDbDs::ID
 90
        3
  2
AcDs:Indexable
280
     1
291
     1
101
ACDSRECORD
  1
AcDbDs::ID
 90
        4
  2
AcDbDs::HandleAttribute
280
     7
282
     1
  0
ACDSSCHEMA
 90
        1
  1
AcDbDs::TreatedAsObjectDataSchema
  2
AcDbDs::TreatedAsObjectData
280
     1
 91
        0
  0
ACDSSCHEMA
 90
        2
  1
AcDbDs::LegacySchema
  2
AcDbDs::Legacy
280
     1
 91
        0
  0
ACDSSCHEMA
 90
        3
  1
AcDbDs::IndexedPropertySchema
  2
AcDs:Indexable
280
     1
 91
        0
  0
ACDSSCHEMA
 90
        4
  1
AcDbDs::HandleAttributeSchema
  2
AcDbDs::HandleAttribute
280
     7
 91
        1
284
     1
  0
ACDSRECORD
 90
        0
  2
AcDbDs::ID
280
    10
320
22
  2
Thumbnail_Data
280
    15
 94
     2020
310
89504E470D0A1A0A0000000D49484452000001000000007F080300000037AFECF400000300504C5445000000000000FFFFFF0000000000000000000000000000000000000000000000000000330000660000990000CC0000FF0033000033330033660033990033CC0033FF0066000066330066660066990066CC0066FF0099
310
000099330099660099990099CC0099FF00CC0000CC3300CC6600CC9900CCCC00CCFF00FF0000FF3300FF6600FF9900FFCC00FFFF3300003300333300663300993300CC3300FF3333003333333333663333993333CC3333FF3366003366333366663366993366CC3366FF3399003399333399663399993399CC3399FF33CC00
310
33CC3333CC6633CC9933CCCC33CCFF33FF0033FF3333FF6633FF9933FFCC33FFFF6600006600336600666600996600CC6600FF6633006633336633666633996633CC6633FF6666006666336666666666996666CC6666FF6699006699336699666699996699CC6699FF66CC0066CC3366CC6666CC9966CCCC66CCFF66FF0066
310
FF3366FF6666FF9966FFCC66FFFF9900009900339900669900999900CC9900FF9933009933339933669933999933CC9933FF9966009966339966669966999966CC9966FF9999009999339999669999999999CC9999FF99CC0099CC3399CC6699CC9999CCCC99CCFF99FF0099FF3399FF6699FF9999FFCC99FFFFCC0000CC00
310
33CC0066CC0099CC00CCCC00FFCC3300CC3333CC3366CC3399CC33CCCC33FFCC6600CC6633CC6666CC6699CC66CCCC66FFCC9900CC9933CC9966CC9999CC99CCCC99FFCCCC00CCCC33CCCC66CCCC99CCCCCCCCCCFFCCFF00CCFF33CCFF66CCFF99CCFFCCCCFFFFFF0000FF0033FF0066FF0099FF00CCFF00FFFF3300FF3333
310
FF3366FF3399FF33CCFF33FFFF6600FF6633FF6666FF6699FF66CCFF66FFFF9900FF9933FF9966FF9999FF99CCFF99FFFFCC00FFCC33FFCC66FFCC99FFCCCCFFCCFFFFFF00FFFF33FFFF66FFFF99FFFFCCFFFFFF0000000D0D0D1A1A1A2828283535354343435050505D5D5D6B6B6B787878868686939393A1A1A1AEAEAEBB
310
BBBBC9C9C9D6D6D6E4E4E4F1F1F1FFFFFF000000000000000000000000000000000000000000000000000000000000C11FEF660000049F4944415478DAED9D49B6AC200C40DF0ED886FBDF82DB7094F19F66FE4B41A417691402BCF3AAB5EA542E212421E81F0CDEFE228FFBD75F2B0CA0BBAE9D0026802F01E0A747BE0800
310
A37F2C62F923834C4600803835E07D00D87AAB0EA0B0B1AEF67D13402700600298002680096002E806002600602F03C0E101603D00383A80241BC028D9800400884B54A30B80457D8428002B481D0A80109D410C026A0064C78BFB5B0494000861B9D82030DCA941E700E440BFA4E43EC33904C4FCAC6A059202009AF0A7D3
310
88B86D1B13F29F1E8A388A22005D277691B703C0A10A17011803C0EF6FE38DFBCF08381A804D03C00DE12000B891E3D2EF9EE0FE5051816E01F867321780437ED000800FC0FE7E2100E78FFC5E0384021C73C021E0E914D405F0FA10607B4379C39F6A00AE57197F86E2199391F2065B74F776610344AF6A43E04AA7A46880
310
7B01B06923E8B001C946F00C27EE19B4320DA2F002F6317202489F06CF8F2A0E3760DB00A41FC001643942573C895A90D9BE2BAC3A42E9AEF025FBCA5B30BEFE381872F9C24CF4606A30A44B7FB42BCE6E2D1C463D1CE6C1100F8453C3615BFC150E046E026D25447604909910B1E5FF0D02AE04AD02289A1273C8BFBFF053
310
02B70A904B8AA2105703206DA1FDB575013C5E1ACB4E8B730FE092179519C103A0B5B5418C8B730200607500408F0AB408206369EC5080B51D0090B2389A13E9EE00562780D533061AAC10C9591DB663202322220EE0BE2E7604008EF2E9BE004009003A87910080586193A9006D64500700D289BE1E98A6611800E77090E9
310
31180A801267EA6116710006012B2B360C00F47A05401C0068821A3ED0C800BC59C1FA8BA3F814012B43005DFE71001799525987B88A1240074380412902604E87F01580BBE486F66BB3018001A081859125238A4D22602406028B831401C015F628C5889F2E8E460070DB00CCB003D0D0F2F81D8035B2FFB5A4E8CD9E81A6
310
0A244A0D0145F4E3768127AAD5300055D5B50D13DA3B55368EB4A20111004A5506F6AA0175E46F51033C4F9E03D88CFB2F006014808019CC18007BC1D1F91FF61BEB0140CCF303B20C40D300CC680D3C00646AE7172F3C97FF6A5F01F0DA000CB82ACCCC7139ABC43A378218F07399DB44760CC0A1821E00872E3077E6761C
310
00F602D67000A86940A60D1809002F95A50A4009E194CD225AE300F8ADD90868C012A90196EB4265084C007100EC99601C009E54180D00DB760F80DA34287B7201C31D6A08C02B8BA31E007807401D0EB46CC0E2295A73274438858514007732C8005067BF785B003453312A006B06F4AC8BC5D9B326CF2B1CB705E2665D78
310
89E94C591FEB9757DFB3F851854848185F81441900DABE5A8200E42387B48EB22162003A3AB7783500CA63E3ADF3E7980544ED018042005C6B8C76CF0F07E05D0DF0D626550760BFE5B59C480A408211FC64E768650DB04A63ADF1A0948F370520B492FB14000600681AF08911F4B41D40F28974750070A70146404E6C1608
310
194165736587175921E209BE0E403BB192B28584D49619F5B4530A10DD0346B709A40C001D95D3CA24D81B002C01E09A08460010FE547D00A35F6B2CAEFFE6F5065F0130AF37F83D8004D3F6C2910D0068A04D0013405900A35F7B9C6CFB0FB96B91C58873F8A60000000049454E44AE426082
  0
ACDSRECORD
 90
        0
  2
AcDbDs::ID
280
    10
320
51
  2
Thumbnail_Data
280
    15
 94
     4181
310
89504E470D0A1A0A0000000D4948445200000100000000B5080300000087DCD12600000300504C5445000000000000FFFFFF0000000000000000000000000000000000000000000000000000330000660000990000CC0000FF0033000033330033660033990033CC0033FF0066000066330066660066990066CC0066FF0099
310
000099330099660099990099CC0099FF00CC0000CC3300CC6600CC9900CCCC00CCFF00FF0000FF3300FF6600FF9900FFCC00FFFF3300003300333300663300993300CC3300FF3333003333333333663333993333CC3333FF3366003366333366663366993366CC3366FF3399003399333399663399993399CC3399FF33CC00
310
33CC3333CC6633CC9933CCCC33CCFF33FF0033FF3333FF6633FF9933FFCC33FFFF6600006600336600666600996600CC6600FF6633006633336633666633996633CC6633FF6666006666336666666666996666CC6666FF6699006699336699666699996699CC6699FF66CC0066CC3366CC6666CC9966CCCC66CCFF66FF0066
310
FF3366FF6666FF9966FFCC66FFFF9900009900339900669900999900CC9900FF9933009933339933669933999933CC9933FF9966009966339966669966999966CC9966FF9999009999339999669999999999CC9999FF99CC0099CC3399CC6699CC9999CCCC99CCFF99FF0099FF3399FF6699FF9999FFCC99FFFFCC0000CC00
310
33CC0066CC0099CC00CCCC00FFCC3300CC3333CC3366CC3399CC33CCCC33FFCC6600CC6633CC6666CC6699CC66CCCC66FFCC9900CC9933CC9966CC9999CC99CCCC99FFCCCC00CCCC33CCCC66CCCC99CCCCCCCCCCFFCCFF00CCFF33CCFF66CCFF99CCFFCCCCFFFFFF0000FF0033FF0066FF0099FF00CCFF00FFFF3300FF3333
310
FF3366FF3399FF33CCFF33FFFF6600FF6633FF6666FF6699FF66CCFF66FFFF9900FF9933FF9966FF9999FF99CCFF99FFFFCC00FFCC33FFCC66FFCC99FFCCCCFFCCFFFFFF00FFFF33FFFF66FFFF99FFFFCCFFFFFF0000000D0D0D1A1A1A2828283535354343435050505D5D5D6B6B6B787878868686939393A1A1A1AEAEAEBB
310
BBBBC9C9C9D6D6D6E4E4E4F1F1F1FFFFFF000000000000000000000000000000000000000000000000000000000000C11FEF6600000D104944415478DAED9D4992B33A0C80FF1B700D367DFF03F81A5E694DD55B69FFF02CD93218830319A8EAA44348823E24599207FEE1776FFFFD43F8E6ED07C00088EA907667DBC7BEE1
310
017CEFF5FF01E000BEC9FBCB00BEE9DAFF007C10800E03F830004085B2FFD85D51A6D80026DBA700E0E300F8D86617007C0C80FAE957767E18805E1FF0411A80083C9EC9B58305C39F680214007C23809F0FF8F900F78448F27B62172C1FFE70007814007EAD0FF8E5029FA3014CDB6D6C4C6512EA00D70228F0324FFB7200
310
DCDCF9090E01B05F7A7935004103BC8F7C8106D02AF34BE4BFDB0734D6DF5E170AB35FA4F131AD048D7082ECCA23DEE7040B1F30DC09CABEF0AE64E88656809177AAF66A00F7074237B500439DE04B2FE3653E204FFD37728106006F81400000570040CC3E77E3A6A56DB40F2061CDC3018C0B845E1AD06D6CB3BC6D1445B1
310
AC09D2CE82F68E11DECD701B802381106C2543D8531112110C8562F57BFDD32201A6FF4D3EA01208ED00C83F55D4DB8655104A3BBF054030808A93516E1B6EF10580D90298EFD1003ECEC8887F3182D2CD1704E65C0FC695C5F31C5F3EE72B09CC0CC02C019819A9866CB08CCF8F39C1FDC05E8DF5FEB308809B00C21800C8
310
E3CA0701980F67835846827B009CF8F37E73F74A02A5029CF6017BB9C03CC3E300CCD540C87BAC54FD1253C4C650387C669EF3F0FB050092FED98719C90EFF5801C05BBC130088EAE7E177F2C2E64F85E88DFC69FABA3BC94D00564564F253AF9785C252B5A8AB1ED01CADA9D82CB356BCCCDB8E030804C002002B7A01E096
310
B23891522974AFA5AC15FAE5AF86A180750DF0DDC4909B00F4F8801D02609315BD4684F6939AFD4DEC752F00AAB748DBE51A80B2C93FE304F71038D9561340FFFA6A001BEEB1AA0162BAE635E0800F98F7375CAFBD1550270009C2445F9E28F68BF31DB2D06F48496CDE3FC3695501732E5A231015180F00A4D8F76A27D806
310
C010C060025EDE6B008034E82539335601F2E14F2517E8F401FB00D64D1B33209BF6BB747C81D9117816401AFB8395925866EEE300C0DAFC192330AD00251001D81642739F3408C0581FA02B1AA050398557AC65D0D63626E21184D0B289C0769FFB89A93EC700F048860639A211440D20D690E5609700C09DAE31E432F101
310
C4470108BD114E038CC6E7C10168A701CE1F6A210B3FD010D4CA65F05A00D2E9FDFDA9BF3F63E905010AA06A010D1132B3ED3CD1C0A30591BA0F804E27A82665BC9F330562045A1313D05213E072046822103E5828E07505913E00F1BBB4FD42A5D646415500D8FAB976EF05299A7224AC02C07ACF507B1C701280EB165825
310
53A997C0FE443401E70202804C647DC411E600B0C4340E807CAD56B140F98BAE54DE1278632016E08FE9890793E5FFFDFD09963D66BEC02CFB5ED661B87A016E8053103CDA822600265431686E2E131823CB0060B507678C0F20A7CA5BC42070BE1100C4336E74F0EF22A0A7556A515E0FA01591FEF9020D9160E040D2A304
310
805F196D32A689DAC0914211E99E9BB1E62ACB82C86500EA6735A16C025AD40C06E06896182BD415004103E07A0DA85C2B0A20B345AB15DCD65697B9360C570C2998E1B23142D01409D64CD688376539EE943FF10BA0A8027456CB2500AF4A863217E84514184F85FF3AE3040B02C218A157A7C3986442DCB90AB1841C4B47
310
18C3E18BFA905E5F130C15390C00B0A20140E76FAF7E8001803701209C2AE669A70C005B0EBEAA1771980FD0DB1B0A05FC893980543DA100DE4903A0A601C6A6950880951F6CB3ACB8FB7C271F209B80114405B346316EA300DCA1884CA7DED409C64E4F8C8E3D2B3C4DF9D11ED42813785DC748B86EC9049206908868AAE4
310
732145E8098577CB26BB6385BBFB05FCB85521F6B2971F4BAD2F007813D0472B428F00A02BFECAE5F8152728F5F2814A61D15BF980DA996626B003201C7A3A17B8C107E88D8A1D3402880D466F3ABC67026C9418101985E97CD7F40D5AB17C91ABD5040669C0CE28B1A10000B67201A20199095CEC031A4789C900A017801D
310
1CA4845EDFA9A8E8211FA774A90FBCA963C4EA3431ECED99D3B609304A902EFDB6FC470835CC193A5E16D7FBE363516145F3A6323132AC42F2D4920DA2AE5516A5C1DFBB71C061005A370C904067DB9B0068CB6FEDA515C05E5B9E79D83B00142B58C996E064B7A0FC5962BB5A036065D1D3BCE47271CF503B80BCC7CB7806
310
D3610418AF3B19D07144033600F0E9F13739C150E5320364E897D8FAB7423F8AC1FD9A390AB9605779766E029571343D93A6CAA939420C60474A190474B886520680F3F20E003DC406D0D8A6016C4D1A69BC30E63E80CDEB236B66F402881305E68A1D19D956E18827B41A106B1FAE3B806B49130284431A30AC6364DED07F
310
FFDB668C0091C8751728121D38F9156669149E0700451FE4E5C9D05CCD03431E6CC5B302C64BC27ACD272F7F3EA6416D23909B4171D870EBE4E9BE7AC02C5F7DE525C2287F7C5E3562726A61F778FD2FA71E9B6FC0EB003415448ED7038A09534EA54335C8696A90DB3F00DBE3FE13A6DEA13BF49A56604C41249F34E70C5A
310
01C9A842690CA8260415890FC612FEA4710DC179940389E900313E4E1ACB4911837C006F4F9DF02AADC7A5BC09A8861358ADE20F6BB6549B12C001486B75D138A0AAEDFD3E009365FB8B5C8EB6C4DCBD21B045ABA2B64B00BC41117BA90090E383F833DC0788ABC87402609EAD98B1105A01D5A0721500BEF148C6F3281FB0
310
A7D658E85B1973C57D35001142610245E05E29340CF401324429D22C5434DF075B0040F8298452D62A00960B40889EF1021FC0CF0E451FC0BF5E74CF5D00BAEA01B549052300280A800E8570A3E5D2D9F501389A0DB21972500E97A7C1D8000D60F861E215D8F5E9AF430342DBBF1F098EF001D33C85CD8E475A9F7D6CEF37
310
9C26360430EEC7F4384D2B0B7B9801403E9C6FF48D0E00B419F43E80BB273C6D0273A901180303B5A701CA6A40DE3574A90F48424933464E039825002E08F249CDB609A8BF09F39C78900FC8D6F46C01007D1A90BE366980D789C945374C03FCAED65AB010096E3583971745250020B528BC0D021980F501E03A8837579E6C
310
0500D704427B00C83697D56E1EFC9B5120E86BC4AE4723247ABE1924E5131A6267E9D0D9A22854678D756980CFF1FD9A15BC842302705758E71A403AC9E5CC215695C4A48A4C0440CC123E09005C0540A5CACF9CAD589D08F061902A4FA1D999AAAC8B3C2D7CA9A0282EF3981B2A9633D207CCE487E604B7001007BE00B3F1
310
242BE91751955BA1044B1300C03E80413E608ED58C541667B3FF421F7918F8C6D6EF20B2B2017258484FC49B1FE50366B1A34CA511E0B11F40816402B44E9C7AC6A01C4E207547895D634D45517959DDEB00A4C290F640BC2BD7DE65BA0268A871D845765C59340DABAC4603DD0086748CCCF59E423F679455C9759C160271
310
4581150B907E136B165BDD012D00E035C9D0360023914EA140DB0AFB886A6FD2D0153EE0C0F880130056041A9566F3E0CABC9BEF4D03259B34405C298094C92F1820710A0068656703C69F4BB32B5398E8E70E87B868B753781B00D60748ECDD6C6D08000866EF82591DDA4C304B6878303A268D4DA302E6BE74F8061F1009
310
C431224E1D20AD1C6383488D52717F840F60992F40B69658368BF13080790B407CE94128A3015EEF75D3656CF5012D2650594A0B3A3A471B340034144ED09A00163E10CE03C076008082065CBD965858522C2D21149F75BE138F033854121BD033B43F4C2A1BEFA9A5DD0787C376FA80410B2A1E0340FF992E0070AC244684
310
3A900C7D2C002856951D024056760D04C0D101E1DDCDE02D3E60288023DB5D3EC08BA7EF07D05B0F38EB03B48E8FFC698A6FE97700007D00FC625805004DDF7A15800145D1260D88730AD374481720BE16C0A01B2CF49B00BCD604FA95E61C8001DB0FC00FC02700383125F04334E06300F46E668649E7760B00FC5A1FF029
310
F71EFF01F801F801F801787300CB82576E4BDA369735780E005C119C3C0B22F442BE28EC126F52F92400EBA9A6BB07D6026C722F232FF4FA1F13BA5A0BD1FCC82702D09B00A495FC96EDC5488A550CA8813C1480393114D5BB5C8E54132ED05C0D73DFF6480D88EEB066D31D5F4A0A7681D2434DA074E1A257AF797C797F09
310
803BC8476A40E9B3E8492FD451109B61FB21ED8F355AFF7D8F6E0598DAEBCA4AAE4110844510DAED5FC8A287CCF01F1D08659A5C5B45C8EF77C79263E8FEB8846B4DFA1C003C440388C68BBE1D9917378FBAB23F3FBEB322749B0F088D5E76E6482EA6FB5F2FF2FEF2FFF702903480B9C1F2EAEA8DABCEF73F1D8033DD30DD
310
C6FA31DA9EAD0FBA9ADA48BBED473633ACC76940B87B94BF89127F5AC2AD959AA22273DCDE91CF04A06B00D8BDA57663C31518C623DFC504B8362FC22BF4C2847C7009B921A40E79DF2A90DB9EBC8D136411EA820B7F455FB27430BFC9710900E8714F368125F800084A1FDA311BD2423481CAAD9DF51600BD0DE019A1B068
310
FCE0627A7B0D330050BD674709005201E1B1B980DC0A2C91CEA2B74F8F264D0C4071D48393A1A530FE94044170ED7B148CD16C4AB26C14446EDF968D57B8B456845B0E12017CDDF603F003E000EC4EDEFFD837B240E81B75E007E01F7EF7F6DFFFC74965CB58BC5AB50000000049454E44AE426082
  0
ENDSEC
  0
EOF
