  0
SECTION
  2
HEADER
  9
$ACADVER
  1
AC1027
  9
$ACADMAINTVER
 70
    57
  9
$DWGCODEPAGE
  3
ANSI_932
  9
$LASTSAVEDBY
  1
kashikeiQC
  9
$REQUIREDVERSIONS
160
                 0
  9
$INSBASE
 10
0.0
 20
0.0
 30
0.0
  9
$EXTMIN
 10
4.980469745328264
 20
-0.0090630292066862
 30
-0.0000000000000155
  9
$EXTMAX
 10
425.0129709602486
 20
297.0090644122207
 30
0.0000000000000456
  9
$LIMMIN
 10
0.0
 20
0.0
  9
$LIMMAX
 10
420.0
 20
297.0
  9
$ORTHOMODE
 70
     0
  9
$REGENMODE
 70
     1
  9
$FILLMODE
 70
     1
  9
$QTEXTMODE
 70
     0
  9
$MIRRTEXT
 70
     1
  9
$LTSCALE
 40
0.3
  9
$ATTMODE
 70
     1
  9
$TEXTSIZE
 40
2.5
  9
$TRACEWID
 40
1.0
  9
$TEXTSTYLE
  7
Standard
  9
$CLAYER
  8
寸法
  9
$CELTYPE
  6
ByLayer
  9
$CECOLOR
 62
   256
  9
$CELTSCALE
 40
1.0
  9
$DISPSILH
 70
     0
  9
$DIMSCALE
 40
1.0
  9
$DIMASZ
 40
2.5
  9
$DIMEXO
 40
0.625
  9
$DIMDLI
 40
3.75
  9
$DIMRND
 40
0.0
  9
$DIMDLE
 40
0.0
  9
$DIMEXE
 40
1.25
  9
$DIMTP
 40
0.0
  9
$DIMTM
 40
0.0
  9
$DIMTXT
 40
3.5
  9
$DIMCEN
 40
2.5
  9
$DIMTSZ
 40
0.0
  9
$DIMTOL
 70
     0
  9
$DIMLIM
 70
     0
  9
$DIMTIH
 70
     0
  9
$DIMTOH
 70
     0
  9
$DIMSE1
 70
     0
  9
$DIMSE2
 70
     0
  9
$DIMTAD
 70
     1
  9
$DIMZIN
 70
     8
  9
$DIMBLK
  1

  9
$DIMASO
 70
     1
  9
$DIMSHO
 70
     1
  9
$DIMPOST
  1

  9
$DIMAPOST
  1

  9
$DIMALT
 70
     0
  9
$DIMALTD
 70
     3
  9
$DIMALTF
 40
0.03937007874016
  9
$DIMLFAC
 40
1.0
  9
$DIMTOFL
 70
     1
  9
$DIMTVP
 40
0.0
  9
$DIMTIX
 70
     0
  9
$DIMSOXD
 70
     0
  9
$DIMSAH
 70
     0
  9
$DIMBLK1
  1

  9
$DIMBLK2
  1

  9
$DIMSTYLE
  2
ｺﾋﾟｰ - ISO-25
  9
$DIMCLRD
 70
     0
  9
$DIMCLRE
 70
     0
  9
$DIMCLRT
 70
     2
  9
$DIMTFAC
 40
1.0
  9
$DIMGAP
 40
1.0
  9
$DIMJUST
 70
     0
  9
$DIMSD1
 70
     0
  9
$DIMSD2
 70
     0
  9
$DIMTOLJ
 70
     0
  9
$DIMTZIN
 70
     8
  9
$DIMALTZ
 70
     0
  9
$DIMALTTZ
 70
     0
  9
$DIMUPT
 70
     0
  9
$DIMDEC
 70
     1
  9
$DIMTDEC
 70
     1
  9
$DIMALTU
 70
     2
  9
$DIMALTTD
 70
     3
  9
$DIMTXSTY
  7
寸法
  9
$DIMAUNIT
 70
     0
  9
$DIMADEC
 70
     0
  9
$DIMALTRND
 40
0.0
  9
$DIMAZIN
 70
     0
  9
$DIMDSEP
 70
    46
  9
$DIMATFIT
 70
     3
  9
$DIMFRAC
 70
     0
  9
$DIMLDRBLK
  1

  9
$DIMLUNIT
 70
     2
  9
$DIMLWD
 70
    -2
  9
$DIMLWE
 70
    -2
  9
$DIMTMOVE
 70
     0
  9
$DIMFXL
 40
1.0
  9
$DIMFXLON
 70
     0
  9
$DIMJOGANG
 40
0.7853981633974483
  9
$DIMTFILL
 70
     0
  9
$DIMTFILLCLR
 70
     0
  9
$DIMARCSYM
 70
     0
  9
$DIMLTYPE
  6

  9
$DIMLTEX1
  6

  9
$DIMLTEX2
  6

  9
$DIMTXTDIRECTION
 70
     0
  9
$LUNITS
 70
     2
  9
$LUPREC
 70
     4
  9
$SKETCHINC
 40
1.0
  9
$FILLETRAD
 40
1.0
  9
$AUNITS
 70
     0
  9
$AUPREC
 70
     0
  9
$MENU
  1
.
  9
$ELEVATION
 40
0.0
  9
$PELEVATION
 40
0.0
  9
$THICKNESS
 40
0.0
  9
$LIMCHECK
 70
     0
  9
$CHAMFERA
 40
0.0
  9
$CHAMFERB
 40
0.0
  9
$CHAMFERC
 40
20.0
  9
$CHAMFERD
 40
0.0
  9
$SKPOLY
 70
     0
  9
$TDCREATE
 40
2452970.700528056
  9
$TDUCREATE
 40
2452970.325528056
  9
$TDUPDATE
 40
2458814.752764039
  9
$TDUUPDATE
 40
2458814.377764039
  9
$TDINDWG
 40
1.8751388310
  9
$TDUSRTIMER
 40
1.8751377199
  9
$USRTIMER
 70
     1
  9
$ANGBASE
 50
0.0
  9
$ANGDIR
 70
     0
  9
$PDMODE
 70
     3
  9
$PDSIZE
 40
-3.0
  9
$PLINEWID
 40
0.0
  9
$SPLFRAME
 70
     0
  9
$SPLINETYPE
 70
     6
  9
$SPLINESEGS
 70
     8
  9
$HANDSEED
  5
2A8D6
  9
$SURFTAB1
 70
     6
  9
$SURFTAB2
 70
     6
  9
$SURFTYPE
 70
     6
  9
$SURFU
 70
     6
  9
$SURFV
 70
     6
  9
$UCSBASE
  2

  9
$UCSNAME
  2

  9
$UCSORG
 10
0.0
 20
0.0
 30
0.0
  9
$UCSXDIR
 10
1.0
 20
0.0
 30
0.0
  9
$UCSYDIR
 10
0.0
 20
1.0
 30
0.0
  9
$UCSORTHOREF
  2

  9
$UCSORTHOVIEW
 70
     0
  9
$UCSORGTOP
 10
0.0
 20
0.0
 30
0.0
  9
$UCSORGBOTTOM
 10
0.0
 20
0.0
 30
0.0
  9
$UCSORGLEFT
 10
0.0
 20
0.0
 30
0.0
  9
$UCSORGRIGHT
 10
0.0
 20
0.0
 30
0.0
  9
$UCSORGFRONT
 10
0.0
 20
0.0
 30
0.0
  9
$UCSORGBACK
 10
0.0
 20
0.0
 30
0.0
  9
$PUCSBASE
  2

  9
$PUCSNAME
  2

  9
$PUCSORG
 10
0.0
 20
0.0
 30
0.0
  9
$PUCSXDIR
 10
1.0
 20
0.0
 30
0.0
  9
$PUCSYDIR
 10
0.0
 20
1.0
 30
0.0
  9
$PUCSORTHOREF
  2

  9
$PUCSORTHOVIEW
 70
     0
  9
$PUCSORGTOP
 10
0.0
 20
0.0
 30
0.0
  9
$PUCSORGBOTTOM
 10
0.0
 20
0.0
 30
0.0
  9
$PUCSORGLEFT
 10
0.0
 20
0.0
 30
0.0
  9
$PUCSORGRIGHT
 10
0.0
 20
0.0
 30
0.0
  9
$PUCSORGFRONT
 10
0.0
 20
0.0
 30
0.0
  9
$PUCSORGBACK
 10
0.0
 20
0.0
 30
0.0
  9
$USERI1
 70
     0
  9
$USERI2
 70
     0
  9
$USERI3
 70
     0
  9
$USERI4
 70
     0
  9
$USERI5
 70
     0
  9
$USERR1
 40
0.0
  9
$USERR2
 40
0.0
  9
$USERR3
 40
0.0
  9
$USERR4
 40
0.0
  9
$USERR5
 40
0.0
  9
$WORLDVIEW
 70
     1
  9
$SHADEDGE
 70
     3
  9
$SHADEDIF
 70
    70
  9
$TILEMODE
 70
     1
  9
$MAXACTVP
 70
    64
  9
$PINSBASE
 10
0.0
 20
0.0
 30
0.0
  9
$PLIMCHECK
 70
     0
  9
$PEXTMIN
 10
-58.82240024691737
 20
-86.72323328256494
 30
0.0
  9
$PEXTMAX
 10
448.1718497119468
 20
324.5569721112054
 30
0.0
  9
$PLIMMIN
 10
-3.757080078125
 20
-3.757083415985106
  9
$PLIMMAX
 10
416.2601318359373
 20
293.2112393379211
  9
$UNITMODE
 70
     0
  9
$VISRETAIN
 70
     1
  9
$PLINEGEN
 70
     0
  9
$PSLTSCALE
 70
     1
  9
$TREEDEPTH
 70
  3020
  9
$CMLSTYLE
  2
Standard
  9
$CMLJUST
 70
     0
  9
$CMLSCALE
 40
20.0
  9
$PROXYGRAPHICS
 70
     1
  9
$MEASUREMENT
 70
     1
  9
$CELWEIGHT
370
    -1
  9
$ENDCAPS
280
     0
  9
$JOINSTYLE
280
     0
  9
$LWDISPLAY
290
     0
  9
$INSUNITS
 70
     4
  9
$HYPERLINKBASE
  1

  9
$STYLESHEET
  1
monochrome.ctb
  9
$XEDIT
290
     1
  9
$CEPSNTYPE
380
     0
  9
$PSTYLEMODE
290
     1
  9
$FINGERPRINTGUID
  2
{FDEAD578-A652-11D2-9A35-0060089B3A3F}
  9
$VERSIONGUID
  2
{6E81E623-5589-47CE-AC30-3D7387AA5D7D}
  9
$EXTNAMES
290
     1
  9
$PSVPSCALE
 40
0.0
  9
$OLESTARTUP
290
     0
  9
$SORTENTS
280
   127
  9
$INDEXCTL
280
     0
  9
$HIDETEXT
280
     1
  9
$XCLIPFRAME
280
     0
  9
$HALOGAP
280
     0
  9
$OBSCOLOR
 70
   257
  9
$OBSLTYPE
280
     0
  9
$INTERSECTIONDISPLAY
280
     0
  9
$INTERSECTIONCOLOR
 70
   257
  9
$DIMASSOC
280
     2
  9
$PROJECTNAME
  1

  9
$CAMERADISPLAY
290
     0
  9
$LENSLENGTH
 40
50.0
  9
$CAMERAHEIGHT
 40
0.0
  9
$STEPSPERSEC
 40
2.0
  9
$STEPSIZE
 40
6.0
  9
$3DDWFPREC
 40
2.0
  9
$PSOLWIDTH
 40
0.25
  9
$PSOLHEIGHT
 40
4.0
  9
$LOFTANG1
 40
1.570796326794896
  9
$LOFTANG2
 40
1.570796326794896
  9
$LOFTMAG1
 40
0.0
  9
$LOFTMAG2
 40
0.0
  9
$LOFTPARAM
 70
     7
  9
$LOFTNORMALS
280
     1
  9
$LATITUDE
 40
37.795
  9
$LONGITUDE
 40
-122.394
  9
$NORTHDIRECTION
 40
0.0
  9
$TIMEZONE
 70
 -8000
  9
$LIGHTGLYPHDISPLAY
280
     1
  9
$TILEMODELIGHTSYNCH
280
     1
  9
$CMATERIAL
347
2762
  9
$SOLIDHIST
280
     1
  9
$SHOWHIST
280
     1
  9
$DWFFRAME
280
     2
  9
$DGNFRAME
280
     0
  9
$REALWORLDSCALE
290
     1
  9
$INTERFERECOLOR
 62
     1
  9
$INTERFEREOBJVS
345
276F
  9
$INTERFEREVPVS
346
276C
  9
$CSHADOW
280
     0
  9
$SHADOWPLANELOCATION
 40
0.0
  0
ENDSEC
  0
SECTION
  2
CLASSES
  0
CLASS
  1
ACDBDICTIONARYWDFLT
  2
AcDbDictionaryWithDefault
  3
ObjectDBX Classes
 90
        0
 91
        1
280
     0
281
     0
  0
CLASS
  1
DICTIONARYVAR
  2
AcDbDictionaryVar
  3
ObjectDBX Classes
 90
        0
 91
       11
280
     0
281
     0
  0
CLASS
  1
DIMASSOC
  2
AcDbDimAssoc
  3
"AcDbDimAssoc|Product Desc:     AcDim ARX App For Dimension|Company:          Autodesk, Inc.|WEB Address:      www.autodesk.com"
 90
        0
 91
        4
280
     0
281
     0
  0
CLASS
  1
PLOTSETTINGS
  2
AcDbPlotSettings
  3
ObjectDBX Classes
 90
        0
 91
        1
280
     0
281
     0
  0
CLASS
  1
MATERIAL
  2
AcDbMaterial
  3
ObjectDBX Classes
 90
     1153
 91
        3
280
     0
281
     0
  0
CLASS
  1
VISUALSTYLE
  2
AcDbVisualStyle
  3
ObjectDBX Classes
 90
     4095
 91
       26
280
     0
281
     0
  0
CLASS
  1
TABLESTYLE
  2
AcDbTableStyle
  3
ObjectDBX Classes
 90
     4095
 91
        2
280
     0
281
     0
  0
CLASS
  1
SORTENTSTABLE
  2
AcDbSortentsTable
  3
ObjectDBX Classes
 90
        0
 91
        2
280
     0
281
     0
  0
CLASS
  1
ACAD_EVALUATION_GRAPH
  2
AcDbEvalGraph
  3
ObjectDBX Classes
 90
     1153
 91
        0
280
     0
281
     0
  0
CLASS
  1
ACAECUSTOBJ
  2
AcAeEditorObj
  3
AcAeEditorObj
 90
     1024
 91
        0
280
     0
281
     0
  0
CLASS
  1
ACDB_DYNAMICBLOCKPURGEPREVENTER_VERSION
  2
AcDbDynamicBlockPurgePreventer
  3
ObjectDBX Classes
 90
     1153
 91
        0
280
     0
281
     0
  0
CLASS
  1
ACAD_TABLE
  2
AcDbTable
  3
ObjectDBX Classes
 90
     1025
 91
        0
280
     0
281
     1
  0
CLASS
  1
SCALE
  2
AcDbScale
  3
ObjectDBX Classes
 90
     1153
 91
       17
280
     0
281
     0
  0
CLASS
  1
MLEADERSTYLE
  2
AcDbMLeaderStyle
  3
ACDB_MLEADERSTYLE_CLASS
 90
     4095
 91
        1
280
     0
281
     0
  0
CLASS
  1
TABLECONTENT
  2
AcDbTableContent
  3
ObjectDBX Classes
 90
     1152
 91
        0
280
     0
281
     0
  0
CLASS
  1
TABLEGEOMETRY
  2
AcDbTableGeometry
  3
ObjectDBX Classes
 90
     1152
 91
        0
280
     0
281
     0
  0
CLASS
  1
ACDBSECTIONVIEWSTYLE
  2
AcDbSectionViewStyle
  3
ObjectDBX Classes
 90
     1025
 91
        1
280
     0
281
     0
  0
CLASS
  1
ACDBDETAILVIEWSTYLE
  2
AcDbDetailViewStyle
  3
ObjectDBX Classes
 90
     1025
 91
        1
280
     0
281
     0
  0
CLASS
  1
CELLSTYLEMAP
  2
AcDbCellStyleMap
  3
ObjectDBX Classes
 90
     1152
 91
        4
280
     0
281
     0
  0
ENDSEC
  0
SECTION
  2
TABLES
  0
TABLE
  2
VPORT
  5
8
330
0
100
AcDbSymbolTable
 70
     1
  0
VPORT
  5
275F
330
8
100
AcDbSymbolTableRecord
100
AcDbViewportTableRecord
  2
*Active
 70
     0
 10
0.0
 20
0.0
 11
1.0
 21
1.0
 12
302.8857760118428
 22
173.2953572587999
 13
0.0
 23
0.0
 14
10.0
 24
10.0
 15
10.0
 25
10.0
 16
0.0
 26
0.0
 36
1.0
 17
0.0
 27
0.0
 37
0.0
 40
261.2269342073499
 41
2.367088607594936
 42
50.0
 43
0.0
 44
0.0
 50
0.0
 51
0.0
 71
     0
 72
   100
 73
     1
 74
     3
 75
     0
 76
     0
 77
     0
 78
     0
281
     0
 65
     1
110
0.0
120
0.0
130
0.0
111
1.0
121
0.0
131
0.0
112
0.0
122
1.0
132
0.0
 79
     0
146
0.0
348
276B
 60
     3
 61
     5
292
     1
282
     1
141
0.0
142
0.0
 63
   250
421
  3355443
1001
ACAD_NAV_VCDISPLAY
1070
     3
  0
ENDTAB
  0
TABLE
  2
LTYPE
  5
5
330
0
100
AcDbSymbolTable
 70
     4
  0
LTYPE
  5
14
330
5
100
AcDbSymbolTableRecord
100
AcDbLinetypeTableRecord
  2
ByBlock
 70
     0
  3

 72
    65
 73
     0
 40
0.0
  0
LTYPE
  5
15
330
5
100
AcDbSymbolTableRecord
100
AcDbLinetypeTableRecord
  2
ByLayer
 70
     0
  3

 72
    65
 73
     0
 40
0.0
  0
LTYPE
  5
16
330
5
100
AcDbSymbolTableRecord
100
AcDbLinetypeTableRecord
  2
Continuous
 70
     0
  3
Solid line
 72
    65
 73
     0
 40
0.0
  0
LTYPE
  5
A5
330
5
100
AcDbSymbolTableRecord
100
AcDbLinetypeTableRecord
  2
CENTER
 70
     0
  3
Center ____ _ ____ _ ____ _ ____ _ ____ _ ____
 72
    65
 73
     4
 40
50.8
 49
31.75
 74
     0
 49
-6.349999999999997
 74
     0
 49
6.349999999999997
 74
     0
 49
-6.349999999999997
 74
     0
  0
LTYPE
  5
A6
330
5
100
AcDbSymbolTableRecord
100
AcDbLinetypeTableRecord
  2
HIDDEN
 70
     0
  3
Hidden __ __ __ __ __ __ __ __ __ __ __ __ __ _
 72
    65
 73
     2
 40
9.524999999999996
 49
6.349999999999997
 74
     0
 49
-3.174999999999998
 74
     0
  0
LTYPE
  5
2365
330
5
100
AcDbSymbolTableRecord
100
AcDbLinetypeTableRecord
  2
DIVIDE
 70
     0
  3
Divide ____ . . ____ . . ____ . . ____ . . ____
 72
    65
 73
     6
 40
31.74999999999999
 49
12.7
 74
     0
 49
-6.349999999999997
 74
     0
 49
0.0
 74
     0
 49
-6.349999999999997
 74
     0
 49
0.0
 74
     0
 49
-6.349999999999997
 74
     0
  0
ENDTAB
  0
TABLE
  2
LAYER
  5
2
102
{ACAD_XDICTIONARY
360
279F
102
}
330
0
100
AcDbSymbolTable
 70
    11
  0
LAYER
  5
10
102
{ACAD_XDICTIONARY
360
24E13
102
}
330
2
100
AcDbSymbolTableRecord
100
AcDbLayerTableRecord
  2
0
 70
     0
 62
     7
  6
Continuous
370
    -3
390
F
347
2764
348
0
  0
LAYER
  5
A7
102
{ACAD_XDICTIONARY
360
24E15
102
}
330
2
100
AcDbSymbolTableRecord
100
AcDbLayerTableRecord
  2
破線
 70
     0
 62
     4
  6
HIDDEN
370
    20
390
F
347
2764
348
0
  0
LAYER
  5
A8
102
{ACAD_XDICTIONARY
360
24E17
102
}
330
2
100
AcDbSymbolTableRecord
100
AcDbLayerTableRecord
  2
一点鎖線
 70
     0
 62
     5
  6
CENTER
370
    15
390
F
347
2764
348
0
  0
LAYER
  5
A9
102
{ACAD_XDICTIONARY
360
24E19
102
}
330
2
100
AcDbSymbolTableRecord
100
AcDbLayerTableRecord
  2
補助線
 70
     0
 62
     8
  6
Continuous
290
     0
370
    -3
390
F
347
2764
348
0
  0
LAYER
  5
AA
102
{ACAD_XDICTIONARY
360
24E1B
102
}
330
2
100
AcDbSymbolTableRecord
100
AcDbLayerTableRecord
  2
実線
 70
     0
 62
     7
  6
Continuous
370
    -3
390
F
347
2764
348
0
  0
LAYER
  5
AB
102
{ACAD_XDICTIONARY
360
24E1D
102
}
330
2
100
AcDbSymbolTableRecord
100
AcDbLayerTableRecord
  2
寸法
 70
     0
 62
     3
  6
Continuous
370
    15
390
F
347
2764
348
0
  0
LAYER
  5
AC
102
{ACAD_XDICTIONARY
360
24E1F
102
}
330
2
100
AcDbSymbolTableRecord
100
AcDbLayerTableRecord
  2
文字
 70
     0
 62
     2
  6
Continuous
370
    15
390
F
347
2764
348
0
  0
LAYER
  5
185
330
2
100
AcDbSymbolTableRecord
100
AcDbLayerTableRecord
  2
Defpoints
 70
     0
 62
     7
  6
Continuous
290
     0
370
    -3
390
F
347
2764
348
0
  0
LAYER
  5
58C
102
{ACAD_XDICTIONARY
360
24E21
102
}
330
2
100
AcDbSymbolTableRecord
100
AcDbLayerTableRecord
  2
細線
 70
     0
 62
     6
  6
Continuous
370
     9
390
F
347
2764
348
0
  0
LAYER
  5
1023
102
{ACAD_XDICTIONARY
360
24E23
102
}
330
2
100
AcDbSymbolTableRecord
100
AcDbLayerTableRecord
  2
太線
 70
     0
 62
     3
  6
Continuous
370
    40
390
F
347
2764
348
0
  0
LAYER
  5
2366
102
{ACAD_XDICTIONARY
360
24E25
102
}
330
2
100
AcDbSymbolTableRecord
100
AcDbLayerTableRecord
  2
二点鎖線
 70
     0
 62
     1
  6
DIVIDE
370
    20
390
F
347
2764
348
0
  0
ENDTAB
  0
TABLE
  2
STYLE
  5
3
330
0
100
AcDbSymbolTable
 70
    17
  0
STYLE
  5
11
330
3
100
AcDbSymbolTableRecord
100
AcDbTextStyleTableRecord
  2
Standard
 70
     0
 40
2.5
 41
0.8
 50
0.0
 71
     0
 42
2.5
  3
romans.shx
  4
bigfont.shx
  0
STYLE
  5
A4
330
3
100
AcDbSymbolTableRecord
100
AcDbTextStyleTableRecord
  2

 70
     1
 40
0.0
 41
1.0
 50
0.0
 71
     0
 42
2.5
  3
ltypeshp.shx
  4

  0
STYLE
  5
2A5
330
3
100
AcDbSymbolTableRecord
100
AcDbTextStyleTableRecord
  2
寸法
 70
     0
 40
0.0
 41
0.75
 50
0.0
 71
     0
 42
2.5
  3
romans.shx
  4
bigfont.shx
  0
STYLE
  5
109D
330
3
100
AcDbSymbolTableRecord
100
AcDbTextStyleTableRecord
  2
縦書き
 70
     4
 40
3.0
 41
0.8
 50
0.0
 71
     0
 42
3.0
  3
romans.shx
  4
bigfont.shx
  0
STYLE
  5
10EC
330
3
100
AcDbSymbolTableRecord
100
AcDbTextStyleTableRecord
  2
ｽﾀｲﾙ1
 70
     0
 40
3.0
 41
0.8
 50
0.0
 71
     0
 42
3.0
  3
romans.shx
  4
bigfont.shx
  0
STYLE
  5
114D
330
3
100
AcDbSymbolTableRecord
100
AcDbTextStyleTableRecord
  2
ｽﾀｲﾙ2
 70
     0
 40
9.0
 41
1.0
 50
0.0
 71
     0
 42
9.0
  3
swisscbo.ttf
  4

1001
ACAD
1000
Swis721 BdCnOul BT
1071
       82
  0
STYLE
  5
2367
330
3
100
AcDbSymbolTableRecord
100
AcDbTextStyleTableRecord
  2
ｽﾀｲﾙ3
 70
     0
 40
2.0
 41
1.0
 50
0.0
 71
     0
 42
2.0
  3
isocp.shx
  4
bigfont.shx
  0
STYLE
  5
2368
330
3
100
AcDbSymbolTableRecord
100
AcDbTextStyleTableRecord
  2
ｽﾀｲﾙ4
 70
     0
 40
4.5
 41
1.0
 50
0.0
 71
     0
 42
4.5
  3
swisscbo.ttf
  4

1001
ACAD
1000
Swis721 BdCnOul BT
1071
       82
  0
STYLE
  5
3AB5
330
3
100
AcDbSymbolTableRecord
100
AcDbTextStyleTableRecord
  2
スタイル1
 70
     0
 40
3.0
 41
0.8
 50
0.0
 71
     0
 42
3.0
  3
romans.shx
  4
bigfont.shx
  0
STYLE
  5
3E4F
330
3
100
AcDbSymbolTableRecord
100
AcDbTextStyleTableRecord
  2
hhhhhhhhhhhhhhhhhh
 70
     0
 40
1.5
 41
0.8
 50
0.0
 71
     0
 42
1.0
  3
bold.shx
  4
bigfont.shx
  0
STYLE
  5
3E50
330
3
100
AcDbSymbolTableRecord
100
AcDbTextStyleTableRecord
  2
書き込み
 70
     0
 40
2.5
 41
0.75
 50
0.0
 71
     0
 42
1.0
  3
romand.shx
  4
bigfont.shx
  0
STYLE
  5
24822
330
3
100
AcDbSymbolTableRecord
100
AcDbTextStyleTableRecord
  2
ﾛｺﾞ
 70
     0
 40
14.0
 41
0.7
 50
0.0
 71
     0
 42
2.5
  3
swisscbo.ttf
  4

1001
ACAD
1000
Swis721 BdCnOul BT
1071
       82
  0
STYLE
  5
264FC
330
3
100
AcDbSymbolTableRecord
100
AcDbTextStyleTableRecord
  2
寸法２
 70
     0
 40
1.8
 41
0.8
 50
0.0
 71
     0
 42
1.8
  3
romans.shx
  4
bigfont.shx
  0
STYLE
  5
264FD
330
3
100
AcDbSymbolTableRecord
100
AcDbTextStyleTableRecord
  2
カシケイ
 70
     0
 40
3.0
 41
0.8
 50
0.0
 71
     0
 42
2.5
  3
swisscbo.ttf
  4

1001
ACAD
1000
Swis721 BdCnOul BT
1071
       82
  0
STYLE
  5
29418
330
3
100
AcDbSymbolTableRecord
100
AcDbTextStyleTableRecord
  2
スタイル6
 70
     0
 40
3.0
 41
1.0
 50
0.0
 71
     0
 42
3.0
  3
swissc.ttf
  4

1001
ACAD
1000
Swis721 Cn BT
1071
       34
  0
STYLE
  5
29419
330
3
100
AcDbSymbolTableRecord
100
AcDbTextStyleTableRecord
  2
スタイル3
 70
     0
 40
9.0
 41
1.0
 50
0.0
 71
     0
 42
2.5
  3
swisscbo.ttf
  4

1001
ACAD
1000
Swis721 BdCnOul BT
1071
       82
  0
ENDTAB
  0
TABLE
  2
VIEW
  5
6
330
0
100
AcDbSymbolTable
 70
     0
  0
ENDTAB
  0
TABLE
  2
UCS
  5
7
330
0
100
AcDbSymbolTable
 70
     0
  0
ENDTAB
  0
TABLE
  2
APPID
  5
9
330
0
100
AcDbSymbolTable
 70
    12
  0
APPID
  5
12
330
9
100
AcDbSymbolTableRecord
100
AcDbRegAppTableRecord
  2
ACAD
 70
     0
  0
APPID
  5
2789
330
9
100
AcDbSymbolTableRecord
100
AcDbRegAppTableRecord
  2
ACAD_PSEXT
 70
     0
  0
APPID
  5
28B6
330
9
100
AcDbSymbolTableRecord
100
AcDbRegAppTableRecord
  2
ACAD_EXEMPT_FROM_CAD_STANDARDS
 70
     0
  0
APPID
  5
2977
330
9
100
AcDbSymbolTableRecord
100
AcDbRegAppTableRecord
  2
ACAUTHENVIRON
 70
     0
  0
APPID
  5
29B0
330
9
100
AcDbSymbolTableRecord
100
AcDbRegAppTableRecord
  2
AcDbDynamicBlockTrueName
 70
     0
  0
APPID
  5
29B1
330
9
100
AcDbSymbolTableRecord
100
AcDbRegAppTableRecord
  2
AcDbDynamicBlockGUID
 70
     0
  0
APPID
  5
29B3
330
9
100
AcDbSymbolTableRecord
100
AcDbRegAppTableRecord
  2
AcDbBlockRepETag
 70
     0
  0
APPID
  5
24823
330
9
100
AcDbSymbolTableRecord
100
AcDbRegAppTableRecord
  2
ACAD_DSTYLE_DIMJAG
 70
     0
  0
APPID
  5
24824
330
9
100
AcDbSymbolTableRecord
100
AcDbRegAppTableRecord
  2
ACAD_DSTYLE_DIMTALN
 70
     0
  0
APPID
  5
2867E
330
9
100
AcDbSymbolTableRecord
100
AcDbRegAppTableRecord
  2
ACAD_DSTYLE_DIMRADIAL_EXTENSION
 70
     0
  0
APPID
  5
2A28D
330
9
100
AcDbSymbolTableRecord
100
AcDbRegAppTableRecord
  2
AcadAnnoPO
 70
     0
  0
APPID
  5
2A8AE
330
9
100
AcDbSymbolTableRecord
100
AcDbRegAppTableRecord
  2
ACAD_NAV_VCDISPLAY
 70
     0
  0
ENDTAB
  0
TABLE
  2
DIMSTYLE
  5
A
330
0
100
AcDbSymbolTable
 70
     3
100
AcDbDimStyleTable
 71
     2
340
FF
340
27
  0
DIMSTYLE
105
27
330
A
100
AcDbSymbolTableRecord
100
AcDbDimStyleTableRecord
  2
ISO-25
 70
     0
 41
2.5
 42
0.625
 43
3.75
 44
1.25
 73
     0
 74
     0
 77
     1
 78
     8
140
2.5
141
2.5
143
0.03937007874016
147
0.625
171
     3
172
     1
271
     2
272
     2
274
     3
278
    44
283
     0
284
     8
340
11
  0
DIMSTYLE
105
FF
102
{ACAD_REACTORS
330
2A15C
330
2A2CA
330
2A2E2
330
2A713
102
}
330
A
100
AcDbSymbolTableRecord
100
AcDbDimStyleTableRecord
  2
ｺﾋﾟｰ - ISO-25
 70
     0
 41
2.5
 42
0.625
 43
3.75
 44
1.25
 73
     0
 74
     0
 77
     1
 78
     8
140
3.5
141
2.5
143
0.03937007874016
147
1.0
171
     3
172
     1
178
     2
271
     1
272
     1
274
     3
283
     0
284
     8
340
2A5
1001
ACAD_DSTYLE_DIMJAG
1070
   388
1040
1.5
1001
ACAD_DSTYLE_DIMTALN
1070
   392
1070
     0
  0
ENDTAB
  0
TABLE
  2
BLOCK_RECORD
  5
1
330
0
100
AcDbSymbolTable
 70
    12
  0
BLOCK_RECORD
  5
1F
102
{ACAD_XDICTIONARY
360
2D98
102
}
330
1
100
AcDbSymbolTableRecord
100
AcDbBlockTableRecord
  2
*Model_Space
340
22
 70
     0
280
     1
281
     0
  0
BLOCK_RECORD
  5
50
330
1
100
AcDbSymbolTableRecord
100
AcDbBlockTableRecord
  2
*Paper_Space
340
51
 70
     0
280
     1
281
     0
  0
BLOCK_RECORD
  5
55
330
1
100
AcDbSymbolTableRecord
100
AcDbBlockTableRecord
  2
*Paper_Space0
340
56
 70
     0
280
     1
281
     0
  0
BLOCK_RECORD
  5
341
102
{ACAD_XDICTIONARY
360
29CF
102
}
330
1
100
AcDbSymbolTableRecord
100
AcDbBlockTableRecord
  2
_None
340
0
 70
     0
280
     1
281
     0
1001
AcDbDynamicBlockGUID
1000
{FDCFC2F5-9095-49BF-99B6-274B4C3B84BC}
1001
AcDbBlockRepETag
1070
     1
1071
       24
  0
BLOCK_RECORD
  5
429
330
1
100
AcDbSymbolTableRecord
100
AcDbBlockTableRecord
  2
_DotSmall
340
0
 70
     0
280
     1
281
     0
  0
BLOCK_RECORD
  5
10CB
330
1
100
AcDbSymbolTableRecord
100
AcDbBlockTableRecord
  2
mark
340
0
310
2800000020000000200000000100080000000000000400000000000000000000000000000000000000000000000080000080000000808000800000008000800080800000C0C0C000C0DCC000F0CAA6000020400000206000002080000020A0000020C0000020E00000400000004020000040400000406000004080000040A0
310
000040C0000040E00000600000006020000060400000606000006080000060A0000060C0000060E00000800000008020000080400000806000008080000080A0000080C0000080E00000A0000000A0200000A0400000A0600000A0800000A0A00000A0C00000A0E00000C0000000C0200000C0400000C0600000C0800000C0
310
A00000C0C00000C0E00000E0000000E0200000E0400000E0600000E0800000E0A00000E0C00000E0E00040000000400020004000400040006000400080004000A0004000C0004000E00040200000402020004020400040206000402080004020A0004020C0004020E000404000004040200040404000404060004040800040
310
40A0004040C0004040E00040600000406020004060400040606000406080004060A0004060C0004060E00040800000408020004080400040806000408080004080A0004080C0004080E00040A0000040A0200040A0400040A0600040A0800040A0A00040A0C00040A0E00040C0000040C0200040C0400040C0600040C08000
310
40C0A00040C0C00040C0E00040E0000040E0200040E0400040E0600040E0800040E0A00040E0C00040E0E00080000000800020008000400080006000800080008000A0008000C0008000E00080200000802020008020400080206000802080008020A0008020C0008020E00080400000804020008040400080406000804080
310
008040A0008040C0008040E00080600000806020008060400080606000806080008060A0008060C0008060E00080800000808020008080400080806000808080008080A0008080C0008080E00080A0000080A0200080A0400080A0600080A0800080A0A00080A0C00080A0E00080C0000080C0200080C0400080C0600080C0
310
800080C0A00080C0C00080C0E00080E0000080E0200080E0400080E0600080E0800080E0A00080E0C00080E0E000C0000000C0002000C0004000C0006000C0008000C000A000C000C000C000E000C0200000C0202000C0204000C0206000C0208000C020A000C020C000C020E000C0400000C0402000C0404000C0406000C0
310
408000C040A000C040C000C040E000C0600000C0602000C0604000C0606000C0608000C060A000C060C000C060E000C0800000C0802000C0804000C0806000C0808000C080A000C080C000C080E000C0A00000C0A02000C0A04000C0A06000C0A08000C0A0A000C0A0C000C0A0E000C0C00000C0C02000C0C04000C0C06000
310
C0C08000C0C0A000F0FBFF00A4A0A000808080000000FF0000FF000000FFFF00FF000000FF00FF00FFFF0000FFFFFF0000000000000000000000000000000000000000000000000000000000000000000000000000000000000000000000000000000000000000000000000000000000000000000000000000000000000000
310
00000000000000000000000000000000000000000000000000000000000000000000000000000000000000000000000000000000000000000000000000000000000000000000000000000000000000000000000000000000000000000000000000000000000000000000000000000000000000000000000000000000000000
310
FF0000FF0000000000000000000000000000000000000000000000000000FFFFFF0000FFFFFF0000000000000000000000000000000000000000000000FF0000FF0000FF0000FF0000000000000000000000000000000000000000FFFF0000FF00000000FF0000FFFF0000000000000000000000000000000000FF0000FFFF
310
000000FF0000FFFF0000FF000000000000000000FFFFFFFF0000FF0000FF000000FFFF00FF000000FF0000FF0000FFFFFFFF0000FF0000FFFFFF0000FF000000FF00000000FF000000FF0000FFFFFF0000FF0000FF0000FF000000FF000000FF00FFFFFFFF00FF000000FF000000FF0000FF0000FF00000000FFFF00000000
310
FF00FF0000FF00FF00000000FFFF00000000FF0000FF000000FF000000000000FF00FF0000FF00FF000000000000FF000000FF0000FF0000FF00000000000000FF00FF0000FF00FF00000000000000FF0000FF0000FF000000FFFF0000000000FF00FF0000FF00FF0000000000FFFF000000FF0000FF0000FF0000FF000000
310
00FF00FFFFFFFF00FF00000000FF0000FF0000FF0000FF0000FFFFFF00FF00000000FFFF000000FF00000000FF00FFFFFF0000FF0000FFFFFFFF0000FF00FFFF00000000FF00FF000000FFFF00FF0000FFFFFFFF000000000000000000FF0000FF00000000FF000000FF0000FF0000000000000000000000000000000000FF
310
FF00FFFF00000000FFFF00FFFF0000000000000000000000000000000000000000FF0000FF0000FF0000FF0000000000000000000000000000000000000000000000FFFFFF0000FFFFFF0000000000000000000000000000000000000000000000000000FF0000FF0000000000000000000000000000000000000000000000
310
00000000000000000000000000000000000000000000000000000000000000000000000000000000000000000000000000000000000000000000000000000000000000000000000000000000000000000000000000000000000000000000000000000000000000000000000000000000000000000000000000000000000000
310
0000000000000000000000000000000000000000000000000000000000000000000000000000000000000000000000000000000000000000
102
{BLKREFS
331
2A6F5
102
}
 70
     4
280
     1
281
     0
  0
BLOCK_RECORD
  5
2D20
330
1
100
AcDbSymbolTableRecord
100
AcDbBlockTableRecord
  2
A$C34DA08B7
340
0
 70
     4
280
     1
281
     0
  0
BLOCK_RECORD
  5
2D24
330
1
100
AcDbSymbolTableRecord
100
AcDbBlockTableRecord
  2
A$C04A47E41
340
0
 70
     4
280
     1
281
     0
  0
BLOCK_RECORD
  5
2D46
330
1
100
AcDbSymbolTableRecord
100
AcDbBlockTableRecord
  2
A$C2FFA21FC
340
0
 70
     4
280
     1
281
     0
  0
BLOCK_RECORD
  5
2A17B
330
1
100
AcDbSymbolTableRecord
100
AcDbBlockTableRecord
  2
*D7
340
0
 70
     0
280
     1
281
     0
  0
BLOCK_RECORD
  5
2A2CB
330
1
100
AcDbSymbolTableRecord
100
AcDbBlockTableRecord
  2
*D8
340
0
 70
     0
280
     1
281
     0
  0
BLOCK_RECORD
  5
2A2E3
330
1
100
AcDbSymbolTableRecord
100
AcDbBlockTableRecord
  2
*D9
340
0
 70
     0
280
     1
281
     0
  0
BLOCK_RECORD
  5
2A716
330
1
100
AcDbSymbolTableRecord
100
AcDbBlockTableRecord
  2
*D10
340
0
 70
     0
280
     1
281
     0
  0
ENDTAB
  0
ENDSEC
  0
SECTION
  2
BLOCKS
  0
BLOCK
  5
20
330
1F
100
AcDbEntity
  8
0
100
AcDbBlockBegin
  2
*Model_Space
 70
     0
 10
0.0
 20
0.0
 30
0.0
  3
*Model_Space
  1

  0
ENDBLK
  5
21
330
1F
100
AcDbEntity
  8
0
100
AcDbBlockEnd
  0
BLOCK
  5
52
330
50
100
AcDbEntity
 67
     1
  8
0
100
AcDbBlockBegin
  2
*Paper_Space
 70
     0
 10
0.0
 20
0.0
 30
0.0
  3
*Paper_Space
  1

  0
ENDBLK
  5
53
330
50
100
AcDbEntity
 67
     1
  8
0
100
AcDbBlockEnd
  0
BLOCK
  5
57
330
55
100
AcDbEntity
 67
     1
  8
0
100
AcDbBlockBegin
  2
*Paper_Space0
 70
     0
 10
0.0
 20
0.0
 30
0.0
  3
*Paper_Space0
  1

  0
VIEWPORT
  5
71
330
55
100
AcDbEntity
 67
     1
  8
0
348
276B
100
AcDbViewport
 10
133.3499908447265
 20
101.5999970436096
 30
0.0
 40
381.3957395593834
 41
218.2856291881582
 68
     0
 69
     0
 12
133.3499908447265
 22
101.5999970436096
 13
0.0
 23
0.0
 14
10.0
 24
10.0
 15
10.0
 25
10.0
 16
0.0
 26
0.0
 36
1.0
 17
0.0
 27
0.0
 37
0.0
 42
50.0
 43
0.0
 44
0.0
 45
218.2856291881582
 50
0.0
 51
0.0
 72
   100
 90
    32800
  1

281
     0
 71
     1
 74
     0
110
0.0
120
0.0
130
0.0
111
1.0
121
0.0
131
0.0
112
0.0
122
1.0
132
0.0
 79
     0
146
0.0
170
     0
 61
     5
292
     1
282
     1
141
0.0
142
0.0
 63
   250
421
  3355443
  0
VIEWPORT
  5
73
330
55
100
AcDbEntity
 67
     1
  8
0
348
276B
100
AcDbViewport
 10
133.349993944168
 20
101.599993944168
 30
0.0
 40
213.3599903106689
 41
162.5599903106689
 68
     0
 69
     0
 12
210.0
 22
148.5
 13
0.0
 23
0.0
 14
10.0
 24
10.0
 15
10.0
 25
10.0
 16
0.0
 26
0.0
 36
1.0
 17
0.0
 27
0.0
 37
0.0
 42
50.0
 43
0.0
 44
0.0
 45
324.0677920111345
 50
0.0
 51
0.0
 72
   100
 90
    32864
  1

281
     0
 71
     1
 74
     0
110
0.0
120
0.0
130
0.0
111
1.0
121
0.0
131
0.0
112
0.0
122
1.0
132
0.0
 79
     0
146
0.0
170
     0
 61
     5
292
     1
282
     1
141
0.0
142
0.0
 63
   250
421
  3355443
  0
ENDBLK
  5
58
330
55
100
AcDbEntity
 67
     1
  8
0
100
AcDbBlockEnd
  0
BLOCK
  5
342
330
341
100
AcDbEntity
  8
0
100
AcDbBlockBegin
  2
_None
 70
     0
 10
0.0
 20
0.0
 30
0.0
  3
_None
  1

  0
LINE
  5
29B7
102
{ACAD_REACTORS
330
29F6
102
}
330
341
100
AcDbEntity
  8
0
100
AcDbLine
 10
7.618927466172911
 20
14.9090276980656
 30
0.0
 11
13.53608213148402
 21
23.35960033891454
 31
0.0
1001
AcDbBlockRepETag
1070
     1
1071
        0
1005
29B7
  0
LINE
  5
29B8
102
{ACAD_REACTORS
330
29F6
102
}
330
341
100
AcDbEntity
  8
0
100
AcDbLine
 10
7.618927466172911
 20
14.9090276980656
 30
0.0
 11
8.516181951946554
 21
13.62761549266754
 31
0.0
1001
AcDbBlockRepETag
1070
     1
1071
        1
1005
29B8
  0
LINE
  5
29B9
102
{ACAD_REACTORS
330
29F6
102
}
330
341
100
AcDbEntity
  8
0
100
AcDbLine
 10
21.97323679679512
 20
14.90902769806559
 30
0.0
 11
21.07598231102148
 21
16.19043990346365
 31
0.0
1001
AcDbBlockRepETag
1070
     1
1071
        2
1005
29B9
  0
LINE
  5
29BA
102
{ACAD_REACTORS
330
29F6
102
}
330
341
100
AcDbEntity
  8
0
100
AcDbLine
 10
21.97323679679512
 20
14.90902769806559
 30
0.0
 11
16.056082131484
 21
6.458455057216696
 31
0.0
1001
AcDbBlockRepETag
1070
     1
1071
        3
1005
29BA
  0
LINE
  5
29BB
102
{ACAD_REACTORS
330
29F6
102
}
330
341
100
AcDbEntity
  8
0
100
AcDbLine
 10
15.556082131484
 20
21.42363521294154
 30
0.0
 11
19.54408298552672
 21
15.72817974235458
 31
0.0
1001
AcDbBlockRepETag
1070
     1
1071
        4
1005
29BB
  0
LINE
  5
29BC
102
{ACAD_REACTORS
330
29F6
102
}
330
341
100
AcDbEntity
  8
0
100
AcDbLine
 10
9.761293059265804
 20
14.49945167592111
 30
0.0
 11
8.516181951946544
 21
13.62761549266753
 31
0.0
1001
AcDbBlockRepETag
1070
     1
1071
        5
1005
29BC
  0
LINE
  5
29BD
102
{ACAD_REACTORS
330
29F6
102
}
330
341
100
AcDbEntity
  8
0
100
AcDbLine
 10
10.04808127744132
 20
14.08987565377662
 30
0.0
 11
8.802970170122067
 21
13.21803947052303
 31
0.0
1001
AcDbBlockRepETag
1070
     1
1071
        6
1005
29BD
  0
LINE
  5
29BE
102
{ACAD_REACTORS
330
29F6
102
}
330
341
100
AcDbEntity
  8
0
100
AcDbLine
 10
14.03608213148402
 20
5.744381053845643
 30
0.0
 11
14.03608213148402
 21
24.07367434228561
 31
0.0
1001
AcDbBlockRepETag
1070
     1
1071
        7
1005
29BE
  0
LINE
  5
29BF
102
{ACAD_REACTORS
330
29F6
102
}
330
341
100
AcDbEntity
  8
0
100
AcDbLine
 10
15.556082131484
 20
5.744381053845647
 30
0.0
 11
15.556082131484
 21
21.42363521294154
 31
0.0
1001
AcDbBlockRepETag
1070
     1
1071
        8
1005
29BF
  0
LINE
  5
29C0
102
{ACAD_REACTORS
330
29F6
102
}
330
341
100
AcDbEntity
  8
0
100
AcDbLine
 10
13.53608213148402
 20
6.458455057216702
 30
0.0
 11
13.53608213148402
 21
9.108494186560758
 31
0.0
1001
AcDbBlockRepETag
1070
     1
1071
        9
1005
29C0
  0
LINE
  5
29C1
102
{ACAD_REACTORS
330
29F6
102
}
330
341
100
AcDbEntity
  8
0
100
AcDbLine
 10
16.056082131484
 20
6.458455057216702
 30
0.0
 11
16.056082131484
 21
9.108494186560747
 31
0.0
1001
AcDbBlockRepETag
1070
     1
1071
       10
1005
29C1
  0
LINE
  5
29C2
102
{ACAD_REACTORS
330
29F6
102
}
330
341
100
AcDbEntity
  8
0
100
AcDbLine
 10
14.03608213148402
 20
24.0736743422856
 30
0.0
 11
14.79608213148402
 21
25.15906682740961
 31
0.0
1001
AcDbBlockRepETag
1070
     1
1071
       11
1005
29C2
  0
LINE
  5
29C3
102
{ACAD_REACTORS
330
29F6
102
}
330
341
100
AcDbEntity
  8
0
100
AcDbLine
 10
13.53608213148402
 20
20.70956120957047
 30
0.0
 11
9.474504841090279
 21
14.90902769806561
 31
0.0
1001
AcDbBlockRepETag
1070
     1
1071
       12
1005
29C3
  0
LINE
  5
29C4
102
{ACAD_REACTORS
330
29F6
102
}
330
341
100
AcDbEntity
  8
0
100
AcDbLine
 10
16.056082131484
 20
9.108494186560752
 30
0.0
 11
20.11765942187774
 21
14.90902769806561
 31
0.0
1001
AcDbBlockRepETag
1070
     1
1071
       13
1005
29C4
  0
LINE
  5
29C5
102
{ACAD_REACTORS
330
29F6
102
}
330
341
100
AcDbEntity
  8
0
100
AcDbLine
 10
15.556082131484
 20
5.744381053845644
 30
0.0
 11
14.79608213148401
 21
4.658988568721648
 31
0.0
1001
AcDbBlockRepETag
1070
     1
1071
       14
1005
29C5
  0
LINE
  5
29C6
102
{ACAD_REACTORS
330
29F6
102
}
330
341
100
AcDbEntity
  8
0
100
AcDbLine
 10
14.03608213148402
 20
5.744381053845644
 30
0.0
 11
14.79608213148401
 21
4.658988568721648
 31
0.0
1001
AcDbBlockRepETag
1070
     1
1071
       15
1005
29C6
  0
LINE
  5
29C7
102
{ACAD_REACTORS
330
29F6
102
}
330
341
100
AcDbEntity
  8
0
100
AcDbLine
 10
8.802970170122078
 20
13.21803947052304
 30
0.0
 11
13.53608213148402
 21
6.458455057216702
 31
0.0
1001
AcDbBlockRepETag
1070
     1
1071
       16
1005
29C7
  0
LINE
  5
29C8
102
{ACAD_REACTORS
330
29F6
102
}
330
341
100
AcDbEntity
  8
0
100
AcDbLine
 10
10.04808127744132
 20
14.08987565377662
 30
0.0
 11
13.53608213148402
 21
9.10849418656076
 31
0.0
1001
AcDbBlockRepETag
1070
     1
1071
       17
1005
29C8
  0
LINE
  5
29C9
102
{ACAD_REACTORS
330
29F6
102
}
330
341
100
AcDbEntity
  8
0
100
AcDbLine
 10
13.53608213148402
 20
20.70956120957048
 30
0.0
 11
13.53608213148402
 21
23.35960033891454
 31
0.0
1001
AcDbBlockRepETag
1070
     1
1071
       18
1005
29C9
  0
LINE
  5
29CA
102
{ACAD_REACTORS
330
29F6
102
}
330
341
100
AcDbEntity
  8
0
100
AcDbLine
 10
19.83087120370222
 20
15.31860372021007
 30
0.0
 11
21.07598231102148
 21
16.19043990346365
 31
0.0
1001
AcDbBlockRepETag
1070
     1
1071
       19
1005
29CA
  0
LINE
  5
29CB
102
{ACAD_REACTORS
330
29F6
102
}
330
341
100
AcDbEntity
  8
0
100
AcDbLine
 10
19.54408298552669
 20
15.72817974235456
 30
0.0
 11
20.78919409284595
 21
16.60001592560815
 31
0.0
1001
AcDbBlockRepETag
1070
     1
1071
       20
1005
29CB
  0
LINE
  5
29CC
102
{ACAD_REACTORS
330
29F6
102
}
330
341
100
AcDbEntity
  8
0
100
AcDbLine
 10
19.83087120370224
 20
15.31860372021007
 30
0.0
 11
20.11765942187774
 21
14.90902769806561
 31
0.0
1001
AcDbBlockRepETag
1070
     1
1071
       21
1005
29CC
  0
LINE
  5
29CD
102
{ACAD_REACTORS
330
29F6
102
}
330
341
100
AcDbEntity
  8
0
100
AcDbLine
 10
20.78919409284596
 20
16.60001592560815
 30
0.0
 11
14.79608213148402
 21
25.15906682740961
 31
0.0
1001
AcDbBlockRepETag
1070
     1
1071
       22
1005
29CD
  0
LINE
  5
29CE
102
{ACAD_REACTORS
330
29F6
102
}
330
341
100
AcDbEntity
  8
0
100
AcDbLine
 10
9.761293059265804
 20
14.49945167592111
 30
0.0
 11
9.474504841090279
 21
14.90902769806561
 31
0.0
1001
AcDbBlockRepETag
1070
     1
1071
       23
1005
29CE
  0
ENDBLK
  5
343
330
341
100
AcDbEntity
  8
0
100
AcDbBlockEnd
  0
BLOCK
  5
42B
330
429
100
AcDbEntity
  8
0
100
AcDbBlockBegin
  2
_DotSmall
 70
     0
 10
0.0
 20
0.0
 30
0.0
  3
_DotSmall
  1

  0
LWPOLYLINE
  5
42A
330
429
100
AcDbEntity
  8
0
  6
ByBlock
 62
     0
100
AcDbPolyline
 90
        2
 70
     1
 43
0.5
 10
-0.0625
 20
0.0
 42
1.0
 10
0.0625
 20
0.0
 42
1.0
  0
ENDBLK
  5
42C
330
429
100
AcDbEntity
  8
0
100
AcDbBlockEnd
  0
BLOCK
  5
10EA
330
10CB
100
AcDbEntity
  8
0
100
AcDbBlockBegin
  2
mark
 70
     0
 10
0.0
 20
0.0
 30
0.0
  3
mark
  1

  4
柏原計器(株)マーク
  0
LINE
  5
10CC
330
10CB
100
AcDbEntity
  8
実線
100
AcDbLine
 10
45.0
 20
-8.5
 30
0.0
 11
27.0
 21
-21.10373568777475
 31
0.0
  0
LINE
  5
10CD
330
10CB
100
AcDbEntity
  8
実線
100
AcDbLine
 10
45.0
 20
-8.5
 30
0.0
 11
27.0
 21
4.103735687774785
 31
0.0
  0
LINE
  5
10CE
330
10CB
100
AcDbEntity
  8
実線
100
AcDbLine
 10
46.0
 20
-4.317109183163836
 30
0.0
 11
27.0
 21
8.986834042820532
 31
0.0
  0
LINE
  5
10CF
330
10CB
100
AcDbEntity
  8
実線
100
AcDbLine
 10
46.0
 20
-12.6828908168361
 30
0.0
 11
27.0
 21
-25.9868340428206
 31
0.0
  0
LINE
  5
10D0
330
10CB
100
AcDbEntity
  8
実線
100
AcDbLine
 10
5.0
 20
-8.5
 30
0.0
 11
23.0
 21
-21.10373568777475
 31
0.0
  0
LINE
  5
10D1
330
10CB
100
AcDbEntity
  8
実線
100
AcDbLine
 10
4.0
 20
-12.6828908168361
 30
0.0
 11
22.99999999999994
 21
-25.98683404282056
 31
0.0
  0
LINE
  5
10D2
330
10CB
100
AcDbEntity
  8
実線
100
AcDbLine
 10
5.0
 20
-8.5
 30
0.0
 11
23.0
 21
4.103735687774785
 31
0.0
  0
LINE
  5
10D3
330
10CB
100
AcDbEntity
  8
実線
100
AcDbLine
 10
4.0
 20
-4.317109183163863
 30
0.0
 11
23.0
 21
8.986834042820587
 31
0.0
  0
LINE
  5
10D4
330
10CB
100
AcDbEntity
  8
実線
100
AcDbLine
 10
4.0
 20
-4.317109183163863
 30
0.0
 11
4.0
 21
0.0
 31
0.0
  0
LINE
  5
10D5
330
10CB
100
AcDbEntity
  8
実線
100
AcDbLine
 10
0.0
 20
0.0
 30
0.0
 11
0.0
 21
-17.0
 31
0.0
  0
LINE
  5
10D6
330
10CB
100
AcDbEntity
  8
実線
100
AcDbLine
 10
0.0
 20
-17.0
 30
0.0
 11
4.0
 21
-17.0
 31
0.0
  0
LINE
  5
10D7
330
10CB
100
AcDbEntity
  8
実線
100
AcDbLine
 10
4.0
 20
-17.0
 30
0.0
 11
4.0
 21
-12.6828908168361
 31
0.0
  0
LINE
  5
10D8
330
10CB
100
AcDbEntity
  8
実線
100
AcDbLine
 10
4.0
 20
0.0
 30
0.0
 11
0.0
 21
0.0
 31
0.0
  0
LINE
  5
10D9
330
10CB
100
AcDbEntity
  8
実線
100
AcDbLine
 10
27.0
 20
-21.10373568777475
 30
0.0
 11
27.0
 21
-25.9868340428206
 31
0.0
  0
LINE
  5
10DA
330
10CB
100
AcDbEntity
  8
実線
100
AcDbLine
 10
23.0
 20
-21.1037356877747
 30
0.0
 11
22.99999999999994
 21
-25.98683404282056
 31
0.0
  0
ARC
  5
10DB
330
10CB
100
AcDbEntity
  8
実線
100
AcDbCircle
 10
25.0
 20
-12.5
 30
0.0
 40
6.0
100
AcDbArc
 50
180.0
 51
0.0
  0
ARC
  5
10DC
330
10CB
100
AcDbEntity
  8
実線
100
AcDbCircle
 10
25.0
 20
-12.5
 30
0.0
 40
3.0
100
AcDbArc
 50
180.0
 51
0.0
  0
ARC
  5
10DD
330
10CB
100
AcDbEntity
  8
実線
100
AcDbCircle
 10
25.0
 20
-4.5
 30
0.0
 40
6.0
100
AcDbArc
 50
0.0
 51
180.0
  0
ARC
  5
10DE
330
10CB
100
AcDbEntity
  8
実線
100
AcDbCircle
 10
25.0
 20
-4.5
 30
0.0
 40
3.0
100
AcDbArc
 50
0.0
 51
180.0
  0
LINE
  5
10DF
330
10CB
100
AcDbEntity
  8
実線
100
AcDbLine
 10
22.0
 20
-4.499999999999943
 30
0.0
 11
22.0
 21
-12.50000000000005
 31
0.0
  0
LINE
  5
10E0
330
10CB
100
AcDbEntity
  8
実線
100
AcDbLine
 10
19.0
 20
-4.499999999999943
 30
0.0
 11
19.0
 21
-12.50000000000005
 31
0.0
  0
LINE
  5
10E1
330
10CB
100
AcDbEntity
  8
実線
100
AcDbLine
 10
23.0
 20
8.986834042820587
 30
0.0
 11
23.0
 21
4.103735687774785
 31
0.0
  0
LINE
  5
10E2
330
10CB
100
AcDbEntity
  8
実線
100
AcDbLine
 10
28.0
 20
-4.499999999999971
 30
0.0
 11
28.0
 21
-12.50000000000005
 31
0.0
  0
LINE
  5
10E3
330
10CB
100
AcDbEntity
  8
実線
100
AcDbLine
 10
31.0
 20
-4.499999999999943
 30
0.0
 11
31.0
 21
-12.50000000000005
 31
0.0
  0
LINE
  5
10E4
330
10CB
100
AcDbEntity
  8
実線
100
AcDbLine
 10
27.0
 20
8.986834042820532
 30
0.0
 11
27.0
 21
4.103735687774785
 31
0.0
  0
LINE
  5
10E5
330
10CB
100
AcDbEntity
  8
実線
100
AcDbLine
 10
50.0
 20
0.0
 30
0.0
 11
50.0
 21
-17.0
 31
0.0
  0
LINE
  5
10E6
330
10CB
100
AcDbEntity
  8
実線
100
AcDbLine
 10
46.0
 20
0.0
 30
0.0
 11
46.0
 21
-4.317109183163836
 31
0.0
  0
LINE
  5
10E7
330
10CB
100
AcDbEntity
  8
実線
100
AcDbLine
 10
46.0
 20
-17.0
 30
0.0
 11
50.0
 21
-17.0
 31
0.0
  0
LINE
  5
10E8
330
10CB
100
AcDbEntity
  8
実線
100
AcDbLine
 10
46.0
 20
-12.6828908168361
 30
0.0
 11
46.0
 21
-17.0
 31
0.0
  0
LINE
  5
10E9
330
10CB
100
AcDbEntity
  8
実線
100
AcDbLine
 10
50.0
 20
0.0
 30
0.0
 11
46.0
 21
0.0
 31
0.0
  0
ENDBLK
  5
10EB
330
10CB
100
AcDbEntity
  8
0
100
AcDbBlockEnd
  0
BLOCK
  5
2D22
330
2D20
100
AcDbEntity
  8
0
100
AcDbBlockBegin
  2
A$C34DA08B7
 70
     0
 10
0.0
 20
0.0
 30
0.0
  3
A$C34DA08B7
  1

  0
LINE
  5
2D21
330
2D20
100
AcDbEntity
  8
実線
100
AcDbLine
 10
3.443694327872606
 20
-0.000000348593062
 30
0.0
 11
0.0000000833857712
 21
3.443693895893829
 31
0.0
  0
ENDBLK
  5
2D23
330
2D20
100
AcDbEntity
  8
0
100
AcDbBlockEnd
  0
BLOCK
  5
2D26
330
2D24
100
AcDbEntity
  8
0
100
AcDbBlockBegin
  2
A$C04A47E41
 70
     0
 10
0.0
 20
0.0
 30
0.0
  3
A$C04A47E41
  1

  0
LINE
  5
2D25
330
2D24
100
AcDbEntity
  8
実線
100
AcDbLine
 10
0.0
 20
0.0
 30
0.0
 11
-3.443694244486835
 21
3.44369424448689
 31
0.0
  0
ENDBLK
  5
2D27
330
2D24
100
AcDbEntity
  8
0
100
AcDbBlockEnd
  0
BLOCK
  5
2D4F
330
2D46
100
AcDbEntity
  8
0
100
AcDbBlockBegin
  2
A$C2FFA21FC
 70
     0
 10
0.0
 20
0.0
 30
0.0
  3
A$C2FFA21FC
  1

  0
LINE
  5
2D47
330
2D46
100
AcDbEntity
  8
実線
100
AcDbLine
 10
1.673649195882091
 20
5.714196736163046
 30
0.0
 11
4.040546862123335
 21
5.714196736163046
 31
0.0
  0
LINE
  5
2D48
330
2D46
100
AcDbEntity
  8
実線
100
AcDbLine
 10
-0.0000001942917152
 20
1.673649679747881
 30
0.0
 11
-0.0000001942917152
 21
4.040547345989124
 31
0.0
  0
LINE
  5
2D49
330
2D46
100
AcDbEntity
  8
実線
100
AcDbLine
 10
-0.0000001942917152
 20
4.040547345989238
 30
0.0
 11
1.673649195882091
 21
5.714196736162987
 31
0.0
  0
LINE
  5
2D4A
330
2D46
100
AcDbEntity
  8
実線
100
AcDbLine
 10
1.673649195882091
 20
0.0000002895740749
 30
0.0
 11
4.040546862123335
 21
0.0000002895740749
 31
0.0
  0
LINE
  5
2D4B
330
2D46
100
AcDbEntity
  8
実線
100
AcDbLine
 10
-0.0000001942917152
 20
1.673649679747881
 30
0.0
 11
1.673649195882035
 21
0.0000002895740749
 31
0.0
  0
LINE
  5
2D4C
330
2D46
100
AcDbEntity
  8
実線
100
AcDbLine
 10
5.714196252297256
 20
1.673649679747881
 30
0.0
 11
5.714196252297256
 21
4.040547345989124
 31
0.0
  0
LINE
  5
2D4D
330
2D46
100
AcDbEntity
  8
実線
100
AcDbLine
 10
5.714196252297256
 20
4.040547345989238
 30
0.0
 11
4.040546862123449
 21
5.714196736162987
 31
0.0
  0
LINE
  5
2D4E
330
2D46
100
AcDbEntity
  8
実線
100
AcDbLine
 10
5.714196252297256
 20
1.673649679747881
 30
0.0
 11
4.040546862123505
 21
0.0000002895740749
 31
0.0
  0
ENDBLK
  5
2D50
330
2D46
100
AcDbEntity
  8
0
100
AcDbBlockEnd
  0
BLOCK
  5
2A17C
330
2A17B
100
AcDbEntity
  8
0
100
AcDbBlockBegin
  2
*D7
 70
     1
 10
0.0
 20
0.0
 30
0.0
  3
*D7
  1

  0
LINE
  5
2A879
330
2A17B
100
AcDbEntity
  8
寸法
 62
     0
440
 16777216
370
    -2
100
AcDbLine
 10
73.93922693969919
 20
44.42592408428557
 30
0.0
 11
73.93922693969919
 21
23.23948100629963
 31
0.0
  0
LINE
  5
2A87A
330
2A17B
100
AcDbEntity
  8
寸法
 62
     0
440
 16777216
370
    -2
100
AcDbLine
 10
173.9392269396992
 20
44.40592408425602
 30
0.0
 11
173.9392269396992
 21
23.23948100629963
 31
0.0
  0
LINE
  5
2A87B
330
2A17B
100
AcDbEntity
  8
寸法
 62
     0
440
 16777216
370
    -2
100
AcDbLine
 10
76.43922693969919
 20
24.48948100629963
 30
0.0
 11
171.4392269396992
 21
24.48948100629963
 31
0.0
  0
SOLID
  5
2A87C
330
2A17B
100
AcDbEntity
  8
寸法
 62
     0
440
 16777216
100
AcDbTrace
 10
76.43922693969919
 20
24.9061476729663
 30
0.0
 11
76.43922693969919
 21
24.07281433963296
 31
0.0
 12
73.93922693969919
 22
24.48948100629963
 32
0.0
 13
73.93922693969919
 23
24.48948100629963
 33
0.0
  0
SOLID
  5
2A87D
330
2A17B
100
AcDbEntity
  8
寸法
 62
     0
440
 16777216
100
AcDbTrace
 10
171.4392269396992
 20
24.9061476729663
 30
0.0
 11
171.4392269396992
 21
24.07281433963296
 31
0.0
 12
173.9392269396992
 22
24.48948100629963
 32
0.0
 13
173.9392269396992
 23
24.48948100629963
 33
0.0
  0
MTEXT
  5
2A87E
330
2A17B
100
AcDbEntity
  8
寸法
 62
     2
440
 16777216
100
AcDbMText
 10
123.9392269396992
 20
27.23948100629963
 30
0.0
 40
3.5
 41
0.0
 46
0.0
 71
     5
 72
     1
  1
100
  7
寸法
 73
     1
 44
1.0
  0
POINT
  5
2A87F
330
2A17B
100
AcDbEntity
  8
Defpoints
 62
     0
440
 16777216
100
AcDbPoint
 10
73.93922693969919
 20
45.05092408428557
 30
0.0
  0
POINT
  5
2A880
330
2A17B
100
AcDbEntity
  8
Defpoints
 62
     0
440
 16777216
100
AcDbPoint
 10
173.9392269396992
 20
45.03092408425602
 30
0.0
  0
POINT
  5
2A881
330
2A17B
100
AcDbEntity
  8
Defpoints
 62
     0
440
 16777216
100
AcDbPoint
 10
173.9392269396992
 20
24.48948100629963
 30
0.0
  0
ENDBLK
  5
2A17D
330
2A17B
100
AcDbEntity
  8
0
100
AcDbBlockEnd
  0
BLOCK
  5
2A2CC
330
2A2CB
100
AcDbEntity
  8
0
100
AcDbBlockBegin
  2
*D8
 70
     1
 10
0.0
 20
0.0
 30
0.0
  3
*D8
  1

  0
LINE
  5
2A835
330
2A2CB
100
AcDbEntity
  8
寸法
 62
     0
440
 16777216
370
    -2
100
AcDbLine
 10
100.2330828507301
 20
33.46890858043466
 30
0.0
 11
39.64987591869024
 21
33.46890858043468
 31
0.0
  0
LINE
  5
2A836
330
2A2CB
100
AcDbEntity
  8
寸法
 62
     0
440
 16777216
370
    -2
100
AcDbLine
 10
73.05347112574593
 20
166.4568923734151
 30
0.0
 11
39.64987591869027
 21
166.4568923734151
 31
0.0
  0
LINE
  5
2A837
330
2A2CB
100
AcDbEntity
  8
寸法
 62
     0
440
 16777216
370
    -2
100
AcDbLine
 10
40.89987591869022
 20
35.96890858043468
 30
0.0
 11
40.89987591869025
 21
163.9568923734151
 31
0.0
  0
SOLID
  5
2A838
330
2A2CB
100
AcDbEntity
  8
寸法
 62
     0
440
 16777216
100
AcDbTrace
 10
40.48320925202356
 20
35.96890858043468
 30
0.0
 11
41.31654258535689
 21
35.96890858043468
 31
0.0
 12
40.89987591869022
 22
33.46890858043468
 32
0.0
 13
40.89987591869022
 23
33.46890858043468
 33
0.0
  0
SOLID
  5
2A839
330
2A2CB
100
AcDbEntity
  8
寸法
 62
     0
440
 16777216
100
AcDbTrace
 10
40.4832092520236
 20
163.9568923734151
 30
0.0
 11
41.31654258535692
 21
163.9568923734151
 31
0.0
 12
40.89987591869025
 22
166.4568923734151
 32
0.0
 13
40.89987591869025
 23
166.4568923734151
 33
0.0
  0
MTEXT
  5
2A83A
330
2A2CB
100
AcDbEntity
  8
寸法
 62
     2
440
 16777216
100
AcDbMText
 10
38.14987591869023
 20
99.96290047692491
 30
0.0
 40
3.5
 41
0.0
 46
0.0
 71
     5
 72
     1
  1
133
  7
寸法
 11
0.0000000000000001
 21
1.0
 31
0.0
 73
     1
 44
1.0
  0
POINT
  5
2A83B
330
2A2CB
100
AcDbEntity
  8
Defpoints
 62
     0
440
 16777216
100
AcDbPoint
 10
100.8580828507301
 20
33.46890858043466
 30
0.0
  0
POINT
  5
2A83C
330
2A2CB
100
AcDbEntity
  8
Defpoints
 62
     0
440
 16777216
100
AcDbPoint
 10
73.67847112574593
 20
166.4568923734151
 30
0.0000000000000032
  0
POINT
  5
2A83D
330
2A2CB
100
AcDbEntity
  8
Defpoints
 62
     0
440
 16777216
100
AcDbPoint
 10
40.89987591869025
 20
166.4568923734151
 30
0.0
  0
ENDBLK
  5
2A2CD
330
2A2CB
100
AcDbEntity
  8
0
100
AcDbBlockEnd
  0
BLOCK
  5
2A2E4
330
2A2E3
100
AcDbEntity
  8
0
100
AcDbBlockBegin
  2
*D9
 70
     1
 10
0.0
 20
0.0
 30
0.0
  3
*D9
  1

  0
LINE
  5
2A811
330
2A2E3
100
AcDbEntity
  8
寸法
 62
     0
440
 16777216
370
    -2
100
AcDbLine
 10
100.2330828507301
 20
33.46890858043466
 30
0.0
 11
51.71846916283264
 21
33.46890858043467
 31
0.0
  0
LINE
  5
2A812
330
2A2E3
100
AcDbEntity
  8
寸法
 62
     0
440
 16777216
370
    -2
100
AcDbLine
 10
65.7735255868364
 20
56.43324966565463
 30
0.0
 11
51.71846916283264
 21
56.43324966565463
 31
0.0
  0
LINE
  5
2A813
330
2A2E3
100
AcDbEntity
  8
寸法
 62
     0
440
 16777216
370
    -2
100
AcDbLine
 10
52.96846916283264
 20
35.96890858043467
 30
0.0
 11
52.96846916283264
 21
53.93324966565463
 31
0.0
  0
SOLID
  5
2A814
330
2A2E3
100
AcDbEntity
  8
寸法
 62
     0
440
 16777216
100
AcDbTrace
 10
52.55180249616596
 20
35.96890858043467
 30
0.0
 11
53.38513582949929
 21
35.96890858043467
 31
0.0
 12
52.96846916283264
 22
33.46890858043467
 32
0.0
 13
52.96846916283264
 23
33.46890858043467
 33
0.0
  0
SOLID
  5
2A815
330
2A2E3
100
AcDbEntity
  8
寸法
 62
     0
440
 16777216
100
AcDbTrace
 10
52.55180249616598
 20
53.93324966565463
 30
0.0
 11
53.38513582949931
 21
53.93324966565463
 31
0.0
 12
52.96846916283264
 22
56.43324966565463
 32
0.0
 13
52.96846916283264
 23
56.43324966565463
 33
0.0
  0
MTEXT
  5
2A816
330
2A2E3
100
AcDbEntity
  8
寸法
 62
     2
440
 16777216
100
AcDbMText
 10
50.21846916283263
 20
44.95107912304464
 30
0.0
 40
3.5
 41
0.0
 46
0.0
 71
     5
 72
     1
  1
23
  7
寸法
 11
0.0000000000000001
 21
1.0
 31
0.0
 73
     1
 44
1.0
  0
POINT
  5
2A817
330
2A2E3
100
AcDbEntity
  8
Defpoints
 62
     0
440
 16777216
100
AcDbPoint
 10
100.8580828507301
 20
33.46890858043466
 30
0.0
  0
POINT
  5
2A818
330
2A2E3
100
AcDbEntity
  8
Defpoints
 62
     0
440
 16777216
100
AcDbPoint
 10
66.3985255868364
 20
56.43324966565463
 30
0.0
  0
POINT
  5
2A819
330
2A2E3
100
AcDbEntity
  8
Defpoints
 62
     0
440
 16777216
100
AcDbPoint
 10
52.96846916283264
 20
56.43324966565463
 30
0.0
  0
ENDBLK
  5
2A2E5
330
2A2E3
100
AcDbEntity
  8
0
100
AcDbBlockEnd
  0
BLOCK
  5
2A717
330
2A716
100
AcDbEntity
  8
0
100
AcDbBlockBegin
  2
*D10
 70
     1
 10
0.0
 20
0.0
 30
0.0
  3
*D10
  1

  0
LINE
  5
2A7F6
330
2A716
100
AcDbEntity
  8
寸法
 62
     0
440
 16777216
370
    -2
100
AcDbLine
 10
129.5642269396992
 20
165.3430035945977
 30
0.0
 11
198.9560669374051
 21
165.3430035945977
 31
0.0
  0
LINE
  5
2A7F7
330
2A716
100
AcDbEntity
  8
寸法
 62
     0
440
 16777216
370
    -2
100
AcDbLine
 10
129.5642269396992
 20
254.3430035945978
 30
0.0
 11
198.9560669374051
 21
254.3430035945977
 31
0.0
  0
LINE
  5
2A7F8
330
2A716
100
AcDbEntity
  8
寸法
 62
     0
440
 16777216
370
    -2
100
AcDbLine
 10
197.7060669374051
 20
167.8430035945977
 30
0.0
 11
197.7060669374051
 21
251.8430035945977
 31
0.0
  0
SOLID
  5
2A7F9
330
2A716
100
AcDbEntity
  8
寸法
 62
     0
440
 16777216
100
AcDbTrace
 10
197.2894002707384
 20
167.8430035945977
 30
0.0
 11
198.1227336040717
 21
167.8430035945977
 31
0.0
 12
197.7060669374051
 22
165.3430035945977
 32
0.0
 13
197.7060669374051
 23
165.3430035945977
 33
0.0
  0
SOLID
  5
2A7FA
330
2A716
100
AcDbEntity
  8
寸法
 62
     0
440
 16777216
100
AcDbTrace
 10
197.2894002707384
 20
251.8430035945977
 30
0.0
 11
198.1227336040717
 21
251.8430035945977
 31
0.0
 12
197.7060669374051
 22
254.3430035945977
 32
0.0
 13
197.7060669374051
 23
254.3430035945977
 33
0.0
  0
MTEXT
  5
2A7FB
330
2A716
100
AcDbEntity
  8
寸法
 62
     2
440
 16777216
100
AcDbMText
 10
194.9560669374051
 20
209.8430035945978
 30
0.0
 40
3.5
 41
0.0
 46
0.0
 71
     5
 72
     1
  1
89
  7
寸法
 11
0.0000000000000001
 21
1.0
 31
0.0
 73
     1
 44
1.0
  0
POINT
  5
2A7FC
330
2A716
100
AcDbEntity
  8
Defpoints
 62
     0
440
 16777216
100
AcDbPoint
 10
128.9392269396992
 20
165.3430035945977
 30
0.0
  0
POINT
  5
2A7FD
330
2A716
100
AcDbEntity
  8
Defpoints
 62
     0
440
 16777216
100
AcDbPoint
 10
128.9392269396992
 20
254.3430035945978
 30
0.0
  0
POINT
  5
2A7FE
330
2A716
100
AcDbEntity
  8
Defpoints
 62
     0
440
 16777216
100
AcDbPoint
 10
197.7060669374051
 20
254.3430035945977
 30
0.0
  0
ENDBLK
  5
2A718
330
2A716
100
AcDbEntity
  8
0
100
AcDbBlockEnd
  0
ENDSEC
  0
SECTION
  2
ENTITIES
  0
TEXT
  5
108D
330
1F
100
AcDbEntity
  8
文字
100
AcDbText
 10
293.0
 20
27.25
 30
0.0
 40
3.0
  1

 41
0.8
 72
     1
 11
293.0
 21
28.75
 31
0.0
100
AcDbText
 73
     2
  0
TEXT
  5
108F
330
1F
100
AcDbEntity
  8
文字
100
AcDbText
 10
333.0
 20
27.5
 30
0.0
 40
3.0
  1

 41
0.8
 72
     1
 11
333.0
 21
29.0
 31
0.0
100
AcDbText
 73
     2
  0
TEXT
  5
1090
330
1F
100
AcDbEntity
  8
文字
100
AcDbText
 10
353.0
 20
27.5
 30
0.0
 40
3.0
  1

 41
0.8
 72
     1
 11
353.0
 21
29.0
 31
0.0
100
AcDbText
 73
     2
  0
MTEXT
  5
1581D
330
1F
100
AcDbEntity
  8
実線
 62
     2
100
AcDbMText
 10
196.5671900572592
 20
248.2436849630891
 30
0.0
 40
2.5
 41
0.0
 46
0.0
 71
     9
 72
     1
  1

  7
寸法
 73
     1
 44
1.0
  0
TEXT
  5
27C66
330
1F
100
AcDbEntity
  8
文字
100
AcDbText
 10
298.1627032852008
 20
143.17450021536
 30
0.0
 40
4.5
  1
表　示　部
 41
0.9
 72
     1
 11
309.7727032852008
 21
145.42450021536
 31
0.0
100
AcDbText
 73
     2
  0
LINE
  5
27C67
330
1F
100
AcDbEntity
  8
文字
100
AcDbLine
 10
296.5886027231083
 20
141.973679757555
 30
0.0
 11
323.5607326132747
 21
141.973679757555
 31
0.0
  0
LINE
  5
29A83
330
1F
100
AcDbEntity
  8
0
100
AcDbLine
 10
215.0
 20
272.0
 30
0.0
 11
215.0
 21
287.0
 31
0.0
  0
LINE
  5
29ABB
330
1F
100
AcDbEntity
  8
0
100
AcDbLine
 10
400.0
 20
148.5
 30
0.0
 11
415.0
 21
148.5
 31
0.0
  0
LINE
  5
29B24
330
1F
100
AcDbEntity
  8
0
100
AcDbLine
 10
214.9999999999999
 20
25.0
 30
0.0
 11
214.9999999999999
 21
10.0
 31
0.0
  0
LINE
  5
29B27
330
1F
100
AcDbEntity
  8
0
100
AcDbLine
 10
30.0
 20
148.4999999999989
 30
0.0
 11
15.00000000000074
 21
148.4999999999988
 31
0.0
  0
LINE
  5
29B3C
330
1F
100
AcDbEntity
  8
補助線
100
AcDbLine
 10
5.0
 20
297.0
 30
0.0
 11
5.0
 21
0.0
 31
0.0
  0
LINE
  5
29B3D
330
1F
100
AcDbEntity
  8
補助線
100
AcDbLine
 10
425.0
 20
297.0
 30
0.0
 11
5.0
 21
297.0
 31
0.0
  0
LINE
  5
29B3E
330
1F
100
AcDbEntity
  8
補助線
100
AcDbLine
 10
425.0
 20
0.0
 30
0.0
 11
425.0
 21
297.0
 31
0.0
  0
LINE
  5
29B3F
330
1F
100
AcDbEntity
  8
補助線
100
AcDbLine
 10
5.0
 20
0.0
 30
0.0
 11
425.0
 21
0.0
 31
0.0
  0
LINE
  5
29B58
330
1F
100
AcDbEntity
  8
0
100
AcDbLine
 10
25.0
 20
217.7499999999989
 30
0.0
 11
15.00000000000034
 21
217.7499999999988
 31
0.0
  0
LINE
  5
29B59
330
1F
100
AcDbEntity
  8
0
100
AcDbLine
 10
25.0
 20
79.24999999999887
 30
0.0
 11
15.00000000000113
 21
79.24999999999882
 31
0.0
  0
LINE
  5
29B5A
330
1F
100
AcDbEntity
  8
0
100
AcDbLine
 10
405.0
 20
217.75
 30
0.0
 11
415.0
 21
217.75
 31
0.0
  0
LINE
  5
29B5B
330
1F
100
AcDbEntity
  8
0
100
AcDbLine
 10
405.0
 20
79.25
 30
0.0
 11
415.0
 21
79.25
 31
0.0
  0
LINE
  5
29B74
330
1F
100
AcDbEntity
  8
0
100
AcDbLine
 10
115.0
 20
277.0
 30
0.0
 11
114.9999999999999
 21
286.9999999999998
 31
0.0
  0
LINE
  5
29B75
330
1F
100
AcDbEntity
  8
0
100
AcDbLine
 10
315.0
 20
277.0
 30
0.0
 11
315.0
 21
287.0000000000002
 31
0.0
  0
LINE
  5
29B76
330
1F
100
AcDbEntity
  8
0
100
AcDbLine
 10
114.9999999999999
 20
20.0
 30
0.0
 11
114.9999999999999
 21
10.0
 31
0.0
  0
LINE
  5
29B77
330
1F
100
AcDbEntity
  8
0
100
AcDbLine
 10
315.0
 20
20.0
 30
0.0
 11
315.0
 21
10.0
 31
0.0
  0
TEXT
  5
29B81
330
1F
100
AcDbEntity
  8
0
100
AcDbText
 10
56.87381033117558
 20
279.47215302696
 30
0.0
 40
5.0
  1
1
 41
0.8
 72
     1
 11
58.4928579502232
 21
281.97215302696
 31
0.0
100
AcDbText
 73
     2
  0
TEXT
  5
29B83
330
1F
100
AcDbEntity
  8
0
100
AcDbText
 10
156.5880960454612
 20
279.4721530269602
 30
0.0
 40
5.0
  1
2
 41
0.8
 72
     1
 11
158.4928579502231
 21
281.9721530269601
 31
0.0
100
AcDbText
 73
     2
  0
TEXT
  5
29B84
330
1F
100
AcDbEntity
  8
0
100
AcDbText
 10
256.5880960454613
 20
279.47215302696
 30
0.0
 40
5.0
  1
3
 41
0.8
 72
     1
 11
258.4928579502232
 21
281.97215302696
 31
0.0
100
AcDbText
 73
     2
  0
TEXT
  5
29B85
330
1F
100
AcDbEntity
  8
0
100
AcDbText
 10
356.4928579502232
 20
279.47215302696
 30
0.0
 40
5.0
  1
4
 41
0.8
 72
     1
 11
358.4928579502232
 21
281.97215302696
 31
0.0
100
AcDbText
 73
     2
  0
TEXT
  5
29B86
330
1F
100
AcDbEntity
  8
0
100
AcDbText
 10
56.87381033117555
 20
12.84246760572546
 30
0.0
 40
5.0
  1
1
 41
0.8
 72
     1
 11
58.49285795022317
 21
15.34246760572546
 31
0.0
100
AcDbText
 73
     2
  0
TEXT
  5
29B87
330
1F
100
AcDbEntity
  8
0
100
AcDbText
 10
156.5880960454612
 20
12.84246760572563
 30
0.0
 40
5.0
  1
2
 41
0.8
 72
     1
 11
158.4928579502231
 21
15.34246760572563
 31
0.0
100
AcDbText
 73
     2
  0
TEXT
  5
29B88
330
1F
100
AcDbEntity
  8
0
100
AcDbText
 10
256.5880960454613
 20
12.84246760572546
 30
0.0
 40
5.0
  1
3
 41
0.8
 72
     1
 11
258.4928579502232
 21
15.34246760572546
 31
0.0
100
AcDbText
 73
     2
  0
TEXT
  5
29B89
330
1F
100
AcDbEntity
  8
0
100
AcDbText
 10
356.4928579502232
 20
12.84246760572546
 30
0.0
 40
5.0
  1
4
 41
0.8
 72
     1
 11
358.4928579502232
 21
15.34246760572546
 31
0.0
100
AcDbText
 73
     2
  0
TEXT
  5
29B8A
330
1F
100
AcDbEntity
  8
0
100
AcDbText
 10
18.58632463146393
 20
250.0319149255158
 30
0.0
 40
5.0
  1
A
 41
0.8
 72
     1
 11
20.30061034574965
 21
252.5319149255158
 31
0.0
100
AcDbText
 73
     2
  0
TEXT
  5
29B8B
330
1F
100
AcDbEntity
  8
0
100
AcDbText
 10
18.20537225051194
 20
180.7819149255158
 30
0.0
 40
5.0
  1
B
 41
0.8
 72
     1
 11
20.30061034575004
 21
183.2819149255158
 31
0.0
100
AcDbText
 73
     2
  0
TEXT
  5
29B8C
330
1F
100
AcDbEntity
  8
0
100
AcDbText
 10
18.30061034574965
 20
111.5319149255158
 30
0.0
 40
5.0
  1
C
 41
0.8
 72
     1
 11
20.30061034574965
 21
114.0319149255158
 31
0.0
100
AcDbText
 73
     2
  0
TEXT
  5
29B8D
330
1F
100
AcDbEntity
  8
0
100
AcDbText
 10
18.20537225051155
 20
42.28191492551693
 30
0.0
 40
5.0
  1
D
 41
0.8
 72
     1
 11
20.30061034574965
 21
44.78191492551693
 31
0.0
100
AcDbText
 73
     2
  0
TEXT
  5
29B8E
330
1F
100
AcDbEntity
  8
0
100
AcDbText
 10
408.0524664877939
 20
250.0319149255158
 30
0.0
 40
5.0
  1
A
 41
0.8
 72
     1
 11
409.7667522020797
 21
252.5319149255158
 31
0.0
100
AcDbText
 73
     2
  0
TEXT
  5
29B8F
330
1F
100
AcDbEntity
  8
0
100
AcDbText
 10
407.6715141068421
 20
180.7819149255158
 30
0.0
 40
5.0
  1
B
 41
0.8
 72
     1
 11
409.7667522020802
 21
183.2819149255158
 31
0.0
100
AcDbText
 73
     2
  0
TEXT
  5
29B90
330
1F
100
AcDbEntity
  8
0
100
AcDbText
 10
407.7667522020797
 20
111.5319149255158
 30
0.0
 40
5.0
  1
C
 41
0.8
 72
     1
 11
409.7667522020797
 21
114.0319149255158
 31
0.0
100
AcDbText
 73
     2
  0
TEXT
  5
29B91
330
1F
100
AcDbEntity
  8
0
100
AcDbText
 10
407.6715141068416
 20
42.28191492551693
 30
0.0
 40
5.0
  1
D
 41
0.8
 72
     1
 11
409.7667522020797
 21
44.78191492551693
 31
0.0
100
AcDbText
 73
     2
  0
HATCH
  5
29EAB
330
1F
100
AcDbEntity
  8
実線
100
AcDbHatch
 10
0.0
 20
0.0
 30
0.0
210
0.0
220
0.0
230
1.0
  2
SOLID
 70
     1
 71
     0
 91
       22
 92
        7
 72
     0
 73
     1
 93
        4
 10
305.2376627751594
 20
172.0122646968833
 10
284.2376627751594
 20
172.0122646968833
 10
284.2376627751594
 20
170.9832751708093
 10
305.2376627751594
 20
170.9832751708093
 97
        0
 92
        7
 72
     1
 73
     1
 93
        4
 10
291.7668753082949
 20
185.5339051146944
 42
0.0
 10
291.7668753082949
 20
186.3239820808948
 42
0.0
 10
289.1127097276213
 20
185.0339051146944
 42
0.0
 10
291.2668753082948
 20
185.0339051146944
 42
0.4142135623730951
 97
        0
 92
        7
 72
     1
 73
     1
 93
        2
 10
293.9261776919334
 20
186.5394118988538
 42
0.0
 10
295.5755341418022
 20
186.5394118988538
 42
1.0
 97
        0
 92
        7
 72
     1
 73
     1
 93
        2
 10
296.8937725341425
 20
186.5394118988538
 42
0.0
 10
301.0179220715677
 20
186.5394118988538
 42
1.0
 97
        0
 92
        5
 93
        4
 72
     4
 94
        3
 73
     0
 74
     0
 95
       11
 96
        7
 40
0.1555204288834384
 40
0.1555204288834384
 40
0.1555204288834384
 40
0.1555204288834384
 40
0.5593633922873859
 40
0.5822009405451765
 40
0.8548250476437651
 40
0.8719448745157816
 40
0.8719448745157816
 40
0.8719448745157816
 40
0.8719448745157816
 10
306.7875769432614
 20
185.8747541242676
 10
306.6853971459224
 20
185.9833674478007
 10
306.5835945422278
 20
186.102414454539
 10
306.4550835977392
 20
186.3242540266359
 10
306.405912717528
 20
186.4303496593989
 10
306.3809850546238
 20
186.5333132480478
 10
306.3795789574704
 20
186.5394118988538
 97
        0
 72
     1
 10
306.3795789574704
 20
186.5394118988538
 11
306.2376627751594
 21
186.5394118988538
 72
     1
 10
306.2376627751594
 20
186.5394118988538
 11
306.2376627751594
 21
184.1934104784485
 72
     2
 10
306.2376627751594
 20
185.1240120408943
 40
0.9306015624457725
 50
269.9999999999992
 51
413.7774425556551
 73
     1
 97
        0
 92
        5
 93
        4
 72
     1
 10
306.2376627751594
 20
186.5394118988538
 11
306.0957465928483
 21
186.5394118988538
 72
     4
 94
        3
 73
     0
 74
     0
 95
       11
 96
        7
 40
0.1555204288834384
 40
0.1555204288834384
 40
0.1555204288834384
 40
0.1555204288834384
 40
0.1726402557554549
 40
0.4452643628540436
 40
0.4681019111118343
 40
0.8719448745157816
 40
0.8719448745157816
 40
0.8719448745157816
 40
0.8719448745157816
 10
306.0957465928483
 20
186.5394118988538
 10
306.094340495695
 20
186.5333132480478
 10
306.0694128327907
 20
186.4303496593989
 10
306.0202419525794
 20
186.3242540266359
 10
305.8917310080908
 20
186.102414454539
 10
305.7899284043963
 20
185.9833674478007
 10
305.6877486070573
 20
185.8747541242676
 97
        0
 72
     2
 10
306.2376627751594
 20
185.1240120408943
 40
0.9306015624457677
 50
126.2225574443448
 51
270.0
 73
     1
 72
     1
 10
306.2376627751594
 20
184.1934104784486
 11
306.2376627751594
 21
186.5394118988538
 97
        0
 92
        5
 93
        5
 72
     2
 10
306.2376627751594
 20
187.2932860244333
 40
0.1099999999999994
 50
89.99999999999259
 51
179.9999999999926
 73
     1
 72
     1
 10
306.1276627751594
 20
187.2932860244333
 11
306.1276627751594
 21
186.7740120408941
 72
     4
 94
        3
 73
     0
 74
     0
 95
        8
 96
        4
 40
0.8719448745157816
 40
0.8719448745157816
 40
0.8719448745157816
 40
0.8719448745157816
 40
1.087050667177579
 40
1.087050667177579
 40
1.087050667177579
 40
1.087050667177579
 10
306.1276627751594
 20
186.7740120408943
 10
306.1205382909376
 20
186.695025882906
 10
306.1134138067159
 20
186.6160397249176
 10
306.0957465928483
 20
186.5394118988538
 97
        0
 72
     1
 10
306.0957465928483
 20
186.5394118988538
 11
306.2376627751594
 21
186.5394118988538
 72
     1
 10
306.2376627751594
 20
186.5394118988538
 11
306.2376627751594
 21
187.4032860244333
 97
        0
 92
        5
 93
        5
 72
     2
 10
306.2376627751594
 20
187.2932860244333
 40
0.1099999999999987
 50
359.9999999999926
 51
450.0000000000222
 73
     1
 72
     1
 10
306.2376627751594
 20
187.4032860244333
 11
306.2376627751594
 21
186.5394118988538
 72
     1
 10
306.2376627751594
 20
186.5394118988538
 11
306.3795789574705
 21
186.5394118988538
 72
     4
 94
        3
 73
     0
 74
     0
 95
        8
 96
        4
 40
0.8719448745157816
 40
0.8719448745157816
 40
0.8719448745157816
 40
0.8719448745157816
 40
1.087050667177579
 40
1.087050667177579
 40
1.087050667177579
 40
1.087050667177579
 10
306.3795789574704
 20
186.5394118988538
 10
306.3619117436028
 20
186.6160397249176
 10
306.3547872593812
 20
186.695025882906
 10
306.3476627751594
 20
186.7740120408943
 97
        0
 72
     1
 10
306.3476627751594
 20
186.7740120408942
 11
306.3476627751594
 21
187.2932860244333
 97
        0
 92
        7
 72
     0
 73
     1
 93
        5
 10
317.3017101585939
 20
187.1723315351309
 10
317.3017101585939
 20
186.973413935158
 10
314.5906477618301
 20
186.973413935158
 10
314.5906477618301
 20
186.5394118988538
 10
318.0698899029203
 20
186.5394118988538
 97
        0
 92
        7
 72
     0
 73
     1
 93
        5
 10
318.0698899029203
 20
186.5394118988538
 10
314.5906477618301
 20
186.5394118988538
 10
314.5906477618301
 20
186.1054098625495
 10
317.3017101585939
 20
186.1054098625496
 10
317.301710158594
 20
185.9064922625768
 97
        0
 92
        7
 72
     0
 73
     1
 93
        4
 10
314.2809565524773
 20
186.5394118988538
 10
314.1018946260074
 20
186.5394118988538
 10
314.1018946260075
 20
186.1054098625496
 10
314.2809565524773
 20
186.1054098625496
 97
        0
 92
        7
 72
     0
 73
     1
 93
        4
 10
314.2809565524772
 20
186.973413935158
 10
314.1018946260074
 20
186.973413935158
 10
314.1018946260074
 20
186.5394118988538
 10
314.2809565524772
 20
186.5394118988538
 97
        0
 92
        7
 72
     0
 73
     1
 93
        4
 10
313.7922034166545
 20
186.973413935158
 10
313.6131414901847
 20
186.973413935158
 10
313.6131414901847
 20
186.5394118988538
 10
313.7922034166545
 20
186.5394118988538
 97
        0
 92
        7
 72
     0
 73
     1
 93
        4
 10
313.7922034166545
 20
186.5394118988538
 10
313.6131414901848
 20
186.5394118988538
 10
313.6131414901848
 20
186.1054098625496
 10
313.7922034166545
 20
186.1054098625495
 97
        0
 92
        7
 72
     1
 73
     1
 93
        4
 10
323.6376627751592
 20
183.2994370246406
 42
-0.2015383907678711
 10
322.2764132755596
 20
184.0394118988538
 42
0.0
 10
320.7835671643443
 20
184.0394118988538
 42
0.2880055559027073
 10
323.6376627751592
 20
181.9954780804537
 42
0.0
 97
        0
 92
        7
 72
     1
 73
     1
 93
        4
 10
321.8476879009461
 20
185.0894118988538
 42
0.0
 10
320.5437289567592
 20
185.0894118988538
 42
0.082144771069855
 10
320.7835671643443
 20
184.0394118988538
 42
0.0
 10
322.2764132755596
 20
184.0394118988538
 42
-0.1447392462316549
 97
        0
 92
        7
 72
     1
 73
     1
 93
        7
 10
322.2764132755596
 20
186.5394118988538
 42
0.0
 10
320.7835671643443
 20
186.5394118988538
 42
0.082144771069856
 10
320.5437289567592
 20
185.4894118988538
 42
0.0
 10
320.8989876405646
 20
185.4894118988538
 42
0.0
 10
321.1876627751593
 20
185.9894118988538
 42
0.0
 10
321.4763379097542
 20
185.4894118988538
 42
0.0
 10
321.8476879009461
 20
185.4894118988538
 42
-0.144739246231655
 97
        0
 92
        7
 72
     1
 73
     1
 93
        4
 10
323.6376627751592
 20
188.5833457172539
 42
0.2880055559027072
 10
320.7835671643443
 20
186.5394118988538
 42
0.0
 10
322.2764132755596
 20
186.5394118988538
 42
-0.2015383907678713
 10
323.6376627751592
 20
187.279386773067
 42
0.0
 97
        0
 92
        7
 72
     1
 73
     1
 93
        4
 10
324.0376627751593
 20
188.5833457172539
 42
0.0
 10
324.0376627751593
 20
187.279386773067
 42
-0.2015383907678734
 10
325.3989122747589
 20
186.5394118988538
 42
0.0
 10
326.8917583859744
 20
186.5394118988538
 42
0.2880055559027075
 97
        0
 92
        7
 72
     1
 73
     1
 93
        7
 10
326.8917583859744
 20
186.5394118988538
 42
0.0
 10
325.3989122747589
 20
186.5394118988538
 42
-0.1447392462316545
 10
325.8276376493725
 20
185.4894118988538
 42
0.0
 10
326.1989876405645
 20
185.4894118988538
 42
0.0
 10
326.4876627751594
 20
185.9894118988538
 42
0.0
 10
326.7763379097541
 20
185.4894118988538
 42
0.0
 10
327.1315965935594
 20
185.4894118988538
 42
0.0821447710698563
 97
        0
 92
        7
 72
     1
 73
     1
 93
        4
 10
327.1315965935594
 20
185.0894118988538
 42
0.0
 10
325.8276376493725
 20
185.0894118988538
 42
-0.1447392462316528
 10
325.3989122747589
 20
184.0394118988538
 42
0.0
 10
326.8917583859744
 20
184.0394118988538
 42
0.0821447710698551
 97
        0
 92
        7
 72
     1
 73
     1
 93
        4
 10
326.8917583859744
 20
184.0394118988538
 42
0.0
 10
325.3989122747589
 20
184.0394118988538
 42
-0.2015383907678717
 10
324.0376627751593
 20
183.2994370246406
 42
0.0
 10
324.0376627751593
 20
181.9954780804537
 42
0.2880055559027098
 97
        0
 75
     0
 76
     1
 47
0.0632745196833325
 98
       22
 10
293.9698393116641
 20
171.3113766937509
 10
291.2218713511152
 20
185.4953781223144
 10
294.7424773688421
 20
186.8221352383803
 10
299.4173785969037
 20
187.0528760952911
 10
306.5620070753998
 20
185.7296638649532
 10
306.0044409223883
 20
185.437092723231
 10
306.1995893009907
 20
186.9556770715515
 10
306.297163490292
 20
186.9974721457488
 10
316.7978314207326
 20
186.6535521676192
 10
316.8132877376393
 20
186.4372775929901
 10
314.2166445011899
 20
186.4372775929901
 10
314.1702755504698
 20
186.7462420742232
 10
313.6911319768478
 20
186.7462420742232
 10
313.6911319768478
 20
186.3754838533924
 10
322.8551480634442
 20
183.017383523619
 10
321.4817660873591
 20
184.4554222209625
 10
321.5689655502565
 20
186.0024036059066
 10
321.9831601859169
 20
187.3750769718065
 10
325.3621163057496
 20
187.5058076346936
 10
326.1251042920344
 20
186.2202875755236
 10
326.3649022523823
 20
184.4772101962485
 10
325.8853085821697
 20
183.4967288190101
450
        0
451
        0
460
0.0
461
0.0
452
        1
462
1.0
453
        2
463
0.0
 63
     5
421
      255
463
1.0
 63
    51
421
 16777113
470
LINEAR
1001
ACAD
1010
0.0
1020
0.0
1030
0.0
  0
HATCH
  5
29EAC
330
1F
100
AcDbEntity
  8
文字
 62
     0
370
     0
100
AcDbHatch
 10
0.0
 20
0.0
 30
0.0
210
0.0
220
0.0
230
1.0
  2
SOLID
 70
     1
 71
     0
 91
       35
 92
        7
 72
     0
 73
     1
 93
        5
 10
289.5548326615567
 20
180.9718196536929
 10
288.7539609106596
 20
181.4342031746598
 10
288.4620294871334
 20
178.532056171229
 10
288.8342018376051
 20
178.1894118988538
 10
289.2956077915449
 20
178.532056171229
 97
        0
 92
        7
 72
     1
 73
     1
 93
        6
 10
291.5620572582699
 20
181.9396125596072
 42
0.1621059674175419
 10
291.2623249925184
 20
182.0394118988538
 42
0.0
 10
289.2679536826918
 20
182.0394118988538
 42
0.3503453397349183
 10
288.7803197479083
 20
181.6499250005545
 42
0.0
 10
289.577951837605
 20
181.1894118988538
 42
0.0
 10
290.7321477773114
 20
181.1894118988538
 42
0.0
 97
        0
 92
        7
 72
     1
 73
     1
 93
        6
 10
291.7595263998427
 20
181.4865842493256
 42
0.1614262479963703
 10
291.692630126546
 20
181.7940439699474
 42
0.0
 10
290.862460156199
 20
181.0436078385601
 42
0.0
 10
290.5970710300154
 20
178.5458278274214
 42
0.0
 10
290.984201837605
 20
178.1894118988538
 42
0.0
 10
291.4456077915449
 20
178.532056171229
 42
0.0
 97
        0
 92
        7
 72
     0
 73
     1
 93
        5
 10
290.4773444905434
 20
178.3965922626542
 10
289.4427455823181
 20
178.3965922626542
 10
288.9617652777431
 20
178.0394118988538
 10
290.8244962164821
 20
178.0394118988538
 10
290.847204502543
 20
178.0560768682901
 97
        0
 92
        7
 72
     0
 73
     1
 93
        6
 10
290.8244962164821
 20
178.0394118988538
 10
288.9617652777432
 20
178.0394118988538
 10
288.9438962064125
 20
178.0261421634033
 10
288.9628946684545
 20
178.0086510354504
 10
289.3350670189263
 20
177.6660067630752
 10
290.3156809634843
 20
177.6660067630752
 97
        0
 92
        7
 72
     0
 73
     1
 93
        5
 10
289.1744991880769
 20
177.5467676264787
 10
288.8023268376051
 20
177.8894118988538
 10
288.3409208836653
 20
177.5467676264787
 10
288.0747959698883
 20
175.0420625556379
 10
288.9406617763128
 20
175.2100359287418
 97
        0
 92
        7
 72
     1
 73
     1
 93
        6
 10
291.3394576451949
 20
177.5329959702862
 42
0.0
 10
290.9523268376052
 20
177.8894118988538
 42
0.0
 10
290.4909208836652
 20
177.5467676264786
 42
0.0
 10
290.2426431407807
 20
175.2100359287419
 42
0.0
 10
290.5185749925183
 20
174.0394118988539
 42
0.3835390513495723
 10
291.0157763998427
 20
174.4865842493256
 42
0.0
 97
        0
 92
        7
 72
     1
 73
     1
 93
        7
 10
290.1127380102001
 20
174.8894118988538
 42
0.0
 10
288.9085768376052
 20
174.8894118988538
 42
0.0
 10
288.9202514919111
 20
175.0060764418426
 42
0.0
 10
288.0530987481345
 20
174.8378534097196
 42
0.0
 10
288.0270022753675
 20
174.592239548382
 42
0.4455681594596862
 10
288.5242036826919
 20
174.0394118988539
 42
0.0
 10
290.3130944594005
 20
174.0394118988539
 42
0.0
 97
        0
 92
        7
 72
     1
 73
     1
 93
        7
 10
295.1127380102001
 20
174.8894118988538
 42
0.0
 10
293.9085768376052
 20
174.8894118988538
 42
0.0
 10
293.9202514919111
 20
175.0060764418426
 42
0.0
 10
293.0530987481345
 20
174.8378534097196
 42
0.0
 10
293.0270022753675
 20
174.592239548382
 42
0.4455681594596862
 10
293.5242036826919
 20
174.0394118988539
 42
0.0
 10
295.3130944594006
 20
174.0394118988539
 42
0.0
 97
        0
 92
        7
 72
     0
 73
     1
 93
        5
 10
294.1744991880769
 20
177.5467676264787
 10
293.8023268376051
 20
177.8894118988539
 10
293.3409208836653
 20
177.5467676264787
 10
293.0747959698883
 20
175.0420625556379
 10
293.9406617763128
 20
175.2100359287418
 97
        0
 92
        7
 72
     1
 73
     1
 93
        6
 10
296.3394576451948
 20
177.5329959702862
 42
0.0
 10
295.9523268376051
 20
177.8894118988538
 42
0.0
 10
295.4909208836653
 20
177.5467676264786
 42
0.0
 10
295.2426431407807
 20
175.2100359287419
 42
0.0
 10
295.5185749925183
 20
174.0394118988539
 42
0.3835390513495723
 10
296.0157763998427
 20
174.4865842493256
 42
0.0
 97
        0
 92
        7
 72
     0
 73
     1
 93
        6
 10
295.8244962164822
 20
178.0394118988538
 10
293.9617652777431
 20
178.0394118988538
 10
293.9438962064126
 20
178.0261421634033
 10
293.9628946684545
 20
178.0086510354504
 10
294.3350670189263
 20
177.6660067630752
 10
295.3156809634844
 20
177.6660067630752
 97
        0
 92
        7
 72
     0
 73
     1
 93
        5
 10
295.4773444905434
 20
178.3965922626542
 10
294.4427455823181
 20
178.3965922626542
 10
293.9617652777431
 20
178.0394118988538
 10
295.8244962164822
 20
178.0394118988538
 10
295.847204502543
 20
178.0560768682901
 97
        0
 92
        7
 72
     0
 73
     1
 93
        5
 10
294.5548326615567
 20
180.971819653693
 10
293.7539609106595
 20
181.4342031746599
 10
293.4620294871333
 20
178.532056171229
 10
293.8342018376051
 20
178.1894118988538
 10
294.295607791545
 20
178.532056171229
 97
        0
 92
        7
 72
     1
 73
     1
 93
        6
 10
296.7595263998427
 20
181.4865842493256
 42
0.1614262479963703
 10
296.6926301265459
 20
181.7940439699474
 42
0.0
 10
295.8624601561989
 20
181.0436078385601
 42
0.0
 10
295.5970710300154
 20
178.5458278274214
 42
0.0
 10
295.984201837605
 20
178.1894118988538
 42
0.0
 10
296.4456077915449
 20
178.532056171229
 42
0.0
 97
        0
 92
        7
 72
     1
 73
     1
 93
        6
 10
296.5620572582699
 20
181.9396125596072
 42
0.162105967417542
 10
296.2623249925183
 20
182.0394118988538
 42
0.0
 10
294.2679536826918
 20
182.0394118988538
 42
0.3503453397349183
 10
293.7803197479082
 20
181.6499250005545
 42
0.0
 10
294.577951837605
 20
181.1894118988538
 42
0.0
 10
295.7321477773113
 20
181.1894118988538
 42
0.0
 97
        0
 92
        7
 72
     0
 73
     1
 93
        5
 10
299.5548326615567
 20
180.971819653693
 10
298.7539609106595
 20
181.4342031746599
 10
298.4620294871334
 20
178.532056171229
 10
298.8342018376051
 20
178.1894118988538
 10
299.2956077915449
 20
178.5320561712291
 97
        0
 92
        7
 72
     1
 73
     1
 93
        6
 10
301.7595263998427
 20
181.4865842493256
 42
0.1614262479963703
 10
301.692630126546
 20
181.7940439699475
 42
0.0
 10
300.862460156199
 20
181.0436078385601
 42
0.0
 10
300.5970710300154
 20
178.5458278274214
 42
0.0
 10
300.984201837605
 20
178.1894118988539
 42
0.0
 10
301.445607791545
 20
178.532056171229
 42
0.0
 97
        0
 92
        7
 72
     1
 73
     1
 93
        6
 10
301.5620572582699
 20
181.9396125596072
 42
0.1621059674175418
 10
301.2623249925184
 20
182.0394118988538
 42
0.0
 10
299.2679536826918
 20
182.0394118988538
 42
0.3503453397349183
 10
298.7803197479083
 20
181.6499250005546
 42
0.0
 10
299.577951837605
 20
181.1894118988538
 42
0.0
 10
300.7321477773114
 20
181.1894118988538
 42
0.0
 97
        0
 92
        7
 72
     0
 73
     1
 93
        6
 10
300.824496216482
 20
178.0394118988538
 10
298.9617652777431
 20
178.0394118988538
 10
298.9438962064125
 20
178.0261421634033
 10
298.9628946684545
 20
178.0086510354504
 10
299.3350670189263
 20
177.6660067630752
 10
300.3156809634844
 20
177.6660067630752
 97
        0
 92
        7
 72
     0
 73
     1
 93
        5
 10
300.4773444905434
 20
178.3965922626542
 10
299.4427455823181
 20
178.3965922626542
 10
298.9617652777431
 20
178.0394118988538
 10
300.824496216482
 20
178.0394118988538
 10
300.847204502543
 20
178.0560768682901
 97
        0
 92
        7
 72
     0
 73
     1
 93
        5
 10
299.1744991880769
 20
177.5467676264787
 10
298.802326837605
 20
177.8894118988539
 10
298.3409208836653
 20
177.5467676264787
 10
298.0747959698884
 20
175.042062555638
 10
298.9406617763128
 20
175.2100359287418
 97
        0
 92
        7
 72
     1
 73
     1
 93
        6
 10
301.3394576451948
 20
177.5329959702863
 42
0.0
 10
300.9523268376051
 20
177.8894118988539
 42
0.0
 10
300.4909208836652
 20
177.5467676264787
 42
0.0
 10
300.2426431407807
 20
175.2100359287419
 42
0.0
 10
300.5185749925183
 20
174.0394118988539
 42
0.3835390513495723
 10
301.0157763998427
 20
174.4865842493257
 42
0.0
 97
        0
 92
        7
 72
     1
 73
     1
 93
        7
 10
300.1127380102001
 20
174.8894118988538
 42
0.0
 10
298.9085768376051
 20
174.8894118988538
 42
0.0
 10
298.9202514919112
 20
175.0060764418426
 42
0.0
 10
298.0530987481345
 20
174.8378534097196
 42
0.0
 10
298.0270022753675
 20
174.5922395483821
 42
0.4455681594596862
 10
298.5242036826919
 20
174.0394118988539
 42
0.0
 10
300.3130944594005
 20
174.0394118988539
 42
0.0
 97
        0
 92
        7
 72
     1
 73
     1
 93
        7
 10
305.1127380102002
 20
174.8894118988538
 42
0.0
 10
303.9085768376052
 20
174.8894118988538
 42
0.0
 10
303.9202514919111
 20
175.0060764418426
 42
0.0
 10
303.0530987481345
 20
174.8378534097196
 42
0.0
 10
303.0270022753675
 20
174.5922395483821
 42
0.4455681594596862
 10
303.5242036826919
 20
174.0394118988539
 42
0.0
 10
305.3130944594006
 20
174.0394118988539
 42
0.0
 97
        0
 92
        7
 72
     0
 73
     1
 93
        5
 10
304.1744991880769
 20
177.5467676264787
 10
303.8023268376051
 20
177.8894118988538
 10
303.3409208836653
 20
177.5467676264787
 10
303.0747959698885
 20
175.042062555638
 10
303.9406617763128
 20
175.2100359287419
 97
        0
 92
        7
 72
     1
 73
     1
 93
        7
 10
306.2376627751594
 20
177.6267144561721
 42
0.0
 10
305.9523268376052
 20
177.8894118988539
 42
0.0
 10
305.4909208836652
 20
177.5467676264787
 42
0.0
 10
305.2426431407807
 20
175.2100359287419
 42
0.0
 10
305.5185749925183
 20
174.0394118988539
 42
0.3835390513495723
 10
306.0157763998427
 20
174.4865842493257
 42
0.0
 10
306.2376627751594
 20
176.5749266052469
 42
0.0
 97
        0
 92
        7
 72
     0
 73
     1
 93
        3
 10
306.3394576451949
 20
177.5329959702862
 10
306.2376627751594
 20
177.6267144561721
 10
306.2376627751594
 20
176.5749266052468
 97
        0
 92
        7
 72
     0
 73
     1
 93
        6
 10
305.824496216482
 20
178.0394118988538
 10
303.9617652777431
 20
178.0394118988538
 10
303.9438962064125
 20
178.0261421634033
 10
303.9628946684545
 20
178.0086510354504
 10
304.3350670189263
 20
177.6660067630752
 10
305.3156809634843
 20
177.6660067630752
 97
        0
 92
        7
 72
     0
 73
     1
 93
        5
 10
305.4773444905434
 20
178.3965922626542
 10
304.4427455823182
 20
178.3965922626542
 10
303.9617652777431
 20
178.0394118988538
 10
305.824496216482
 20
178.0394118988538
 10
305.8472045025431
 20
178.0560768682901
 97
        0
 92
        7
 72
     0
 73
     1
 93
        5
 10
306.2376627751594
 20
181.38277404779
 10
305.862460156199
 20
181.0436078385601
 10
305.5970710300154
 20
178.5458278274215
 10
305.9842018376051
 20
178.1894118988539
 10
306.2376627751594
 20
178.3776343042698
 97
        0
 92
        7
 72
     1
 73
     1
 93
        5
 10
306.7595263998427
 20
181.4865842493256
 42
0.1614262479963703
 10
306.692630126546
 20
181.7940439699475
 42
0.0
 10
306.2376627751594
 20
181.38277404779
 42
0.0
 10
306.2376627751594
 20
178.3776343042698
 42
0.0
 10
306.4456077915449
 20
178.532056171229
 42
0.0
 97
        0
 92
        7
 72
     1
 73
     1
 93
        6
 10
306.2376627751594
 20
182.0394118988538
 42
0.0
 10
304.2679536826918
 20
182.0394118988538
 42
0.3503453397349183
 10
303.7803197479083
 20
181.6499250005546
 42
0.0
 10
304.577951837605
 20
181.1894118988538
 42
0.0
 10
305.7321477773113
 20
181.1894118988538
 42
0.0
 10
306.2376627751594
 20
181.6463746087729
 42
0.0
 97
        0
 92
        7
 72
     0
 73
     1
 93
        5
 10
304.5548326615567
 20
180.971819653693
 10
303.7539609106596
 20
181.4342031746599
 10
303.4620294871333
 20
178.532056171229
 10
303.8342018376051
 20
178.1894118988539
 10
304.295607791545
 20
178.5320561712291
 97
        0
 92
        7
 72
     1
 73
     1
 93
        4
 10
306.5620572582699
 20
181.9396125596072
 42
0.1621059674175418
 10
306.2623249925183
 20
182.0394118988538
 42
0.0
 10
306.2376627751594
 20
182.0394118988538
 42
0.0
 10
306.2376627751594
 20
181.6463746087729
 42
0.0
 97
        0
 75
     0
 76
     1
 47
0.0462895852180626
 98
       35
 10
288.7974238176521
 20
179.4936813691709
 10
289.8627236796942
 20
181.584465372948
 10
291.1410835141446
 20
180.0938142181545
 10
289.9789386192773
 20
178.0998258351811
 10
289.5721863307358
 20
177.9255937177343
 10
288.6812088780689
 20
176.8995615427989
 10
290.5793809734691
 20
176.1058374522077
 10
289.7852463031441
 20
174.4990315524496
 10
294.0464480017949
 20
174.5377498007712
 10
293.8914954991783
 20
175.8348111195424
 10
295.7121902180288
 20
176.2994286938154
 10
295.0730103008036
 20
177.9255937177343
 10
294.9955329242534
 20
178.196621455985
 10
294.2014005044116
 20
179.5130404933316
 10
296.1770477258788
 20
180.4229193288874
 10
295.5378678086536
 20
181.7393383662341
 10
299.2878295458368
 20
180.3689532929455
 10
300.8990605640343
 20
180.4928303226803
 10
300.372312524552
 20
181.6077221847075
 10
299.9695053326231
 20
177.8604448464025
 10
300.000489981891
 20
178.1701360151542
 10
298.6991099573361
 20
176.9003978659585
 10
300.8990605640343
 20
176.2190742024175
 10
299.3498010948552
 20
174.5157664491503
 10
303.749702308251
 20
174.5467357065841
 10
303.6567461099653
 20
175.9713201429482
 10
305.8257120673957
 20
176.5907052916216
 10
306.282785154719
 20
177.4794919165368
 10
305.3751991378744
 20
177.8675065061559
 10
305.2860147490142
 20
178.166383102825
 10
305.962768729587
 20
178.5176936476314
 10
306.3195062850282
 20
178.6592669943039
 10
305.0648665408803
 20
181.8541212601001
 10
303.8836240476921
 20
180.4158942143476
 10
306.3527054095198
 20
181.8733833988861
450
        0
451
        0
460
0.0
461
0.0
452
        1
462
1.0
453
        2
463
0.0
 63
     5
421
      255
463
1.0
 63
    51
421
 16777113
470
LINEAR
1001
ACAD
1010
0.0
1020
0.0
1030
0.0
  0
TEXT
  5
29EAD
330
1F
100
AcDbEntity
  8
文字
370
    13
100
AcDbText
 10
326.1647989747705
 20
168.2248262684765
 30
0.0
 40
2.299999999999998
  1
L
 41
0.8
  7
ｽﾀｲﾙ1
 72
     1
 11
327.040989450961
 21
169.3748262684765
 31
0.0
100
AcDbText
 73
     2
  0
CIRCLE
  5
29EAE
330
1F
100
AcDbEntity
  8
実線
100
AcDbCircle
 10
306.2376627751594
 20
184.0394118988538
 30
0.0
 40
29.0
  0
LINE
  5
29EAF
330
1F
100
AcDbEntity
  8
実線
100
AcDbLine
 10
278.0951682162188
 20
191.0394118988538
 30
0.0
 11
334.3801573341
 21
191.0394118988538
 31
0.0
  0
TEXT
  5
29EB0
330
1F
100
AcDbEntity
  8
文字
370
    13
100
AcDbText
 10
295.7138698357907
 20
159.1604828710551
 30
0.0
 40
2.299999999999998
  1
型承L　　　　号
 41
0.8
  7
ｽﾀｲﾙ1
 72
     1
 11
303.9412984072192
 21
160.3104828710551
 31
0.0
100
AcDbText
 73
     2
  0
LINE
  5
29EB1
330
1F
100
AcDbEntity
  8
実線
100
AcDbLine
 10
306.2376627751594
 20
189.0394118988537
 30
0.0
 11
284.2376627751594
 21
189.0394118988537
 31
0.0
  0
LINE
  5
29EB2
330
1F
100
AcDbEntity
  8
実線
100
AcDbLine
 10
284.2376627751594
 20
189.0394118988537
 30
0.0
 11
284.2376627751594
 21
173.0394118988538
 31
0.0
  0
LINE
  5
29EB3
330
1F
100
AcDbEntity
  8
実線
100
AcDbLine
 10
284.2376627751594
 20
173.0394118988538
 30
0.0
 11
306.2376627751594
 21
173.0394118988538
 31
0.0
  0
LINE
  5
29EB4
330
1F
100
AcDbEntity
  8
実線
100
AcDbLine
 10
306.2376627751594
 20
189.0394118988537
 30
0.0
 11
328.2376627751594
 21
189.0394118988537
 31
0.0
  0
LINE
  5
29EB5
330
1F
100
AcDbEntity
  8
実線
100
AcDbLine
 10
328.2376627751594
 20
189.0394118988537
 30
0.0
 11
328.2376627751594
 21
173.0394118988538
 31
0.0
  0
LINE
  5
29EB6
330
1F
100
AcDbEntity
  8
実線
100
AcDbLine
 10
328.2376627751594
 20
173.0394118988538
 30
0.0
 11
306.2376627751594
 21
173.0394118988538
 31
0.0
  0
LINE
  5
29EB7
330
1F
100
AcDbEntity
  8
実線
100
AcDbLine
 10
284.2376627751594
 20
189.0394118988537
 30
0.0
 11
293.0376627751593
 21
189.0394118988537
 31
0.0
  0
LINE
  5
29EB8
330
1F
100
AcDbEntity
  8
実線
100
AcDbLine
 10
306.2376627751594
 20
173.0394118988538
 30
0.0
 11
284.2376627751594
 21
173.0394118988538
 31
0.0
  0
LINE
  5
29EB9
330
1F
100
AcDbEntity
  8
実線
100
AcDbLine
 10
284.2376627751594
 20
173.0394118988538
 30
0.0
 11
289.7376627751594
 21
173.0394118988538
 31
0.0
  0
LINE
  5
29EBA
330
1F
100
AcDbEntity
  8
実線
100
AcDbLine
 10
284.2376627751594
 20
173.0394118988538
 30
0.0
 11
285.7376627751594
 21
173.0394118988538
 31
0.0
  0
LINE
  5
29EBB
330
1F
100
AcDbEntity
  8
実線
100
AcDbLine
 10
324.2376627751594
 20
173.0394118988538
 30
0.0
 11
306.2376627751594
 21
173.0394118988538
 31
0.0
  0
LINE
  5
29EBC
330
1F
100
AcDbEntity
  8
実線
370
     9
100
AcDbLine
 10
286.2651241392514
 20
188.0449186830132
 30
0.0
 11
290.7236684373815
 21
188.0449186830132
 31
0.0
  0
LWPOLYLINE
  5
29EBD
330
1F
100
AcDbEntity
  8
実線
370
     9
100
AcDbPolyline
 90
        8
 70
     1
 43
0.0
 10
286.1103191188981
 20
188.044918683013
 10
291.2668753082948
 20
188.0449186830132
 42
-0.4142135623730951
 10
291.7668753082949
 20
187.544918683013
 10
291.7668753082949
 20
185.5339051146944
 42
-0.4142135623730951
 10
291.2668753082948
 20
185.0339051146944
 10
286.1103191188981
 20
185.0339051146944
 42
-0.4142135623730943
 10
285.6103191188982
 20
185.5339051146944
 10
285.6103191188982
 20
187.544918683013
 42
-0.4142135623730951
  0
LINE
  5
29EBE
330
1F
100
AcDbEntity
  8
実線
370
     9
100
AcDbLine
 10
285.6103191188982
 20
187.544918683013
 30
0.0
 11
285.6103191188982
 21
186.5394118988538
 31
0.0
  0
LINE
  5
29EBF
330
1F
100
AcDbEntity
  8
実線
370
     9
100
AcDbLine
 10
285.6103191188982
 20
186.5394118988538
 30
0.0
 11
285.6103191188982
 21
186.9394118988538
 31
0.0
  0
LINE
  5
29EC0
330
1F
100
AcDbEntity
  8
実線
370
     9
100
AcDbLine
 10
285.6103191188982
 20
186.8394118988538
 30
0.0
 11
285.2724091586012
 21
186.8394118988538
 31
0.0
  0
LINE
  5
29EC1
330
1F
100
AcDbEntity
  8
実線
370
     9
100
AcDbLine
 10
285.6103191188982
 20
186.2394118988538
 30
0.0
 11
285.2724091586012
 21
186.2394118988538
 31
0.0
  0
LINE
  5
29EC2
330
1F
100
AcDbEntity
  8
実線
370
     9
100
AcDbLine
 10
285.2724091586012
 20
186.2394118988538
 30
0.0
 11
285.2724091586012
 21
186.8394118988538
 31
0.0
  0
LINE
  5
29EC3
330
1F
100
AcDbEntity
  8
実線
370
     9
100
AcDbLine
 10
291.7668753082949
 20
186.3239820808948
 30
0.0
 11
289.1127097276211
 21
185.0339051146944
 31
0.0
  0
LINE
  5
29EC4
330
1F
100
AcDbEntity
  8
実線
100
AcDbLine
 10
284.2376627751594
 20
184.0394118988538
 30
0.0
 11
284.2376627751594
 21
186.5394118988538
 31
0.0
  0
LINE
  5
29EC5
330
1F
100
AcDbEntity
  8
実線
370
     9
100
AcDbLine
 10
293.9261776919334
 20
186.5394118988538
 30
0.0
 11
301.0179220715677
 21
186.5394118988538
 31
0.0
  0
ARC
  5
29EC6
330
1F
100
AcDbEntity
  8
実線
370
     9
100
AcDbCircle
 10
294.7508559168678
 20
186.5394118988538
 30
0.0
 40
0.8246782249343596
100
AcDbArc
 50
0.0
 51
180.0
  0
ARC
  5
29EC7
330
1F
100
AcDbEntity
  8
実線
370
     9
100
AcDbCircle
 10
298.9558473028551
 20
186.5394118988538
 30
0.0
 40
2.06207476871259
100
AcDbArc
 50
0.0
 51
180.0
  0
ARC
  5
29EC8
330
1F
100
AcDbEntity
  8
実線
370
     9
100
AcDbCircle
 10
296.2346533379723
 20
186.5394118988538
 30
0.0
 40
0.6591191961701952
100
AcDbArc
 50
180.0
 51
0.0
  0
LINE
  5
29EC9
330
1F
100
AcDbEntity
  8
実線
370
     9
100
AcDbLine
 10
306.1510602347809
 20
187.9179415400208
 30
0.0
 11
305.5283708561242
 21
186.8394118988538
 31
0.0
  0
LINE
  5
29ECA
330
1F
100
AcDbEntity
  8
実線
370
     9
100
AcDbLine
 10
305.5283708561242
 20
186.8394118988538
 30
0.0
 11
302.6603125059697
 21
186.8394118988538
 31
0.0
  0
LINE
  5
29ECB
330
1F
100
AcDbEntity
  8
実線
370
     9
100
AcDbLine
 10
302.6603125059697
 20
186.8394118988538
 30
0.0
 11
302.6603125059697
 21
188.3394118988538
 31
0.0
  0
LINE
  5
29ECC
330
1F
100
AcDbEntity
  8
実線
370
     9
100
AcDbLine
 10
302.6603125059697
 20
188.3394118988538
 30
0.0
 11
302.6603125059697
 21
188.5394118988538
 31
0.0
  0
LINE
  5
29ECD
330
1F
100
AcDbEntity
  8
実線
370
     9
100
AcDbLine
 10
302.6603125059697
 20
188.5394118988538
 30
0.0
 11
306.2376627751594
 21
188.5394118988538
 31
0.0
  0
LINE
  5
29ECE
330
1F
100
AcDbEntity
  8
実線
370
     9
100
AcDbLine
 10
306.3242653155378
 20
187.9179415400208
 30
0.0
 11
306.9469546941946
 21
186.8394118988538
 31
0.0
  0
ARC
  5
29ECF
330
1F
100
AcDbEntity
  8
実線
370
     9
100
AcDbCircle
 10
306.2376627751594
 20
187.8679415400208
 30
0.0
 40
0.1
100
AcDbArc
 50
30.00000000000197
 51
149.999999999998
  0
LINE
  5
29ED0
330
1F
100
AcDbEntity
  8
実線
370
     9
100
AcDbLine
 10
306.9469546941946
 20
186.8394118988538
 30
0.0
 11
309.8150130443489
 21
186.8394118988538
 31
0.0
  0
LINE
  5
29ED1
330
1F
100
AcDbEntity
  8
実線
370
     9
100
AcDbLine
 10
309.8150130443489
 20
186.8394118988538
 30
0.0
 11
309.8150130443489
 21
188.3394118988538
 31
0.0
  0
LINE
  5
29ED2
330
1F
100
AcDbEntity
  8
実線
370
     9
100
AcDbLine
 10
309.8150130443489
 20
188.3394118988538
 30
0.0
 11
309.8150130443489
 21
188.5394118988538
 31
0.0
  0
LINE
  5
29ED3
330
1F
100
AcDbEntity
  8
実線
370
     9
100
AcDbLine
 10
309.8150130443489
 20
188.5394118988538
 30
0.0
 11
306.2376627751594
 21
188.5394118988538
 31
0.0
  0
LINE
  5
29ED4
330
1F
100
AcDbEntity
  8
実線
370
     9
100
AcDbLine
 10
306.2376627751594
 20
187.4032860244333
 30
0.0
 11
306.2376627751594
 21
187.4032860244333
 31
0.0
  0
LINE
  5
29ED5
330
1F
100
AcDbEntity
  8
実線
370
     9
100
AcDbLine
 10
306.1276627751594
 20
187.2932860244333
 30
0.0
 11
306.1276627751592
 21
186.7740120408943
 31
0.0
  0
ARC
  5
29ED6
330
1F
100
AcDbEntity
  8
実線
370
     9
100
AcDbCircle
 10
306.2376627751594
 20
187.2932860244333
 30
0.0
 40
0.11
100
AcDbArc
 50
90.0
 51
180.0
  0
LINE
  5
29ED7
330
1F
100
AcDbEntity
  8
実線
370
     9
100
AcDbLine
 10
306.2376627751594
 20
187.4032860244333
 30
0.0
 11
306.2376627751594
 21
187.4032860244333
 31
0.0
  0
ARC
  5
29ED8
330
1F
100
AcDbEntity
  8
実線
370
     9
100
AcDbCircle
 10
306.2376627751594
 20
185.1240120408943
 30
0.0
 40
0.9306015624457703
100
AcDbArc
 50
126.2225574198025
 51
270.0
  0
SPLINE
  5
29ED9
330
1F
100
AcDbEntity
  8
実線
370
     9
100
AcDbSpline
210
0.0
220
0.0
230
1.0
 70
     8
 71
     3
 72
    11
 73
     7
 74
     0
 42
0.000000001
 43
0.0000000001
 40
0.1555204288834384
 40
0.1555204288834384
 40
0.1555204288834384
 40
0.1555204288834384
 40
0.5593633922873859
 40
0.5822009405451765
 40
0.8548250476437651
 40
1.087050667177579
 40
1.087050667177579
 40
1.087050667177579
 40
1.087050667177579
 10
305.6877486070573
 20
185.8747541242676
 30
0.0
 10
305.7899284043963
 20
185.9833674478007
 30
0.0
 10
305.8917310080908
 20
186.102414454539
 30
0.0
 10
306.0202419525794
 20
186.3242540266359
 30
0.0
 10
306.1032502216479
 20
186.5033603349537
 30
0.0
 10
306.1199712679163
 20
186.6887395373208
 30
0.0
 10
306.1276627751594
 20
186.7740120408943
 30
0.0
  0
LINE
  5
29EDA
330
1F
100
AcDbEntity
  8
実線
370
     9
100
AcDbLine
 10
306.2376627751594
 20
187.4032860244333
 30
0.0
 11
306.2376627751594
 21
187.4032860244333
 31
0.0
  0
LINE
  5
29EDB
330
1F
100
AcDbEntity
  8
実線
370
     9
100
AcDbLine
 10
306.3476627751594
 20
187.2932860244333
 30
0.0
 11
306.3476627751594
 21
186.7740120408943
 31
0.0
  0
ARC
  5
29EDC
330
1F
100
AcDbEntity
  8
実線
370
     9
100
AcDbCircle
 10
306.2376627751594
 20
187.2932860244333
 30
0.0
 40
0.11
100
AcDbArc
 50
359.9999999999992
 51
90.0
  0
LINE
  5
29EDD
330
1F
100
AcDbEntity
  8
実線
370
     9
100
AcDbLine
 10
306.2376627751594
 20
187.4032860244333
 30
0.0
 11
306.2376627751594
 21
187.4032860244333
 31
0.0
  0
ARC
  5
29EDE
330
1F
100
AcDbEntity
  8
実線
370
     9
100
AcDbCircle
 10
306.2376627751594
 20
185.1240120408943
 30
0.0
 40
0.9306015624457703
100
AcDbArc
 50
270.0
 51
53.77744258019749
  0
SPLINE
  5
29EDF
330
1F
100
AcDbEntity
  8
実線
370
     9
100
AcDbSpline
210
0.0
220
0.0
230
1.0
 70
     8
 71
     3
 72
    11
 73
     7
 74
     0
 42
0.000000001
 43
0.0000000001
 40
0.1555204288834384
 40
0.1555204288834384
 40
0.1555204288834384
 40
0.1555204288834384
 40
0.5593633922873859
 40
0.5822009405451765
 40
0.8548250476437651
 40
1.087050667177579
 40
1.087050667177579
 40
1.087050667177579
 40
1.087050667177579
 10
306.7875769432614
 20
185.8747541242676
 30
0.0
 10
306.6853971459224
 20
185.9833674478007
 30
0.0
 10
306.5835945422278
 20
186.102414454539
 30
0.0
 10
306.4550835977392
 20
186.3242540266359
 30
0.0
 10
306.3720753286709
 20
186.5033603349537
 30
0.0
 10
306.3553542824022
 20
186.6887395373208
 30
0.0
 10
306.3476627751594
 20
186.7740120408943
 30
0.0
  0
LINE
  5
29EE0
330
1F
100
AcDbEntity
  8
実線
370
     9
100
AcDbLine
 10
313.8333017363034
 20
188.2894118988538
 30
0.0
 11
311.7093124088767
 21
186.5394118988538
 31
0.0
  0
LINE
  5
29EE1
330
1F
100
AcDbEntity
  8
実線
370
     9
100
AcDbLine
 10
318.4970810776217
 20
186.8394118988538
 30
0.0
 11
318.4970810776217
 21
187.7394118988538
 31
0.0
  0
LINE
  5
29EE2
330
1F
100
AcDbEntity
  8
実線
370
     9
100
AcDbLine
 10
318.4970810776217
 20
187.7394118988538
 30
0.0
 11
313.8333017363034
 21
187.7394118988538
 31
0.0
  0
LINE
  5
29EE3
330
1F
100
AcDbEntity
  8
実線
370
     9
100
AcDbLine
 10
313.8333017363034
 20
187.7394118988538
 30
0.0
 11
313.8333017363034
 21
188.2894118988538
 31
0.0
  0
LINE
  5
29EE4
330
1F
100
AcDbEntity
  8
実線
370
     9
100
AcDbLine
 10
313.8333017363034
 20
184.7894118988538
 30
0.0
 11
311.7093124088767
 21
186.5394118988538
 31
0.0
  0
LINE
  5
29EE5
330
1F
100
AcDbEntity
  8
実線
370
     9
100
AcDbLine
 10
318.4970810776217
 20
186.2394118988538
 30
0.0
 11
318.4970810776217
 21
185.3394118988538
 31
0.0
  0
LINE
  5
29EE6
330
1F
100
AcDbEntity
  8
実線
370
     9
100
AcDbLine
 10
318.4970810776217
 20
185.3394118988538
 30
0.0
 11
313.8333017363034
 21
185.3394118988538
 31
0.0
  0
LINE
  5
29EE7
330
1F
100
AcDbEntity
  8
実線
370
     9
100
AcDbLine
 10
313.8333017363034
 20
185.3394118988538
 30
0.0
 11
313.8333017363034
 21
184.7894118988538
 31
0.0
  0
LINE
  5
29EE8
330
1F
100
AcDbEntity
  8
実線
370
     9
100
AcDbLine
 10
317.3017101585939
 20
185.9064922625766
 30
0.0
 11
318.0698899029203
 21
186.5394118988538
 31
0.0
  0
LINE
  5
29EE9
330
1F
100
AcDbEntity
  8
実線
370
     9
100
AcDbLine
 10
317.3017101585939
 20
186.1054098625495
 30
0.0
 11
317.3017101585939
 21
185.9064922625766
 31
0.0
  0
LINE
  5
29EEA
330
1F
100
AcDbEntity
  8
実線
370
     9
100
AcDbLine
 10
317.3017101585939
 20
187.1723315351309
 30
0.0
 11
318.0698899029203
 21
186.5394118988538
 31
0.0
  0
LINE
  5
29EEB
330
1F
100
AcDbEntity
  8
実線
370
     9
100
AcDbLine
 10
317.3017101585939
 20
186.973413935158
 30
0.0
 11
317.3017101585939
 21
187.1723315351309
 31
0.0
  0
LINE
  5
29EEC
330
1F
100
AcDbEntity
  8
実線
370
     9
100
AcDbLine
 10
317.3017101585939
 20
186.973413935158
 30
0.0
 11
314.5906477618301
 21
186.973413935158
 31
0.0
  0
LINE
  5
29EED
330
1F
100
AcDbEntity
  8
実線
370
     9
100
AcDbLine
 10
314.5906477618301
 20
186.973413935158
 30
0.0
 11
314.5906477618301
 21
186.1054098625495
 31
0.0
  0
LINE
  5
29EEE
330
1F
100
AcDbEntity
  8
実線
370
     9
100
AcDbLine
 10
314.5906477618301
 20
186.1054098625495
 30
0.0
 11
317.3017101585939
 21
186.1054098625495
 31
0.0
  0
LWPOLYLINE
  5
29EEF
330
1F
100
AcDbEntity
  8
実線
370
     9
100
AcDbPolyline
 90
        4
 70
     1
 43
0.0
 10
314.2809565524772
 20
186.973413935158
 10
314.1018946260074
 20
186.973413935158
 10
314.1018946260074
 20
186.1054098625495
 10
314.2809565524772
 20
186.1054098625495
  0
LWPOLYLINE
  5
29EF0
330
1F
100
AcDbEntity
  8
実線
370
     9
100
AcDbPolyline
 90
        4
 70
     1
 43
0.0
 10
313.7922034166545
 20
186.973413935158
 10
313.6131414901847
 20
186.973413935158
 10
313.6131414901847
 20
186.1054098625495
 10
313.7922034166545
 20
186.1054098625495
  0
LINE
  5
29EF1
330
1F
100
AcDbEntity
  8
実線
370
     0
100
AcDbLine
 10
320.5437289567592
 20
185.0894118988538
 30
0.0
 11
321.8476879009461
 21
185.0894118988538
 31
0.0
  0
LINE
  5
29EF2
330
1F
100
AcDbEntity
  8
実線
370
     0
100
AcDbLine
 10
325.8276376493725
 20
185.0894118988538
 30
0.0
 11
327.1315965935594
 21
185.0894118988538
 31
0.0
  0
LINE
  5
29EF3
330
1F
100
AcDbEntity
  8
実線
370
     0
100
AcDbLine
 10
320.5437289567592
 20
185.4894118988538
 30
0.0
 11
320.8989876405644
 21
185.4894118988538
 31
0.0
  0
LINE
  5
29EF4
330
1F
100
AcDbEntity
  8
実線
370
     0
100
AcDbLine
 10
321.4763379097542
 20
185.4894118988538
 30
0.0
 11
321.8476879009461
 21
185.4894118988538
 31
0.0
  0
LINE
  5
29EF5
330
1F
100
AcDbEntity
  8
実線
370
     0
100
AcDbLine
 10
325.8276376493725
 20
185.4894118988538
 30
0.0
 11
326.1989876405645
 21
185.4894118988538
 31
0.0
  0
LINE
  5
29EF6
330
1F
100
AcDbEntity
  8
実線
370
     0
100
AcDbLine
 10
326.7763379097541
 20
185.4894118988538
 30
0.0
 11
327.1315965935594
 21
185.4894118988538
 31
0.0
  0
LINE
  5
29EF7
330
1F
100
AcDbEntity
  8
実線
370
     0
100
AcDbLine
 10
323.6376627751592
 20
187.279386773067
 30
0.0
 11
323.6376627751592
 21
188.5833457172539
 31
0.0
  0
LINE
  5
29EF8
330
1F
100
AcDbEntity
  8
実線
370
     0
100
AcDbLine
 10
324.0376627751593
 20
187.279386773067
 30
0.0
 11
324.0376627751593
 21
188.5833457172539
 31
0.0
  0
LINE
  5
29EF9
330
1F
100
AcDbEntity
  8
実線
370
     0
100
AcDbLine
 10
321.1876627751593
 20
185.9894118988538
 30
0.0
 11
320.8989876405646
 21
185.4894118988538
 31
0.0
  0
LINE
  5
29EFA
330
1F
100
AcDbEntity
  8
実線
370
     0
100
AcDbLine
 10
320.8989876405646
 20
185.4894118988538
 30
0.0
 11
321.1876627751593
 21
185.9894118988538
 31
0.0
  0
LINE
  5
29EFB
330
1F
100
AcDbEntity
  8
実線
370
     0
100
AcDbLine
 10
321.1876627751593
 20
185.9894118988538
 30
0.0
 11
321.4763379097542
 21
185.4894118988538
 31
0.0
  0
LINE
  5
29EFC
330
1F
100
AcDbEntity
  8
実線
370
     0
100
AcDbLine
 10
326.4876627751594
 20
185.9894118988538
 30
0.0
 11
326.7763379097541
 21
185.4894118988538
 31
0.0
  0
LINE
  5
29EFD
330
1F
100
AcDbEntity
  8
実線
370
     0
100
AcDbLine
 10
326.7763379097541
 20
185.4894118988538
 30
0.0
 11
326.4876627751594
 21
185.9894118988538
 31
0.0
  0
LINE
  5
29EFE
330
1F
100
AcDbEntity
  8
実線
370
     0
100
AcDbLine
 10
326.4876627751594
 20
185.9894118988538
 30
0.0
 11
326.1989876405645
 21
185.4894118988538
 31
0.0
  0
LINE
  5
29EFF
330
1F
100
AcDbEntity
  8
実線
100
AcDbLine
 10
286.2376627751594
 20
173.0394118988538
 30
0.0
 11
288.7376627751594
 21
173.0394118988538
 31
0.0
  0
LINE
  5
29F00
330
1F
100
AcDbEntity
  8
実線
100
AcDbLine
 10
290.2376627751594
 20
173.0394118988538
 30
0.0
 11
287.2376627751594
 21
173.0394118988538
 31
0.0
  0
LINE
  5
29F01
330
1F
100
AcDbEntity
  8
実線
100
AcDbLine
 10
287.2376627751594
 20
173.0394118988538
 30
0.0
 11
286.2376627751594
 21
173.0394118988538
 31
0.0
  0
LINE
  5
29F02
330
1F
100
AcDbEntity
  8
実線
100
AcDbLine
 10
290.2376627751594
 20
173.0394118988538
 30
0.0
 11
291.0876627751593
 21
173.0394118988538
 31
0.0
  0
LINE
  5
29F03
330
1F
100
AcDbEntity
  8
実線
370
     0
100
AcDbLine
 10
291.0157763998427
 20
174.4865842493256
 30
0.0
 11
291.3394576451949
 21
177.5329959702862
 31
0.0
  0
LINE
  5
29F04
330
1F
100
AcDbEntity
  8
実線
370
     0
100
AcDbLine
 10
291.4456077915449
 20
178.532056171229
 30
0.0
 11
291.7595263998428
 21
181.4865842493256
 31
0.0
  0
LINE
  5
29F05
330
1F
100
AcDbEntity
  8
実線
370
     0
100
AcDbLine
 10
288.4620294871334
 20
178.532056171229
 30
0.0
 11
288.7539609106596
 21
181.4342031746598
 31
0.0
  0
HATCH
  5
29F06
330
1F
100
AcDbEntity
  8
文字
 62
     0
370
     0
100
AcDbHatch
 10
0.0
 20
0.0
 30
0.0
210
0.0
220
0.0
230
1.0
  2
SOLID
 70
     1
 71
     0
 91
       28
 92
        7
 72
     0
 73
     1
 93
        5
 10
308.7042910427467
 20
175.7902514766566
 10
308.5701393376051
 20
175.9394118988538
 10
308.4042910427466
 20
175.7902514766566
 10
308.2667302944319
 20
174.4955620807524
 10
308.5724710392096
 20
174.5495926198368
 97
        0
 92
        7
 72
     1
 73
     1
 93
        8
 10
309.2182643376052
 20
174.0394118988539
 42
0.0
 10
309.9382072658693
 20
174.0394118988539
 42
0.0
 10
309.8994459656184
 20
174.3394118988538
 42
0.0
 10
308.5501393376051
 20
174.3394118988538
 42
0.0
 10
308.5619055093039
 20
174.4501523383719
 42
0.0
 10
308.2561647645261
 20
174.3961217992876
 42
0.0
 10
308.24175951271
 20
174.2605429586651
 42
0.4455681594597042
 10
308.4406400756397
 20
174.0394118988539
 42
0.0
 97
        0
 92
        7
 72
     1
 73
     1
 93
        8
 10
313.7182643376052
 20
174.0394118988539
 42
0.0
 10
314.4382072658693
 20
174.0394118988538
 42
0.0
 10
314.3994459656184
 20
174.3394118988538
 42
0.0
 10
313.0501393376051
 20
174.3394118988538
 42
0.0
 10
313.0619055093039
 20
174.4501523383719
 42
0.0
 10
312.7561647645261
 20
174.3961217992876
 42
0.0
 10
312.74175951271
 20
174.2605429586651
 42
0.4455681594597042
 10
312.9406400756398
 20
174.0394118988539
 42
0.0
 97
        0
 92
        7
 72
     1
 73
     1
 93
        8
 10
318.2182643376052
 20
174.0394118988539
 42
0.0
 10
318.9382072658693
 20
174.0394118988538
 42
0.0
 10
318.8994459656184
 20
174.3394118988538
 42
0.0
 10
317.550139337605
 20
174.3394118988538
 42
0.0
 10
317.5619055093039
 20
174.4501523383719
 42
0.0
 10
317.2561647645261
 20
174.3961217992876
 42
0.0
 10
317.24175951271
 20
174.2605429586651
 42
0.4455681594597037
 10
317.4406400756398
 20
174.0394118988539
 42
0.0
 97
        0
 92
        7
 72
     1
 73
     1
 93
        8
 10
322.050139337605
 20
174.3394118988538
 42
0.0
 10
322.0619055093039
 20
174.4501523383719
 42
0.0
 10
321.7561647645262
 20
174.3961217992876
 42
0.0
 10
321.74175951271
 20
174.2605429586651
 42
0.4455681594597037
 10
321.9406400756398
 20
174.0394118988539
 42
0.0
 10
322.7182643376051
 20
174.0394118988539
 42
0.0
 10
323.4382072658693
 20
174.0394118988538
 42
0.0
 10
323.3994459656184
 20
174.3394118988538
 42
0.0
 97
        0
 92
        7
 72
     0
 73
     1
 93
        5
 10
308.8987738947187
 20
177.6206783187464
 10
308.613108552026
 20
177.7555927404617
 10
308.4572376324636
 20
176.2885723210511
 10
308.5913893376051
 20
176.1394118988538
 10
308.7572376324636
 20
176.2885723210511
 97
        0
 92
        7
 72
     1
 73
     1
 93
        6
 10
310.2297253174071
 20
177.7394118988538
 42
0.0
 10
310.5548827941366
 20
177.9878893578251
 42
0.1856316266337449
 10
310.4208885995704
 20
178.0394118988538
 42
0.0
 10
308.8231400756398
 20
178.0394118988538
 42
0.3835390513495728
 10
308.6242595127101
 20
177.8605429586651
 42
0.0
 10
308.9113893376052
 20
177.7394118988538
 42
0.0
 97
        0
 92
        7
 72
     1
 73
     1
 93
        6
 10
310.1566763386874
 20
176.2832895560983
 42
0.0
 10
310.2860768376051
 20
176.1394118988538
 42
0.0
 10
310.4577989262399
 20
176.2938550860039
 42
0.0
 10
310.6197691625001
 20
177.8182808390425
 42
0.1105095351356948
 10
310.6098101517551
 20
177.9050521846553
 42
0.0
 10
310.3041727984877
 20
177.6714915306901
 42
0.0
 97
        0
 92
        7
 72
     0
 73
     1
 93
        6
 10
310.0596911289442
 20
175.8894118988538
 10
310.2347913794188
 20
176.0468933327747
 10
310.1066132181331
 20
176.1894118988538
 10
308.7965250462662
 20
176.1894118988538
 10
308.6214247957914
 20
176.0319304649329
 10
308.749602957077
 20
175.8894118988538
 97
        0
 92
        7
 72
     1
 73
     1
 93
        6
 10
310.104852336523
 20
175.7955342416094
 42
0.0
 10
309.9724710392095
 20
174.5495926198368
 42
0.0
 10
310.0383885995705
 20
174.0394118988538
 42
0.3835390513495732
 10
310.2372691625002
 20
174.2182808390425
 42
0.0
 10
310.4037297489704
 20
175.7849687117038
 42
0.0
 10
310.2648268376051
 20
175.9394118988538
 42
0.0
 97
        0
 92
        7
 72
     0
 73
     1
 93
        5
 10
312.9572376324636
 20
176.2885723210511
 10
313.091389337605
 20
176.1394118988538
 10
313.2572376324636
 20
176.2885723210511
 10
313.3987738947187
 20
177.6206783187464
 10
313.1131085520259
 20
177.7555927404617
 97
        0
 92
        7
 72
     1
 73
     1
 93
        6
 10
313.1242595127101
 20
177.8605429586651
 42
0.0
 10
313.4113893376051
 20
177.7394118988538
 42
0.0
 10
314.729725317407
 20
177.7394118988538
 42
0.0
 10
315.0548827941366
 20
177.9878893578251
 42
0.1856316266337449
 10
314.9208885995704
 20
178.0394118988538
 42
0.0
 10
313.3231400756398
 20
178.0394118988538
 42
0.3835390513495728
 97
        0
 92
        7
 72
     1
 73
     1
 93
        6
 10
314.6566763386874
 20
176.2832895560983
 42
0.0
 10
314.7860768376052
 20
176.1394118988538
 42
0.0
 10
314.9577989262398
 20
176.2938550860039
 42
0.0
 10
315.1197691625001
 20
177.8182808390425
 42
0.1105095351356948
 10
315.1098101517551
 20
177.9050521846553
 42
0.0
 10
314.8041727984877
 20
177.6714915306901
 42
0.0
 97
        0
 92
        7
 72
     0
 73
     1
 93
        6
 10
313.1214247957914
 20
176.0319304649329
 10
313.249602957077
 20
175.8894118988538
 10
314.5596911289441
 20
175.8894118988538
 10
314.7347913794188
 20
176.0468933327747
 10
314.6066132181331
 20
176.1894118988538
 10
313.2965250462662
 20
176.1894118988538
 97
        0
 92
        7
 72
     0
 73
     1
 93
        5
 10
312.7667302944319
 20
174.4955620807524
 10
313.0724710392095
 20
174.5495926198368
 10
313.2042910427467
 20
175.7902514766566
 10
313.0701393376051
 20
175.9394118988538
 10
312.9042910427466
 20
175.7902514766566
 97
        0
 92
        7
 72
     1
 73
     1
 93
        6
 10
314.4724710392095
 20
174.5495926198367
 42
0.0
 10
314.5383885995705
 20
174.0394118988538
 42
0.3835390513495732
 10
314.7372691625002
 20
174.2182808390425
 42
0.0
 10
314.9037297489704
 20
175.7849687117038
 42
0.0
 10
314.7648268376051
 20
175.9394118988538
 42
0.0
 10
314.6048523365231
 20
175.7955342416094
 42
0.0
 97
        0
 92
        7
 72
     0
 73
     1
 93
        5
 10
317.2667302944319
 20
174.4955620807524
 10
317.5724710392095
 20
174.5495926198368
 10
317.7042910427467
 20
175.7902514766566
 10
317.5701393376052
 20
175.9394118988538
 10
317.4042910427467
 20
175.7902514766566
 97
        0
 92
        7
 72
     1
 73
     1
 93
        6
 10
318.9724710392095
 20
174.5495926198368
 42
0.0
 10
319.0383885995704
 20
174.0394118988538
 42
0.3835390513495732
 10
319.2372691625002
 20
174.2182808390425
 42
0.0
 10
319.4037297489704
 20
175.7849687117038
 42
0.0
 10
319.2648268376051
 20
175.9394118988538
 42
0.0
 10
319.1048523365231
 20
175.7955342416094
 42
0.0
 97
        0
 92
        7
 72
     0
 73
     1
 93
        6
 10
317.6214247957914
 20
176.0319304649329
 10
317.7496029570771
 20
175.8894118988538
 10
319.0596911289442
 20
175.8894118988538
 10
319.2347913794188
 20
176.0468933327747
 10
319.1066132181331
 20
176.1894118988538
 10
317.7965250462662
 20
176.1894118988539
 97
        0
 92
        7
 72
     1
 73
     1
 93
        6
 10
319.1566763386873
 20
176.2832895560983
 42
0.0
 10
319.2860768376052
 20
176.1394118988538
 42
0.0
 10
319.4577989262398
 20
176.2938550860039
 42
0.0
 10
319.6197691625001
 20
177.8182808390425
 42
0.1105095351356948
 10
319.6098101517551
 20
177.9050521846553
 42
0.0
 10
319.3041727984877
 20
177.6714915306901
 42
0.0
 97
        0
 92
        7
 72
     1
 73
     1
 93
        6
 10
317.6242595127101
 20
177.8605429586651
 42
0.0
 10
317.9113893376051
 20
177.7394118988538
 42
0.0
 10
319.229725317407
 20
177.7394118988538
 42
0.0
 10
319.5548827941366
 20
177.9878893578251
 42
0.1856316266337449
 10
319.4208885995704
 20
178.0394118988538
 42
0.0
 10
317.8231400756398
 20
178.0394118988538
 42
0.3835390513495728
 97
        0
 92
        7
 72
     0
 73
     1
 93
        5
 10
317.4572376324636
 20
176.2885723210511
 10
317.591389337605
 20
176.1394118988538
 10
317.7572376324635
 20
176.2885723210511
 10
317.8987738947187
 20
177.6206783187464
 10
317.6131085520259
 20
177.7555927404617
 97
        0
 92
        7
 72
     0
 73
     1
 93
        5
 10
321.7667302944319
 20
174.4955620807524
 10
322.0724710392096
 20
174.5495926198368
 10
322.2042910427467
 20
175.7902514766566
 10
322.0701393376052
 20
175.9394118988538
 10
321.9042910427467
 20
175.7902514766565
 97
        0
 92
        7
 72
     0
 73
     1
 93
        6
 10
322.1214247957914
 20
176.0319304649329
 10
322.2496029570771
 20
175.8894118988538
 10
323.5596911289441
 20
175.8894118988538
 10
323.7347913794188
 20
176.0468933327747
 10
323.6066132181331
 20
176.1894118988538
 10
322.2965250462662
 20
176.1894118988538
 97
        0
 92
        7
 72
     1
 73
     1
 93
        6
 10
323.4724710392095
 20
174.5495926198368
 42
0.0
 10
323.5383885995704
 20
174.0394118988538
 42
0.3835390513495732
 10
323.7372691625002
 20
174.2182808390425
 42
0.0
 10
323.9037297489704
 20
175.7849687117038
 42
0.0
 10
323.7648268376052
 20
175.9394118988538
 42
0.0
 10
323.604852336523
 20
175.7955342416094
 42
0.0
 97
        0
 92
        7
 72
     1
 73
     1
 93
        6
 10
323.6566763386873
 20
176.2832895560983
 42
0.0
 10
323.7860768376052
 20
176.1394118988538
 42
0.0
 10
323.9577989262398
 20
176.293855086004
 42
0.0
 10
324.1197691625001
 20
177.8182808390425
 42
0.1105095351356948
 10
324.1098101517551
 20
177.9050521846553
 42
0.0
 10
323.8041727984878
 20
177.6714915306901
 42
0.0
 97
        0
 92
        7
 72
     1
 73
     1
 93
        6
 10
322.1242595127101
 20
177.8605429586651
 42
0.0
 10
322.4113893376052
 20
177.7394118988538
 42
0.0
 10
323.729725317407
 20
177.7394118988538
 42
0.0
 10
324.0548827941367
 20
177.9878893578251
 42
0.1856316266337449
 10
323.9208885995704
 20
178.0394118988538
 42
0.0
 10
322.3231400756398
 20
178.0394118988538
 42
0.3835390513495728
 97
        0
 92
        7
 72
     0
 73
     1
 93
        5
 10
321.9572376324636
 20
176.2885723210511
 10
322.091389337605
 20
176.1394118988538
 10
322.2572376324635
 20
176.2885723210511
 10
322.3987738947187
 20
177.6206783187464
 10
322.1131085520259
 20
177.7555927404617
 97
        0
 75
     0
 76
     1
 47
0.0115826104484682
 98
      104
 10
308.4938689005749
 20
174.8213772042348
 10
308.7024639148089
 20
174.161168240697
 10
313.1756588569492
 20
174.1843336894222
 10
317.6557807856125
 20
174.1381307002196
 10
322.2448620968253
 20
174.2076256408102
 10
308.6816379455813
 20
176.9447581330401
 10
309.4026814306277
 20
177.8591573304124
 10
310.3175522607839
 20
176.7665271258641
 10
309.3561616975498
 20
176.0303575300823
 10
308.6273652987379
 20
175.5731586341888
 10
310.2012563038147
 20
175.17020267451
 10
309.4398999176692
 20
174.2149627952515
 10
309.4398999176692
 20
174.2149627952515
 10
309.4398999176692
 20
174.2149627952515
 10
309.4398999176692
 20
174.2149627952515
 10
309.4398999176692
 20
174.2149627952515
 10
309.4398999176692
 20
174.2149627952515
 10
309.4398999176692
 20
174.2149627952515
 10
309.4398999176692
 20
174.2149627952515
 10
309.4398999176692
 20
174.2149627952515
 10
309.4398999176692
 20
174.2149627952515
 10
309.4398999176692
 20
174.2149627952515
 10
309.4398999176692
 20
174.2149627952515
 10
309.4398999176692
 20
174.2149627952515
 10
309.4398999176692
 20
174.2149627952515
 10
309.4398999176692
 20
174.2149627952515
 10
309.4398999176692
 20
174.2149627952515
 10
309.4398999176692
 20
174.2149627952515
 10
309.4398999176692
 20
174.2149627952515
 10
309.4398999176692
 20
174.2149627952515
 10
309.4398999176692
 20
174.2149627952515
 10
309.4398999176692
 20
174.2149627952515
 10
309.4398999176692
 20
174.2149627952515
 10
309.4398999176692
 20
174.2149627952515
 10
309.4398999176692
 20
174.2149627952515
 10
309.4398999176692
 20
174.2149627952515
 10
313.2692564428762
 20
177.1102896784578
 10
313.6263990852484
 20
177.9233602429436
 10
314.9557616148145
 20
176.9913026794323
 10
314.1422705406294
 20
176.0195837199689
 10
312.9319563086815
 20
175.0478647605057
 10
313.5470335535028
 20
174.1554699985313
 10
313.5470335535028
 20
174.1554699985313
 10
313.5470335535028
 20
174.1554699985313
 10
313.5470335535028
 20
174.1554699985313
 10
313.5470335535028
 20
174.1554699985313
 10
313.5470335535028
 20
174.1554699985313
 10
313.5470335535028
 20
174.1554699985313
 10
313.5470335535028
 20
174.1554699985313
 10
313.5470335535028
 20
174.1554699985313
 10
313.5470335535028
 20
174.1554699985313
 10
313.5470335535028
 20
174.1554699985313
 10
313.5470335535028
 20
174.1554699985313
 10
313.5470335535028
 20
174.1554699985313
 10
313.5470335535028
 20
174.1554699985313
 10
313.5470335535028
 20
174.1554699985313
 10
313.5470335535028
 20
174.1554699985313
 10
313.5470335535028
 20
174.1554699985313
 10
313.5470335535028
 20
174.1554699985313
 10
313.5470335535028
 20
174.1554699985313
 10
313.5470335535028
 20
174.1554699985313
 10
313.5470335535028
 20
174.1554699985313
 10
313.5470335535028
 20
174.1554699985313
 10
313.5470335535028
 20
174.1554699985313
 10
313.5470335535028
 20
174.1554699985313
 10
313.5470335535028
 20
174.1554699985313
 10
314.7176672700607
 20
175.0280347653225
 10
317.4954383763284
 20
175.1668517595315
 10
319.2811493377076
 20
175.2263445562517
 10
318.9835319693857
 20
175.9600909232486
 10
319.3605148694528
 20
176.3963733066441
 10
318.7851181400215
 20
177.8836974414066
 10
317.741065087519
 20
176.5747153550463
 10
321.9870895291488
 20
175.4046866046538
 10
322.7410553292834
 20
175.9996159774416
 10
323.7132752164772
 20
174.9485728204898
 10
323.8918465376632
 20
177.0506591343938
 10
323.1974037610967
 20
177.883561099648
 10
322.1656608503349
 20
177.0506591343938
 10
321.9672470209712
 20
174.2544878494446
 10
321.9672470209712
 20
174.2544878494446
 10
321.9672470209712
 20
174.2544878494446
 10
321.9672470209712
 20
174.2544878494446
 10
321.9672470209712
 20
174.2544878494446
 10
321.9672470209712
 20
174.2544878494446
 10
321.9672470209712
 20
174.2544878494446
 10
321.9672470209712
 20
174.2544878494446
 10
321.9672470209712
 20
174.2544878494446
 10
321.9672470209712
 20
174.2544878494446
 10
321.9672470209712
 20
174.2544878494446
 10
321.9672470209712
 20
174.2544878494446
 10
321.9672470209712
 20
174.2544878494446
 10
321.9672470209712
 20
174.2544878494446
 10
321.9672470209712
 20
174.2544878494446
 10
321.9672470209712
 20
174.2544878494446
 10
321.9672470209712
 20
174.2544878494446
 10
321.9672470209712
 20
174.2544878494446
 10
321.9672470209712
 20
174.2544878494446
 10
321.9672470209712
 20
174.2544878494446
 10
321.9672470209712
 20
174.2544878494446
 10
321.9672470209712
 20
174.2544878494446
 10
321.9672470209712
 20
174.2544878494446
 10
321.9672470209712
 20
174.2544878494446
 10
321.9672470209712
 20
174.2544878494446
450
        0
451
        0
460
0.0
461
0.0
452
        1
462
1.0
453
        2
463
0.0
 63
     5
421
      255
463
1.0
 63
    51
421
 16777113
470
LINEAR
1001
ACAD
1010
0.0
1020
0.0
1030
0.0
  0
ARC
  5
29F07
330
1F
100
AcDbEntity
  8
実線
370
     0
100
AcDbCircle
 10
310.0383885995705
 20
174.2394118988538
 30
0.0
 40
0.2
100
AcDbArc
 50
270.0
 51
353.9350775545522
  0
LINE
  5
29F08
330
1F
100
AcDbEntity
  8
実線
370
     0
100
AcDbLine
 10
290.3130944594005
 20
174.0394118988538
 30
0.0
 11
288.5242036826919
 21
174.0394118988538
 31
0.0
  0
LINE
  5
29F09
330
1F
100
AcDbEntity
  8
実線
370
     0
100
AcDbLine
 10
289.2679536826918
 20
182.0394118988538
 30
0.0
 11
291.2623249925184
 21
182.0394118988538
 31
0.0
  0
LINE
  5
29F0A
330
1F
100
AcDbEntity
  8
実線
370
     0
100
AcDbLine
 10
288.9085768376052
 20
174.8894118988538
 30
0.0
 11
288.9202514919111
 21
175.0060764418425
 31
0.0
  0
LINE
  5
29F0B
330
1F
100
AcDbEntity
  8
実線
370
     0
100
AcDbLine
 10
288.9406617763128
 20
175.2100359287418
 30
0.0
 11
289.1744991880769
 21
177.5467676264786
 31
0.0
  0
LINE
  5
29F0C
330
1F
100
AcDbEntity
  8
実線
370
     0
100
AcDbLine
 10
289.2956077915449
 20
178.532056171229
 30
0.0
 11
289.5548326615567
 21
180.9718196536929
 31
0.0
  0
LINE
  5
29F0D
330
1F
100
AcDbEntity
  8
実線
370
     0
100
AcDbLine
 10
290.2426431407807
 20
175.2100359287418
 30
0.0
 11
290.4909208836652
 21
177.5467676264786
 31
0.0
  0
LINE
  5
29F0E
330
1F
100
AcDbEntity
  8
実線
370
     0
100
AcDbLine
 10
290.5970710300154
 20
178.5458278274214
 30
0.0
 11
290.862460156199
 21
181.0436078385601
 31
0.0
  0
LINE
  5
29F0F
330
1F
100
AcDbEntity
  8
実線
370
     0
100
AcDbLine
 10
288.9085768376052
 20
174.8894118988538
 30
0.0
 11
290.1127380102001
 21
174.8894118988538
 31
0.0
  0
LINE
  5
29F10
330
1F
100
AcDbEntity
  8
実線
370
     0
100
AcDbLine
 10
289.577951837605
 20
181.1894118988538
 30
0.0
 11
290.7321477773114
 21
181.1894118988538
 31
0.0
  0
LINE
  5
29F11
330
1F
100
AcDbEntity
  8
実線
370
     0
100
AcDbLine
 10
289.2679536826918
 20
182.0394118988538
 30
0.0
 11
291.2623249925184
 21
182.0394118988538
 31
0.0
  0
ARC
  5
29F12
330
1F
100
AcDbEntity
  8
実線
370
     0
100
AcDbCircle
 10
289.2679536826918
 20
181.5394118988537
 30
0.0
 40
0.5
100
AcDbArc
 50
90.0
 51
167.2306860022317
  0
LINE
  5
29F13
330
1F
100
AcDbEntity
  8
実線
370
     0
100
AcDbLine
 10
291.7595263998427
 20
181.4865842493256
 30
0.0
 11
291.4456077915449
 21
178.532056171229
 31
0.0
  0
LINE
  5
29F14
330
1F
100
AcDbEntity
  8
実線
370
     0
100
AcDbLine
 10
291.3394576451949
 20
177.5329959702862
 30
0.0
 11
291.0157763998427
 21
174.4865842493256
 31
0.0
  0
ARC
  5
29F15
330
1F
100
AcDbEntity
  8
実線
370
     0
100
AcDbCircle
 10
291.2623249925184
 20
181.5394118988537
 30
0.0
 40
0.5
100
AcDbArc
 50
353.9350775545514
 51
30.61482704589923
  0
ARC
  5
29F16
330
1F
100
AcDbEntity
  8
実線
370
     0
100
AcDbCircle
 10
291.2623249925184
 20
181.5394118988537
 30
0.0
 40
0.5
100
AcDbArc
 50
53.16844284210906
 51
90.0
  0
LINE
  5
29F17
330
1F
100
AcDbEntity
  8
実線
370
     0
100
AcDbLine
 10
290.3130944594005
 20
174.0394118988539
 30
0.0
 11
288.5242036826919
 21
174.0394118988539
 31
0.0
  0
ARC
  5
29F18
330
1F
100
AcDbEntity
  8
実線
370
     0
100
AcDbCircle
 10
290.5185749925183
 20
174.5394118988538
 30
0.0
 40
0.5
100
AcDbArc
 50
270.0
 51
353.9350775545514
  0
LINE
  5
29F19
330
1F
100
AcDbEntity
  8
実線
370
     0
100
AcDbLine
 10
288.0270022753675
 20
174.592239548382
 30
0.0
 11
288.0530987481345
 21
174.8378534097196
 31
0.0
  0
LINE
  5
29F1A
330
1F
100
AcDbEntity
  8
実線
370
     0
100
AcDbLine
 10
288.0747959698884
 20
175.0420625556379
 30
0.0
 11
288.3409208836653
 21
177.5467676264787
 31
0.0
  0
ARC
  5
29F1B
330
1F
100
AcDbEntity
  8
実線
370
     0
100
AcDbCircle
 10
288.5242036826919
 20
174.5394118988538
 30
0.0
 40
0.5
100
AcDbArc
 50
173.9350775545514
 51
270.0
  0
LINE
  5
29F1C
330
1F
100
AcDbEntity
  8
実線
370
     0
100
AcDbLine
 10
290.7321477773114
 20
181.1894118988538
 30
0.0
 11
291.5620572582699
 21
181.9396125596072
 31
0.0
  0
LINE
  5
29F1D
330
1F
100
AcDbEntity
  8
実線
370
     0
100
AcDbLine
 10
290.862460156199
 20
181.0436078385601
 30
0.0
 11
291.692630126546
 21
181.7940439699474
 31
0.0
  0
LINE
  5
29F1E
330
1F
100
AcDbEntity
  8
実線
370
     0
100
AcDbLine
 10
289.577951837605
 20
181.1894118988538
 30
0.0
 11
288.7803197479083
 21
181.6499250005545
 31
0.0
  0
LINE
  5
29F1F
330
1F
100
AcDbEntity
  8
実線
370
     0
100
AcDbLine
 10
288.7539609106596
 20
181.4342031746598
 30
0.0
 11
289.5548326615567
 21
180.9718196536929
 31
0.0
  0
LINE
  5
29F20
330
1F
100
AcDbEntity
  8
実線
370
     0
100
AcDbLine
 10
288.8342018376051
 20
178.1894118988538
 30
0.0
 11
288.4620294871334
 21
178.532056171229
 31
0.0
  0
LINE
  5
29F21
330
1F
100
AcDbEntity
  8
実線
370
     0
100
AcDbLine
 10
288.8342018376051
 20
178.1894118988538
 30
0.0
 11
289.2956077915449
 21
178.532056171229
 31
0.0
  0
LINE
  5
29F22
330
1F
100
AcDbEntity
  8
実線
370
     0
100
AcDbLine
 10
288.3409208836653
 20
177.5467676264787
 30
0.0
 11
288.8023268376051
 21
177.8894118988539
 31
0.0
  0
LINE
  5
29F23
330
1F
100
AcDbEntity
  8
実線
370
     0
100
AcDbLine
 10
289.1744991880769
 20
177.5467676264786
 30
0.0
 11
288.8023268376051
 21
177.8894118988538
 31
0.0
  0
LINE
  5
29F24
330
1F
100
AcDbEntity
  8
実線
370
     0
100
AcDbLine
 10
290.984201837605
 20
178.1894118988538
 30
0.0
 11
290.5970710300154
 21
178.5458278274214
 31
0.0
  0
LINE
  5
29F25
330
1F
100
AcDbEntity
  8
実線
370
     0
100
AcDbLine
 10
290.984201837605
 20
178.1894118988538
 30
0.0
 11
291.4456077915449
 21
178.532056171229
 31
0.0
  0
LINE
  5
29F26
330
1F
100
AcDbEntity
  8
実線
370
     0
100
AcDbLine
 10
290.4909208836652
 20
177.5467676264787
 30
0.0
 11
290.9523268376052
 21
177.8894118988539
 31
0.0
  0
LINE
  5
29F27
330
1F
100
AcDbEntity
  8
実線
370
     0
100
AcDbLine
 10
291.3394576451949
 20
177.5329959702862
 30
0.0
 11
290.9523268376052
 21
177.8894118988538
 31
0.0
  0
LINE
  5
29F28
330
1F
100
AcDbEntity
  8
実線
370
     0
100
AcDbLine
 10
288.9406617763128
 20
175.2100359287418
 30
0.0
 11
288.0747959698884
 21
175.042062555638
 31
0.0
  0
LINE
  5
29F29
330
1F
100
AcDbEntity
  8
実線
370
     0
100
AcDbLine
 10
288.9202514919111
 20
175.0060764418425
 30
0.0
 11
288.0530987481345
 21
174.8378534097196
 31
0.0
  0
LINE
  5
29F2A
330
1F
100
AcDbEntity
  8
実線
370
     0
100
AcDbLine
 10
290.2426431407807
 20
175.2100359287418
 30
0.0
 11
290.5185749925183
 21
174.0394118988539
 31
0.0
  0
LINE
  5
29F2B
330
1F
100
AcDbEntity
  8
実線
370
     0
100
AcDbLine
 10
290.1127380102001
 20
174.8894118988538
 30
0.0
 11
290.3130944594005
 21
174.0394118988538
 31
0.0
  0
LINE
  5
29F2C
330
1F
100
AcDbEntity
  8
実線
370
     0
100
AcDbLine
 10
288.9438962064125
 20
178.0261421634033
 30
0.0
 11
289.4427455823181
 21
178.3965922626542
 31
0.0
  0
LINE
  5
29F2D
330
1F
100
AcDbEntity
  8
実線
370
     0
100
AcDbLine
 10
289.3350670189263
 20
177.6660067630752
 30
0.0
 11
288.9628946684545
 21
178.0086510354504
 31
0.0
  0
LINE
  5
29F2E
330
1F
100
AcDbEntity
  8
実線
370
     0
100
AcDbLine
 10
288.9628946684545
 20
178.0086510354504
 30
0.0
 11
288.9438962064125
 21
178.0261421634033
 31
0.0
  0
LINE
  5
29F2F
330
1F
100
AcDbEntity
  8
実線
370
     0
100
AcDbLine
 10
289.4427455823181
 20
178.3965922626542
 30
0.0
 11
290.4773444905434
 21
178.3965922626542
 31
0.0
  0
LINE
  5
29F30
330
1F
100
AcDbEntity
  8
実線
370
     0
100
AcDbLine
 10
289.3350670189263
 20
177.6660067630752
 30
0.0
 11
290.3156809634844
 21
177.6660067630752
 31
0.0
  0
LINE
  5
29F31
330
1F
100
AcDbEntity
  8
実線
370
     0
100
AcDbLine
 10
290.847204502543
 20
178.05607686829
 30
0.0
 11
290.4773444905434
 21
178.3965922626542
 31
0.0
  0
LINE
  5
29F32
330
1F
100
AcDbEntity
  8
実線
370
     0
100
AcDbLine
 10
290.3156809634844
 20
177.6660067630752
 30
0.0
 11
290.847204502543
 21
178.05607686829
 31
0.0
  0
LINE
  5
29F33
330
1F
100
AcDbEntity
  8
実線
370
     0
100
AcDbLine
 10
296.0157763998427
 20
174.4865842493256
 30
0.0
 11
296.3394576451948
 21
177.5329959702862
 31
0.0
  0
LINE
  5
29F34
330
1F
100
AcDbEntity
  8
実線
370
     0
100
AcDbLine
 10
296.4456077915449
 20
178.532056171229
 30
0.0
 11
296.7595263998428
 21
181.4865842493256
 31
0.0
  0
LINE
  5
29F35
330
1F
100
AcDbEntity
  8
実線
370
     0
100
AcDbLine
 10
293.4620294871333
 20
178.532056171229
 30
0.0
 11
293.7539609106595
 21
181.4342031746598
 31
0.0
  0
LINE
  5
29F36
330
1F
100
AcDbEntity
  8
実線
370
     0
100
AcDbLine
 10
295.3130944594006
 20
174.0394118988539
 30
0.0
 11
293.5242036826919
 21
174.0394118988538
 31
0.0
  0
LINE
  5
29F37
330
1F
100
AcDbEntity
  8
実線
370
     0
100
AcDbLine
 10
294.2679536826918
 20
182.0394118988538
 30
0.0
 11
296.2623249925183
 21
182.0394118988538
 31
0.0
  0
LINE
  5
29F38
330
1F
100
AcDbEntity
  8
実線
370
     0
100
AcDbLine
 10
293.9085768376052
 20
174.8894118988538
 30
0.0
 11
293.9202514919111
 21
175.0060764418425
 31
0.0
  0
LINE
  5
29F39
330
1F
100
AcDbEntity
  8
実線
370
     0
100
AcDbLine
 10
293.9406617763128
 20
175.2100359287418
 30
0.0
 11
294.1744991880769
 21
177.5467676264787
 31
0.0
  0
LINE
  5
29F3A
330
1F
100
AcDbEntity
  8
実線
370
     0
100
AcDbLine
 10
294.295607791545
 20
178.532056171229
 30
0.0
 11
294.5548326615567
 21
180.9718196536929
 31
0.0
  0
LINE
  5
29F3B
330
1F
100
AcDbEntity
  8
実線
370
     0
100
AcDbLine
 10
295.2426431407807
 20
175.2100359287418
 30
0.0
 11
295.4909208836653
 21
177.5467676264787
 31
0.0
  0
LINE
  5
29F3C
330
1F
100
AcDbEntity
  8
実線
370
     0
100
AcDbLine
 10
295.5970710300154
 20
178.5458278274214
 30
0.0
 11
295.8624601561989
 21
181.0436078385601
 31
0.0
  0
LINE
  5
29F3D
330
1F
100
AcDbEntity
  8
実線
370
     0
100
AcDbLine
 10
293.9085768376052
 20
174.8894118988538
 30
0.0
 11
295.1127380102001
 21
174.8894118988538
 31
0.0
  0
LINE
  5
29F3E
330
1F
100
AcDbEntity
  8
実線
370
     0
100
AcDbLine
 10
294.577951837605
 20
181.1894118988538
 30
0.0
 11
295.7321477773113
 21
181.1894118988538
 31
0.0
  0
LINE
  5
29F3F
330
1F
100
AcDbEntity
  8
実線
370
     0
100
AcDbLine
 10
294.2679536826918
 20
182.0394118988538
 30
0.0
 11
296.2623249925183
 21
182.0394118988538
 31
0.0
  0
ARC
  5
29F40
330
1F
100
AcDbEntity
  8
実線
370
     0
100
AcDbCircle
 10
294.2679536826918
 20
181.5394118988537
 30
0.0
 40
0.5
100
AcDbArc
 50
90.0
 51
167.2306860022317
  0
LINE
  5
29F41
330
1F
100
AcDbEntity
  8
実線
370
     0
100
AcDbLine
 10
296.7595263998427
 20
181.4865842493256
 30
0.0
 11
296.4456077915449
 21
178.532056171229
 31
0.0
  0
LINE
  5
29F42
330
1F
100
AcDbEntity
  8
実線
370
     0
100
AcDbLine
 10
296.3394576451948
 20
177.5329959702862
 30
0.0
 11
296.0157763998427
 21
174.4865842493256
 31
0.0
  0
ARC
  5
29F43
330
1F
100
AcDbEntity
  8
実線
370
     0
100
AcDbCircle
 10
296.2623249925183
 20
181.5394118988539
 30
0.0
 40
0.5
100
AcDbArc
 50
353.9350775545514
 51
30.61482704589923
  0
ARC
  5
29F44
330
1F
100
AcDbEntity
  8
実線
370
     0
100
AcDbCircle
 10
296.2623249925183
 20
181.5394118988539
 30
0.0
 40
0.5
100
AcDbArc
 50
53.16844284210906
 51
90.0
  0
LINE
  5
29F45
330
1F
100
AcDbEntity
  8
実線
370
     0
100
AcDbLine
 10
295.3130944594006
 20
174.0394118988539
 30
0.0
 11
293.5242036826919
 21
174.0394118988539
 31
0.0
  0
ARC
  5
29F46
330
1F
100
AcDbEntity
  8
実線
370
     0
100
AcDbCircle
 10
295.5185749925183
 20
174.5394118988538
 30
0.0
 40
0.5
100
AcDbArc
 50
270.0
 51
353.9350775545514
  0
LINE
  5
29F47
330
1F
100
AcDbEntity
  8
実線
370
     0
100
AcDbLine
 10
293.0270022753675
 20
174.592239548382
 30
0.0
 11
293.0530987481345
 21
174.8378534097196
 31
0.0
  0
LINE
  5
29F48
330
1F
100
AcDbEntity
  8
実線
370
     0
100
AcDbLine
 10
293.0747959698885
 20
175.042062555638
 30
0.0
 11
293.3409208836653
 21
177.5467676264787
 31
0.0
  0
ARC
  5
29F49
330
1F
100
AcDbEntity
  8
実線
370
     0
100
AcDbCircle
 10
293.5242036826919
 20
174.5394118988538
 30
0.0
 40
0.5
100
AcDbArc
 50
173.9350775545514
 51
270.0
  0
LINE
  5
29F4A
330
1F
100
AcDbEntity
  8
実線
370
     0
100
AcDbLine
 10
295.7321477773113
 20
181.1894118988538
 30
0.0
 11
296.5620572582699
 21
181.9396125596072
 31
0.0
  0
LINE
  5
29F4B
330
1F
100
AcDbEntity
  8
実線
370
     0
100
AcDbLine
 10
295.8624601561989
 20
181.0436078385601
 30
0.0
 11
296.6926301265459
 21
181.7940439699474
 31
0.0
  0
LINE
  5
29F4C
330
1F
100
AcDbEntity
  8
実線
370
     0
100
AcDbLine
 10
294.577951837605
 20
181.1894118988538
 30
0.0
 11
293.7803197479082
 21
181.6499250005545
 31
0.0
  0
LINE
  5
29F4D
330
1F
100
AcDbEntity
  8
実線
370
     0
100
AcDbLine
 10
293.7539609106595
 20
181.4342031746599
 30
0.0
 11
294.5548326615567
 21
180.9718196536929
 31
0.0
  0
LINE
  5
29F4E
330
1F
100
AcDbEntity
  8
実線
370
     0
100
AcDbLine
 10
293.8342018376051
 20
178.1894118988538
 30
0.0
 11
293.4620294871333
 21
178.532056171229
 31
0.0
  0
LINE
  5
29F4F
330
1F
100
AcDbEntity
  8
実線
370
     0
100
AcDbLine
 10
293.8342018376051
 20
178.1894118988538
 30
0.0
 11
294.295607791545
 21
178.532056171229
 31
0.0
  0
LINE
  5
29F50
330
1F
100
AcDbEntity
  8
実線
370
     0
100
AcDbLine
 10
293.3409208836653
 20
177.5467676264787
 30
0.0
 11
293.8023268376051
 21
177.8894118988539
 31
0.0
  0
LINE
  5
29F51
330
1F
100
AcDbEntity
  8
実線
370
     0
100
AcDbLine
 10
294.1744991880769
 20
177.5467676264787
 30
0.0
 11
293.8023268376051
 21
177.8894118988539
 31
0.0
  0
LINE
  5
29F52
330
1F
100
AcDbEntity
  8
実線
370
     0
100
AcDbLine
 10
295.984201837605
 20
178.1894118988538
 30
0.0
 11
295.5970710300154
 21
178.5458278274214
 31
0.0
  0
LINE
  5
29F53
330
1F
100
AcDbEntity
  8
実線
370
     0
100
AcDbLine
 10
295.984201837605
 20
178.1894118988538
 30
0.0
 11
296.4456077915449
 21
178.532056171229
 31
0.0
  0
LINE
  5
29F54
330
1F
100
AcDbEntity
  8
実線
370
     0
100
AcDbLine
 10
295.4909208836653
 20
177.5467676264787
 30
0.0
 11
295.9523268376051
 21
177.8894118988539
 31
0.0
  0
LINE
  5
29F55
330
1F
100
AcDbEntity
  8
実線
370
     0
100
AcDbLine
 10
296.3394576451948
 20
177.5329959702862
 30
0.0
 11
295.9523268376051
 21
177.8894118988539
 31
0.0
  0
LINE
  5
29F56
330
1F
100
AcDbEntity
  8
実線
370
     0
100
AcDbLine
 10
293.9406617763128
 20
175.2100359287418
 30
0.0
 11
293.0747959698885
 21
175.042062555638
 31
0.0
  0
LINE
  5
29F57
330
1F
100
AcDbEntity
  8
実線
370
     0
100
AcDbLine
 10
293.9202514919111
 20
175.0060764418426
 30
0.0
 11
293.0530987481345
 21
174.8378534097196
 31
0.0
  0
LINE
  5
29F58
330
1F
100
AcDbEntity
  8
実線
370
     0
100
AcDbLine
 10
295.2426431407807
 20
175.2100359287418
 30
0.0
 11
295.5185749925183
 21
174.0394118988539
 31
0.0
  0
LINE
  5
29F59
330
1F
100
AcDbEntity
  8
実線
370
     0
100
AcDbLine
 10
295.1127380102001
 20
174.8894118988538
 30
0.0
 11
295.3130944594006
 21
174.0394118988538
 31
0.0
  0
LINE
  5
29F5A
330
1F
100
AcDbEntity
  8
実線
370
     0
100
AcDbLine
 10
293.9438962064126
 20
178.0261421634033
 30
0.0
 11
294.4427455823181
 21
178.3965922626542
 31
0.0
  0
LINE
  5
29F5B
330
1F
100
AcDbEntity
  8
実線
370
     0
100
AcDbLine
 10
294.3350670189263
 20
177.6660067630752
 30
0.0
 11
293.9628946684545
 21
178.0086510354504
 31
0.0
  0
LINE
  5
29F5C
330
1F
100
AcDbEntity
  8
実線
370
     0
100
AcDbLine
 10
293.9628946684545
 20
178.0086510354504
 30
0.0
 11
293.9438962064126
 21
178.0261421634033
 31
0.0
  0
LINE
  5
29F5D
330
1F
100
AcDbEntity
  8
実線
370
     0
100
AcDbLine
 10
294.4427455823181
 20
178.3965922626542
 30
0.0
 11
295.4773444905434
 21
178.3965922626542
 31
0.0
  0
LINE
  5
29F5E
330
1F
100
AcDbEntity
  8
実線
370
     0
100
AcDbLine
 10
294.3350670189263
 20
177.6660067630752
 30
0.0
 11
295.3156809634844
 21
177.6660067630752
 31
0.0
  0
LINE
  5
29F5F
330
1F
100
AcDbEntity
  8
実線
370
     0
100
AcDbLine
 10
295.847204502543
 20
178.0560768682901
 30
0.0
 11
295.4773444905434
 21
178.3965922626542
 31
0.0
  0
LINE
  5
29F60
330
1F
100
AcDbEntity
  8
実線
370
     0
100
AcDbLine
 10
295.3156809634844
 20
177.6660067630752
 30
0.0
 11
295.847204502543
 21
178.0560768682901
 31
0.0
  0
LINE
  5
29F61
330
1F
100
AcDbEntity
  8
実線
370
     0
100
AcDbLine
 10
301.0157763998427
 20
174.4865842493257
 30
0.0
 11
301.3394576451948
 21
177.5329959702862
 31
0.0
  0
LINE
  5
29F62
330
1F
100
AcDbEntity
  8
実線
370
     0
100
AcDbLine
 10
301.445607791545
 20
178.532056171229
 30
0.0
 11
301.7595263998428
 21
181.4865842493256
 31
0.0
  0
LINE
  5
29F63
330
1F
100
AcDbEntity
  8
実線
370
     0
100
AcDbLine
 10
298.4620294871334
 20
178.532056171229
 30
0.0
 11
298.7539609106595
 21
181.4342031746599
 31
0.0
  0
LINE
  5
29F64
330
1F
100
AcDbEntity
  8
実線
370
     0
100
AcDbLine
 10
300.3130944594005
 20
174.0394118988539
 30
0.0
 11
298.5242036826919
 21
174.0394118988539
 31
0.0
  0
LINE
  5
29F65
330
1F
100
AcDbEntity
  8
実線
370
     0
100
AcDbLine
 10
299.2679536826918
 20
182.0394118988538
 30
0.0
 11
301.2623249925184
 21
182.0394118988538
 31
0.0
  0
LINE
  5
29F66
330
1F
100
AcDbEntity
  8
実線
370
     0
100
AcDbLine
 10
298.9085768376051
 20
174.8894118988538
 30
0.0
 11
298.9202514919112
 21
175.0060764418426
 31
0.0
  0
LINE
  5
29F67
330
1F
100
AcDbEntity
  8
実線
370
     0
100
AcDbLine
 10
298.9406617763128
 20
175.2100359287418
 30
0.0
 11
299.1744991880769
 21
177.5467676264787
 31
0.0
  0
LINE
  5
29F68
330
1F
100
AcDbEntity
  8
実線
370
     0
100
AcDbLine
 10
299.2956077915449
 20
178.532056171229
 30
0.0
 11
299.5548326615567
 21
180.971819653693
 31
0.0
  0
LINE
  5
29F69
330
1F
100
AcDbEntity
  8
実線
370
     0
100
AcDbLine
 10
300.2426431407807
 20
175.2100359287418
 30
0.0
 11
300.4909208836652
 21
177.5467676264787
 31
0.0
  0
LINE
  5
29F6A
330
1F
100
AcDbEntity
  8
実線
370
     0
100
AcDbLine
 10
300.5970710300154
 20
178.5458278274214
 30
0.0
 11
300.862460156199
 21
181.0436078385601
 31
0.0
  0
LINE
  5
29F6B
330
1F
100
AcDbEntity
  8
実線
370
     0
100
AcDbLine
 10
298.9085768376051
 20
174.8894118988538
 30
0.0
 11
300.1127380102001
 21
174.8894118988538
 31
0.0
  0
LINE
  5
29F6C
330
1F
100
AcDbEntity
  8
実線
370
     0
100
AcDbLine
 10
299.577951837605
 20
181.1894118988538
 30
0.0
 11
300.7321477773114
 21
181.1894118988538
 31
0.0
  0
LINE
  5
29F6D
330
1F
100
AcDbEntity
  8
実線
370
     0
100
AcDbLine
 10
299.2679536826918
 20
182.0394118988538
 30
0.0
 11
301.2623249925184
 21
182.0394118988538
 31
0.0
  0
ARC
  5
29F6E
330
1F
100
AcDbEntity
  8
実線
370
     0
100
AcDbCircle
 10
299.2679536826918
 20
181.5394118988539
 30
0.0
 40
0.5
100
AcDbArc
 50
90.0
 51
167.2306860022317
  0
LINE
  5
29F6F
330
1F
100
AcDbEntity
  8
実線
370
     0
100
AcDbLine
 10
301.7595263998427
 20
181.4865842493256
 30
0.0
 11
301.445607791545
 21
178.532056171229
 31
0.0
  0
LINE
  5
29F70
330
1F
100
AcDbEntity
  8
実線
370
     0
100
AcDbLine
 10
301.3394576451948
 20
177.5329959702862
 30
0.0
 11
301.0157763998427
 21
174.4865842493257
 31
0.0
  0
ARC
  5
29F71
330
1F
100
AcDbEntity
  8
実線
370
     0
100
AcDbCircle
 10
301.2623249925184
 20
181.5394118988539
 30
0.0
 40
0.5
100
AcDbArc
 50
353.9350775545514
 51
30.61482704589923
  0
ARC
  5
29F72
330
1F
100
AcDbEntity
  8
実線
370
     0
100
AcDbCircle
 10
301.2623249925184
 20
181.5394118988539
 30
0.0
 40
0.5
100
AcDbArc
 50
53.16844284210906
 51
90.0
  0
LINE
  5
29F73
330
1F
100
AcDbEntity
  8
実線
370
     0
100
AcDbLine
 10
300.3130944594005
 20
174.0394118988539
 30
0.0
 11
298.5242036826919
 21
174.0394118988539
 31
0.0
  0
ARC
  5
29F74
330
1F
100
AcDbEntity
  8
実線
370
     0
100
AcDbCircle
 10
300.5185749925183
 20
174.5394118988538
 30
0.0
 40
0.5
100
AcDbArc
 50
270.0
 51
353.9350775545514
  0
LINE
  5
29F75
330
1F
100
AcDbEntity
  8
実線
370
     0
100
AcDbLine
 10
298.0270022753675
 20
174.5922395483821
 30
0.0
 11
298.0530987481345
 21
174.8378534097196
 31
0.0
  0
LINE
  5
29F76
330
1F
100
AcDbEntity
  8
実線
370
     0
100
AcDbLine
 10
298.0747959698884
 20
175.042062555638
 30
0.0
 11
298.3409208836653
 21
177.5467676264787
 31
0.0
  0
ARC
  5
29F77
330
1F
100
AcDbEntity
  8
実線
370
     0
100
AcDbCircle
 10
298.5242036826919
 20
174.5394118988538
 30
0.0
 40
0.5
100
AcDbArc
 50
173.9350775545514
 51
270.0
  0
LINE
  5
29F78
330
1F
100
AcDbEntity
  8
実線
370
     0
100
AcDbLine
 10
300.7321477773114
 20
181.1894118988538
 30
0.0
 11
301.5620572582699
 21
181.9396125596072
 31
0.0
  0
LINE
  5
29F79
330
1F
100
AcDbEntity
  8
実線
370
     0
100
AcDbLine
 10
300.862460156199
 20
181.0436078385601
 30
0.0
 11
301.692630126546
 21
181.7940439699475
 31
0.0
  0
LINE
  5
29F7A
330
1F
100
AcDbEntity
  8
実線
370
     0
100
AcDbLine
 10
299.577951837605
 20
181.1894118988538
 30
0.0
 11
298.7803197479083
 21
181.6499250005546
 31
0.0
  0
LINE
  5
29F7B
330
1F
100
AcDbEntity
  8
実線
370
     0
100
AcDbLine
 10
298.7539609106595
 20
181.4342031746599
 30
0.0
 11
299.5548326615567
 21
180.971819653693
 31
0.0
  0
LINE
  5
29F7C
330
1F
100
AcDbEntity
  8
実線
370
     0
100
AcDbLine
 10
298.8342018376051
 20
178.1894118988539
 30
0.0
 11
298.4620294871334
 21
178.532056171229
 31
0.0
  0
LINE
  5
29F7D
330
1F
100
AcDbEntity
  8
実線
370
     0
100
AcDbLine
 10
298.8342018376051
 20
178.1894118988539
 30
0.0
 11
299.2956077915449
 21
178.532056171229
 31
0.0
  0
LINE
  5
29F7E
330
1F
100
AcDbEntity
  8
実線
370
     0
100
AcDbLine
 10
298.3409208836653
 20
177.5467676264787
 30
0.0
 11
298.802326837605
 21
177.8894118988539
 31
0.0
  0
LINE
  5
29F7F
330
1F
100
AcDbEntity
  8
実線
370
     0
100
AcDbLine
 10
299.1744991880769
 20
177.5467676264787
 30
0.0
 11
298.802326837605
 21
177.8894118988539
 31
0.0
  0
LINE
  5
29F80
330
1F
100
AcDbEntity
  8
実線
370
     0
100
AcDbLine
 10
300.984201837605
 20
178.1894118988539
 30
0.0
 11
300.5970710300154
 21
178.5458278274215
 31
0.0
  0
LINE
  5
29F81
330
1F
100
AcDbEntity
  8
実線
370
     0
100
AcDbLine
 10
300.984201837605
 20
178.1894118988539
 30
0.0
 11
301.445607791545
 21
178.532056171229
 31
0.0
  0
LINE
  5
29F82
330
1F
100
AcDbEntity
  8
実線
370
     0
100
AcDbLine
 10
300.4909208836652
 20
177.5467676264787
 30
0.0
 11
300.9523268376051
 21
177.8894118988539
 31
0.0
  0
LINE
  5
29F83
330
1F
100
AcDbEntity
  8
実線
370
     0
100
AcDbLine
 10
301.3394576451948
 20
177.5329959702862
 30
0.0
 11
300.9523268376051
 21
177.8894118988539
 31
0.0
  0
LINE
  5
29F84
330
1F
100
AcDbEntity
  8
実線
370
     0
100
AcDbLine
 10
298.9406617763128
 20
175.2100359287418
 30
0.0
 11
298.0747959698884
 21
175.042062555638
 31
0.0
  0
LINE
  5
29F85
330
1F
100
AcDbEntity
  8
実線
370
     0
100
AcDbLine
 10
298.9202514919112
 20
175.0060764418426
 30
0.0
 11
298.0530987481345
 21
174.8378534097196
 31
0.0
  0
LINE
  5
29F86
330
1F
100
AcDbEntity
  8
実線
370
     0
100
AcDbLine
 10
300.2426431407807
 20
175.2100359287418
 30
0.0
 11
300.5185749925183
 21
174.0394118988539
 31
0.0
  0
LINE
  5
29F87
330
1F
100
AcDbEntity
  8
実線
370
     0
100
AcDbLine
 10
300.1127380102001
 20
174.8894118988538
 30
0.0
 11
300.3130944594005
 21
174.0394118988539
 31
0.0
  0
LINE
  5
29F88
330
1F
100
AcDbEntity
  8
実線
370
     0
100
AcDbLine
 10
298.9438962064125
 20
178.0261421634033
 30
0.0
 11
299.4427455823181
 21
178.3965922626542
 31
0.0
  0
LINE
  5
29F89
330
1F
100
AcDbEntity
  8
実線
370
     0
100
AcDbLine
 10
299.3350670189263
 20
177.6660067630752
 30
0.0
 11
298.9628946684545
 21
178.0086510354504
 31
0.0
  0
LINE
  5
29F8A
330
1F
100
AcDbEntity
  8
実線
370
     0
100
AcDbLine
 10
298.9628946684545
 20
178.0086510354504
 30
0.0
 11
298.9438962064125
 21
178.0261421634033
 31
0.0
  0
LINE
  5
29F8B
330
1F
100
AcDbEntity
  8
実線
370
     0
100
AcDbLine
 10
299.4427455823181
 20
178.3965922626542
 30
0.0
 11
300.4773444905434
 21
178.3965922626542
 31
0.0
  0
LINE
  5
29F8C
330
1F
100
AcDbEntity
  8
実線
370
     0
100
AcDbLine
 10
299.3350670189263
 20
177.6660067630752
 30
0.0
 11
300.3156809634844
 21
177.6660067630752
 31
0.0
  0
LINE
  5
29F8D
330
1F
100
AcDbEntity
  8
実線
370
     0
100
AcDbLine
 10
300.847204502543
 20
178.0560768682901
 30
0.0
 11
300.4773444905434
 21
178.3965922626542
 31
0.0
  0
LINE
  5
29F8E
330
1F
100
AcDbEntity
  8
実線
370
     0
100
AcDbLine
 10
300.3156809634844
 20
177.6660067630752
 30
0.0
 11
300.847204502543
 21
178.0560768682901
 31
0.0
  0
LINE
  5
29F8F
330
1F
100
AcDbEntity
  8
実線
370
     0
100
AcDbLine
 10
306.0157763998427
 20
174.4865842493257
 30
0.0
 11
306.3394576451949
 21
177.5329959702862
 31
0.0
  0
LINE
  5
29F90
330
1F
100
AcDbEntity
  8
実線
370
     0
100
AcDbLine
 10
306.4456077915449
 20
178.532056171229
 30
0.0
 11
306.7595263998428
 21
181.4865842493256
 31
0.0
  0
LINE
  5
29F91
330
1F
100
AcDbEntity
  8
実線
370
     0
100
AcDbLine
 10
303.4620294871333
 20
178.532056171229
 30
0.0
 11
303.7539609106596
 21
181.4342031746599
 31
0.0
  0
LINE
  5
29F92
330
1F
100
AcDbEntity
  8
実線
370
     0
100
AcDbLine
 10
305.3130944594006
 20
174.0394118988539
 30
0.0
 11
303.5242036826919
 21
174.0394118988539
 31
0.0
  0
LINE
  5
29F93
330
1F
100
AcDbEntity
  8
実線
370
     0
100
AcDbLine
 10
304.2679536826918
 20
182.0394118988538
 30
0.0
 11
306.2623249925183
 21
182.0394118988538
 31
0.0
  0
LINE
  5
29F94
330
1F
100
AcDbEntity
  8
実線
370
     0
100
AcDbLine
 10
303.9085768376052
 20
174.8894118988538
 30
0.0
 11
303.9202514919111
 21
175.0060764418426
 31
0.0
  0
LINE
  5
29F95
330
1F
100
AcDbEntity
  8
実線
370
     0
100
AcDbLine
 10
303.9406617763128
 20
175.2100359287418
 30
0.0
 11
304.1744991880769
 21
177.5467676264787
 31
0.0
  0
LINE
  5
29F96
330
1F
100
AcDbEntity
  8
実線
370
     0
100
AcDbLine
 10
304.295607791545
 20
178.532056171229
 30
0.0
 11
304.5548326615567
 21
180.971819653693
 31
0.0
  0
LINE
  5
29F97
330
1F
100
AcDbEntity
  8
実線
370
     0
100
AcDbLine
 10
305.2426431407807
 20
175.2100359287418
 30
0.0
 11
305.4909208836652
 21
177.5467676264787
 31
0.0
  0
LINE
  5
29F98
330
1F
100
AcDbEntity
  8
実線
370
     0
100
AcDbLine
 10
305.5970710300154
 20
178.5458278274214
 30
0.0
 11
305.862460156199
 21
181.0436078385601
 31
0.0
  0
LINE
  5
29F99
330
1F
100
AcDbEntity
  8
実線
370
     0
100
AcDbLine
 10
303.9085768376052
 20
174.8894118988538
 30
0.0
 11
305.1127380102002
 21
174.8894118988538
 31
0.0
  0
LINE
  5
29F9A
330
1F
100
AcDbEntity
  8
実線
370
     0
100
AcDbLine
 10
304.577951837605
 20
181.1894118988538
 30
0.0
 11
305.7321477773113
 21
181.1894118988538
 31
0.0
  0
LINE
  5
29F9B
330
1F
100
AcDbEntity
  8
実線
370
     0
100
AcDbLine
 10
304.2679536826918
 20
182.0394118988538
 30
0.0
 11
306.2623249925183
 21
182.0394118988538
 31
0.0
  0
ARC
  5
29F9C
330
1F
100
AcDbEntity
  8
実線
370
     0
100
AcDbCircle
 10
304.2679536826918
 20
181.5394118988539
 30
0.0
 40
0.5
100
AcDbArc
 50
90.0
 51
167.2306860022317
  0
LINE
  5
29F9D
330
1F
100
AcDbEntity
  8
実線
370
     0
100
AcDbLine
 10
306.7595263998427
 20
181.4865842493256
 30
0.0
 11
306.4456077915449
 21
178.532056171229
 31
0.0
  0
LINE
  5
29F9E
330
1F
100
AcDbEntity
  8
実線
370
     0
100
AcDbLine
 10
306.3394576451949
 20
177.5329959702862
 30
0.0
 11
306.0157763998427
 21
174.4865842493257
 31
0.0
  0
ARC
  5
29F9F
330
1F
100
AcDbEntity
  8
実線
370
     0
100
AcDbCircle
 10
306.2623249925183
 20
181.5394118988539
 30
0.0
 40
0.5
100
AcDbArc
 50
353.9350775545514
 51
30.61482704589923
  0
ARC
  5
29FA0
330
1F
100
AcDbEntity
  8
実線
370
     0
100
AcDbCircle
 10
306.2623249925183
 20
181.5394118988539
 30
0.0
 40
0.5
100
AcDbArc
 50
53.16844284210906
 51
90.0
  0
LINE
  5
29FA1
330
1F
100
AcDbEntity
  8
実線
370
     0
100
AcDbLine
 10
305.3130944594006
 20
174.0394118988539
 30
0.0
 11
303.5242036826919
 21
174.0394118988539
 31
0.0
  0
ARC
  5
29FA2
330
1F
100
AcDbEntity
  8
実線
370
     0
100
AcDbCircle
 10
305.5185749925183
 20
174.5394118988538
 30
0.0
 40
0.5
100
AcDbArc
 50
270.0
 51
353.9350775545514
  0
LINE
  5
29FA3
330
1F
100
AcDbEntity
  8
実線
370
     0
100
AcDbLine
 10
303.0270022753675
 20
174.5922395483821
 30
0.0
 11
303.0530987481345
 21
174.8378534097196
 31
0.0
  0
LINE
  5
29FA4
330
1F
100
AcDbEntity
  8
実線
370
     0
100
AcDbLine
 10
303.0747959698885
 20
175.042062555638
 30
0.0
 11
303.3409208836653
 21
177.5467676264787
 31
0.0
  0
ARC
  5
29FA5
330
1F
100
AcDbEntity
  8
実線
370
     0
100
AcDbCircle
 10
303.5242036826919
 20
174.5394118988538
 30
0.0
 40
0.5
100
AcDbArc
 50
173.9350775545514
 51
270.0
  0
LINE
  5
29FA6
330
1F
100
AcDbEntity
  8
実線
370
     0
100
AcDbLine
 10
305.7321477773113
 20
181.1894118988538
 30
0.0
 11
306.5620572582699
 21
181.9396125596072
 31
0.0
  0
LINE
  5
29FA7
330
1F
100
AcDbEntity
  8
実線
370
     0
100
AcDbLine
 10
305.862460156199
 20
181.0436078385601
 30
0.0
 11
306.692630126546
 21
181.7940439699475
 31
0.0
  0
LINE
  5
29FA8
330
1F
100
AcDbEntity
  8
実線
370
     0
100
AcDbLine
 10
304.577951837605
 20
181.1894118988538
 30
0.0
 11
303.7803197479083
 21
181.6499250005546
 31
0.0
  0
LINE
  5
29FA9
330
1F
100
AcDbEntity
  8
実線
370
     0
100
AcDbLine
 10
303.7539609106596
 20
181.4342031746599
 30
0.0
 11
304.5548326615567
 21
180.971819653693
 31
0.0
  0
LINE
  5
29FAA
330
1F
100
AcDbEntity
  8
実線
370
     0
100
AcDbLine
 10
303.8342018376051
 20
178.1894118988539
 30
0.0
 11
303.4620294871333
 21
178.532056171229
 31
0.0
  0
LINE
  5
29FAB
330
1F
100
AcDbEntity
  8
実線
370
     0
100
AcDbLine
 10
303.8342018376051
 20
178.1894118988539
 30
0.0
 11
304.295607791545
 21
178.532056171229
 31
0.0
  0
LINE
  5
29FAC
330
1F
100
AcDbEntity
  8
実線
370
     0
100
AcDbLine
 10
303.3409208836653
 20
177.5467676264787
 30
0.0
 11
303.8023268376051
 21
177.8894118988539
 31
0.0
  0
LINE
  5
29FAD
330
1F
100
AcDbEntity
  8
実線
370
     0
100
AcDbLine
 10
304.1744991880769
 20
177.5467676264787
 30
0.0
 11
303.8023268376051
 21
177.8894118988539
 31
0.0
  0
LINE
  5
29FAE
330
1F
100
AcDbEntity
  8
実線
370
     0
100
AcDbLine
 10
305.9842018376051
 20
178.1894118988539
 30
0.0
 11
305.5970710300154
 21
178.5458278274215
 31
0.0
  0
LINE
  5
29FAF
330
1F
100
AcDbEntity
  8
実線
370
     0
100
AcDbLine
 10
305.9842018376051
 20
178.1894118988539
 30
0.0
 11
306.4456077915449
 21
178.532056171229
 31
0.0
  0
LINE
  5
29FB0
330
1F
100
AcDbEntity
  8
実線
370
     0
100
AcDbLine
 10
305.4909208836652
 20
177.5467676264787
 30
0.0
 11
305.9523268376052
 21
177.8894118988539
 31
0.0
  0
LINE
  5
29FB1
330
1F
100
AcDbEntity
  8
実線
370
     0
100
AcDbLine
 10
306.3394576451949
 20
177.5329959702862
 30
0.0
 11
305.9523268376052
 21
177.8894118988539
 31
0.0
  0
LINE
  5
29FB2
330
1F
100
AcDbEntity
  8
実線
370
     0
100
AcDbLine
 10
303.9406617763128
 20
175.2100359287418
 30
0.0
 11
303.0747959698885
 21
175.042062555638
 31
0.0
  0
LINE
  5
29FB3
330
1F
100
AcDbEntity
  8
実線
370
     0
100
AcDbLine
 10
303.9202514919111
 20
175.0060764418426
 30
0.0
 11
303.0530987481345
 21
174.8378534097196
 31
0.0
  0
LINE
  5
29FB4
330
1F
100
AcDbEntity
  8
実線
370
     0
100
AcDbLine
 10
305.2426431407807
 20
175.2100359287418
 30
0.0
 11
305.5185749925183
 21
174.0394118988539
 31
0.0
  0
LINE
  5
29FB5
330
1F
100
AcDbEntity
  8
実線
370
     0
100
AcDbLine
 10
305.1127380102002
 20
174.8894118988538
 30
0.0
 11
305.3130944594006
 21
174.0394118988539
 31
0.0
  0
LINE
  5
29FB6
330
1F
100
AcDbEntity
  8
実線
370
     0
100
AcDbLine
 10
303.9438962064125
 20
178.0261421634033
 30
0.0
 11
304.4427455823182
 21
178.3965922626542
 31
0.0
  0
LINE
  5
29FB7
330
1F
100
AcDbEntity
  8
実線
370
     0
100
AcDbLine
 10
304.3350670189263
 20
177.6660067630752
 30
0.0
 11
303.9628946684545
 21
178.0086510354504
 31
0.0
  0
LINE
  5
29FB8
330
1F
100
AcDbEntity
  8
実線
370
     0
100
AcDbLine
 10
303.9628946684545
 20
178.0086510354504
 30
0.0
 11
303.9438962064125
 21
178.0261421634033
 31
0.0
  0
LINE
  5
29FB9
330
1F
100
AcDbEntity
  8
実線
370
     0
100
AcDbLine
 10
304.4427455823182
 20
178.3965922626542
 30
0.0
 11
305.4773444905434
 21
178.3965922626542
 31
0.0
  0
LINE
  5
29FBA
330
1F
100
AcDbEntity
  8
実線
370
     0
100
AcDbLine
 10
304.3350670189263
 20
177.6660067630752
 30
0.0
 11
305.3156809634844
 21
177.6660067630752
 31
0.0
  0
LINE
  5
29FBB
330
1F
100
AcDbEntity
  8
実線
370
     0
100
AcDbLine
 10
305.8472045025431
 20
178.0560768682901
 30
0.0
 11
305.4773444905434
 21
178.3965922626542
 31
0.0
  0
LINE
  5
29FBC
330
1F
100
AcDbEntity
  8
実線
370
     0
100
AcDbLine
 10
305.3156809634844
 20
177.6660067630752
 30
0.0
 11
305.8472045025431
 21
178.0560768682901
 31
0.0
  0
LINE
  5
29FBD
330
1F
100
AcDbEntity
  8
実線
370
     0
100
AcDbLine
 10
308.4406400756397
 20
174.0394118988539
 30
0.0
 11
309.2182643376052
 21
174.0394118988539
 31
0.0
  0
LINE
  5
29FBE
330
1F
100
AcDbEntity
  8
実線
370
     0
100
AcDbLine
 10
308.24175951271
 20
174.2605429586651
 30
0.0
 11
308.2561647645261
 21
174.3961217992876
 31
0.0
  0
LINE
  5
29FBF
330
1F
100
AcDbEntity
  8
実線
370
     0
100
AcDbLine
 10
308.2667302944319
 20
174.4955620807524
 30
0.0
 11
308.4042910427466
 21
175.7902514766566
 31
0.0
  0
LINE
  5
29FC0
330
1F
100
AcDbEntity
  8
実線
370
     0
100
AcDbLine
 10
308.4572376324636
 20
176.2885723210511
 30
0.0
 11
308.6131085520259
 21
177.7555927404615
 31
0.0
  0
ARC
  5
29FC1
330
1F
100
AcDbEntity
  8
実線
370
     0
100
AcDbCircle
 10
308.4406400756397
 20
174.2394118988538
 30
0.0
 40
0.2
100
AcDbArc
 50
173.9350775545521
 51
270.0
  0
ARC
  5
29FC2
330
1F
100
AcDbEntity
  8
実線
370
     0
100
AcDbCircle
 10
308.8231400756398
 20
177.8394118988538
 30
0.0
 40
0.2
100
AcDbArc
 50
90.0
 51
173.9350775545521
  0
LINE
  5
29FC3
330
1F
100
AcDbEntity
  8
実線
370
     0
100
AcDbLine
 10
310.2372691625002
 20
174.2182808390425
 30
0.0
 11
310.4037297489704
 21
175.7849687117038
 31
0.0
  0
LINE
  5
29FC4
330
1F
100
AcDbEntity
  8
実線
370
     0
100
AcDbLine
 10
310.4577989262399
 20
176.2938550860039
 30
0.0
 11
310.6197691625001
 21
177.8182808390425
 31
0.0
  0
ARC
  5
29FC5
330
1F
100
AcDbEntity
  8
実線
370
     0
100
AcDbCircle
 10
310.4208885995704
 20
177.8394118988538
 30
0.0
 40
0.2
100
AcDbArc
 50
353.9350775545514
 51
19.15964585805656
  0
ARC
  5
29FC6
330
1F
100
AcDbEntity
  8
実線
370
     0
100
AcDbCircle
 10
310.4208885995704
 20
177.8394118988538
 30
0.0
 40
0.2
100
AcDbArc
 50
47.93517548859131
 51
90.0
  0
LINE
  5
29FC7
330
1F
100
AcDbEntity
  8
実線
370
     0
100
AcDbLine
 10
310.4208885995704
 20
178.0394118988538
 30
0.0
 11
308.8231400756398
 21
178.0394118988538
 31
0.0
  0
LINE
  5
29FC8
330
1F
100
AcDbEntity
  8
実線
370
     0
100
AcDbLine
 10
308.5501393376051
 20
174.3394118988538
 30
0.0
 11
308.5619055093039
 21
174.4501523383719
 31
0.0
  0
LINE
  5
29FC9
330
1F
100
AcDbEntity
  8
実線
370
     0
100
AcDbLine
 10
308.5724710392096
 20
174.5495926198368
 30
0.0
 11
308.7042910427467
 21
175.7902514766565
 31
0.0
  0
LINE
  5
29FCA
330
1F
100
AcDbEntity
  8
実線
370
     0
100
AcDbLine
 10
308.7572376324636
 20
176.2885723210511
 30
0.0
 11
308.8987738947187
 21
177.6206783187464
 31
0.0
  0
LINE
  5
29FCB
330
1F
100
AcDbEntity
  8
実線
370
     0
100
AcDbLine
 10
309.9724710392095
 20
174.5495926198368
 30
0.0
 11
310.104852336523
 21
175.7955342416094
 31
0.0
  0
LINE
  5
29FCC
330
1F
100
AcDbEntity
  8
実線
370
     0
100
AcDbLine
 10
310.1566763386874
 20
176.2832895560983
 30
0.0
 11
310.3041727984878
 21
177.6714915306901
 31
0.0
  0
LINE
  5
29FCD
330
1F
100
AcDbEntity
  8
実線
370
     0
100
AcDbLine
 10
308.5182643376052
 20
174.0394118988538
 30
0.0
 11
309.9382072658693
 21
174.0394118988538
 31
0.0
  0
LINE
  5
29FCE
330
1F
100
AcDbEntity
  8
実線
370
     0
100
AcDbLine
 10
308.5501393376051
 20
174.3394118988538
 30
0.0
 11
309.8994459656184
 21
174.3394118988538
 31
0.0
  0
LINE
  5
29FCF
330
1F
100
AcDbEntity
  8
実線
370
     0
100
AcDbLine
 10
308.9113893376052
 20
177.7394118988538
 30
0.0
 11
310.229725317407
 21
177.7394118988538
 31
0.0
  0
LINE
  5
29FD0
330
1F
100
AcDbEntity
  8
実線
370
     0
100
AcDbLine
 10
310.3041727984877
 20
177.6714915306901
 30
0.0
 11
310.6098101517551
 21
177.9050521846553
 31
0.0
  0
LINE
  5
29FD1
330
1F
100
AcDbEntity
  8
実線
370
     0
100
AcDbLine
 10
310.2297253174071
 20
177.7394118988538
 30
0.0
 11
310.5548827941366
 21
177.9878893578251
 31
0.0
  0
LINE
  5
29FD2
330
1F
100
AcDbEntity
  8
実線
370
     0
100
AcDbLine
 10
308.9113893376052
 20
177.7394118988538
 30
0.0
 11
308.6242595127101
 21
177.8605429586651
 31
0.0
  0
LINE
  5
29FD3
330
1F
100
AcDbEntity
  8
実線
370
     0
100
AcDbLine
 10
308.8987738947187
 20
177.6206783187464
 30
0.0
 11
308.613108552026
 21
177.7555927404617
 31
0.0
  0
LINE
  5
29FD4
330
1F
100
AcDbEntity
  8
実線
370
     0
100
AcDbLine
 10
308.5619055093039
 20
174.4501523383719
 30
0.0
 11
308.2561647645261
 21
174.3961217992876
 31
0.0
  0
LINE
  5
29FD5
330
1F
100
AcDbEntity
  8
実線
370
     0
100
AcDbLine
 10
308.5724710392096
 20
174.5495926198368
 30
0.0
 11
308.2667302944318
 21
174.4955620807524
 31
0.0
  0
LINE
  5
29FD6
330
1F
100
AcDbEntity
  8
実線
370
     0
100
AcDbLine
 10
309.9724710392095
 20
174.5495926198368
 30
0.0
 11
310.0383885995705
 21
174.0394118988538
 31
0.0
  0
LINE
  5
29FD7
330
1F
100
AcDbEntity
  8
実線
370
     0
100
AcDbLine
 10
309.8994459656184
 20
174.3394118988538
 30
0.0
 11
309.9382072658693
 21
174.0394118988538
 31
0.0
  0
LINE
  5
29FD8
330
1F
100
AcDbEntity
  8
実線
370
     0
100
AcDbLine
 10
308.5913893376051
 20
176.1394118988538
 30
0.0
 11
308.7572376324636
 21
176.2885723210511
 31
0.0
  0
LINE
  5
29FD9
330
1F
100
AcDbEntity
  8
実線
370
     0
100
AcDbLine
 10
308.5913893376051
 20
176.1394118988538
 30
0.0
 11
308.4572376324636
 21
176.2885723210511
 31
0.0
  0
LINE
  5
29FDA
330
1F
100
AcDbEntity
  8
実線
370
     0
100
AcDbLine
 10
308.4042910427466
 20
175.7902514766565
 30
0.0
 11
308.5701393376051
 21
175.9394118988538
 31
0.0
  0
LINE
  5
29FDB
330
1F
100
AcDbEntity
  8
実線
370
     0
100
AcDbLine
 10
308.7042910427467
 20
175.7902514766566
 30
0.0
 11
308.5701393376051
 21
175.9394118988538
 31
0.0
  0
LINE
  5
29FDC
330
1F
100
AcDbEntity
  8
実線
370
     0
100
AcDbLine
 10
310.2860768376051
 20
176.1394118988538
 30
0.0
 11
310.4577989262399
 21
176.293855086004
 31
0.0
  0
LINE
  5
29FDD
330
1F
100
AcDbEntity
  8
実線
370
     0
100
AcDbLine
 10
310.2860768376051
 20
176.1394118988538
 30
0.0
 11
310.1566763386874
 21
176.2832895560983
 31
0.0
  0
LINE
  5
29FDE
330
1F
100
AcDbEntity
  8
実線
370
     0
100
AcDbLine
 10
310.104852336523
 20
175.7955342416094
 30
0.0
 11
310.2648268376051
 21
175.9394118988538
 31
0.0
  0
LINE
  5
29FDF
330
1F
100
AcDbEntity
  8
実線
370
     0
100
AcDbLine
 10
310.4037297489704
 20
175.7849687117038
 30
0.0
 11
310.2648268376051
 21
175.9394118988538
 31
0.0
  0
LINE
  5
29FE0
330
1F
100
AcDbEntity
  8
実線
370
     0
100
AcDbLine
 10
308.6214247957914
 20
176.0319304649329
 30
0.0
 11
308.7965250462661
 21
176.1894118988538
 31
0.0
  0
LINE
  5
29FE1
330
1F
100
AcDbEntity
  8
実線
370
     0
100
AcDbLine
 10
308.749602957077
 20
175.8894118988538
 30
0.0
 11
308.6214247957914
 21
176.0319304649329
 31
0.0
  0
LINE
  5
29FE2
330
1F
100
AcDbEntity
  8
実線
370
     0
100
AcDbLine
 10
310.0596911289441
 20
175.8894118988538
 30
0.0
 11
310.2347913794188
 21
176.0468933327747
 31
0.0
  0
LINE
  5
29FE3
330
1F
100
AcDbEntity
  8
実線
370
     0
100
AcDbLine
 10
310.2347913794188
 20
176.0468933327747
 30
0.0
 11
310.1066132181331
 21
176.1894118988538
 31
0.0
  0
LINE
  5
29FE4
330
1F
100
AcDbEntity
  8
実線
370
     0
100
AcDbLine
 10
310.1066132181331
 20
176.1894118988538
 30
0.0
 11
308.7965250462662
 21
176.1894118988538
 31
0.0
  0
LINE
  5
29FE5
330
1F
100
AcDbEntity
  8
実線
370
     0
100
AcDbLine
 10
310.0596911289441
 20
175.8894118988538
 30
0.0
 11
308.749602957077
 21
175.8894118988538
 31
0.0
  0
ARC
  5
29FE6
330
1F
100
AcDbEntity
  8
実線
370
     0
100
AcDbCircle
 10
314.5383885995705
 20
174.2394118988538
 30
0.0
 40
0.2
100
AcDbArc
 50
270.0
 51
353.9350775545522
  0
LINE
  5
29FE7
330
1F
100
AcDbEntity
  8
実線
370
     0
100
AcDbLine
 10
312.9406400756398
 20
174.0394118988539
 30
0.0
 11
313.7182643376052
 21
174.0394118988539
 31
0.0
  0
LINE
  5
29FE8
330
1F
100
AcDbEntity
  8
実線
370
     0
100
AcDbLine
 10
312.74175951271
 20
174.2605429586651
 30
0.0
 11
312.7561647645261
 21
174.3961217992876
 31
0.0
  0
LINE
  5
29FE9
330
1F
100
AcDbEntity
  8
実線
370
     0
100
AcDbLine
 10
312.7667302944319
 20
174.4955620807524
 30
0.0
 11
312.9042910427466
 21
175.7902514766566
 31
0.0
  0
LINE
  5
29FEA
330
1F
100
AcDbEntity
  8
実線
370
     0
100
AcDbLine
 10
312.9572376324636
 20
176.2885723210511
 30
0.0
 11
313.1131085520259
 21
177.7555927404615
 31
0.0
  0
ARC
  5
29FEB
330
1F
100
AcDbEntity
  8
実線
370
     0
100
AcDbCircle
 10
312.9406400756398
 20
174.2394118988538
 30
0.0
 40
0.2
100
AcDbArc
 50
173.9350775545521
 51
270.0
  0
ARC
  5
29FEC
330
1F
100
AcDbEntity
  8
実線
370
     0
100
AcDbCircle
 10
313.3231400756398
 20
177.8394118988538
 30
0.0
 40
0.2
100
AcDbArc
 50
90.0
 51
173.9350775545521
  0
LINE
  5
29FED
330
1F
100
AcDbEntity
  8
実線
370
     0
100
AcDbLine
 10
314.7372691625002
 20
174.2182808390425
 30
0.0
 11
314.9037297489704
 21
175.7849687117038
 31
0.0
  0
LINE
  5
29FEE
330
1F
100
AcDbEntity
  8
実線
370
     0
100
AcDbLine
 10
314.9577989262398
 20
176.2938550860039
 30
0.0
 11
315.1197691625001
 21
177.8182808390425
 31
0.0
  0
ARC
  5
29FEF
330
1F
100
AcDbEntity
  8
実線
370
     0
100
AcDbCircle
 10
314.9208885995704
 20
177.8394118988538
 30
0.0
 40
0.2
100
AcDbArc
 50
353.9350775545514
 51
19.15964585805656
  0
ARC
  5
29FF0
330
1F
100
AcDbEntity
  8
実線
370
     0
100
AcDbCircle
 10
314.9208885995704
 20
177.8394118988538
 30
0.0
 40
0.2
100
AcDbArc
 50
47.93517548859131
 51
90.0
  0
LINE
  5
29FF1
330
1F
100
AcDbEntity
  8
実線
370
     0
100
AcDbLine
 10
314.9208885995704
 20
178.0394118988538
 30
0.0
 11
313.3231400756398
 21
178.0394118988538
 31
0.0
  0
LINE
  5
29FF2
330
1F
100
AcDbEntity
  8
実線
370
     0
100
AcDbLine
 10
313.0501393376051
 20
174.3394118988538
 30
0.0
 11
313.0619055093039
 21
174.4501523383719
 31
0.0
  0
LINE
  5
29FF3
330
1F
100
AcDbEntity
  8
実線
370
     0
100
AcDbLine
 10
313.0724710392096
 20
174.5495926198368
 30
0.0
 11
313.2042910427467
 21
175.7902514766565
 31
0.0
  0
LINE
  5
29FF4
330
1F
100
AcDbEntity
  8
実線
370
     0
100
AcDbLine
 10
313.2572376324636
 20
176.2885723210511
 30
0.0
 11
313.3987738947187
 21
177.6206783187464
 31
0.0
  0
LINE
  5
29FF5
330
1F
100
AcDbEntity
  8
実線
370
     0
100
AcDbLine
 10
314.4724710392095
 20
174.5495926198368
 30
0.0
 11
314.6048523365231
 21
175.7955342416094
 31
0.0
  0
LINE
  5
29FF6
330
1F
100
AcDbEntity
  8
実線
370
     0
100
AcDbLine
 10
314.6566763386874
 20
176.2832895560983
 30
0.0
 11
314.8041727984878
 21
177.6714915306901
 31
0.0
  0
LINE
  5
29FF7
330
1F
100
AcDbEntity
  8
実線
370
     0
100
AcDbLine
 10
313.0182643376052
 20
174.0394118988538
 30
0.0
 11
314.4182643376051
 21
174.0394118988538
 31
0.0
  0
LINE
  5
29FF8
330
1F
100
AcDbEntity
  8
実線
370
     0
100
AcDbLine
 10
313.0501393376051
 20
174.3394118988538
 30
0.0
 11
314.3994459656184
 21
174.3394118988538
 31
0.0
  0
LINE
  5
29FF9
330
1F
100
AcDbEntity
  8
実線
370
     0
100
AcDbLine
 10
313.4113893376051
 20
177.7394118988538
 30
0.0
 11
314.729725317407
 21
177.7394118988538
 31
0.0
  0
LINE
  5
29FFA
330
1F
100
AcDbEntity
  8
実線
370
     0
100
AcDbLine
 10
314.8041727984877
 20
177.6714915306901
 30
0.0
 11
315.1098101517551
 21
177.9050521846553
 31
0.0
  0
LINE
  5
29FFB
330
1F
100
AcDbEntity
  8
実線
370
     0
100
AcDbLine
 10
314.7297253174071
 20
177.7394118988538
 30
0.0
 11
315.0548827941366
 21
177.9878893578251
 31
0.0
  0
LINE
  5
29FFC
330
1F
100
AcDbEntity
  8
実線
370
     0
100
AcDbLine
 10
313.4113893376051
 20
177.7394118988538
 30
0.0
 11
313.1242595127101
 21
177.8605429586651
 31
0.0
  0
LINE
  5
29FFD
330
1F
100
AcDbEntity
  8
実線
370
     0
100
AcDbLine
 10
313.3987738947187
 20
177.6206783187464
 30
0.0
 11
313.113108552026
 21
177.7555927404617
 31
0.0
  0
LINE
  5
29FFE
330
1F
100
AcDbEntity
  8
実線
370
     0
100
AcDbLine
 10
313.0619055093039
 20
174.4501523383719
 30
0.0
 11
312.7561647645261
 21
174.3961217992876
 31
0.0
  0
LINE
  5
29FFF
330
1F
100
AcDbEntity
  8
実線
370
     0
100
AcDbLine
 10
313.0724710392096
 20
174.5495926198368
 30
0.0
 11
312.7667302944318
 21
174.4955620807524
 31
0.0
  0
LINE
  5
2A000
330
1F
100
AcDbEntity
  8
実線
370
     0
100
AcDbLine
 10
314.4724710392095
 20
174.5495926198368
 30
0.0
 11
314.5383885995705
 21
174.0394118988538
 31
0.0
  0
LINE
  5
2A001
330
1F
100
AcDbEntity
  8
実線
370
     0
100
AcDbLine
 10
314.3994459656184
 20
174.3394118988538
 30
0.0
 11
314.4382072658693
 21
174.0394118988538
 31
0.0
  0
LINE
  5
2A002
330
1F
100
AcDbEntity
  8
実線
370
     0
100
AcDbLine
 10
313.091389337605
 20
176.1394118988538
 30
0.0
 11
313.2572376324636
 21
176.2885723210511
 31
0.0
  0
LINE
  5
2A003
330
1F
100
AcDbEntity
  8
実線
370
     0
100
AcDbLine
 10
313.091389337605
 20
176.1394118988538
 30
0.0
 11
312.9572376324636
 21
176.2885723210511
 31
0.0
  0
LINE
  5
2A004
330
1F
100
AcDbEntity
  8
実線
370
     0
100
AcDbLine
 10
312.9042910427466
 20
175.7902514766565
 30
0.0
 11
313.0701393376051
 21
175.9394118988538
 31
0.0
  0
LINE
  5
2A005
330
1F
100
AcDbEntity
  8
実線
370
     0
100
AcDbLine
 10
313.2042910427467
 20
175.7902514766566
 30
0.0
 11
313.0701393376051
 21
175.9394118988538
 31
0.0
  0
LINE
  5
2A006
330
1F
100
AcDbEntity
  8
実線
370
     0
100
AcDbLine
 10
314.7860768376052
 20
176.1394118988538
 30
0.0
 11
314.9577989262398
 21
176.293855086004
 31
0.0
  0
LINE
  5
2A007
330
1F
100
AcDbEntity
  8
実線
370
     0
100
AcDbLine
 10
314.7860768376052
 20
176.1394118988538
 30
0.0
 11
314.6566763386874
 21
176.2832895560983
 31
0.0
  0
LINE
  5
2A008
330
1F
100
AcDbEntity
  8
実線
370
     0
100
AcDbLine
 10
314.6048523365231
 20
175.7955342416094
 30
0.0
 11
314.7648268376051
 21
175.9394118988538
 31
0.0
  0
LINE
  5
2A009
330
1F
100
AcDbEntity
  8
実線
370
     0
100
AcDbLine
 10
314.9037297489704
 20
175.7849687117038
 30
0.0
 11
314.7648268376051
 21
175.9394118988538
 31
0.0
  0
LINE
  5
2A00A
330
1F
100
AcDbEntity
  8
実線
370
     0
100
AcDbLine
 10
313.1214247957914
 20
176.0319304649329
 30
0.0
 11
313.2965250462661
 21
176.1894118988538
 31
0.0
  0
LINE
  5
2A00B
330
1F
100
AcDbEntity
  8
実線
370
     0
100
AcDbLine
 10
313.249602957077
 20
175.8894118988538
 30
0.0
 11
313.1214247957914
 21
176.0319304649329
 31
0.0
  0
LINE
  5
2A00C
330
1F
100
AcDbEntity
  8
実線
370
     0
100
AcDbLine
 10
314.5596911289441
 20
175.8894118988538
 30
0.0
 11
314.7347913794188
 21
176.0468933327747
 31
0.0
  0
LINE
  5
2A00D
330
1F
100
AcDbEntity
  8
実線
370
     0
100
AcDbLine
 10
314.7347913794188
 20
176.0468933327747
 30
0.0
 11
314.6066132181331
 21
176.1894118988538
 31
0.0
  0
LINE
  5
2A00E
330
1F
100
AcDbEntity
  8
実線
370
     0
100
AcDbLine
 10
314.6066132181331
 20
176.1894118988538
 30
0.0
 11
313.2965250462662
 21
176.1894118988538
 31
0.0
  0
LINE
  5
2A00F
330
1F
100
AcDbEntity
  8
実線
370
     0
100
AcDbLine
 10
314.5596911289441
 20
175.8894118988538
 30
0.0
 11
313.249602957077
 21
175.8894118988538
 31
0.0
  0
ARC
  5
2A010
330
1F
100
AcDbEntity
  8
実線
370
     0
100
AcDbCircle
 10
319.0383885995704
 20
174.2394118988538
 30
0.0
 40
0.2
100
AcDbArc
 50
270.0
 51
353.9350775545522
  0
LINE
  5
2A011
330
1F
100
AcDbEntity
  8
実線
370
     0
100
AcDbLine
 10
317.4406400756398
 20
174.0394118988539
 30
0.0
 11
318.2182643376052
 21
174.0394118988539
 31
0.0
  0
LINE
  5
2A012
330
1F
100
AcDbEntity
  8
実線
370
     0
100
AcDbLine
 10
317.24175951271
 20
174.2605429586651
 30
0.0
 11
317.2561647645261
 21
174.3961217992876
 31
0.0
  0
LINE
  5
2A013
330
1F
100
AcDbEntity
  8
実線
370
     0
100
AcDbLine
 10
317.2667302944319
 20
174.4955620807524
 30
0.0
 11
317.4042910427467
 21
175.7902514766566
 31
0.0
  0
LINE
  5
2A014
330
1F
100
AcDbEntity
  8
実線
370
     0
100
AcDbLine
 10
317.4572376324636
 20
176.2885723210511
 30
0.0
 11
317.6131085520259
 21
177.7555927404615
 31
0.0
  0
ARC
  5
2A015
330
1F
100
AcDbEntity
  8
実線
370
     0
100
AcDbCircle
 10
317.4406400756398
 20
174.2394118988538
 30
0.0
 40
0.2
100
AcDbArc
 50
173.9350775545521
 51
270.0
  0
ARC
  5
2A016
330
1F
100
AcDbEntity
  8
実線
370
     0
100
AcDbCircle
 10
317.8231400756398
 20
177.8394118988538
 30
0.0
 40
0.2
100
AcDbArc
 50
90.0
 51
173.9350775545521
  0
LINE
  5
2A017
330
1F
100
AcDbEntity
  8
実線
370
     0
100
AcDbLine
 10
319.2372691625002
 20
174.2182808390425
 30
0.0
 11
319.4037297489704
 21
175.7849687117038
 31
0.0
  0
LINE
  5
2A018
330
1F
100
AcDbEntity
  8
実線
370
     0
100
AcDbLine
 10
319.4577989262398
 20
176.2938550860039
 30
0.0
 11
319.6197691625001
 21
177.8182808390425
 31
0.0
  0
ARC
  5
2A019
330
1F
100
AcDbEntity
  8
実線
370
     0
100
AcDbCircle
 10
319.4208885995704
 20
177.8394118988538
 30
0.0
 40
0.2
100
AcDbArc
 50
353.9350775545514
 51
19.15964585805656
  0
ARC
  5
2A01A
330
1F
100
AcDbEntity
  8
実線
370
     0
100
AcDbCircle
 10
319.4208885995704
 20
177.8394118988538
 30
0.0
 40
0.2
100
AcDbArc
 50
47.93517548859131
 51
90.0
  0
LINE
  5
2A01B
330
1F
100
AcDbEntity
  8
実線
370
     0
100
AcDbLine
 10
319.4208885995704
 20
178.0394118988538
 30
0.0
 11
317.8231400756398
 21
178.0394118988538
 31
0.0
  0
LINE
  5
2A01C
330
1F
100
AcDbEntity
  8
実線
370
     0
100
AcDbLine
 10
317.550139337605
 20
174.3394118988538
 30
0.0
 11
317.5619055093039
 21
174.4501523383719
 31
0.0
  0
LINE
  5
2A01D
330
1F
100
AcDbEntity
  8
実線
370
     0
100
AcDbLine
 10
317.5724710392096
 20
174.5495926198368
 30
0.0
 11
317.7042910427467
 21
175.7902514766565
 31
0.0
  0
LINE
  5
2A01E
330
1F
100
AcDbEntity
  8
実線
370
     0
100
AcDbLine
 10
317.7572376324635
 20
176.2885723210511
 30
0.0
 11
317.8987738947187
 21
177.6206783187464
 31
0.0
  0
LINE
  5
2A01F
330
1F
100
AcDbEntity
  8
実線
370
     0
100
AcDbLine
 10
318.9724710392095
 20
174.5495926198368
 30
0.0
 11
319.1048523365231
 21
175.7955342416094
 31
0.0
  0
LINE
  5
2A020
330
1F
100
AcDbEntity
  8
実線
370
     0
100
AcDbLine
 10
319.1566763386874
 20
176.2832895560983
 30
0.0
 11
319.3041727984878
 21
177.6714915306901
 31
0.0
  0
LINE
  5
2A021
330
1F
100
AcDbEntity
  8
実線
370
     0
100
AcDbLine
 10
317.5182643376051
 20
174.0394118988538
 30
0.0
 11
318.9182643376051
 21
174.0394118988538
 31
0.0
  0
LINE
  5
2A022
330
1F
100
AcDbEntity
  8
実線
370
     0
100
AcDbLine
 10
317.550139337605
 20
174.3394118988538
 30
0.0
 11
318.8994459656184
 21
174.3394118988538
 31
0.0
  0
LINE
  5
2A023
330
1F
100
AcDbEntity
  8
実線
370
     0
100
AcDbLine
 10
317.9113893376051
 20
177.7394118988538
 30
0.0
 11
319.229725317407
 21
177.7394118988538
 31
0.0
  0
LINE
  5
2A024
330
1F
100
AcDbEntity
  8
実線
370
     0
100
AcDbLine
 10
319.3041727984877
 20
177.6714915306901
 30
0.0
 11
319.6098101517551
 21
177.9050521846553
 31
0.0
  0
LINE
  5
2A025
330
1F
100
AcDbEntity
  8
実線
370
     0
100
AcDbLine
 10
319.2297253174071
 20
177.7394118988538
 30
0.0
 11
319.5548827941366
 21
177.9878893578251
 31
0.0
  0
LINE
  5
2A026
330
1F
100
AcDbEntity
  8
実線
370
     0
100
AcDbLine
 10
317.9113893376051
 20
177.7394118988538
 30
0.0
 11
317.6242595127101
 21
177.8605429586651
 31
0.0
  0
LINE
  5
2A027
330
1F
100
AcDbEntity
  8
実線
370
     0
100
AcDbLine
 10
317.8987738947187
 20
177.6206783187464
 30
0.0
 11
317.613108552026
 21
177.7555927404617
 31
0.0
  0
LINE
  5
2A028
330
1F
100
AcDbEntity
  8
実線
370
     0
100
AcDbLine
 10
317.5619055093039
 20
174.4501523383719
 30
0.0
 11
317.2561647645261
 21
174.3961217992876
 31
0.0
  0
LINE
  5
2A029
330
1F
100
AcDbEntity
  8
実線
370
     0
100
AcDbLine
 10
317.5724710392096
 20
174.5495926198368
 30
0.0
 11
317.2667302944318
 21
174.4955620807524
 31
0.0
  0
LINE
  5
2A02A
330
1F
100
AcDbEntity
  8
実線
370
     0
100
AcDbLine
 10
318.9724710392095
 20
174.5495926198368
 30
0.0
 11
319.0383885995704
 21
174.0394118988538
 31
0.0
  0
LINE
  5
2A02B
330
1F
100
AcDbEntity
  8
実線
370
     0
100
AcDbLine
 10
318.8994459656184
 20
174.3394118988538
 30
0.0
 11
318.9382072658693
 21
174.0394118988538
 31
0.0
  0
LINE
  5
2A02C
330
1F
100
AcDbEntity
  8
実線
370
     0
100
AcDbLine
 10
317.591389337605
 20
176.1394118988538
 30
0.0
 11
317.7572376324635
 21
176.2885723210511
 31
0.0
  0
LINE
  5
2A02D
330
1F
100
AcDbEntity
  8
実線
370
     0
100
AcDbLine
 10
317.591389337605
 20
176.1394118988538
 30
0.0
 11
317.4572376324636
 21
176.2885723210511
 31
0.0
  0
LINE
  5
2A02E
330
1F
100
AcDbEntity
  8
実線
370
     0
100
AcDbLine
 10
317.4042910427467
 20
175.7902514766565
 30
0.0
 11
317.5701393376052
 21
175.9394118988538
 31
0.0
  0
LINE
  5
2A02F
330
1F
100
AcDbEntity
  8
実線
370
     0
100
AcDbLine
 10
317.7042910427467
 20
175.7902514766566
 30
0.0
 11
317.5701393376052
 21
175.9394118988538
 31
0.0
  0
LINE
  5
2A030
330
1F
100
AcDbEntity
  8
実線
370
     0
100
AcDbLine
 10
319.2860768376052
 20
176.1394118988538
 30
0.0
 11
319.4577989262398
 21
176.293855086004
 31
0.0
  0
LINE
  5
2A031
330
1F
100
AcDbEntity
  8
実線
370
     0
100
AcDbLine
 10
319.2860768376052
 20
176.1394118988538
 30
0.0
 11
319.1566763386874
 21
176.2832895560983
 31
0.0
  0
LINE
  5
2A032
330
1F
100
AcDbEntity
  8
実線
370
     0
100
AcDbLine
 10
319.1048523365231
 20
175.7955342416094
 30
0.0
 11
319.2648268376051
 21
175.9394118988538
 31
0.0
  0
LINE
  5
2A033
330
1F
100
AcDbEntity
  8
実線
370
     0
100
AcDbLine
 10
319.4037297489704
 20
175.7849687117038
 30
0.0
 11
319.2648268376051
 21
175.9394118988538
 31
0.0
  0
LINE
  5
2A034
330
1F
100
AcDbEntity
  8
実線
370
     0
100
AcDbLine
 10
317.6214247957914
 20
176.0319304649329
 30
0.0
 11
317.7965250462662
 21
176.1894118988538
 31
0.0
  0
LINE
  5
2A035
330
1F
100
AcDbEntity
  8
実線
370
     0
100
AcDbLine
 10
317.7496029570771
 20
175.8894118988538
 30
0.0
 11
317.6214247957914
 21
176.0319304649329
 31
0.0
  0
LINE
  5
2A036
330
1F
100
AcDbEntity
  8
実線
370
     0
100
AcDbLine
 10
319.0596911289441
 20
175.8894118988538
 30
0.0
 11
319.2347913794188
 21
176.0468933327747
 31
0.0
  0
LINE
  5
2A037
330
1F
100
AcDbEntity
  8
実線
370
     0
100
AcDbLine
 10
319.2347913794188
 20
176.0468933327747
 30
0.0
 11
319.1066132181331
 21
176.1894118988538
 31
0.0
  0
LINE
  5
2A038
330
1F
100
AcDbEntity
  8
実線
370
     0
100
AcDbLine
 10
319.1066132181331
 20
176.1894118988538
 30
0.0
 11
317.7965250462662
 21
176.1894118988538
 31
0.0
  0
LINE
  5
2A039
330
1F
100
AcDbEntity
  8
実線
370
     0
100
AcDbLine
 10
319.0596911289441
 20
175.8894118988538
 30
0.0
 11
317.7496029570771
 21
175.8894118988538
 31
0.0
  0
ARC
  5
2A03A
330
1F
100
AcDbEntity
  8
実線
370
     0
100
AcDbCircle
 10
323.5383885995704
 20
174.2394118988538
 30
0.0
 40
0.2
100
AcDbArc
 50
270.0
 51
353.9350775545522
  0
LINE
  5
2A03B
330
1F
100
AcDbEntity
  8
実線
370
     0
100
AcDbLine
 10
321.9406400756398
 20
174.0394118988539
 30
0.0
 11
322.7182643376051
 21
174.0394118988539
 31
0.0
  0
LINE
  5
2A03C
330
1F
100
AcDbEntity
  8
実線
370
     0
100
AcDbLine
 10
321.74175951271
 20
174.2605429586651
 30
0.0
 11
321.7561647645262
 21
174.3961217992876
 31
0.0
  0
LINE
  5
2A03D
330
1F
100
AcDbEntity
  8
実線
370
     0
100
AcDbLine
 10
321.7667302944319
 20
174.4955620807524
 30
0.0
 11
321.9042910427467
 21
175.7902514766566
 31
0.0
  0
LINE
  5
2A03E
330
1F
100
AcDbEntity
  8
実線
370
     0
100
AcDbLine
 10
321.9572376324636
 20
176.2885723210511
 30
0.0
 11
322.1131085520259
 21
177.7555927404615
 31
0.0
  0
ARC
  5
2A03F
330
1F
100
AcDbEntity
  8
実線
370
     0
100
AcDbCircle
 10
321.9406400756398
 20
174.2394118988538
 30
0.0
 40
0.2
100
AcDbArc
 50
173.9350775545521
 51
270.0
  0
ARC
  5
2A040
330
1F
100
AcDbEntity
  8
実線
370
     0
100
AcDbCircle
 10
322.3231400756398
 20
177.8394118988538
 30
0.0
 40
0.2
100
AcDbArc
 50
90.0
 51
173.9350775545521
  0
LINE
  5
2A041
330
1F
100
AcDbEntity
  8
実線
370
     0
100
AcDbLine
 10
323.7372691625002
 20
174.2182808390425
 30
0.0
 11
323.9037297489704
 21
175.7849687117038
 31
0.0
  0
LINE
  5
2A042
330
1F
100
AcDbEntity
  8
実線
370
     0
100
AcDbLine
 10
323.9577989262398
 20
176.2938550860039
 30
0.0
 11
324.1197691625001
 21
177.8182808390425
 31
0.0
  0
ARC
  5
2A043
330
1F
100
AcDbEntity
  8
実線
370
     0
100
AcDbCircle
 10
323.9208885995704
 20
177.8394118988538
 30
0.0
 40
0.2
100
AcDbArc
 50
353.9350775545514
 51
19.15964585805656
  0
ARC
  5
2A044
330
1F
100
AcDbEntity
  8
実線
370
     0
100
AcDbCircle
 10
323.9208885995704
 20
177.8394118988538
 30
0.0
 40
0.2
100
AcDbArc
 50
47.93517548859131
 51
90.0
  0
LINE
  5
2A045
330
1F
100
AcDbEntity
  8
実線
370
     0
100
AcDbLine
 10
323.9208885995704
 20
178.0394118988538
 30
0.0
 11
322.3231400756398
 21
178.0394118988538
 31
0.0
  0
LINE
  5
2A046
330
1F
100
AcDbEntity
  8
実線
370
     0
100
AcDbLine
 10
322.050139337605
 20
174.3394118988538
 30
0.0
 11
322.0619055093039
 21
174.4501523383719
 31
0.0
  0
LINE
  5
2A047
330
1F
100
AcDbEntity
  8
実線
370
     0
100
AcDbLine
 10
322.0724710392096
 20
174.5495926198368
 30
0.0
 11
322.2042910427467
 21
175.7902514766565
 31
0.0
  0
LINE
  5
2A048
330
1F
100
AcDbEntity
  8
実線
370
     0
100
AcDbLine
 10
322.2572376324635
 20
176.2885723210511
 30
0.0
 11
322.3987738947187
 21
177.6206783187464
 31
0.0
  0
LINE
  5
2A049
330
1F
100
AcDbEntity
  8
実線
370
     0
100
AcDbLine
 10
323.4724710392095
 20
174.5495926198368
 30
0.0
 11
323.604852336523
 21
175.7955342416094
 31
0.0
  0
LINE
  5
2A04A
330
1F
100
AcDbEntity
  8
実線
370
     0
100
AcDbLine
 10
323.6566763386873
 20
176.2832895560983
 30
0.0
 11
323.8041727984878
 21
177.6714915306901
 31
0.0
  0
LINE
  5
2A04B
330
1F
100
AcDbEntity
  8
実線
370
     0
100
AcDbLine
 10
322.0182643376052
 20
174.0394118988538
 30
0.0
 11
323.4182643376052
 21
174.0394118988538
 31
0.0
  0
LINE
  5
2A04C
330
1F
100
AcDbEntity
  8
実線
370
     0
100
AcDbLine
 10
322.050139337605
 20
174.3394118988538
 30
0.0
 11
323.3994459656184
 21
174.3394118988538
 31
0.0
  0
LINE
  5
2A04D
330
1F
100
AcDbEntity
  8
実線
370
     0
100
AcDbLine
 10
322.4113893376052
 20
177.7394118988538
 30
0.0
 11
323.729725317407
 21
177.7394118988538
 31
0.0
  0
LINE
  5
2A04E
330
1F
100
AcDbEntity
  8
実線
370
     0
100
AcDbLine
 10
323.8041727984877
 20
177.6714915306901
 30
0.0
 11
324.1098101517551
 21
177.9050521846553
 31
0.0
  0
LINE
  5
2A04F
330
1F
100
AcDbEntity
  8
実線
370
     0
100
AcDbLine
 10
323.7297253174071
 20
177.7394118988538
 30
0.0
 11
324.0548827941367
 21
177.9878893578251
 31
0.0
  0
LINE
  5
2A050
330
1F
100
AcDbEntity
  8
実線
370
     0
100
AcDbLine
 10
322.4113893376052
 20
177.7394118988538
 30
0.0
 11
322.1242595127101
 21
177.8605429586651
 31
0.0
  0
LINE
  5
2A051
330
1F
100
AcDbEntity
  8
実線
370
     0
100
AcDbLine
 10
322.3987738947187
 20
177.6206783187464
 30
0.0
 11
322.113108552026
 21
177.7555927404617
 31
0.0
  0
LINE
  5
2A052
330
1F
100
AcDbEntity
  8
実線
370
     0
100
AcDbLine
 10
322.0619055093039
 20
174.4501523383719
 30
0.0
 11
321.7561647645262
 21
174.3961217992876
 31
0.0
  0
LINE
  5
2A053
330
1F
100
AcDbEntity
  8
実線
370
     0
100
AcDbLine
 10
322.0724710392096
 20
174.5495926198368
 30
0.0
 11
321.7667302944318
 21
174.4955620807524
 31
0.0
  0
LINE
  5
2A054
330
1F
100
AcDbEntity
  8
実線
370
     0
100
AcDbLine
 10
323.4724710392095
 20
174.5495926198368
 30
0.0
 11
323.5383885995704
 21
174.0394118988538
 31
0.0
  0
LINE
  5
2A055
330
1F
100
AcDbEntity
  8
実線
370
     0
100
AcDbLine
 10
323.3994459656184
 20
174.3394118988538
 30
0.0
 11
323.4382072658693
 21
174.0394118988538
 31
0.0
  0
LINE
  5
2A056
330
1F
100
AcDbEntity
  8
実線
370
     0
100
AcDbLine
 10
322.091389337605
 20
176.1394118988538
 30
0.0
 11
322.2572376324635
 21
176.2885723210511
 31
0.0
  0
LINE
  5
2A057
330
1F
100
AcDbEntity
  8
実線
370
     0
100
AcDbLine
 10
322.091389337605
 20
176.1394118988538
 30
0.0
 11
321.9572376324636
 21
176.2885723210511
 31
0.0
  0
LINE
  5
2A058
330
1F
100
AcDbEntity
  8
実線
370
     0
100
AcDbLine
 10
321.9042910427467
 20
175.7902514766565
 30
0.0
 11
322.0701393376052
 21
175.9394118988538
 31
0.0
  0
LINE
  5
2A059
330
1F
100
AcDbEntity
  8
実線
370
     0
100
AcDbLine
 10
322.2042910427467
 20
175.7902514766566
 30
0.0
 11
322.0701393376052
 21
175.9394118988538
 31
0.0
  0
LINE
  5
2A05A
330
1F
100
AcDbEntity
  8
実線
370
     0
100
AcDbLine
 10
323.7860768376052
 20
176.1394118988538
 30
0.0
 11
323.9577989262398
 21
176.293855086004
 31
0.0
  0
LINE
  5
2A05B
330
1F
100
AcDbEntity
  8
実線
370
     0
100
AcDbLine
 10
323.7860768376052
 20
176.1394118988538
 30
0.0
 11
323.6566763386873
 21
176.2832895560983
 31
0.0
  0
LINE
  5
2A05C
330
1F
100
AcDbEntity
  8
実線
370
     0
100
AcDbLine
 10
323.604852336523
 20
175.7955342416094
 30
0.0
 11
323.7648268376052
 21
175.9394118988538
 31
0.0
  0
LINE
  5
2A05D
330
1F
100
AcDbEntity
  8
実線
370
     0
100
AcDbLine
 10
323.9037297489704
 20
175.7849687117038
 30
0.0
 11
323.7648268376052
 21
175.9394118988538
 31
0.0
  0
LINE
  5
2A05E
330
1F
100
AcDbEntity
  8
実線
370
     0
100
AcDbLine
 10
322.1214247957914
 20
176.0319304649329
 30
0.0
 11
322.2965250462662
 21
176.1894118988538
 31
0.0
  0
LINE
  5
2A05F
330
1F
100
AcDbEntity
  8
実線
370
     0
100
AcDbLine
 10
322.2496029570771
 20
175.8894118988538
 30
0.0
 11
322.1214247957914
 21
176.0319304649329
 31
0.0
  0
LINE
  5
2A060
330
1F
100
AcDbEntity
  8
実線
370
     0
100
AcDbLine
 10
323.5596911289441
 20
175.8894118988538
 30
0.0
 11
323.7347913794188
 21
176.0468933327747
 31
0.0
  0
LINE
  5
2A061
330
1F
100
AcDbEntity
  8
実線
370
     0
100
AcDbLine
 10
323.7347913794188
 20
176.0468933327747
 30
0.0
 11
323.6066132181331
 21
176.1894118988538
 31
0.0
  0
LINE
  5
2A062
330
1F
100
AcDbEntity
  8
実線
370
     0
100
AcDbLine
 10
323.6066132181331
 20
176.1894118988538
 30
0.0
 11
322.2965250462662
 21
176.1894118988538
 31
0.0
  0
LINE
  5
2A063
330
1F
100
AcDbEntity
  8
実線
370
     0
100
AcDbLine
 10
323.5596911289441
 20
175.8894118988538
 30
0.0
 11
322.2496029570771
 21
175.8894118988538
 31
0.0
  0
LWPOLYLINE
  5
2A064
330
1F
100
AcDbEntity
  8
実線
100
AcDbPolyline
 90
        4
 70
     1
 43
0.0
 10
284.2376627751594
 20
172.0122646968833
 10
305.2376627751594
 20
172.0122646968833
 10
305.2376627751594
 20
170.9832751708093
 10
284.2376627751594
 20
170.9832751708093
  0
HATCH
  5
2A065
330
1F
100
AcDbEntity
  8
実線
100
AcDbHatch
 10
0.0
 20
0.0
 30
0.0
210
0.0
220
0.0
230
1.0
  2
ANSI31
 70
     0
 71
     1
 91
        1
 92
        7
 72
     0
 73
     1
 93
        4
 10
328.2376627751594
 20
170.9832751708093
 10
328.2376627751594
 20
172.0122646968833
 10
307.2376627751594
 20
172.0122646968833
 10
307.2376627751594
 20
170.9832751708093
 97
        1
330
2A066
 75
     0
 76
     1
 52
0.0
 41
0.25
 77
     0
 78
     1
 53
45.0
 43
219.7029468536989
 44
78.4451849880941
 45
-0.5612660075668221
 46
0.5612660075668221
 79
     0
 47
0.125688400356518
 98
        1
 10
319.65280534463
 20
171.4791501474702
1001
ACAD
1010
0.0
1020
0.0
1030
0.0
  0
LWPOLYLINE
  5
2A066
102
{ACAD_REACTORS
330
2A065
102
}
330
1F
100
AcDbEntity
  8
実線
100
AcDbPolyline
 90
        4
 70
     1
 43
0.0
 10
307.2376627751594
 20
172.0122646968833
 10
328.2376627751594
 20
172.0122646968833
 10
328.2376627751594
 20
170.9832751708093
 10
307.2376627751594
 20
170.9832751708093
  0
HATCH
  5
2A067
330
1F
100
AcDbEntity
  8
実線
370
     9
100
AcDbHatch
 10
0.0
 20
0.0
 30
0.0
210
0.0
220
0.0
230
1.0
  2
SOLID
 70
     1
 71
     0
 91
        6
 92
        7
 72
     0
 73
     1
 93
        7
 10
293.514557083374
 20
166.4086995361369
 10
293.514557083374
 20
167.170462879524
 10
290.5505570833741
 20
165.0950477362705
 10
290.5505570833741
 20
165.7685167688439
 10
289.926557083374
 20
165.7685167688439
 10
289.926557083374
 20
164.442516768844
 10
290.706557083374
 20
164.442516768844
 97
        0
 92
        7
 72
     0
 73
     1
 93
        7
 10
294.1385570833741
 20
167.170462879524
 10
294.1385570833741
 20
166.4086995361369
 10
296.946557083374
 20
164.442516768844
 10
297.726557083374
 20
164.442516768844
 10
297.726557083374
 20
165.7685167688439
 10
297.102557083374
 20
165.7685167688439
 10
297.102557083374
 20
165.0950477362705
 97
        0
 92
        7
 72
     0
 73
     1
 93
        7
 10
297.102557083374
 20
163.7899858014175
 10
297.102557083374
 20
163.116516768844
 10
297.726557083374
 20
163.116516768844
 10
297.726557083374
 20
164.442516768844
 10
296.946557083374
 20
164.442516768844
 10
294.1385570833741
 20
162.4763340015511
 10
294.1385570833741
 20
161.714570658164
 97
        0
 92
        7
 72
     0
 73
     1
 93
        7
 10
290.706557083374
 20
164.442516768844
 10
289.926557083374
 20
164.442516768844
 10
289.926557083374
 20
163.116516768844
 10
290.5505570833741
 20
163.116516768844
 10
290.5505570833741
 20
163.7899858014175
 10
293.514557083374
 20
161.714570658164
 10
293.514557083374
 20
162.4763340015511
 97
        0
 92
        7
 72
     1
 73
     1
 93
        8
 10
293.3585570833741
 20
163.8185167688439
 42
0.0
 10
293.3585570833741
 20
164.442516768844
 42
0.0
 10
292.890557083374
 20
164.442516768844
 42
0.0
 10
292.890557083374
 20
163.8185167688439
 42
1.0
 10
294.7625570833741
 20
163.8185167688439
 42
0.0
 10
294.7625570833741
 20
164.442516768844
 42
0.0
 10
294.294557083374
 20
164.442516768844
 42
0.0
 10
294.294557083374
 20
163.8185167688439
 42
-1.0
 97
        0
 92
        7
 72
     1
 73
     1
 93
        8
 10
294.294557083374
 20
165.066516768844
 42
0.0
 10
294.294557083374
 20
164.442516768844
 42
0.0
 10
294.7625570833741
 20
164.442516768844
 42
0.0
 10
294.7625570833741
 20
165.066516768844
 42
1.0
 10
292.890557083374
 20
165.066516768844
 42
0.0
 10
292.8905570833741
 20
164.442516768844
 42
0.0
 10
293.3585570833741
 20
164.442516768844
 42
0.0
 10
293.3585570833741
 20
165.066516768844
 42
-1.0
 97
        0
 75
     0
 76
     1
 47
0.0198786333863674
 98
        6
 10
290.4145334568621
 20
164.8791384559124
 10
295.0183162483247
 20
166.2746185302097
 10
296.1821942043759
 20
163.5353427614489
 10
292.5871046784185
 20
162.7859183444664
 10
293.2337035428915
 20
163.7679229253971
 10
293.2854317730736
 20
165.1892451896114
450
        0
451
        0
460
0.0
461
0.0
452
        0
462
0.0
453
        0
470

  0
TEXT
  5
2A068
330
1F
100
AcDbEntity
  8
文字
370
    13
100
AcDbText
 10
300.4984730698765
 20
162.1562257795836
 30
0.0
 40
2.299999999999998
  1
R =
 41
0.8
  7
ｽﾀｲﾙ1
 72
     1
 11
303.1095206889241
 21
163.3062257795836
 31
0.0
100
AcDbText
 73
     2
  0
TEXT
  5
2A069
330
1F
100
AcDbEntity
  8
文字
370
    13
100
AcDbText
 10
299.8422758781521
 20
165.016404600729
 30
0.0
 40
2.299999999999998
  1
Q3=
 41
0.8
  7
ｽﾀｲﾙ1
 72
     1
 11
302.7775139733902
 21
166.166404600729
 31
0.0
100
AcDbText
 73
     2
  0
TEXT
  5
2A06A
330
1F
100
AcDbEntity
  8
文字
370
    13
100
AcDbText
 10
305.2841577701356
 20
155.4545727558556
 30
0.0
 40
2.299999999999998
  1
H
 41
0.8
  7
ｽﾀｲﾙ1
 72
     1
 11
306.2479672939451
 21
156.6045727558556
 31
0.0
100
AcDbText
 73
     2
  0
TEXT
  5
2A06B
330
1F
100
AcDbEntity
  8
文字
370
    13
100
AcDbText
 10
284.4496945572825
 20
168.1394637384075
 30
0.0
 40
2.299999999999998
  1
瞬時流量は検定外
 41
0.8
  7
ｽﾀｲﾙ1
 72
     1
 11
293.0363612239491
 21
169.2894637384075
 31
0.0
100
AcDbText
 73
     2
  0
LINE
  5
2A06C
330
1F
100
AcDbEntity
  8
実線
370
     0
100
AcDbLine
 10
313.0182643376052
 20
174.0394118988538
 30
0.0
 11
314.4382072658693
 21
174.0394118988538
 31
0.0
  0
LINE
  5
2A06D
330
1F
100
AcDbEntity
  8
実線
370
     0
100
AcDbLine
 10
317.5182643376051
 20
174.0394118988538
 30
0.0
 11
318.9382072658693
 21
174.0394118988538
 31
0.0
  0
LINE
  5
2A06E
330
1F
100
AcDbEntity
  8
実線
370
     0
100
AcDbLine
 10
322.0182643376052
 20
174.0394118988538
 30
0.0
 11
323.4382072658693
 21
174.0394118988538
 31
0.0
  0
MTEXT
  5
2A06F
330
1F
100
AcDbEntity
  8
文字
100
AcDbMText
 10
303.4480434688699
 20
170.6220774510668
 30
0.0
 40
2.299999999999998
 41
2.583
 46
0.0
 71
     1
 72
     1
  1
㎥
  7
スタイル1
 73
     1
 44
1.0
  0
TEXT
  5
2A070
330
1F
100
AcDbEntity
  8
文字
370
    13
100
AcDbText
 10
306.3931999816752
 20
165.0190569398919
 30
0.0
 40
2.299999999999998
  1
2.5
 41
0.8
  7
ｽﾀｲﾙ1
 72
     1
 11
308.5836761721514
 21
166.1690569398919
 31
0.0
100
AcDbText
 73
     2
  0
TEXT
  5
2A071
330
1F
100
AcDbEntity
  8
文字
370
    13
100
AcDbText
 10
305.8236761721514
 20
162.0176983359138
 30
0.0
 40
2.299999999999998
  1
100
 41
0.8
  7
ｽﾀｲﾙ1
 72
     1
 11
308.5836761721514
 21
163.1676983359138
 31
0.0
100
AcDbText
 73
     2
  0
TEXT
  5
2A072
330
1F
100
AcDbEntity
  8
文字
370
    13
100
AcDbText
 10
303.3249454812266
 20
159.0921298103849
 30
0.0
 40
2.299999999999998
  1
129
 41
0.8
  7
ｽﾀｲﾙ1
 72
     1
 11
306.0411359574171
 21
160.2421298103849
 31
0.0
100
AcDbText
 73
     2
  0
LINE
  5
2A075
330
1F
100
AcDbEntity
  8
一点鎖線
100
AcDbLine
 10
123.9392269396992
 20
260.6861478895034
 30
0.0
 11
123.9392269396992
 21
161.086759477313
 31
0.0
  0
LINE
  5
2A076
330
1F
100
AcDbEntity
  8
一点鎖線
100
AcDbLine
 10
123.939226939699
 20
163.8019609865876
 30
0.0000000000000068
 11
123.9392269396992
 21
26.354457747324
 31
0.0
  0
LINE
  5
2A07B
330
1F
100
AcDbEntity
  8
一点鎖線
100
AcDbLine
 10
65.16307263599504
 20
209.8430035945977
 30
0.0
 11
183.0630503772177
 21
209.8430035945977
 31
0.0
  0
LINE
  5
2A0A4
330
1F
100
AcDbEntity
  8
実線
100
AcDbLine
 10
86.39038973048343
 20
90.37191439836156
 30
0.0
 11
86.39038973048343
 21
90.37191439836156
 31
0.0
  0
LINE
  5
2A0A5
330
1F
100
AcDbEntity
  8
実線
100
AcDbLine
 10
86.39038973048343
 20
90.37191439836156
 30
0.0
 11
87.4334129862949
 21
90.37191439836156
 31
0.0
  0
LINE
  5
2A0A6
330
1F
100
AcDbEntity
  8
実線
100
AcDbLine
 10
87.22480833513259
 20
90.37191439836156
 30
0.0
 11
87.22480833513259
 21
90.37191439836156
 31
0.0
  0
LINE
  5
2A0A7
330
1F
100
AcDbEntity
  8
実線
100
AcDbLine
 10
160.6536455442657
 20
90.37191439836156
 30
0.0
 11
160.6536455442657
 21
90.37191439836156
 31
0.0
  0
LINE
  5
2A0A8
330
1F
100
AcDbEntity
  8
実線
100
AcDbLine
 10
161.4880641489149
 20
90.37191439836156
 30
0.0
 11
161.4880641489149
 21
90.37191439836156
 31
0.0
  0
LINE
  5
2A0A9
330
1F
100
AcDbEntity
  8
実線
100
AcDbLine
 10
161.4880641489149
 20
90.37191439836156
 30
0.0
 11
160.4450408931035
 21
90.37191439836156
 31
0.0
  0
LINE
  5
2A0AA
330
1F
100
AcDbEntity
  8
実線
100
AcDbLine
 10
84.8258548467661
 20
90.37191439836156
 30
0.0
 11
163.0525990326321
 21
90.37191439836156
 31
0.0
  0
LINE
  5
2A0AB
330
1F
100
AcDbEntity
  8
実線
100
AcDbLine
 10
84.8258548467661
 20
113.7482272851024
 30
0.0000000000000064
 11
162.5310874047265
 21
113.7482272851024
 31
0.0000000000000064
  0
LINE
  5
2A0AC
330
1F
100
AcDbEntity
  8
実線
100
AcDbLine
 10
162.5310874047265
 20
113.7482272851024
 30
0.0000000000000064
 11
163.0525990326323
 21
113.7482272851024
 31
0.0000000000000064
  0
LINE
  5
2A0AD
330
1F
100
AcDbEntity
  8
実線
100
AcDbLine
 10
164.0956222884439
 20
91.62354230533544
 30
0.0
 11
164.0956222884439
 21
91.41493765417314
 31
0.0
  0
LINE
  5
2A0AE
330
1F
100
AcDbEntity
  8
実線
100
AcDbLine
 10
83.78283159095451
 20
91.41493765417314
 30
0.0
 11
83.78283159095451
 21
91.41493765417314
 31
0.0
  0
LINE
  5
2A0B0
330
1F
100
AcDbEntity
  8
実線
100
AcDbLine
 10
164.0956222884439
 20
91.41493765417314
 30
0.0
 11
164.0956222884438
 21
91.41493765417314
 31
0.0
  0
ARC
  5
2A0B1
330
1F
100
AcDbEntity
  8
実線
100
AcDbCircle
 10
84.8258548467661
 20
112.7052040292909
 30
0.0000000000000064
 40
1.043023255811549
100
AcDbArc
 50
90.0
 51
180.0
  0
ARC
  5
2A0B3
330
1F
100
AcDbEntity
  8
実線
100
AcDbCircle
 10
163.0525990326323
 20
112.7052040292909
 30
0.0000000000000064
 40
1.043023255811549
100
AcDbArc
 50
0.0
 51
90.0
  0
ARC
  5
2A0B4
330
1F
100
AcDbEntity
  8
実線
100
AcDbCircle
 10
163.0525990326321
 20
91.41493765417314
 30
0.0
 40
1.043023255811549
100
AcDbArc
 50
270.0
 51
0.0
  0
LINE
  5
2A0B5
330
1F
100
AcDbEntity
  8
実線
100
AcDbLine
 10
164.0956222884438
 20
91.41493765417314
 30
0.0
 11
164.0956222884439
 21
112.7052040292909
 31
0.0000000000000064
  0
ARC
  5
2A0B6
330
1F
100
AcDbEntity
  8
実線
100
AcDbCircle
 10
84.8258548467661
 20
91.41493765417314
 30
0.0
 40
1.043023255811549
100
AcDbArc
 50
180.0
 51
270.0
  0
LINE
  5
2A0B7
330
1F
100
AcDbEntity
  8
実線
100
AcDbLine
 10
83.78283159095451
 20
112.7052040292909
 30
0.0000000000000064
 11
83.78283159095451
 21
91.41493765417314
 31
0.0
  0
LINE
  5
2A0B8
330
1F
100
AcDbEntity
  8
実線
100
AcDbLine
 10
120.9392269396991
 20
104.3719143983615
 30
0.0
 11
120.9392269396992
 21
92.37191439836157
 31
0.0
  0
LINE
  5
2A0B9
330
1F
100
AcDbEntity
  8
実線
100
AcDbLine
 10
126.9392269396992
 20
92.37191439836157
 30
0.0
 11
120.9392269396992
 21
92.37191439836157
 31
0.0
  0
LINE
  5
2A0BA
330
1F
100
AcDbEntity
  8
実線
100
AcDbLine
 10
126.9392269396989
 20
104.3719143983615
 30
0.0
 11
120.9392269396991
 21
104.3719143983615
 31
0.0
  0
LINE
  5
2A0BB
330
1F
100
AcDbEntity
  8
実線
100
AcDbLine
 10
126.9392269396992
 20
92.37191439836157
 30
0.0
 11
126.9392269396989
 21
104.3719143983615
 31
0.0
  0
LINE
  5
2A0BC
330
1F
100
AcDbEntity
  8
実線
100
AcDbLine
 10
86.39038973048343
 20
90.37191439836156
 30
0.0
 11
161.4880641489149
 21
90.37191439836156
 31
0.0
  0
LINE
  5
2A0BD
330
1F
100
AcDbEntity
  8
実線
100
AcDbLine
 10
86.39038973048343
 20
90.37191439836156
 30
0.0
 11
87.4334129862949
 21
90.37191439836156
 31
0.0
  0
LINE
  5
2A0C4
330
1F
100
AcDbEntity
  8
実線
100
AcDbLine
 10
160.8818625985288
 20
113.7482272851024
 30
0.0000000000000064
 11
161.3810874047292
 21
113.7482272851024
 31
0.0000000000000064
  0
LINE
  5
2A0D7
330
1F
100
AcDbEntity
  8
実線
100
AcDbLine
 10
164.0956222884439
 20
91.62354230533544
 30
0.0
 11
164.0956222884439
 21
91.41493765417314
 31
0.0
  0
LINE
  5
2A0D8
330
1F
100
AcDbEntity
  8
実線
100
AcDbLine
 10
83.78283159095451
 20
91.41493765417314
 30
0.0
 11
83.78283159095451
 21
91.41493765417314
 31
0.0
  0
LINE
  5
2A0D9
330
1F
100
AcDbEntity
  8
実線
100
AcDbLine
 10
164.0956222884439
 20
91.41493765417314
 30
0.0
 11
164.0956222884438
 21
91.41493765417314
 31
0.0
  0
ARC
  5
2A0DA
330
1F
100
AcDbEntity
  8
実線
100
AcDbCircle
 10
84.8258548467661
 20
112.7052040292909
 30
0.0000000000000064
 40
1.043023255811549
100
AcDbArc
 50
90.0
 51
180.0
  0
ARC
  5
2A0DB
330
1F
100
AcDbEntity
  8
実線
100
AcDbCircle
 10
84.8258548467661
 20
91.41493765417314
 30
0.0
 40
1.043023255811549
100
AcDbArc
 50
180.0
 51
270.0
  0
LINE
  5
2A0DC
330
1F
100
AcDbEntity
  8
実線
100
AcDbLine
 10
83.78283159095451
 20
112.7052040292909
 30
0.0000000000000064
 11
83.78283159095451
 21
91.41493765417314
 31
0.0
  0
LINE
  5
2A0DD
330
1F
100
AcDbEntity
  8
実線
100
AcDbLine
 10
77.52469205608531
 20
111.6621807734794
 30
0.0000000000000064
 11
80.65376182352009
 21
111.6621807734794
 31
0.0000000000000064
  0
LINE
  5
2A0DE
330
1F
100
AcDbEntity
  8
実線
100
AcDbLine
 10
77.52469205608531
 20
92.45796090998473
 30
0.0
 11
80.65376182352009
 21
92.45796090998473
 31
0.0
  0
LINE
  5
2A0DF
330
1F
100
AcDbEntity
  8
実線
100
AcDbLine
 10
77.52469205608531
 20
111.6621807734794
 30
0.0000000000000064
 11
77.52469205608531
 21
92.45796090998473
 31
0.0
  0
LINE
  5
2A0E0
330
1F
100
AcDbEntity
  8
実線
100
AcDbLine
 10
83.78283159095451
 20
92.45796090998473
 30
0.0
 11
80.65376182352009
 21
92.45796090998473
 31
0.0
  0
LINE
  5
2A0E1
330
1F
100
AcDbEntity
  8
実線
100
AcDbLine
 10
83.78283159095451
 20
111.6621807734794
 30
0.0000000000000064
 11
80.65376182352009
 21
111.6621807734794
 31
0.0000000000000064
  0
LINE
  5
2A0E2
330
1F
100
AcDbEntity
  8
実線
100
AcDbLine
 10
83.78283159095451
 20
92.45796090998473
 30
0.0
 11
83.78283159095451
 21
111.6621807734794
 31
0.0000000000000064
  0
LINE
  5
2A0E3
330
1F
100
AcDbEntity
  8
実線
100
AcDbLine
 10
164.1007276543264
 20
111.6621807734794
 30
0.0000000000000064
 11
167.2297974217612
 21
111.6621807734794
 31
0.0000000000000064
  0
LINE
  5
2A0E4
330
1F
100
AcDbEntity
  8
実線
100
AcDbLine
 10
164.1007276543264
 20
92.45796090998473
 30
0.0
 11
167.2297974217612
 21
92.45796090998473
 31
0.0
  0
LINE
  5
2A0E5
330
1F
100
AcDbEntity
  8
実線
100
AcDbLine
 10
164.1007276543264
 20
111.6621807734794
 30
0.0000000000000064
 11
164.1007276543264
 21
92.45796090998473
 31
0.0
  0
LINE
  5
2A0E6
330
1F
100
AcDbEntity
  8
実線
100
AcDbLine
 10
170.3588671891958
 20
92.45796090998473
 30
0.0
 11
167.2297974217612
 21
92.45796090998473
 31
0.0
  0
LINE
  5
2A0E7
330
1F
100
AcDbEntity
  8
実線
100
AcDbLine
 10
170.3588671891957
 20
111.6621807734794
 30
0.0000000000000064
 11
167.2297974217612
 21
111.6621807734794
 31
0.0000000000000064
  0
LINE
  5
2A0E8
330
1F
100
AcDbEntity
  8
実線
100
AcDbLine
 10
170.3588671891958
 20
92.45796090998473
 30
0.0
 11
170.3588671891957
 21
111.6621807734794
 31
0.0000000000000064
  0
LINE
  5
2A0E9
330
1F
100
AcDbEntity
  8
実線
100
AcDbLine
 10
100.85808285073
 20
33.46890858043517
 30
0.0
 11
123.9392269396992
 21
33.46890858043517
 31
0.0
  0
LINE
  5
2A0EA
330
1F
100
AcDbEntity
  8
実線
100
AcDbLine
 10
91.98883934287369
 20
85.38828842527678
 30
0.0
 11
91.98883934287369
 21
67.91542020826281
 31
0.0
  0
LINE
  5
2A0EB
330
1F
100
AcDbEntity
  8
実線
100
AcDbLine
 10
98.1606165539047
 20
35.16203230882535
 30
0.0
 11
92.80620941864823
 21
46.25330423185661
 31
0.0
  0
ARC
  5
2A0EC
330
1F
100
AcDbEntity
  8
実線
100
AcDbCircle
 10
88.99349050567128
 20
67.91542020826281
 30
0.0
 40
2.995348837202399
100
AcDbArc
 50
270.0
 51
0.0
  0
ARC
  5
2A0ED
330
1F
100
AcDbEntity
  8
実線
100
AcDbCircle
 10
100.85808285073
 20
36.4642574176376
 30
0.0
 40
2.995348837202399
100
AcDbArc
 50
205.7693276243382
 51
270.0
  0
LINE
  5
2A0EE
330
1F
100
AcDbEntity
  8
実線
100
AcDbLine
 10
94.57394553269578
 20
45.94952873544515
 30
0.0
 11
110.4601571722885
 21
45.94952873544515
 31
0.0
  0
ARC
  5
2A0EF
330
1F
100
AcDbEntity
  8
実線
100
AcDbCircle
 10
94.57394553269578
 20
48.94487757264759
 30
0.0
 40
2.995348837202399
100
AcDbArc
 50
221.810314895779
 51
270.0
  0
LINE
  5
2A0F0
330
1F
100
AcDbEntity
  8
実線
100
AcDbLine
 10
115.4524052342925
 20
40.9572806734412
 30
0.0
 11
115.4524052342925
 21
39.3198233091039
 31
0.0
  0
LINE
  5
2A0F1
330
1F
100
AcDbEntity
  8
実線
100
AcDbLine
 10
87.99504089327035
 20
88.38363726247919
 30
0.0
 11
87.99504089327035
 21
88.38363726247919
 31
0.0
  0
LINE
  5
2A0F2
330
1F
100
AcDbEntity
  8
実線
100
AcDbLine
 10
87.99504089327035
 20
88.38363726247919
 30
0.0
 11
88.99349050567128
 21
88.38363726247919
 31
0.0
  0
ARC
  5
2A0F3
330
1F
100
AcDbEntity
  8
実線
100
AcDbCircle
 10
88.99349050567128
 20
85.38828842527678
 30
0.0
 40
2.995348837202399
100
AcDbArc
 50
0.0
 51
90.0
  0
LINE
  5
2A0F4
330
1F
100
AcDbEntity
  8
実線
100
AcDbLine
 10
88.79380058319112
 20
88.38363726247919
 30
0.0
 11
88.79380058319112
 21
88.38363726247919
 31
0.0
  0
ARC
  5
2A0F5
330
1F
100
AcDbEntity
  8
実線
100
AcDbCircle
 10
110.4601571722885
 20
40.9572806734412
 30
0.0
 40
4.992248062004
100
AcDbArc
 50
0.0
 51
90.0
  0
LINE
  5
2A0F6
330
1F
100
AcDbEntity
  8
実線
100
AcDbLine
 10
147.0203710286684
 20
33.46890858043517
 30
0.0
 11
123.9392269396992
 21
33.46890858043517
 31
0.0
  0
LINE
  5
2A0F7
330
1F
100
AcDbEntity
  8
実線
100
AcDbLine
 10
153.3045083467026
 20
45.94952873544515
 30
0.0
 11
137.41829670711
 21
45.94952873544515
 31
0.0
  0
LINE
  5
2A0F8
330
1F
100
AcDbEntity
  8
実線
100
AcDbLine
 10
149.7178373254938
 20
35.16203230882535
 30
0.0
 11
155.0722444607503
 21
46.25330423185661
 31
0.0
  0
ARC
  5
2A0F9
330
1F
100
AcDbEntity
  8
実線
100
AcDbCircle
 10
147.0203710286684
 20
36.4642574176376
 30
0.0
 40
2.995348837202399
100
AcDbArc
 50
270.0
 51
334.2306723756617
  0
ARC
  5
2A0FA
330
1F
100
AcDbEntity
  8
実線
100
AcDbCircle
 10
153.3045083467026
 20
48.94487757264759
 30
0.0
 40
2.995348837202399
100
AcDbArc
 50
270.0
 51
318.1896851042209
  0
LINE
  5
2A0FB
330
1F
100
AcDbEntity
  8
実線
100
AcDbLine
 10
132.426048645106
 20
40.9572806734412
 30
0.0
 11
132.426048645106
 21
39.3198233091039
 31
0.0
  0
ARC
  5
2A0FC
330
1F
100
AcDbEntity
  8
実線
100
AcDbCircle
 10
137.41829670711
 20
40.9572806734412
 30
0.0
 40
4.992248062004
100
AcDbArc
 50
90.0
 51
180.0
  0
LINE
  5
2A0FD
330
1F
100
AcDbEntity
  8
実線
100
AcDbLine
 10
159.0846532962073
 20
88.38363726247919
 30
0.0
 11
159.0846532962073
 21
88.38363726247919
 31
0.0
  0
LINE
  5
2A0FE
330
1F
100
AcDbEntity
  8
実線
100
AcDbLine
 10
159.883412986128
 20
88.38363726247919
 30
0.0
 11
159.883412986128
 21
88.38363726247919
 31
0.0
  0
LINE
  5
2A0FF
330
1F
100
AcDbEntity
  8
実線
100
AcDbLine
 10
155.8896145365248
 20
85.38828842527678
 30
0.0
 11
155.8896145365248
 21
67.91542020826281
 31
0.0
  0
ARC
  5
2A100
330
1F
100
AcDbEntity
  8
実線
100
AcDbCircle
 10
158.8849633737271
 20
85.38828842527678
 30
0.0
 40
2.995348837202399
100
AcDbArc
 50
90.0
 51
180.0
  0
LINE
  5
2A101
330
1F
100
AcDbEntity
  8
実線
100
AcDbLine
 10
159.883412986128
 20
88.38363726247919
 30
0.0
 11
158.8849633737271
 21
88.38363726247919
 31
0.0
  0
ARC
  5
2A102
330
1F
100
AcDbEntity
  8
実線
100
AcDbCircle
 10
118.4477540714948
 20
39.3198233091039
 30
0.0
 40
2.995348837202399
100
AcDbArc
 50
180.0
 51
242.525568373724
  0
ARC
  5
2A103
330
1F
100
AcDbEntity
  8
実線
100
AcDbCircle
 10
129.4306998079037
 20
39.3198233091039
 30
0.0
 40
2.995348837202399
100
AcDbArc
 50
297.4744316262759
 51
0.0
  0
LINE
  5
2A104
330
1F
100
AcDbEntity
  8
実線
100
AcDbLine
 10
86.49736647466921
 20
88.38363726247919
 30
0.0
 11
161.3810874047291
 21
88.38363726247919
 31
0.0
  0
LINE
  5
2A105
330
1F
100
AcDbEntity
  8
実線
100
AcDbLine
 10
162.37953701713
 20
89.58177679736019
 30
0.0
 11
162.37953701713
 21
89.38208687488
 31
0.0
  0
LINE
  5
2A106
330
1F
100
AcDbEntity
  8
実線
100
AcDbLine
 10
85.49891686226841
 20
89.38208687488
 30
0.0
 11
85.49891686226841
 21
89.38208687488
 31
0.0
  0
LINE
  5
2A107
330
1F
100
AcDbEntity
  8
実線
100
AcDbLine
 10
162.37953701713
 20
89.38208687488
 30
0.0
 11
162.37953701713
 21
89.38208687488
 31
0.0
  0
ARC
  5
2A108
330
1F
100
AcDbEntity
  8
実線
100
AcDbCircle
 10
161.3810874047291
 20
89.38208687488
 30
0.0
 40
0.9984496124008
100
AcDbArc
 50
270.0
 51
0.0
  0
ARC
  5
2A109
330
1F
100
AcDbEntity
  8
実線
100
AcDbCircle
 10
163.3779866295308
 20
89.38208687488
 30
0.0
 40
0.9984496124008
100
AcDbArc
 50
90.0
 51
180.0
  0
ARC
  5
2A10A
330
1F
100
AcDbEntity
  8
実線
100
AcDbCircle
 10
86.49736647466921
 20
89.38208687488
 30
0.0
 40
0.9984496124008
100
AcDbArc
 50
180.0
 51
270.0
  0
ARC
  5
2A10B
330
1F
100
AcDbEntity
  8
実線
100
AcDbCircle
 10
84.50046724986771
 20
89.38208687488
 30
0.0
 40
0.9984496124008
100
AcDbArc
 50
0.0
 51
90.0
  0
LINE
  5
2A10C
330
1F
100
AcDbEntity
  8
実線
100
AcDbLine
 10
133.3246532962667
 20
59.42859850285612
 30
0.0
 11
140.3138005830724
 21
56.43324966565362
 31
0.0
  0
LINE
  5
2A10D
330
1F
100
AcDbEntity
  8
実線
100
AcDbLine
 10
133.3246532962667
 20
53.43790082845121
 30
0.0
 11
140.3138005830724
 21
56.43324966565362
 31
0.0
  0
LINE
  5
2A10E
330
1F
100
AcDbEntity
  8
実線
100
AcDbLine
 10
106.3665137614451
 20
53.43790082845129
 30
0.0
 11
108.3634129862467
 21
55.4348000532529
 31
0.0
  0
LINE
  5
2A10F
330
1F
100
AcDbEntity
  8
実線
100
AcDbLine
 10
124.3386067846595
 20
53.43790082845121
 30
0.0
 11
126.3355060094611
 21
55.43480005325282
 31
0.0
  0
LINE
  5
2A110
330
1F
100
AcDbEntity
  8
実線
100
AcDbLine
 10
133.3246532962667
 20
55.43480005325282
 30
0.0
 11
133.3246532962667
 21
53.43790082845121
 31
0.0
  0
LINE
  5
2A111
330
1F
100
AcDbEntity
  8
実線
100
AcDbLine
 10
106.3665137614451
 20
59.42859850285612
 30
0.0
 11
124.3386067846595
 21
59.42859850285596
 31
0.0
  0
LINE
  5
2A112
330
1F
100
AcDbEntity
  8
実線
100
AcDbLine
 10
106.3665137614451
 20
57.43169927805436
 30
0.0
 11
133.3246532962667
 21
57.43169927805436
 31
0.0
  0
LINE
  5
2A113
330
1F
100
AcDbEntity
  8
実線
100
AcDbLine
 10
106.3665137614451
 20
55.4348000532529
 30
0.0
 11
133.3246532962667
 21
55.43480005325282
 31
0.0
  0
LINE
  5
2A114
330
1F
100
AcDbEntity
  8
実線
100
AcDbLine
 10
133.3246532962667
 20
57.43169927805436
 30
0.0
 11
133.3246532962667
 21
59.42859850285612
 31
0.0
  0
LINE
  5
2A115
330
1F
100
AcDbEntity
  8
実線
100
AcDbLine
 10
124.3386067846595
 20
59.42859850285596
 30
0.0
 11
126.3355060094611
 21
57.43169927805436
 31
0.0
  0
LINE
  5
2A116
330
1F
100
AcDbEntity
  8
実線
100
AcDbLine
 10
106.3665137614451
 20
59.42859850285612
 30
0.0
 11
108.3634129862467
 21
57.4316992780545
 31
0.0
  0
LINE
  5
2A117
330
1F
100
AcDbEntity
  8
実線
100
AcDbLine
 10
106.3665137614451
 20
55.4348000532529
 30
0.0
 11
106.3665137614451
 21
57.43169927805436
 31
0.0
  0
LINE
  5
2A118
330
1F
100
AcDbEntity
  8
実線
100
AcDbLine
 10
106.3665137614451
 20
53.43790082845129
 30
0.0
 11
124.3386067846595
 21
53.43790082845121
 31
0.0
  0
LINE
  5
2A119
330
1F
100
AcDbEntity
  8
実線
100
AcDbLine
 10
87.99504089327035
 20
88.38363726247919
 30
0.0
 11
159.883412986128
 21
88.38363726247919
 31
0.0
  0
LINE
  5
2A11A
330
1F
100
AcDbEntity
  8
実線
100
AcDbLine
 10
87.99504089327035
 20
64.9200713710604
 30
0.0
 11
88.99349050567128
 21
64.9200713710604
 31
0.0
  0
LINE
  5
2A11B
330
1F
100
AcDbEntity
  8
実線
100
AcDbLine
 10
87.99504089327035
 20
64.92007137106035
 30
0.0
 11
88.99349050567128
 21
64.92007137106035
 31
0.0
  0
LINE
  5
2A11C
330
1F
100
AcDbEntity
  8
実線
100
AcDbLine
 10
91.98883934287369
 20
85.38828842527678
 30
0.0
 11
91.98883934287369
 21
67.91542020826276
 31
0.0
  0
ARC
  5
2A11D
330
1F
100
AcDbEntity
  8
実線
100
AcDbCircle
 10
88.99349050567128
 20
67.91542020826276
 30
0.0
 40
2.995348837202399
100
AcDbArc
 50
270.0
 51
0.0
  0
ARC
  5
2A11E
330
1F
100
AcDbEntity
  8
実線
100
AcDbCircle
 10
88.99349050567128
 20
85.38828842527678
 30
0.0
 40
2.995348837202399
100
AcDbArc
 50
0.0
 51
90.0
  0
LINE
  5
2A11F
330
1F
100
AcDbEntity
  8
実線
100
AcDbLine
 10
87.99504089327035
 20
88.38363726247919
 30
0.0
 11
88.99349050567128
 21
88.38363726247919
 31
0.0
  0
LINE
  5
2A120
330
1F
100
AcDbEntity
  8
実線
100
AcDbLine
 10
88.04542849024462
 20
47.94642796024787
 30
0.0
 11
90.10874312182286
 21
47.94642796024787
 31
0.0
  0
LINE
  5
2A121
330
1F
100
AcDbEntity
  8
実線
100
AcDbLine
 10
88.04542849024462
 20
64.92007137106146
 30
0.0
 11
88.99349050567137
 21
64.92007137106146
 31
0.0
  0
LINE
  5
2A122
330
1F
100
AcDbEntity
  8
実線
100
AcDbLine
 10
73.93922693969919
 20
67.81557524702378
 30
0.0
 11
75.43690135830025
 21
69.31324966562499
 31
0.0
  0
LINE
  5
2A123
330
1F
100
AcDbEntity
  8
実線
100
AcDbLine
 10
73.93922693969919
 20
45.05092408428557
 30
0.0
 11
75.43690135830025
 21
43.55324966568438
 31
0.0
  0
LINE
  5
2A124
330
1F
100
AcDbEntity
  8
実線
100
AcDbLine
 10
74.63814166837972
 20
68.51448997570426
 30
0.0
 11
85.05007965304219
 21
68.51448997570426
 31
0.0
  0
LINE
  5
2A125
330
1F
100
AcDbEntity
  8
実線
100
AcDbLine
 10
74.63814166837972
 20
44.35200935560499
 30
0.0
 11
85.05007965304219
 21
44.35200935560499
 31
0.0
  0
LINE
  5
2A126
102
{ACAD_REACTORS
330
2A15E
102
}
330
1F
100
AcDbEntity
  8
実線
100
AcDbLine
 10
73.93922693969919
 20
67.81557524702378
 30
0.0
 11
73.93922693969919
 21
45.05092408428557
 31
0.0
  0
ARC
  5
2A127
330
1F
100
AcDbEntity
  8
実線
100
AcDbCircle
 10
88.04542849024462
 20
44.95107912304547
 30
0.0
 40
2.995348837202399
100
AcDbArc
 50
90.0
 51
180.0
  0
LINE
  5
2A128
330
1F
100
AcDbEntity
  8
実線
100
AcDbLine
 10
75.43690135830025
 20
43.55324966568438
 30
0.0
 11
85.05007965304219
 21
43.55324966568438
 31
0.0
  0
LINE
  5
2A129
330
1F
100
AcDbEntity
  8
実線
100
AcDbLine
 10
85.05007965304219
 20
43.55324966568438
 30
0.0
 11
85.05007965304219
 21
44.95107912304547
 31
0.0
  0
LINE
  5
2A12A
330
1F
100
AcDbEntity
  8
実線
100
AcDbLine
 10
85.05007965304219
 20
69.31324966562499
 30
0.0
 11
85.05007965304219
 21
67.91542020826387
 31
0.0
  0
ARC
  5
2A12B
330
1F
100
AcDbEntity
  8
実線
100
AcDbCircle
 10
88.04542849024462
 20
67.91542020826387
 30
0.0
 40
2.995348837202399
100
AcDbArc
 50
180.0
 51
270.0
  0
LINE
  5
2A12C
330
1F
100
AcDbEntity
  8
実線
100
AcDbLine
 10
75.43690135830025
 20
69.31324966562499
 30
0.0
 11
85.05007965304219
 21
69.31324966562499
 31
0.0
  0
ARC
  5
2A12D
330
1F
100
AcDbEntity
  8
実線
100
AcDbCircle
 10
90.10874312182286
 20
44.95107912304547
 30
0.0
 40
2.995348837202399
100
AcDbArc
 50
25.76932762433834
 51
90.0
  0
ARC
  5
2A12E
330
1F
100
AcDbEntity
  8
実線
100
AcDbCircle
 10
88.99349050567137
 20
67.91542020826387
 30
0.0
 40
2.995348837202399
100
AcDbArc
 50
270.0
 51
0.0
  0
LINE
  5
2A12F
330
1F
100
AcDbEntity
  8
実線
100
AcDbLine
 10
159.8330253891541
 20
64.92007137106151
 30
0.0
 11
158.8849633737273
 21
64.92007137106146
 31
0.0
  0
LINE
  5
2A130
330
1F
100
AcDbEntity
  8
実線
100
AcDbLine
 10
159.8330253891541
 20
47.94642796024795
 30
0.0
 11
157.7697107575755
 21
47.94642796024787
 31
0.0
  0
ARC
  5
2A131
330
1F
100
AcDbEntity
  8
実線
100
AcDbCircle
 10
157.7697107575755
 20
44.95107912304547
 30
0.0
 40
2.995348837202399
100
AcDbArc
 50
90.0
 51
154.2306723756617
  0
ARC
  5
2A132
330
1F
100
AcDbEntity
  8
実線
100
AcDbCircle
 10
158.8849633737273
 20
67.91542020826387
 30
0.0
 40
2.995348837202399
100
AcDbArc
 50
180.0
 51
270.0
  0
LINE
  5
2A133
330
1F
100
AcDbEntity
  8
実線
100
AcDbLine
 10
173.9392269396992
 20
67.83557524705361
 30
0.0
 11
173.9392269396992
 21
45.030924084256
 31
0.0
  0
ARC
  5
2A134
330
1F
100
AcDbEntity
  8
実線
100
AcDbCircle
 10
159.8330253891541
 20
44.95107912304553
 30
0.0
 40
2.995348837202399
100
AcDbArc
 50
0.0
 51
90.0
  0
LINE
  5
2A135
330
1F
100
AcDbEntity
  8
実線
100
AcDbLine
 10
172.4415525210979
 20
43.53324966565481
 30
0.0
 11
162.8283742263566
 21
43.53324966565481
 31
0.0
  0
LINE
  5
2A136
330
1F
100
AcDbEntity
  8
実線
100
AcDbLine
 10
173.2403122110186
 20
44.33200935557541
 30
0.0
 11
162.8283742263566
 21
44.33200935557541
 31
0.0
  0
LINE
  5
2A137
330
1F
100
AcDbEntity
  8
実線
100
AcDbLine
 10
162.8283742263566
 20
43.55324966568443
 30
0.0
 11
162.8283742263566
 21
44.95107912304553
 31
0.0
  0
LINE
  5
2A138
102
{ACAD_REACTORS
330
2A15E
102
}
330
1F
100
AcDbEntity
  8
実線
100
AcDbLine
 10
173.9392269396992
 20
45.03092408425602
 30
0.0
 11
172.4415525210979
 21
43.53324966565481
 31
0.0
  0
LINE
  5
2A139
330
1F
100
AcDbEntity
  8
実線
100
AcDbLine
 10
162.8283742263566
 20
69.31324966562505
 30
0.0
 11
162.8283742263566
 21
67.91542020826392
 31
0.0
  0
LINE
  5
2A13A
330
1F
100
AcDbEntity
  8
実線
100
AcDbLine
 10
173.9392269396992
 20
67.83557524705364
 30
0.0
 11
172.4415525210979
 21
69.33324966565485
 31
0.0
  0
LINE
  5
2A13B
330
1F
100
AcDbEntity
  8
実線
100
AcDbLine
 10
173.2403122110184
 20
68.53448997573412
 30
0.0
 11
162.8283742263565
 21
68.53448997573412
 31
0.0
  0
ARC
  5
2A13C
330
1F
100
AcDbEntity
  8
実線
100
AcDbCircle
 10
159.8330253891541
 20
67.91542020826392
 30
0.0
 40
2.995348837202399
100
AcDbArc
 50
270.0
 51
0.0
  0
LINE
  5
2A13D
330
1F
100
AcDbEntity
  8
実線
100
AcDbLine
 10
172.4415525210979
 20
69.33324966565485
 30
0.0
 11
162.8283742263565
 21
69.33324966565485
 31
0.0
  0
LINE
  5
2A13E
102
{ACAD_REACTORS
330
2A2F9
102
}
330
1F
100
AcDbEntity
  8
一点鎖線
 48
0.5
100
AcDbLine
 10
181.0994008654826
 20
56.43324966565483
 30
0.0
 11
66.3985255868364
 21
56.43324966565463
 31
0.0
  0
LINE
  5
2A13F
330
1F
100
AcDbEntity
  8
実線
100
AcDbLine
 10
172.441552521098
 20
69.33324966565485
 30
0.0
 11
172.441552521098
 21
43.53324966565482
 31
0.0
  0
LINE
  5
2A140
330
1F
100
AcDbEntity
  8
実線
100
AcDbLine
 10
162.8283742263566
 20
43.53324966565482
 30
0.0
 11
162.8283742263566
 21
69.33324966565485
 31
0.0
  0
LINE
  5
2A141
330
1F
100
AcDbEntity
  8
実線
100
AcDbLine
 10
75.43690135830025
 20
69.31324966562499
 30
0.0
 11
75.43690135830025
 21
43.55324966568438
 31
0.0
  0
LINE
  5
2A142
330
1F
100
AcDbEntity
  8
実線
100
AcDbLine
 10
85.05007965304219
 20
44.35200935560499
 30
0.0
 11
85.05007965304219
 21
67.91542020826387
 31
0.0
  0
LINE
  5
2A143
102
{ACAD_REACTORS
330
2A2E1
330
2A2F9
102
}
330
1F
100
AcDbEntity
  8
実線
100
AcDbLine
 10
100.85808285073
 20
33.46890858043466
 30
0.0
 11
123.9392269396992
 21
33.46890858043517
 31
0.0
  0
LINE
  5
2A144
330
1F
100
AcDbEntity
  8
実線
100
AcDbLine
 10
98.1606165539047
 20
35.16203230882478
 30
0.0
 11
92.59034448143234
 21
46.70045303037393
 31
0.0
  0
ARC
  5
2A145
102
{ACAD_REACTORS
330
2A2E1
330
2A2F9
102
}
330
1F
100
AcDbEntity
  8
実線
100
AcDbCircle
 10
100.85808285073
 20
36.46425741763707
 30
0.0
 40
2.995348837202399
100
AcDbArc
 50
205.769327624345
 51
270.0
  0
LINE
  5
2A146
330
1F
100
AcDbEntity
  8
実線
100
AcDbLine
 10
94.57394553269557
 20
45.94952873544457
 30
0.0
 11
120.8939602999542
 21
45.9495287354451
 31
0.0
  0
ARC
  5
2A147
330
1F
100
AcDbEntity
  8
実線
100
AcDbCircle
 10
94.57394553269557
 20
48.94487757264752
 30
0.0
 40
2.995348837202921
100
AcDbArc
 50
228.5300570480784
 51
270.0
  0
LINE
  5
2A148
330
1F
100
AcDbEntity
  8
実線
100
AcDbLine
 10
115.4524052342923
 20
40.957280673441
 30
0.0
 11
115.4524052342923
 21
39.31982330910371
 31
0.0
  0
ARC
  5
2A149
330
1F
100
AcDbEntity
  8
実線
100
AcDbCircle
 10
110.4601571722883
 20
40.95728067344089
 30
0.0
 40
4.992248062004
100
AcDbArc
 50
0.0
 51
90.0
  0
ARC
  5
2A14A
330
1F
100
AcDbEntity
  8
実線
100
AcDbCircle
 10
118.4477540714947
 20
39.31982330910381
 30
0.0
 40
2.995348837202399
100
AcDbArc
 50
180.0
 51
242.5255683737315
  0
LINE
  5
2A14B
330
1F
100
AcDbEntity
  8
実線
100
AcDbLine
 10
120.8939602999542
 20
45.9495287354451
 30
0.0
 11
120.8939602999544
 21
33.80673360371321
 31
0.0
  0
LINE
  5
2A14C
330
1F
100
AcDbEntity
  8
実線
100
AcDbLine
 10
120.8939602999544
 20
33.80673360371321
 30
0.0
 11
117.0658416882542
 21
36.66229949517944
 31
0.0
  0
LINE
  5
2A14D
330
1F
100
AcDbEntity
  8
実線
100
AcDbLine
 10
147.0203710286684
 20
33.46890858043466
 30
0.0
 11
123.9392269396992
 21
33.46890858043517
 31
0.0
  0
LINE
  5
2A14E
330
1F
100
AcDbEntity
  8
実線
100
AcDbLine
 10
149.7178373254938
 20
35.16203230882478
 30
0.0
 11
155.2881093979667
 21
46.70045303037547
 31
0.0
  0
ARC
  5
2A14F
330
1F
100
AcDbEntity
  8
実線
100
AcDbCircle
 10
147.0203710286684
 20
36.46425741763707
 30
0.0
 40
2.995348837202399
100
AcDbArc
 50
270.0
 51
334.230672375655
  0
LINE
  5
2A150
330
1F
100
AcDbEntity
  8
実線
100
AcDbLine
 10
153.3045083467029
 20
45.94952873544457
 30
0.0
 11
126.9844935794442
 21
45.9495287354451
 31
0.0
  0
ARC
  5
2A151
330
1F
100
AcDbEntity
  8
実線
100
AcDbCircle
 10
153.3045083467029
 20
48.94487757264752
 30
0.0
 40
2.995348837202921
100
AcDbArc
 50
270.0
 51
311.4699429519216
  0
LINE
  5
2A152
330
1F
100
AcDbEntity
  8
実線
100
AcDbLine
 10
132.4260486451062
 20
40.957280673441
 30
0.0
 11
132.4260486451062
 21
39.31982330910371
 31
0.0
  0
ARC
  5
2A153
330
1F
100
AcDbEntity
  8
実線
100
AcDbCircle
 10
137.4182967071102
 20
40.95728067344089
 30
0.0
 40
4.992248062004
100
AcDbArc
 50
90.0
 51
180.0
  0
ARC
  5
2A154
330
1F
100
AcDbEntity
  8
実線
100
AcDbCircle
 10
129.4306998079038
 20
39.31982330910381
 30
0.0
 40
2.995348837202399
100
AcDbArc
 50
297.4744316262686
 51
0.0
  0
LINE
  5
2A155
330
1F
100
AcDbEntity
  8
実線
100
AcDbLine
 10
126.9844935794442
 20
45.9495287354451
 30
0.0
 11
126.984493579444
 21
33.80673360371321
 31
0.0
  0
LINE
  5
2A156
330
1F
100
AcDbEntity
  8
実線
100
AcDbLine
 10
126.984493579444
 20
33.80673360371321
 30
0.0
 11
130.8126121911443
 21
36.66229949517944
 31
0.0
  0
MTEXT
  5
2A157
330
1F
100
AcDbEntity
  8
文字
370
     5
100
AcDbMText
 10
107.5867202457732
 20
81.74255369918915
 30
0.0
 40
8.721892009131526
 41
33.56405486789407
 46
0.0
 71
     1
 72
     5
  1
13{\Fromans,bigfont|c128; }mm
  7
ｽﾀｲﾙ2
 73
     1
 44
1.0
  0
TEXT
  5
2A158
330
1F
100
AcDbEntity
  8
寸法
100
AcDbText
 10
182.9667026068252
 20
85.67036629245714
 30
0.0
 40
3.5
  1
φ26.4～山14　上水
 41
0.9
  7
寸法
100
AcDbText
  0
SOLID
  5
2A159
330
1F
100
AcDbEntity
  8
寸法
100
AcDbTrace
 10
170.5861742840378
 20
71.60283020270853
 30
0.0
 11
169.4580717634581
 21
69.33324966565485
 31
0.0
 12
171.2612759435915
 22
71.11427908592301
 32
0.0
 13
171.2612759435915
 23
71.11427908592301
 33
0.0
1001
ACAD
1000
DSTYLE
1002
{
1070
   147
1040
1.0
1070
    77
1070
     0
1002
}
  0
LWPOLYLINE
  5
2A15A
330
1F
100
AcDbEntity
  8
寸法
100
AcDbPolyline
 90
        3
 70
     0
 43
0.0
 10
170.9237251138146
 20
71.35855464431577
 10
180.3527231641299
 20
84.38796346765238
 10
226.1404814293948
 20
84.38796346765238
1001
ACAD
1000
DSTYLE
1002
{
1070
   147
1040
1.0
1070
    77
1070
     0
1002
}
  0
TEXT
  5
2A15B
330
1F
100
AcDbEntity
  8
寸法
100
AcDbText
 10
183.1263748521907
 20
79.92789214398178
 30
0.0
 40
3.5
  1
φ25.8～山14　金門
 41
0.9
  7
寸法
100
AcDbText
  0
DIMENSION
  5
2A15C
102
{ACAD_XDICTIONARY
360
2A15D
102
}
102
{ACAD_REACTORS
330
2A15E
102
}
330
1F
100
AcDbEntity
  8
寸法
100
AcDbDimension
280
     0
  2
*D7
 10
173.9392269396992
 20
24.48948100629963
 30
0.0
 11
123.9392269396992
 21
27.23948100629963
 31
0.0
 70
    32
 71
     5
 42
100.0
 73
     0
 74
     0
 75
     0
  3
ｺﾋﾟｰ - ISO-25
100
AcDbAlignedDimension
 13
73.93922693969919
 23
45.05092408428557
 33
0.0
 14
173.9392269396992
 24
45.03092408425602
 34
0.0
100
AcDbRotatedDimension
  0
LINE
  5
2A162
330
1F
100
AcDbEntity
  8
実線
100
AcDbLine
 10
73.93922693969919
 20
192.4806780132583
 30
0.0
 11
75.43690135830046
 21
190.9830035946571
 31
0.0
  0
LINE
  5
2A163
330
1F
100
AcDbEntity
  8
実線
100
AcDbLine
 10
74.63814166837972
 20
191.7817632845778
 30
0.0
 11
83.81701864474477
 21
191.7817632845778
 31
0.0
  0
LINE
  5
2A164
330
1F
100
AcDbEntity
  8
実線
100
AcDbLine
 10
75.43690135830046
 20
190.9830035946571
 30
0.0
 11
84.18623459947099
 21
190.9830035946571
 31
0.0
  0
LINE
  5
2A165
330
1F
100
AcDbEntity
  8
実線
100
AcDbLine
 10
173.9392269396992
 20
215.2453291759968
 30
0.0
 11
173.9392269396992
 21
192.4806780132583
 31
0.0
  0
LINE
  5
2A167
330
1F
100
AcDbEntity
  8
実線
100
AcDbLine
 10
173.2403122110188
 20
191.7817632845778
 30
0.0
 11
164.0614352346536
 21
191.7817632845778
 31
0.0
  0
LINE
  5
2A168
330
1F
100
AcDbEntity
  8
実線
100
AcDbLine
 10
173.9392269396992
 20
194.2978563078277
 30
0.0
 11
165.101690372208
 21
194.2978563078277
 31
0.0
  0
LINE
  5
2A169
330
1F
100
AcDbEntity
  8
実線
100
AcDbLine
 10
172.4415525210979
 20
190.9830035946571
 30
0.0
 11
163.6922192799274
 21
190.9830035946571
 31
0.0
  0
LINE
  5
2A16A
330
1F
100
AcDbEntity
  8
実線
100
AcDbLine
 10
173.9392269396992
 20
192.4806780132583
 30
0.0
 11
172.4415525210979
 21
190.9830035946571
 31
0.0
  0
LINE
  5
2A16B
330
1F
100
AcDbEntity
  8
実線
100
AcDbLine
 10
173.9392269396992
 20
215.2453291759968
 30
0.0
 11
172.4415525210979
 21
216.7430035945978
 31
0.0
  0
LINE
  5
2A16C
330
1F
100
AcDbEntity
  8
実線
100
AcDbLine
 10
173.9392269396992
 20
213.4281508814271
 30
0.0
 11
168.4392269396992
 21
213.428150881427
 31
0.0
  0
LINE
  5
2A16D
330
1F
100
AcDbEntity
  8
実線
100
AcDbLine
 10
173.2403122110186
 20
215.9442439046771
 30
0.0
 11
167.5141608659677
 21
215.944243904677
 31
0.0
  0
LINE
  5
2A16E
330
1F
100
AcDbEntity
  8
実線
100
AcDbLine
 10
172.4415525210979
 20
216.7430035945978
 30
0.0
 11
167.3948364740274
 21
216.7430035945978
 31
0.0
  0
LINE
  5
2A16F
330
1F
100
AcDbEntity
  8
実線
100
AcDbLine
 10
172.4415525210979
 20
216.7430035945978
 30
0.0
 11
172.4415525210979
 21
190.9830035946571
 31
0.0
  0
LINE
  5
2A170
330
1F
100
AcDbEntity
  8
実線
100
AcDbLine
 10
75.43690135830046
 20
200.4071138740113
 30
0.0
 11
75.43690135830046
 21
190.9830035946571
 31
0.0
  0
DIMENSION
  5
2A2CA
102
{ACAD_XDICTIONARY
360
2A2D7
102
}
102
{ACAD_REACTORS
330
2A2E1
102
}
330
1F
100
AcDbEntity
  8
寸法
100
AcDbDimension
280
     0
  2
*D8
 10
40.89987591869025
 20
166.4568923734151
 30
0.0
 11
38.14987591869023
 21
99.96290047692491
 31
0.0
 70
    32
 71
     5
 42
132.9879837929804
 73
     0
 74
     0
 75
     0
  3
ｺﾋﾟｰ - ISO-25
100
AcDbAlignedDimension
 13
100.8580828507301
 23
33.46890858043466
 33
0.0
 14
73.67847112574593
 24
166.4568923734151
 34
0.0000000000000032
 50
90.0
100
AcDbRotatedDimension
  0
DIMENSION
  5
2A2E2
102
{ACAD_XDICTIONARY
360
2A2EF
102
}
102
{ACAD_REACTORS
330
2A2F9
102
}
330
1F
100
AcDbEntity
  8
寸法
100
AcDbDimension
280
     0
  2
*D9
 10
52.96846916283264
 20
56.43324966565463
 30
0.0
 11
50.21846916283263
 21
44.95107912304464
 31
0.0
 70
    32
 71
     5
 42
22.96434108521996
 73
     0
 74
     0
 75
     0
  3
ｺﾋﾟｰ - ISO-25
100
AcDbAlignedDimension
 13
100.8580828507301
 23
33.46890858043466
 33
0.0
 14
66.3985255868364
 24
56.43324966565463
 34
0.0
 50
90.0
100
AcDbRotatedDimension
  0
LINE
  5
2A351
330
1F
100
AcDbEntity
  8
0
100
AcDbLine
 10
280.0
 20
20.0
 30
0.0
 11
280.0
 21
68.0
 31
0.0
  0
LINE
  5
2A352
330
1F
100
AcDbEntity
  8
0
100
AcDbLine
 10
280.0
 20
35.0
 30
0.0
 11
405.0
 21
35.0
 31
0.0
  0
LINE
  5
2A353
330
1F
100
AcDbEntity
  8
0
100
AcDbLine
 10
280.0
 20
58.0
 30
0.0
 11
405.0
 21
58.0
 31
0.0
  0
LINE
  5
2A354
330
1F
100
AcDbEntity
  8
0
100
AcDbLine
 10
280.0
 20
68.0
 30
0.0
 11
405.0
 21
68.0
 31
0.0
  0
LINE
  5
2A355
330
1F
100
AcDbEntity
  8
0
100
AcDbLine
 10
292.5
 20
35.0
 30
0.0
 11
292.5
 21
20.0
 31
0.0
  0
LINE
  5
2A356
330
1F
100
AcDbEntity
  8
0
100
AcDbLine
 10
305.0
 20
35.0
 30
0.0
 11
305.0
 21
20.0
 31
0.0
  0
LINE
  5
2A357
330
1F
100
AcDbEntity
  8
0
100
AcDbLine
 10
317.5
 20
35.0
 30
0.0
 11
317.5
 21
20.0
 31
0.0
  0
LINE
  5
2A358
330
1F
100
AcDbEntity
  8
0
100
AcDbLine
 10
330.0
 20
35.0
 30
0.0
 11
330.0
 21
20.0
 31
0.0
  0
LINE
  5
2A359
330
1F
100
AcDbEntity
  8
0
100
AcDbLine
 10
342.5
 20
58.0
 30
0.0
 11
342.5
 21
20.0
 31
0.0
  0
LINE
  5
2A35A
330
1F
100
AcDbEntity
  8
0
100
AcDbLine
 10
373.7499999999998
 20
46.49999999999999
 30
0.0
 11
373.7499999999998
 21
35.0
 31
0.0
  0
LINE
  5
2A35B
330
1F
100
AcDbEntity
  8
0
100
AcDbLine
 10
301.5
 20
68.0
 30
0.0
 11
301.5
 21
58.0
 31
0.0
  0
LINE
  5
2A35C
330
1F
100
AcDbEntity
  8
0
100
AcDbLine
 10
280.0
 20
31.0
 30
0.0
 11
342.5
 21
31.0
 31
0.0
  0
TEXT
  5
2A35D
330
1F
100
AcDbEntity
  8
0
100
AcDbText
 10
287.96
 20
61.5
 30
0.0
 40
3.0
  1
品名
 41
0.9
 72
     1
 11
290.75
 21
63.0
 31
0.0
100
AcDbText
 73
     2
  0
TEXT
  5
2A35E
330
1F
100
AcDbEntity
  8
0
100
AcDbText
 10
283.37
 20
31.5
 30
0.0
 40
3.0
  1
承認
 41
0.9
 72
     1
 11
286.25
 21
33.0
 31
0.0
100
AcDbText
 73
     2
  0
TEXT
  5
2A35F
330
1F
100
AcDbEntity
  8
0
100
AcDbText
 10
295.96
 20
31.5
 30
0.0
 40
3.0
  1
検図
 41
0.9
 72
     1
 11
298.75
 21
33.0
 31
0.0
100
AcDbText
 73
     2
  0
TEXT
  5
2A360
330
1F
100
AcDbEntity
  8
0
100
AcDbText
 10
308.46
 20
31.5
 30
0.0
 40
3.0
  1
製図
 41
0.9
 72
     1
 11
311.25
 21
33.0
 31
0.0
100
AcDbText
 73
     2
  0
TEXT
  5
2A361
330
1F
100
AcDbEntity
  8
0
100
AcDbText
 10
319.43
 20
31.5
 30
0.0
 40
3.0
  1
年月日
 41
0.9
 72
     1
 11
323.75
 21
33.0
 31
0.0
100
AcDbText
 73
     2
  0
TEXT
  5
2A362
330
1F
100
AcDbEntity
  8
0
100
AcDbText
 10
333.37
 20
31.5
 30
0.0
 40
3.0
  1
尺度
 41
0.9
 72
     1
 11
336.25
 21
33.0
 31
0.0
100
AcDbText
 73
     2
  0
TEXT
  5
2A363
330
1F
100
AcDbEntity
  8
0
100
AcDbText
 10
347.5141191097012
 20
25.47732717604083
 30
0.0
 40
5.0
  1
柏原計器工業株式会社
 41
0.9
 72
     1
 11
373.9141191097012
 21
27.97732717604083
 31
0.0
100
AcDbText
 73
     2
  0
TEXT
  5
2A364
330
1F
100
AcDbEntity
  8
0
100
AcDbText
 10
331.75
 20
23.75
 30
0.0
 40
3.5
  1
free
 41
0.9
 72
     1
 11
336.25
 21
25.5
 31
0.0
100
AcDbText
 73
     2
  0
TEXT
  5
2A365
330
1F
100
AcDbEntity
  8
0
100
AcDbText
 10
306.5860329945234
 20
50.90516497261692
 30
0.0
 40
3.5
  1
外観図
 41
0.9
 72
     1
 11
311.7310329945234
 21
52.65516497261693
 31
0.0
100
AcDbText
 73
     2
  0
TEXT
  5
2A366
330
1F
100
AcDbEntity
  8
0
100
AcDbText
 10
318.7335983023972
 20
61.25
 30
0.0
 40
3.5
  1
多機能型電子式水道メーター　13mm
 41
0.9
 72
     1
 11
352.3935983023971
 21
63.0
 31
0.0
100
AcDbText
 73
     2
  0
LINE
  5
2A367
330
1F
100
AcDbEntity
  8
0
100
AcDbLine
 10
404.9999999999998
 20
46.49999999999999
 30
0.0
 11
280.0
 21
46.5
 31
0.0
  0
LINE
  5
2A369
330
1F
100
AcDbEntity
  8
0
100
AcDbLine
 10
347.5
 20
57.99999999999999
 30
0.0
 11
347.5
 21
46.5
 31
0.0
  0
TEXT
  5
2A36A
330
1F
100
AcDbEntity
  8
0
100
AcDbText
 10
343.8012444219987
 20
53.78915733104803
 30
0.0
 40
3.0
  1
図
 41
0.9
 72
     1
 11
345.0612444219987
 21
55.28915733104803
 31
0.0
100
AcDbText
 73
     2
  0
TEXT
  5
2A36B
330
1F
100
AcDbEntity
  8
0
100
AcDbText
 10
343.74
 20
48.125
 30
0.0
 40
3.0
  1
番
 41
0.9
 72
     1
 11
345.0
 21
49.62499999999999
 31
0.0
100
AcDbText
 73
     2
  0
LINE
  5
2A36C
330
1F
100
AcDbEntity
  8
0
100
AcDbLine
 10
285.0
 20
46.49999999999999
 30
0.0
 11
285.0
 21
35.0
 31
0.0
  0
TEXT
  5
2A36D
330
1F
100
AcDbEntity
  8
0
100
AcDbText
 10
281.3012444219987
 20
42.28915733104803
 30
0.0
 40
3.0
  1
摘
 41
0.9
 72
     1
 11
282.5612444219986
 21
43.78915733104803
 31
0.0
100
AcDbText
 73
     2
  0
TEXT
  5
2A36E
330
1F
100
AcDbEntity
  8
0
100
AcDbText
 10
281.24
 20
36.625
 30
0.0
 40
3.0
  1
要
 41
0.9
 72
     1
 11
282.5
 21
38.125
 31
0.0
100
AcDbText
 73
     2
  0
LINE
  5
2A36F
330
1F
100
AcDbEntity
  8
0
100
AcDbLine
 10
285.0
 20
57.99999999999999
 30
0.0
 11
285.0
 21
46.5
 31
0.0
  0
TEXT
  5
2A370
330
1F
100
AcDbEntity
  8
0
100
AcDbText
 10
281.3912444219986
 20
53.78915733104803
 30
0.0
 40
3.0
  1
名
 41
0.9
 72
     1
 11
282.5612444219986
 21
55.28915733104803
 31
0.0
100
AcDbText
 73
     2
  0
TEXT
  5
2A371
330
1F
100
AcDbEntity
  8
0
100
AcDbText
 10
281.24
 20
48.125
 30
0.0
 40
3.0
  1
称
 41
0.9
 72
     1
 11
282.5
 21
49.62499999999999
 31
0.0
100
AcDbText
 73
     2
  0
LINE
  5
2A372
330
1F
100
AcDbEntity
  8
0
  6
CENTER
 48
0.2
370
    15
100
AcDbLine
 10
380.3743237194039
 20
40.70717840942182
 30
0.0
 11
402.3661932218493
 21
40.70717840942182
 31
0.0
  0
LINE
  5
2A373
330
1F
100
AcDbEntity
  8
0
  6
CENTER
 48
0.2
370
    15
100
AcDbLine
 10
385.6829979138538
 20
45.02275052681983
 30
0.0
 11
385.6829979138538
 21
36.39160629202383
 31
0.0
  0
CIRCLE
  5
2A374
330
1F
100
AcDbEntity
  8
0
100
AcDbCircle
 10
385.6829979138538
 20
40.70717840942182
 30
0.0
 40
3.616483184024218
  0
CIRCLE
  5
2A375
330
1F
100
AcDbEntity
  8
0
100
AcDbCircle
 10
385.6829979138538
 20
40.70717840942182
 30
0.0
 40
2.153012167676263
  0
LINE
  5
2A376
330
1F
100
AcDbEntity
  8
0
100
AcDbLine
 10
391.435352056124
 20
42.86019057709808
 30
0.0
 11
391.435352056124
 21
38.5377720924151
 31
0.0
  0
LINE
  5
2A377
330
1F
100
AcDbEntity
  8
0
100
AcDbLine
 10
391.435352056124
 20
38.5377720924151
 30
0.0
 11
400.8293035353752
 21
37.0906952253976
 31
0.0
  0
LINE
  5
2A378
330
1F
100
AcDbEntity
  8
0
100
AcDbLine
 10
400.8293035353752
 20
37.0906952253976
 30
0.0
 11
400.8293035353752
 21
44.32366159344603
 31
0.0
  0
LINE
  5
2A379
330
1F
100
AcDbEntity
  8
0
100
AcDbLine
 10
400.8293035353752
 20
44.32366159344603
 30
0.0
 11
391.435352056124
 21
42.86019057709808
 31
0.0
  0
TEXT
  5
2A37A
330
1F
100
AcDbEntity
  8
0
100
AcDbText
 10
343.8012444219987
 20
42.28915733104803
 30
0.0
 40
3.0
  1
材
 41
0.9
 72
     1
 11
345.0612444219987
 21
43.78915733104803
 31
0.0
100
AcDbText
 73
     2
  0
TEXT
  5
2A37B
330
1F
100
AcDbEntity
  8
0
100
AcDbText
 10
343.74
 20
36.625
 30
0.0
 40
3.0
  1
質
 41
0.9
 72
     1
 11
345.0
 21
38.125
 31
0.0
100
AcDbText
 73
     2
  0
LINE
  5
2A37C
330
1F
100
AcDbEntity
  8
0
100
AcDbLine
 10
347.5
 20
46.49999999999999
 30
0.0
 11
347.5
 21
35.0
 31
0.0
  0
TEXT
  5
2A37D
330
1F
100
AcDbEntity
  8
0
100
AcDbText
 10
375.0512444219986
 20
42.72828299788964
 30
0.0
 40
3.0
  1
投
 41
0.9
 72
     1
 11
376.3112444219985
 21
44.22828299788965
 31
0.0
100
AcDbText
 73
     2
  0
TEXT
  5
2A37E
330
1F
100
AcDbEntity
  8
0
100
AcDbText
 10
374.9899999999998
 20
35.74674936600604
 30
0.0
 40
3.0
  1
法
 41
0.9
 72
     1
 11
376.2499999999998
 21
37.24674936600604
 31
0.0
100
AcDbText
 73
     2
  0
LINE
  5
2A37F
330
1F
100
AcDbEntity
  8
0
100
AcDbLine
 10
378.7499999999998
 20
46.49999999999999
 30
0.0
 11
378.7499999999998
 21
35.0
 31
0.0
  0
TEXT
  5
2A380
330
1F
100
AcDbEntity
  8
0
100
AcDbText
 10
375.0512444219986
 20
39.32506030432351
 30
0.0
 40
3.0
  1
影
 41
0.9
 72
     1
 11
376.3112444219985
 21
40.82506030432351
 31
0.0
100
AcDbText
 73
     2
  0
LINE
  5
2A3EC
330
1F
100
AcDbEntity
  8
実線
100
AcDbLine
 10
81.1784711257464
 20
124.8719143983615
 30
0.0
 11
166.1784711257461
 21
124.8719143983615
 31
0.0
  0
LINE
  5
2A3EE
330
1F
100
AcDbEntity
  8
実線
100
AcDbLine
 10
79.67847112574617
 20
132.8719143983616
 30
0.0
 11
167.6784711257461
 21
132.8719143983616
 31
0.0000000000000032
  0
LINE
  5
2A3EF
330
1F
100
AcDbEntity
  8
実線
100
AcDbLine
 10
159.4392269396992
 20
115.3719143983615
 30
0.0000000000000064
 11
159.4392269396992
 21
113.7482272851024
 31
0.0000000000000128
  0
LINE
  5
2A3F0
330
1F
100
AcDbEntity
  8
実線
100
AcDbLine
 10
88.4392269396992
 20
115.3719143983615
 30
0.0000000000000064
 11
88.4392269396992
 21
113.7482272851024
 31
0.0000000000000128
  0
LINE
  5
2A3F1
330
1F
100
AcDbEntity
  8
実線
100
AcDbLine
 10
165.078471125746
 20
158.4568923734152
 30
0.0000000000000032
 11
167.678471125746
 21
158.4568923734152
 31
0.0000000000000032
  0
ARC
  5
2A3F2
330
1F
100
AcDbEntity
  8
実線
100
AcDbCircle
 10
165.0784711257461
 20
154.5568923734152
 30
0.0000000000000032
 40
3.9
100
AcDbArc
 50
90.0
 51
180.0000000000008
  0
LINE
  5
2A3F3
330
1F
100
AcDbEntity
  8
実線
100
AcDbLine
 10
86.17847112574617
 20
160.4568923734152
 30
0.0
 11
167.0872099873465
 21
160.4568923734151
 31
0.0
  0
LINE
  5
2A3F4
330
1F
100
AcDbEntity
  8
実線
100
AcDbLine
 10
167.678471125746
 20
159.8656312350156
 30
0.0000000000000032
 11
167.678471125746
 21
158.4568923734152
 31
0.0000000000000032
  0
ARC
  5
2A3F5
330
1F
100
AcDbEntity
  8
実線
100
AcDbCircle
 10
167.0872099873465
 20
159.8656312350156
 30
0.0000000000000032
 40
0.5912611383995614
100
AcDbArc
 50
0.0
 51
90.0
  0
LINE
  5
2A3F6
330
1F
100
AcDbEntity
  8
実線
100
AcDbLine
 10
167.6784711257461
 20
132.8719143983616
 30
0.0000000000000032
 11
167.678471125746
 21
142.5568923734151
 31
0.0000000000000032
  0
ARC
  5
2A3F7
330
1F
100
AcDbEntity
  8
実線
100
AcDbCircle
 10
163.7784711257461
 20
142.5568923734151
 30
-0.0000000000000062
 40
3.9
100
AcDbArc
 50
0.0000000000008142
 51
90.0
  0
LINE
  5
2A3F8
330
1F
100
AcDbEntity
  8
実線
100
AcDbLine
 10
83.57847112574603
 20
146.4568923734151
 30
0.0
 11
163.7784711257461
 21
146.4568923734151
 31
0.0
  0
ARC
  5
2A3F9
330
1F
100
AcDbEntity
  8
実線
100
AcDbCircle
 10
83.57847112574603
 20
142.5568923734151
 30
0.0000000000000363
 40
3.9
100
AcDbArc
 50
90.0
 51
180.0000000000008
  0
LINE
  5
2A3FA
330
1F
100
AcDbEntity
  8
実線
100
AcDbLine
 10
161.1784711257461
 20
154.556892373415
 30
0.0000000000000032
 11
161.1784711257461
 21
146.4568923734151
 31
0.0000000000000032
  0
LINE
  5
2A3FB
330
1F
100
AcDbEntity
  8
実線
100
AcDbLine
 10
86.17847112574617
 20
146.4568923734151
 30
0.0000000000000032
 11
86.17847112574617
 21
160.4568923734152
 31
0.0000000000000032
  0
ARC
  5
2A3FC
330
1F
100
AcDbEntity
  8
実線
100
AcDbCircle
 10
81.17847112574617
 20
157.4568923734152
 30
0.0000000000000032
 40
9.0
100
AcDbArc
 50
19.47122063448943
 51
90.0
  0
LINE
  5
2A3FD
330
1F
100
AcDbEntity
  8
実線
100
AcDbLine
 10
79.67847112574617
 20
132.8719143983616
 30
0.0000000000000032
 11
79.67847112574606
 21
142.556892373415
 31
0.0000000000000032
  0
LINE
  5
2A3FE
330
1F
100
AcDbEntity
  8
実線
100
AcDbLine
 10
161.1784711257461
 20
151.4568923734151
 30
0.0
 11
73.67847112574605
 21
151.456892373415
 31
0.0
  0
LINE
  5
2A3FF
330
1F
100
AcDbEntity
  8
実線
100
AcDbLine
 10
73.67847112574593
 20
166.4568923734151
 30
0.0000000000000032
 11
73.67847112574605
 21
135.8683075938579
 31
0.0000000000000032
  0
LINE
  5
2A400
330
1F
100
AcDbEntity
  8
実線
100
AcDbLine
 10
73.67847112574605
 20
135.8683075938579
 30
0.0000000000000032
 11
79.67847112574606
 21
135.8683075938579
 31
0.0000000000000032
  0
LINE
  5
2A401
330
1F
100
AcDbEntity
  8
実線
100
AcDbLine
 10
73.67847112574593
 20
166.4568923734151
 30
0.0000000000000032
 11
81.17847112574617
 21
166.4568923734151
 31
0.0000000000000032
  0
LINE
  5
2A402
330
1F
100
AcDbEntity
  8
実線
100
AcDbLine
 10
166.1784711257461
 20
115.3719143983615
 30
0.0
 11
166.1784711257461
 21
132.8719143983615
 31
0.0
  0
LINE
  5
2A403
330
1F
100
AcDbEntity
  8
実線
100
AcDbLine
 10
81.17847112574674
 20
115.3719143983615
 30
0.0
 11
81.17847112574592
 21
132.8719143983616
 31
0.0
  0
LINE
  5
2A585
330
1F
100
AcDbEntity
  8
実線
100
AcDbLine
 10
81.17847112574645
 20
115.3719143983615
 30
0.0000000000000064
 11
166.1784711257462
 21
115.3719143983615
 31
0.0000000000000064
  0
LINE
  5
2A5DC
330
1F
100
AcDbEntity
  8
実線
100
AcDbLine
 10
81.1784711257464
 20
129.8719143983615
 30
0.0
 11
166.1784711257461
 21
129.8719143983615
 31
0.0
  0
LINE
  5
2A6E2
330
1F
100
AcDbEntity
  8
実線
100
AcDbLine
 10
90.77674814211832
 20
202.3430035945978
 30
0.0
 11
73.93922693969905
 21
202.3430035945978
 31
0.0
  0
LINE
  5
2A6E3
330
1F
100
AcDbEntity
  8
実線
100
AcDbLine
 10
90.77674814211837
 20
217.3430035945978
 30
0.0
 11
73.93922693969905
 21
217.3430035945978
 31
0.0
  0
LINE
  5
2A6E4
330
1F
100
AcDbEntity
  8
実線
100
AcDbLine
 10
165.5084463213522
 20
197.8430035945977
 30
0.0
 11
159.4673847866802
 21
197.8430035945977
 31
0.0
  0
LINE
  5
2A6E5
330
1F
100
AcDbEntity
  8
実線
100
AcDbLine
 10
165.5084463213522
 20
221.8430035945977
 30
0.0
 11
159.4673847866802
 21
221.8430035945977
 31
0.0
  0
LINE
  5
2A6E6
330
1F
100
AcDbEntity
  8
実線
100
AcDbLine
 10
128.9392269396992
 20
165.3430035945977
 30
0.0
 11
118.9392269396992
 21
165.3430035945977
 31
0.0
  0
LINE
  5
2A6E7
102
{ACAD_REACTORS
330
2A715
102
}
330
1F
100
AcDbEntity
  8
実線
100
AcDbLine
 10
128.8768008303505
 20
166.1209226277182
 30
0.0
 11
128.9392269396992
 21
165.3430035945977
 31
0.0
  0
LINE
  5
2A6E8
330
1F
100
AcDbEntity
  8
実線
100
AcDbLine
 10
118.9392269396992
 20
165.3430035945977
 30
0.0
 11
119.0016530490479
 21
166.1209226277182
 31
0.0
  0
LINE
  5
2A6E9
330
1F
100
AcDbEntity
  8
実線
100
AcDbLine
 10
118.9392269396992
 20
254.3430035945978
 30
0.0
 11
128.9392269396992
 21
254.3430035945978
 31
0.0
  0
LINE
  5
2A6EA
330
1F
100
AcDbEntity
  8
実線
100
AcDbLine
 10
119.0016530490479
 20
253.5650845614771
 30
0.0
 11
118.9392269396992
 21
254.3430035945978
 31
0.0
  0
LINE
  5
2A6EB
102
{ACAD_REACTORS
330
2A715
102
}
330
1F
100
AcDbEntity
  8
実線
100
AcDbLine
 10
128.9392269396992
 20
254.3430035945978
 30
0.0
 11
128.8768008303504
 21
253.5650845614771
 31
0.0
  0
LINE
  5
2A6EC
330
1F
100
AcDbEntity
  8
実線
100
AcDbLine
 10
167.6613079065786
 20
214.780577485249
 30
0.0
 11
168.4392269396992
 21
214.8430035945977
 31
0.0
  0
LINE
  5
2A6ED
330
1F
100
AcDbEntity
  8
実線
100
AcDbLine
 10
168.4392269396992
 20
204.8430035945977
 30
0.0
 11
167.6613079065786
 21
204.9054297039464
 31
0.0
  0
LINE
  5
2A6EE
330
1F
100
AcDbEntity
  8
実線
100
AcDbLine
 10
168.4392269396992
 20
214.8430035945977
 30
0.0
 11
168.4392269396992
 21
204.8430035945977
 31
0.0
  0
LINE
  5
2A6EF
330
1F
100
AcDbEntity
  8
実線
100
AcDbLine
 10
126.939226939699
 20
234.3430035945977
 30
0.0
 11
136.9392269396989
 21
234.3430035945977
 31
0.0
  0
LINE
  5
2A6F0
330
1F
100
AcDbEntity
  8
実線
100
AcDbLine
 10
136.9392269396989
 20
234.3430035945977
 30
0.0
 11
136.9392269396989
 21
185.3430035945977
 31
0.0
  0
LINE
  5
2A6F1
330
1F
100
AcDbEntity
  8
実線
100
AcDbLine
 10
136.9392269396989
 20
185.3430035945977
 30
0.0
 11
126.939226939699
 21
185.3430035945977
 31
0.0
  0
LINE
  5
2A6F2
330
1F
100
AcDbEntity
  8
実線
100
AcDbLine
 10
126.939226939699
 20
185.3430035945977
 30
0.0
 11
126.939226939699
 21
234.3430035945977
 31
0.0
  0
TEXT
  5
2A6F3
330
1F
100
AcDbEntity
  8
文字
100
AcDbText
 10
149.4392269396992
 20
194.0632633348574
 30
0.0
 40
9.0
  1
13
 50
90.0
 41
1.3
  7
スタイル3
 72
     1
 11
144.9392269396992
 21
201.8430035945977
 31
0.0
100
AcDbText
 73
     2
  0
TEXT
  5
2A6F4
330
1F
100
AcDbEntity
  8
文字
100
AcDbText
 10
149.8488419759114
 20
210.2029386595328
 30
0.0
 40
9.0
  1
mm
 50
90.0
 41
0.85
  7
スタイル3
 72
     1
 11
145.3488419759114
 21
217.8430035945977
 31
0.0
100
AcDbText
 73
     2
  0
INSERT
  5
2A6F5
330
1F
100
AcDbEntity
  8
実線
100
AcDbBlockReference
  2
mark
 10
112.7092269396992
 20
200.3430035945977
 30
0.0
 41
0.38
 42
0.38
 43
0.38
 50
90.0
  0
TEXT
  5
2A6F7
330
1F
100
AcDbEntity
  8
文字
100
AcDbText
 10
123.3362188527176
 20
187.6099447284314
 30
0.0
 40
9.0
  1
K
 50
169.9999999999997
  7
スタイル3
 72
     1
 11
119.3375502315252
 21
183.7455981397741
 31
0.0
100
AcDbText
 73
     2
  0
TEXT
  5
2A6F8
330
1F
100
AcDbEntity
  8
文字
100
AcDbText
 10
101.9392269396992
 20
208.2387828153769
 30
0.0
 40
9.0
  1
I
 50
90.0
  7
スタイル3
 72
     1
 11
97.43922693969921
 21
209.8430035945977
 31
0.0
100
AcDbText
 73
     2
  0
TEXT
  5
2A6F9
330
1F
100
AcDbEntity
  8
文字
100
AcDbText
 10
115.773491897539
 20
189.1540810749763
 30
0.0
 40
9.0
  1
A
 50
149.9999999999994
  7
スタイル3
 72
     1
 11
110.689226939699
 21
186.89333039431
 31
0.0
100
AcDbText
 73
     2
  0
TEXT
  5
2A6FA
330
1F
100
AcDbEntity
  8
文字
100
AcDbText
 10
109.1936742828396
 20
193.190144757268
 30
0.0
 40
9.0
  1
S
 50
130.0000000000001
  7
スタイル3
 72
     1
 11
103.6390491970462
 21
192.8091319379044
 31
0.0
100
AcDbText
 73
     2
  0
TEXT
  5
2A6FB
330
1F
100
AcDbEntity
  8
文字
100
AcDbText
 10
104.4902659318137
 20
198.9548879920289
 30
0.0
 40
9.0
  1
H
 50
110.0000000000001
  7
スタイル3
 72
     1
 11
99.03737248887274
 21
200.7794697964675
 31
0.0
100
AcDbText
 73
     2
  0
TEXT
  5
2A6FC
330
1F
100
AcDbEntity
  8
文字
100
AcDbText
 10
102.0417126330049
 20
214.0037742983582
 30
0.0
 40
9.0
  1
H
 50
69.99999999999992
  7
スタイル3
 72
     1
 11
99.03737248887274
 21
218.9065373927278
 31
0.0
100
AcDbText
 73
     2
  0
TEXT
  5
2A6FD
330
1F
100
AcDbEntity
  8
文字
100
AcDbText
 10
104.9825806502893
 20
221.4772764665848
 30
0.0
 40
9.0
  1
A
 50
49.99999999999991
  7
スタイル3
 72
     1
 11
103.6390491970462
 21
226.8768752512909
 31
0.0
100
AcDbText
 73
     2
  0
TEXT
  5
2A6FE
330
1F
100
AcDbEntity
  8
文字
100
AcDbText
 10
109.9480651716933
 20
227.1686144259073
 30
0.0
 40
9.0
  1
R
 50
30.00000000000055
  7
スタイル3
 72
     1
 11
110.6892269396994
 21
232.7926767948853
 31
0.0
100
AcDbText
 73
     2
  0
TEXT
  5
2A6FF
330
1F
100
AcDbEntity
  8
文字
100
AcDbText
 10
116.8959598393501
 20
230.9404710339563
 30
0.0
 40
9.0
  1
A
 50
10.00000000000021
  7
スタイル3
 72
     1
 11
119.3375502315252
 21
235.9404090494212
 31
0.0
100
AcDbText
 73
     2
  0
ARC
  5
2A700
330
1F
100
AcDbEntity
  8
実線
100
AcDbCircle
 10
123.9392269396992
 20
209.8430035945977
 30
0.0
 40
44.0
100
AcDbArc
 50
189.8142483329315
 51
111.5406777503634
  0
ARC
  5
2A701
330
1F
100
AcDbEntity
  8
実線
100
AcDbCircle
 10
123.9392269396992
 20
209.8430035945977
 30
0.0
 40
44.0
100
AcDbArc
 50
122.8150656771919
 51
170.1857516670666
  0
ARC
  5
2A702
330
1F
100
AcDbEntity
  8
実線
100
AcDbCircle
 10
165.5084463213522
 20
198.8430035945977
 30
0.0
 40
1.0
100
AcDbArc
 50
270.0
 51
345.1781789379501
  0
ARC
  5
2A703
330
1F
100
AcDbEntity
  8
実線
100
AcDbCircle
 10
165.5084463213522
 20
220.8430035945977
 30
0.0
 40
1.0
100
AcDbArc
 50
14.82182106204993
 51
90.0
  0
ARC
  5
2A704
330
1F
100
AcDbEntity
  8
実線
100
AcDbCircle
 10
123.9392269396992
 20
209.8430035945977
 30
0.0
 40
37.5
100
AcDbArc
 50
191.5369590328149
 51
168.463040967185
  0
CIRCLE
  5
2A705
330
1F
100
AcDbEntity
  8
実線
100
AcDbCircle
 10
123.9392269396992
 20
209.8430035945977
 30
0.0
 40
34.0
  0
LINE
  5
2A706
330
1F
100
AcDbEntity
  8
実線
100
AcDbLine
 10
73.93922693969905
 20
192.4806780132584
 30
0.0
 11
73.93922693969905
 21
217.3430035945978
 31
0.0
  0
ARC
  5
2A707
330
1F
100
AcDbEntity
  8
実線
100
AcDbCircle
 10
75.93922693969905
 20
217.3430035945978
 30
0.0
 40
2.0
100
AcDbArc
 50
0.0
 51
180.0
  0
ARC
  5
2A708
330
1F
100
AcDbEntity
  8
実線
100
AcDbCircle
 10
75.93922693969905
 20
202.3430035945978
 30
0.0
 40
2.0
100
AcDbArc
 50
180.0
 51
0.0
  0
LINE
  5
2A709
330
1F
100
AcDbEntity
  8
実線
100
AcDbLine
 10
107.784112395424
 20
243.6847274582153
 30
0.0
 11
107.784112395424
 21
255.9321794342424
 31
0.0
  0
LINE
  5
2A70A
330
1F
100
AcDbEntity
  8
実線
100
AcDbLine
 10
100.0943414839744
 20
255.9321794342424
 30
0.0
 11
100.0943414839744
 21
238.7855576906578
 31
0.0
  0
LINE
  5
2A70B
330
1F
100
AcDbEntity
  8
実線
100
AcDbLine
 10
98.12347102264256
 20
255.9321794342424
 30
0.0
 11
98.12347102264256
 21
263.8156612795699
 31
0.0
  0
LINE
  5
2A70C
330
1F
100
AcDbEntity
  8
実線
100
AcDbLine
 10
98.12347102264256
 20
263.8156612795697
 30
0.0
 11
109.7549828567559
 21
263.8156612795697
 31
0.0
  0
LINE
  5
2A70D
330
1F
100
AcDbEntity
  8
実線
100
AcDbLine
 10
109.7549828567559
 20
263.8156612795697
 30
0.0
 11
109.7549828567559
 21
255.9321794342424
 31
0.0
  0
LINE
  5
2A70E
330
1F
100
AcDbEntity
  8
実線
100
AcDbLine
 10
109.7549828567559
 20
255.9321794342424
 30
0.0
 11
98.12347102264256
 21
255.9321794342423
 31
0.0
  0
LINE
  5
2A70F
330
1F
100
AcDbEntity
  8
実線
100
AcDbLine
 10
102.2914188872474
 20
263.8156612795699
 30
0.0
 11
102.2914188872474
 21
273.8276418423522
 31
0.0
  0
LINE
  5
2A710
330
1F
100
AcDbEntity
  8
実線
100
AcDbLine
 10
105.587034992151
 20
263.8156612795697
 30
0.0
 11
105.587034992151
 21
271.6316972717849
 31
0.0
  0
SPLINE
  5
2A711
330
1F
100
AcDbEntity
  8
実線
100
AcDbSpline
210
0.0
220
0.0
230
1.0
 70
  1064
 71
     3
 72
    11
 73
     7
 74
     5
 42
0.000000001
 43
0.0000000001
 44
0.0000000001
 40
0.0
 40
0.0
 40
0.0
 40
0.0
 40
1.357024005235402
 40
2.910663794972577
 40
3.892682383120479
 40
4.563445293846079
 40
4.563445293846079
 40
4.563445293846079
 40
4.563445293846079
 10
105.587034992151
 20
271.6316972717849
 30
0.0
 10
105.0825370626216
 20
271.5413594002462
 30
0.0
 10
104.0004457713441
 20
271.3475948308736
 30
0.0
 10
103.5159836258792
 20
272.7559230023489
 30
0.0
 10
103.1450495285996
 20
273.9646744937157
 30
0.0
 10
102.5378457561777
 20
273.8672005526197
 30
0.0
 10
102.2914188872474
 20
273.8276418423522
 30
0.0
 11
105.587034992151
 21
271.6316972717849
 31
0.0
 11
104.2300109869156
 21
271.6316972717849
 31
0.0
 11
103.453191092047
 21
272.9771887980276
 31
0.0
 11
102.962181797973
 21
273.8276418423522
 31
0.0
 11
102.2914188872474
 21
273.8276418423522
 31
0.0
  0
SPLINE
  5
2A712
330
1F
100
AcDbEntity
  8
実線
100
AcDbSpline
210
0.0
220
0.0
230
1.0
 70
  1064
 71
     3
 72
     9
 73
     5
 74
     3
 42
0.000000001
 43
0.0000000001
 44
0.0000000001
 40
0.0
 40
0.0
 40
0.0
 40
0.0
 40
1.088445461038331
 40
2.198008502332708
 40
2.198008502332708
 40
2.198008502332708
 40
2.198008502332708
 10
105.3907103343766
 20
271.6316972717849
 30
0.0
 10
105.1441014042725
 20
271.9113899065598
 30
0.0
 10
104.6460989369714
 20
272.4762016599097
 30
0.0
 10
103.9099465197864
 20
272.6368353769707
 30
0.0
 10
103.5383339832557
 20
272.7179238875236
 30
0.0
 11
105.3907103343766
 21
271.6316972717849
 31
0.0
 11
104.5924845853225
 21
272.3716629299083
 31
0.0
 11
103.5383339832557
 21
272.7179238875236
 31
0.0
  0
DIMENSION
  5
2A713
102
{ACAD_XDICTIONARY
360
2A714
102
}
102
{ACAD_REACTORS
330
2A715
102
}
330
1F
100
AcDbEntity
  8
寸法
100
AcDbDimension
280
     0
  2
*D10
 10
197.7060669374051
 20
254.3430035945977
 30
0.0
 11
194.9560669374051
 21
209.8430035945978
 31
0.0
 70
    32
 71
     5
 42
89.0
 73
     0
 74
     0
 75
     0
  3
ｺﾋﾟｰ - ISO-25
100
AcDbAlignedDimension
 13
128.9392269396992
 23
165.3430035945977
 33
0.0
 14
128.9392269396992
 24
254.3430035945978
 34
0.0
 50
90.0
100
AcDbRotatedDimension
  0
TEXT
  5
2A77A
330
1F
100
AcDbEntity
  8
0
100
AcDbText
 10
317.8166666666667
 20
26.58703627890884
 30
0.0
 40
3.5
  1
2019.
 41
0.8
 72
     1
 11
323.75
 21
28.33703627890884
 31
0.0
100
AcDbText
 73
     2
  0
TEXT
  5
2A77B
330
1F
100
AcDbEntity
  8
0
100
AcDbText
 10
317.55
 20
21.53356531963255
 30
0.0
 40
3.5
  1
11.20
 41
0.8
 72
     1
 11
323.75
 21
23.28356531963255
 31
0.0
100
AcDbText
 73
     2
  0
TEXT
  5
2A7B2
330
1F
100
AcDbEntity
  8
0
100
AcDbText
 10
303.7060329945234
 20
39.40516497261691
 30
0.0
 40
3.5
  1
KE-13
 41
0.9
 72
     1
 11
311.7310329945234
 21
41.1551649726169
 31
0.0
100
AcDbText
 73
     2
  0
TEXT
  5
2A7CB
330
1F
100
AcDbEntity
  8
0
100
AcDbText
 10
362.0810329945233
 20
50.90516497261691
 30
0.0
 40
3.5
  1
A-223090
 41
0.9
 72
     1
 11
374.2310329945234
 21
52.65516497261691
 31
0.0
100
AcDbText
 73
     2
  0
LINE
  5
2A7F2
330
1F
100
AcDbEntity
  8
0
100
AcDbLine
 10
25.0
 20
277.0
 30
0.0
 11
25.0
 21
20.0
 31
0.0
  0
LINE
  5
2A7F3
330
1F
100
AcDbEntity
  8
0
100
AcDbLine
 10
405.0
 20
277.0
 30
0.0
 11
25.0
 21
277.0
 31
0.0
  0
LINE
  5
2A7F4
330
1F
100
AcDbEntity
  8
0
100
AcDbLine
 10
405.0
 20
20.0
 30
0.0
 11
405.0
 21
277.0
 31
0.0
  0
LINE
  5
2A7F5
330
1F
100
AcDbEntity
  8
0
100
AcDbLine
 10
25.0
 20
20.0
 30
0.0
 11
405.0
 21
20.0
 31
0.0
  0
VIEWPORT
  5
6B
330
50
100
AcDbEntity
 67
     1
  8
0
348
276B
100
AcDbViewport
 10
433.5371052199573
 20
123.3251464112375
 30
0.0
 40
833.2744282326544
 41
415.0001327249073
 68
     1
 69
     1
 12
433.5371052199573
 22
123.3251464112375
 13
0.0
 23
0.0
 14
10.0
 24
10.0
 15
10.0
 25
10.0
 16
0.0
 26
0.0
 36
1.0
 17
0.0
 27
0.0
 37
0.0
 42
50.0
 43
0.0
 44
0.0
 45
415.0001327249073
 50
0.0
 51
0.0
 72
   100
 90
    32800
  1

281
     0
 71
     1
 74
     0
110
0.0
120
0.0
130
0.0
111
1.0
121
0.0
131
0.0
112
0.0
122
1.0
132
0.0
 79
     0
146
0.0
170
     0
 61
     5
292
     1
282
     1
141
0.0
142
0.0
 63
   250
421
  3355443
  0
VIEWPORT
  5
6D
330
50
100
AcDbEntity
 67
     1
  8
0
348
276B
100
AcDbViewport
 10
194.6747247325147
 20
118.9168694143202
 30
0.0
 40
506.9942499588641
 41
411.2802053937703
 68
     2
 69
     2
 12
200.9197229890301
 22
122.5631282670758
 13
0.0
 23
0.0
 14
10.0
 24
10.0
 15
10.0
 25
10.0
 16
0.0
 26
0.0
 36
1.0
 17
0.0
 27
0.0
 37
0.0
 42
50.0
 43
0.0
 44
0.0
 45
411.2802071812528
 50
0.0
 51
0.0
 72
   100
 90
    32864
  1

281
     0
 71
     1
 74
     0
110
0.0
120
0.0
130
0.0
111
1.0
121
0.0
131
0.0
112
0.0
122
1.0
132
0.0
 79
     0
146
0.0
170
     0
 61
     5
292
     1
282
     1
141
0.0
142
0.0
 63
   250
421
  3355443
  0
ENDSEC
  0
SECTION
  2
OBJECTS
  0
DICTIONARY
  5
C
330
0
100
AcDbDictionary
281
     1
  3
ACAD_CIP_PREVIOUS_PRODUCT_INFO
350
2A8A9
  3
ACAD_COLOR
350
2776
  3
ACAD_DETAILVIEWSTYLE
350
2A89A
  3
ACAD_GROUP
350
D
  3
ACAD_LAYOUT
350
1A
  3
ACAD_MATERIAL
350
2761
  3
ACAD_MLEADERSTYLE
350
247F1
  3
ACAD_MLINESTYLE
350
17
  3
ACAD_PLOTSETTINGS
350
19
  3
ACAD_PLOTSTYLENAME
350
E
  3
ACAD_SCALELIST
350
247DF
  3
ACAD_SECTIONVIEWSTYLE
350
2A898
  3
ACAD_TABLESTYLE
350
2777
  3
ACAD_VISUALSTYLE
350
2765
  3
ACDB_RECOMPOSE_DATA
350
2A8D5
  3
AcDbVariableDictionary
350
5E
  0
DICTIONARY
  5
279F
330
2
100
AcDbDictionary
280
     1
281
     1
  3
ACAD_LAYERFILTERS
360
2DF9
  3
ACAD_LAYERSTATES
360
2E2E
  3
ACLYDICTIONARY
360
2DF8
  0
DICTIONARY
  5
24E13
330
10
100
AcDbDictionary
280
     1
281
     1
  3
ADSK_XREC_LAYER_RECONCILED
360
24E14
  0
DICTIONARY
  5
24E15
330
A7
100
AcDbDictionary
280
     1
281
     1
  3
ADSK_XREC_LAYER_RECONCILED
360
24E16
  0
DICTIONARY
  5
24E17
330
A8
100
AcDbDictionary
280
     1
281
     1
  3
ADSK_XREC_LAYER_RECONCILED
360
24E18
  0
DICTIONARY
  5
24E19
330
A9
100
AcDbDictionary
280
     1
281
     1
  3
ADSK_XREC_LAYER_RECONCILED
360
24E1A
  0
DICTIONARY
  5
24E1B
330
AA
100
AcDbDictionary
280
     1
281
     1
  3
ADSK_XREC_LAYER_RECONCILED
360
24E1C
  0
DICTIONARY
  5
24E1D
330
AB
100
AcDbDictionary
280
     1
281
     1
  3
ADSK_XREC_LAYER_RECONCILED
360
24E1E
  0
DICTIONARY
  5
24E1F
330
AC
100
AcDbDictionary
280
     1
281
     1
  3
ADSK_XREC_LAYER_RECONCILED
360
24E20
  0
DICTIONARY
  5
24E21
330
58C
100
AcDbDictionary
280
     1
281
     1
  3
ADSK_XREC_LAYER_RECONCILED
360
24E22
  0
DICTIONARY
  5
24E23
330
1023
100
AcDbDictionary
280
     1
281
     1
  3
ADSK_XREC_LAYER_RECONCILED
360
24E24
  0
DICTIONARY
  5
24E25
330
2366
100
AcDbDictionary
280
     1
281
     1
  3
ADSK_XREC_LAYER_RECONCILED
360
24E26
  0
DICTIONARY
  5
2D98
330
1F
100
AcDbDictionary
280
     1
281
     1
  3
ACAD_SORTENTS
360
2D99
  0
DICTIONARY
  5
29CF
330
341
100
AcDbDictionary
280
     1
281
     1
  3
ACAD_SORTENTS
360
29D1
  0
DICTIONARY
  5
2A15D
330
2A15C
100
AcDbDictionary
280
     1
281
     1
  3
ACAD_DIMASSOC
360
2A15E
  0
DICTIONARY
  5
2A2D7
330
2A2CA
100
AcDbDictionary
280
     1
281
     1
  3
ACAD_DIMASSOC
360
2A2E1
  0
DICTIONARY
  5
2A2EF
330
2A2E2
100
AcDbDictionary
280
     1
281
     1
  3
ACAD_DIMASSOC
360
2A2F9
  0
DICTIONARY
  5
2A714
330
2A713
100
AcDbDictionary
280
     1
281
     1
  3
ACAD_DIMASSOC
360
2A715
  0
XRECORD
  5
2A8A9
102
{ACAD_REACTORS
330
C
102
}
330
C
100
AcDbXrecord
280
     1
300
ACDLT
300
2014
300
ACDLT_F_S
  0
DICTIONARY
  5
2776
102
{ACAD_REACTORS
330
C
102
}
330
C
100
AcDbDictionary
281
     1
  0
DICTIONARY
  5
2A89A
102
{ACAD_REACTORS
330
C
102
}
330
C
100
AcDbDictionary
281
     1
  3
Metric50
350
2A89B
  0
DICTIONARY
  5
D
102
{ACAD_REACTORS
330
C
102
}
330
C
100
AcDbDictionary
281
     1
  3
*A1
350
29F6
  0
DICTIONARY
  5
1A
102
{ACAD_REACTORS
330
C
102
}
330
C
100
AcDbDictionary
281
     1
  3
Model
350
22
  3
ﾚｲｱｳﾄ1
350
51
  3
ﾚｲｱｳﾄ2
350
56
  0
DICTIONARY
  5
2761
102
{ACAD_REACTORS
330
C
102
}
330
C
100
AcDbDictionary
281
     1
  3
ByBlock
350
2763
  3
ByLayer
350
2762
  3
Global
350
2764
  0
DICTIONARY
  5
247F1
102
{ACAD_REACTORS
330
C
102
}
330
C
100
AcDbDictionary
281
     1
  3
Standard
350
247F2
  0
DICTIONARY
  5
17
102
{ACAD_REACTORS
330
C
102
}
330
C
100
AcDbDictionary
281
     1
  3
Standard
350
18
  0
DICTIONARY
  5
19
102
{ACAD_REACTORS
330
C
102
}
330
C
100
AcDbDictionary
281
     1
  3
印刷
350
E74
  0
ACDBDICTIONARYWDFLT
  5
E
102
{ACAD_REACTORS
330
C
102
}
330
C
100
AcDbDictionary
281
     1
  3
Normal
350
F
100
AcDbDictionaryWithDefault
340
F
  0
DICTIONARY
  5
247DF
102
{ACAD_REACTORS
330
C
102
}
330
C
100
AcDbDictionary
281
     1
  3
A0
350
247E0
  3
A1
350
247E1
  3
A2
350
247E2
  3
A3
350
247E3
  3
A4
350
247E4
  3
A5
350
247E5
  3
A6
350
247E6
  3
A7
350
247E7
  3
A8
350
247E8
  3
A9
350
247E9
  3
B0
350
247EA
  3
B1
350
247EB
  3
B2
350
247EC
  3
B3
350
247ED
  3
B4
350
247EE
  3
B5
350
247EF
  3
B6
350
247F0
  0
DICTIONARY
  5
2A898
102
{ACAD_REACTORS
330
C
102
}
330
C
100
AcDbDictionary
281
     1
  3
Metric50
350
2A899
  0
DICTIONARY
  5
2777
102
{ACAD_REACTORS
330
C
102
}
330
C
100
AcDbDictionary
281
     1
  3
Standard
350
2778
  3
コピー - Standard
350
2688B
  0
DICTIONARY
  5
2765
102
{ACAD_REACTORS
330
C
102
}
330
C
100
AcDbDictionary
281
     1
  3
2dWireframe
350
276B
  3
3D Hidden
350
276D
  3
3dWireframe
350
276C
  3
Basic
350
276A
  3
Brighten
350
2771
  3
ColorChange
350
2775
  3
Conceptual
350
276E
  3
Dim
350
2770
  3
EdgeColorOff
350
247DE
  3
Facepattern
350
2774
  3
Flat
350
2766
  3
FlatWithEdges
350
2767
  3
Gouraud
350
2768
  3
GouraudWithEdges
350
2769
  3
Hidden
350
2A892
  3
JitterOff
350
247DC
  3
Linepattern
350
2773
  3
OverhangOff
350
247DD
  3
Realistic
350
276F
  3
Shaded
350
2A897
  3
Shaded with edges
350
2A896
  3
Shades of Gray
350
2A893
  3
Sketchy
350
2A894
  3
Thicken
350
2772
  3
Wireframe
350
2A891
  3
X-Ray
350
2A895
  0
XRECORD
  5
2A8D5
102
{ACAD_REACTORS
330
C
102
}
330
C
100
AcDbXrecord
280
     1
 90
        1
330
2778
330
2688B
330
2A899
330
2A89B
  0
DICTIONARY
  5
5E
102
{ACAD_REACTORS
330
C
102
}
330
C
100
AcDbDictionary
281
     1
  3
CANNOSCALE
350
24E32
  3
CMLEADERSTYLE
350
24E30
  3
CTABLESTYLE
350
2792
  3
CVIEWDETAILSTYLE
350
2A8AC
  3
CVIEWSECTIONSTYLE
350
2A8AD
  3
DIMASSOC
350
5F
  3
HIDETEXT
350
63
  3
LAYEREVAL
350
24E34
  3
LAYERNOTIFY
350
24E35
  3
LIGHTINGUNITS
350
24E33
  3
MSLTSCALE
350
24E31
  0
DICTIONARY
  5
2DF9
102
{ACAD_REACTORS
330
279F
102
}
330
279F
100
AcDbDictionary
281
     1
  0
DICTIONARY
  5
2E2E
102
{ACAD_REACTORS
330
279F
102
}
330
279F
100
AcDbDictionary
281
     1
  0
DICTIONARY
  5
2DF8
102
{ACAD_REACTORS
330
279F
102
}
330
279F
100
AcDbDictionary
281
     1
1001
ACAD
1000
<All
  0
XRECORD
  5
24E14
102
{ACAD_REACTORS
330
24E13
102
}
330
24E13
100
AcDbXrecord
280
     1
290
     1
  0
XRECORD
  5
24E16
102
{ACAD_REACTORS
330
24E15
102
}
330
24E15
100
AcDbXrecord
280
     1
290
     1
  0
XRECORD
  5
24E18
102
{ACAD_REACTORS
330
24E17
102
}
330
24E17
100
AcDbXrecord
280
     1
290
     1
  0
XRECORD
  5
24E1A
102
{ACAD_REACTORS
330
24E19
102
}
330
24E19
100
AcDbXrecord
280
     1
290
     1
  0
XRECORD
  5
24E1C
102
{ACAD_REACTORS
330
24E1B
102
}
330
24E1B
100
AcDbXrecord
280
     1
290
     1
  0
XRECORD
  5
24E1E
102
{ACAD_REACTORS
330
24E1D
102
}
330
24E1D
100
AcDbXrecord
280
     1
290
     1
  0
XRECORD
  5
24E20
102
{ACAD_REACTORS
330
24E1F
102
}
330
24E1F
100
AcDbXrecord
280
     1
290
     1
  0
XRECORD
  5
24E22
102
{ACAD_REACTORS
330
24E21
102
}
330
24E21
100
AcDbXrecord
280
     1
290
     1
  0
XRECORD
  5
24E24
102
{ACAD_REACTORS
330
24E23
102
}
330
24E23
100
AcDbXrecord
280
     1
290
     1
  0
XRECORD
  5
24E26
102
{ACAD_REACTORS
330
24E25
102
}
330
24E25
100
AcDbXrecord
280
     1
290
     1
  0
SORTENTSTABLE
  5
2D99
102
{ACAD_REACTORS
330
2D98
102
}
330
2D98
100
AcDbSortentsTable
330
1F
331
2A16B
  5
2A35E
331
2A36A
  5
2A37F
331
2A12C
  5
2A138
331
2A134
  5
2A140
331
2A372
  5
2A3F1
331
2A37A
  5
2A3FC
331
2A13C
  5
2A149
331
29EAE
  5
29EB2
331
29EED
  5
29EF1
331
29EF5
  5
29EF9
331
29EB6
  5
29EBA
331
2A15A
  5
2A177
331
29EFD
  5
29F01
331
2A7F4
  5
24DC1
331
29EBE
  5
29EC2
331
29B5B
  5
29B5C
331
29EC6
  5
29ECA
331
2A2CA
  5
2A364
331
29F9A
  5
29F9E
331
29FD9
  5
29FDD
331
29F24
  5
29F28
331
29F63
  5
29F67
331
2A010
  5
2A014
331
2A0F5
  5
2A101
331
2A018
  5
2A01C
331
2A057
  5
2A05B
331
29F6B
  5
29F6F
331
29FA2
  5
29FA6
331
29F2C
  5
29F30
331
29FE1
  5
29FE5
331
2A0AE
  5
2A0B9
331
2A0B6
  5
2A0DA
331
2A0FD
  5
2A109
331
29FE9
  5
29FED
331
2A020
  5
2A024
331
29F73
  5
29F77
331
29FAA
  5
29FAE
331
2A05F
  5
2A063
331
29F34
  5
29F38
331
2A105
  5
2A111
331
2A028
  5
2A02C
331
29F3C
  5
29F40
331
29FB2
  5
29FB6
331
2A067
  5
2A06B
331
2A10D
  5
2A119
331
2A144
  5
2A159
331
2A6E9
  5
2A6F1
331
2A6F9
  5
2A701
331
2A14C
  5
2A166
331
2A353
  5
2A368
331
2A115
  5
2A121
331
2A3F2
  5
2A54D
331
2A701
  5
2A709
331
2A154
  5
2A16E
331
2A35B
  5
2A370
331
2A11D
  5
2A129
331
2A3FA
  5
2A5E6
331
2A402
  5
2A6E8
331
2A709
  5
2A711
331
2A125
  5
2A131
331
2A164
  5
2A2E2
331
2A363
  5
2A379
331
29B77
  5
29B76
331
29ECE
  5
29ED2
331
2A2E2
  5
2A365
331
2A712
  5
2A7F4
331
29B87
  5
29B8B
331
29ED6
  5
29EDA
331
2A6F2
  5
2A6FA
331
29B8F
  5
29EAC
331
29EDE
  5
29EE2
331
29EE6
  5
29EEA
331
29FBA
  5
29FBE
331
29FF1
  5
29FF5
331
29F05
  5
29F09
331
29F44
  5
29F48
331
29F7B
  5
29F7F
331
2A030
  5
2A034
331
2A038
  5
2A03C
331
2A06F
  5
2A075
331
29F83
  5
29F87
331
29FC2
  5
29FC6
331
29F0D
  5
29F11
331
29F4C
  5
29F50
331
29FF9
  5
29FFD
331
2A0DE
  5
2A0EA
331
2A040
  5
2A044
331
29F8B
  5
29F8F
331
29FCA
  5
29FCE
331
29F15
  5
29F19
331
29F54
  5
29F58
331
2A001
  5
2A005
331
2A0E6
  5
2A0F2
331
2A009
  5
2A00D
331
2A048
  5
2A04C
331
29F5C
  5
29F60
331
29F93
  5
29F97
331
29F1D
  5
29F21
331
29FD2
  5
29FD6
331
2A0A7
  5
2A0AF
331
2A0EE
  5
2A0FA
331
2A36B
  5
2A380
331
2A12D
  5
2A139
331
2A16C
  5
2A35F
331
2A373
  5
2A3F2
331
2A135
  5
2A141
331
2A37B
  5
2A3FD
331
2A13D
  5
2A14A
331
2A6E2
  5
2A6EA
331
29B24
  5
29B75
331
29EEE
  5
29EF2
331
29EAF
  5
29EB3
331
29B3C
  5
24DBE
331
29EB7
  5
29EBB
331
29EF6
  5
29EFA
331
2A7F5
  5
24DB9
331
29EBF
  5
29EC3
331
29EFE
  5
29F02
331
2A15B
  5
2A178
331
29EC7
  5
29ECB
331
29FDA
  5
29FDE
331
2A011
  5
2A015
331
29F25
  5
29F29
331
29F64
  5
29F68
331
29F9B
  5
29F9F
331
2A050
  5
2A054
331
2A058
  5
2A05C
331
29FE2
  5
29FE6
331
2A019
  5
2A01D
331
2A0F6
  5
2A102
331
29F2D
  5
29F31
331
29F6C
  5
29F70
331
29FA3
  5
29FA7
331
2A060
  5
2A064
331
2A0B7
  5
2A0DB
331
29FAB
  5
29FAF
331
29FEA
  5
29FEE
331
29F35
  5
29F39
331
29F74
  5
29F78
331
2A021
  5
2A025
331
2A0FE
  5
2A10A
331
2A029
  5
2A02D
331
2A106
  5
2A112
331
29FB3
  5
29FB7
331
29F3D
  5
29F41
331
2A145
  5
2A15A
331
2A6EA
  5
2A6F2
331
2A10E
  5
2A11A
331
2A3F3
  5
2A54E
331
2A6FA
  5
2A702
331
2A116
  5
2A122
331
2A14D
  5
2A167
331
2A354
  5
2A369
331
2A35C
  5
2A371
331
2A3FB
  5
2A5E7
331
2A11E
  5
2A12A
331
2A155
  5
2A16F
331
2A702
  5
2A70A
331
2A70A
  5
2A712
331
2A165
  5
2A351
331
2A364
  5
2A37A
331
2A126
  5
2A132
331
2A403
  5
2A6E9
331
108D
  5
29563
331
29ECF
  5
29ED3
331
29ED7
  5
29EDB
331
2A713
  5
2A7F5
331
29B88
  5
29B8C
331
29B90
  5
29EAD
331
29EDF
  5
29EE3
331
2A6F3
  5
2A6FB
331
29EE7
  5
29EEB
331
29FF2
  5
29FF6
331
2A031
  5
2A035
331
29F7C
  5
29F80
331
29FBB
  5
29FBF
331
2A068
  5
2A06C
331
29F06
  5
29F0A
331
29F45
  5
29F49
331
2A0D7
  5
2A0E3
331
29FFA
  5
29FFE
331
2A039
  5
2A03D
331
29F4D
  5
29F51
331
29F84
  5
29F88
331
29F0E
  5
29F12
331
29FC3
  5
29FC7
331
2A070
  5
2A076
331
2A0DF
  5
2A0EB
331
29FCB
  5
29FCF
331
2A002
  5
2A006
331
29F16
  5
29F1A
331
29F55
  5
29F59
331
29F8C
  5
29F90
331
2A041
  5
2A045
331
2A049
  5
2A04D
331
29F94
  5
29F98
331
29FD3
  5
29FD7
331
29F1E
  5
29F22
331
29F5D
  5
29F61
331
2A00A
  5
2A00E
331
2A0E7
  5
2A0F3
331
2A0EF
  5
2A0FB
331
2A77A
  5
2A855
331
2A16D
  5
2A360
331
2A36C
  5
2A3C7
331
2A12E
  5
2A13A
331
2A7B2
  5
2A877
331
2A136
  5
2A142
331
2A374
  5
2A3F3
331
2A37C
  5
2A3FF
331
2A13E
  5
2A14B
331
2A6E3
  5
2A6EB
331
29EB0
  5
29EB4
331
29EEF
  5
29EF3
331
29EF7
  5
29EFB
331
29EB8
  5
29EBC
331
29B3D
  5
24DB4
331
29EFF
  5
29F03
331
2A15C
  5
2A179
331
29EC0
  5
29EC4
331
2A051
  5
2A055
331
2A0A8
  5
2A0B2
331
29F9C
  5
29FA0
331
29FDB
  5
29FDF
331
29F26
  5
29F2A
331
29F65
  5
29F69
331
2A012
  5
2A016
331
2A0F7
  5
2A103
331
2A01A
  5
2A01E
331
2A059
  5
2A05D
331
29F6D
  5
29F71
331
29FA4
  5
29FA8
331
29F2E
  5
29F32
331
29FE3
  5
29FE7
331
2A0B0
  5
2A0BA
331
2A0B8
  5
2A0DC
331
2A0FF
  5
2A10B
331
29FEB
  5
29FEF
331
2A022
  5
2A026
331
29F36
  5
29F3A
331
29F75
  5
29F79
331
29FAC
  5
29FB0
331
2A061
  5
2A065
331
2A02A
  5
2A02E
331
2A107
  5
2A113
331
29F3E
  5
29F42
331
29FB4
  5
29FB8
331
2A3EC
  5
2A492
331
2A10F
  5
2A11B
331
2A146
  5
2A15B
331
2A6EB
  5
2A6F3
331
2A6FB
  5
2A703
331
2A14E
  5
2A168
331
2A355
  5
2A36A
331
2A117
  5
2A123
331
2A3F4
  5
2A54F
331
2A3FC
  5
2A6E2
331
2A703
  5
2A70B
331
2A156
  5
2A170
331
2A35D
  5
2A372
331
2A11F
  5
2A12B
331
2A70B
  5
2A713
331
2A127
  5
2A133
331
2A365
  5
2A37B
331
29EC8
  5
29ECC
331
29B81
  5
29B86
331
29ED0
  5
29ED4
331
27C66
  5
29B3E
331
29B89
  5
29B8D
331
29ED8
  5
29EDC
331
2A6F4
  5
2A6FC
331
29B91
  5
29EAE
331
29EE0
  5
29EE4
331
2A069
  5
2A06D
331
29FBC
  5
29FC0
331
29FF3
  5
29FF7
331
29F07
  5
29F0B
331
29F46
  5
29F4A
331
29F7D
  5
29F81
331
2A032
  5
2A036
331
2A03A
  5
2A03E
331
2A071
  5
2A07F
331
29F85
  5
29F89
331
29FC4
  5
29FC8
331
29F0F
  5
29F13
331
29F4E
  5
29F52
331
29FFB
  5
29FFF
331
2A0D8
  5
2A0E4
331
2A0E0
  5
2A0EC
331
2A003
  5
2A007
331
2A042
  5
2A046
331
29F8D
  5
29F91
331
29FCC
  5
29FD0
331
29F17
  5
29F1B
331
29F56
  5
29F5A
331
2A0E8
  5
2A0F4
331
2A00B
  5
2A00F
331
2A04A
  5
2A04E
331
29F5E
  5
29F62
331
29F95
  5
29F99
331
29F1F
  5
29F23
331
29FD4
  5
29FD8
331
2A36D
  5
2A3EC
331
2A12F
  5
2A13B
331
2A16E
  5
2A361
331
2A77B
  5
2A856
331
2A375
  5
2A3F4
331
2A137
  5
2A143
331
2A5DC
  5
2A493
331
2A7CB
  5
2A878
331
2A37D
  5
2A400
331
2A13F
  5
2A154
331
2A6E4
  5
2A6EC
331
29EE8
  5
29EEC
331
29EB1
  5
29EB5
331
29EF0
  5
29EF4
331
29B3E
  5
24DC2
331
29EB9
  5
29EBD
331
29EF8
  5
29EFC
331
29EC1
  5
29EC5
331
2A0A9
  5
2A0B3
331
2A0F0
  5
2A0FC
331
29FDC
  5
29FE0
331
2A013
  5
2A017
331
29F27
  5
29F2B
331
29F66
  5
29F6A
331
29F9D
  5
29FA1
331
2A052
  5
2A056
331
2A05A
  5
2A05E
331
2A0B1
  5
2A0BB
331
29FA5
  5
29FA9
331
29FE4
  5
29FE8
331
29F2F
  5
29F33
331
29F6E
  5
29F72
331
2A01B
  5
2A01F
331
2A0F8
  5
2A104
331
2A100
  5
2A10C
331
2A062
  5
2A066
331
2A0B9
  5
2A0DD
331
29FAD
  5
29FB1
331
29FEC
  5
29FF0
331
29F37
  5
29F3B
331
29F76
  5
29F7A
331
2A023
  5
2A027
331
2A02B
  5
2A02F
331
29FB5
  5
29FB9
331
29F3F
  5
29F43
331
2A108
  5
2A114
331
2A110
  5
2A11C
331
2A147
  5
2A15C
331
2A6EC
  5
2A6F4
331
2A3F5
  5
2A585
331
2A6FC
  5
2A704
331
2A118
  5
2A124
331
2A14F
  5
2A169
331
2A356
  5
2A36B
331
2A35E
  5
2A373
331
2A3FD
  5
2A6E3
331
2A120
  5
2A12C
331
2A157
  5
2A171
331
2A704
  5
2A70C
331
2A70C
  5
2A77A
331
2A167
  5
2A353
331
2A366
  5
2A37C
331
29EC9
  5
29ECD
331
108F
  5
29564
331
29ED1
  5
29ED5
331
29ED9
  5
29EDD
331
29B8A
  5
29B8E
331
27C67
  5
29B3F
331
29EE1
  5
29EE5
331
2A6F5
  5
2A6FD
331
29F00
  5
29F04
331
29FF4
  5
29FF8
331
2A033
  5
2A037
331
29F47
  5
29F4B
331
29F7E
  5
29F82
331
29F08
  5
29F0C
331
29FBD
  5
29FC1
331
2A06A
  5
2A06E
331
2A072
  5
2A0A8
331
2A0D9
  5
2A0E5
331
29FFC
  5
2A000
331
2A03B
  5
2A03F
331
29F4F
  5
29F53
331
29F86
  5
29F8A
331
29F10
  5
29F14
331
29FC5
  5
29FC9
331
2A0E1
  5
2A0ED
331
29FCD
  5
29FD1
331
2A004
  5
2A008
331
29F18
  5
29F1C
331
29F57
  5
29F5B
331
29F8E
  5
29F92
331
2A043
  5
2A047
331
2A04B
  5
2A04F
331
29F96
  5
29F9A
331
29FD5
  5
29FD9
331
29F5F
  5
29F63
331
2A00C
  5
2A010
331
2A0E9
  5
2A0F5
331
2A128
  5
2A134
331
2A585
  5
2A4CE
331
2A16F
  5
2A362
331
2A36E
  5
2A3ED
331
2A130
  5
2A13C
331
2A138
  5
2A144
331
2A376
  5
2A3F5
331
2A37E
  5
2A401
331
2A6E5
  5
2A6ED
331
29EE9
  5
29EED
331
29B27
  5
29B83
331
29EB2
  5
29EB6
331
29EF1
  5
29EF5
331
29EF9
  5
29EFD
331
29EBA
  5
29EBE
331
29B3F
  5
24DBB
331
29EC2
  5
29EC6
331
29F20
  5
29F24
331
2A0F1
  5
2A0FD
331
2A014
  5
2A018
331
2A053
  5
2A057
331
29F9E
  5
29FA2
331
29FDD
  5
29FE1
331
2A0AA
  5
2A0B5
331
29F28
  5
29F2C
331
29F67
  5
29F6B
331
2A0F9
  5
2A105
331
2A01C
  5
2A020
331
2A05B
  5
2A05F
331
29F6F
  5
29F73
331
29FA6
  5
29FAA
331
29F30
  5
29F34
331
29FE5
  5
29FE9
331
2A0BA
  5
2A0DE
331
2A101
  5
2A10D
331
29FED
  5
29FF1
331
2A024
  5
2A028
331
29F38
  5
29F3C
331
29F77
  5
29F7B
331
29FAE
  5
29FB2
331
2A063
  5
2A067
331
29FB6
  5
29FBA
331
2A02C
  5
2A030
331
2A109
  5
2A115
331
2A140
  5
2A155
331
2A3EE
  5
2A4F9
331
2A111
  5
2A11D
331
2A148
  5
2A162
331
2A6ED
  5
2A6F5
331
2A6FD
  5
2A705
331
2A150
  5
2A16A
331
2A357
  5
2A36C
331
2A119
  5
2A125
331
2A3F6
  5
2A5A0
331
2A3FE
  5
2A6E4
331
2A705
  5
2A70D
331
2A121
  5
2A12D
331
2A35F
  5
2A374
331
2A70D
  5
2A77B
331
2A367
  5
2A37D
331
1581D
  5
29B3D
331
29ECA
  5
29ECE
331
29B83
  5
29B87
331
1090
  5
29B3C
331
29ED2
  5
29ED6
331
29B8B
  5
29B8F
331
29EDA
  5
29EDE
331
29EE2
  5
29EE6
331
29F40
  5
29F44
331
29F01
  5
29F05
331
2A06B
  5
2A06F
331
29FBE
  5
29FC2
331
29FF5
  5
29FF9
331
29F09
  5
29F0D
331
29F48
  5
29F4C
331
29F7F
  5
29F83
331
2A034
  5
2A038
331
2A03C
  5
2A040
331
29F87
  5
29F8B
331
29FC6
  5
29FCA
331
29F11
  5
29F15
331
29F50
  5
29F54
331
29FFD
  5
2A001
331
2A0DA
  5
2A0E6
331
2A0E2
  5
2A0EE
331
2A005
  5
2A009
331
2A044
  5
2A048
331
29F58
  5
29F5C
331
29F8F
  5
29F93
331
29F19
  5
29F1D
331
29FCE
  5
29FD2
331
2A07B
  5
2A0AB
331
2A0EA
  5
2A0F6
331
2A00D
  5
2A011
331
2A04C
  5
2A050
331
29F97
  5
29F9B
331
29FD6
  5
29FDA
331
2A129
  5
2A135
331
2A168
  5
2A354
331
2A36F
  5
2A3EE
331
2A131
  5
2A13D
331
2A170
  5
2A363
331
2A377
  5
2A3F6
331
2A139
  5
2A145
331
2A6E6
  5
2A6EE
331
2A37F
  5
2A402
331
29EEA
  5
29EEE
331
29EAB
  5
29EAF
331
29EB3
  5
29EB7
331
29EF2
  5
29EF6
331
29B58
  5
29B85
331
29EBB
  5
29EBF
331
29EFA
  5
29EFE
331
29EC3
  5
29EC7
331
29F60
  5
29F64
331
29F21
  5
29F25
331
2A0AB
  5
2A0B6
331
2A0F2
  5
2A0FE
331
29FDE
  5
29FE2
331
2A015
  5
2A019
331
29F29
  5
29F2D
331
29F68
  5
29F6C
331
29F9F
  5
29FA3
331
2A054
  5
2A058
331
2A05C
  5
2A060
331
2A0B3
  5
2A0BC
331
29FA7
  5
29FAB
331
29FE6
  5
29FEA
331
29F31
  5
29F35
331
29F70
  5
29F74
331
2A01D
  5
2A021
331
2A0FA
  5
2A106
331
2A102
  5
2A10E
331
2A025
  5
2A029
331
2A064
  5
2A068
331
29FAF
  5
29FB3
331
29F39
  5
29F3D
331
29FEE
  5
29FF2
331
2A0BB
  5
2A0DF
331
2A02D
  5
2A031
331
29FB7
  5
29FBB
331
2A141
  5
2A156
331
2A10A
  5
2A116
331
2A3EF
  5
2A4FA
331
2A112
  5
2A11E
331
2A149
  5
2A163
331
2A6EE
  5
2A6F6
331
2A358
  5
2A36D
331
2A3F7
  5
2A5A1
331
2A11A
  5
2A126
331
2A151
  5
2A16B
331
2A6FE
  5
2A706
331
2A360
  5
2A376
331
2A122
  5
2A12E
331
2A3FF
  5
2A6E5
331
2A706
  5
2A70E
331
2A70E
  5
2A7B2
331
29B74
  5
29B59
331
29ECB
  5
29ECF
331
29ED3
  5
29ED7
331
29B84
  5
29B88
331
29EDB
  5
29EDF
331
29B8C
  5
29B90
331
29EE3
  5
29EE7
331
2A6F7
  5
2A6FF
331
29F78
  5
29F7C
331
29F02
  5
29F06
331
29F41
  5
29F45
331
29FF6
  5
29FFA
331
2A035
  5
2A039
331
29F49
  5
29F4D
331
29F80
  5
29F84
331
29F0A
  5
29F0E
331
29FBF
  5
29FC3
331
2A06C
  5
2A070
331
2A0DB
  5
2A0E7
331
29FC7
  5
29FCB
331
29FFE
  5
2A002
331
29F51
  5
29F55
331
29F88
  5
29F8C
331
2A03D
  5
2A041
331
29F12
  5
29F16
331
2A0E3
  5
2A0EF
331
29FCF
  5
29FD3
331
2A006
  5
2A00A
331
29F1A
  5
29F1E
331
29F59
  5
29F5D
331
29F90
  5
29F94
331
2A045
  5
2A049
331
2A04D
  5
2A051
331
2A0A4
  5
2A0AC
331
29FD7
  5
29FDB
331
2A00E
  5
2A012
331
2A0EB
  5
2A0F7
331
2A169
  5
2A35C
331
2A12A
  5
2A136
331
2A132
  5
2A13E
331
2A370
  5
2A3EF
331
2A13A
  5
2A146
331
2A378
  5
2A3F7
331
2A380
  5
2A403
331
2A6E7
  5
2A6EF
331
29EAC
  5
29EB0
331
29EEB
  5
29EEF
331
29EB4
  5
29EB8
331
29EF3
  5
29EF7
331
2A158
  5
2A175
331
29EFB
  5
29EFF
331
2A7F2
  5
24DBD
331
29EBC
  5
29EC0
331
29B59
  5
29B84
331
29EC4
  5
29EC8
331
29F98
  5
29F9C
331
29F22
  5
29F26
331
29F61
  5
29F65
331
2A0F3
  5
2A0FF
331
2A016
  5
2A01A
331
2A055
  5
2A059
331
29F69
  5
29F6D
331
29FA0
  5
29FA4
331
29F2A
  5
29F2E
331
29FDF
  5
29FE3
331
2A0AC
  5
2A0B7
331
2A0B4
  5
2A0BD
331
2A0FB
  5
2A107
331
2A01E
  5
2A022
331
2A05D
  5
2A061
331
29F71
  5
29F75
331
29FA8
  5
29FAC
331
29F32
  5
29F36
331
29FE7
  5
29FEB
331
2A0BC
  5
2A0E0
331
2A103
  5
2A10F
331
29FEF
  5
29FF3
331
2A026
  5
2A02A
331
29F3A
  5
29F3E
331
29FB0
  5
29FB4
331
2A065
  5
2A069
331
2A0C4
  5
2A0E2
331
2A02E
  5
2A032
331
2A10B
  5
2A117
331
2A142
  5
2A157
331
2A6EF
  5
2A6F7
331
2A351
  5
2A366
331
2A3F0
  5
2A52F
331
2A113
  5
2A11F
331
2A14A
  5
2A164
331
2A6FF
  5
2A707
331
2A152
  5
2A16C
331
2A359
  5
2A36E
331
2A11B
  5
2A127
331
2A3F8
  5
2A5BA
331
2A400
  5
2A6E6
331
2A707
  5
2A70F
331
2A123
  5
2A12F
331
2A162
  5
2A17A
331
2A361
  5
2A377
331
2A70F
  5
2A7CB
331
29ECC
  5
29ED0
331
29B75
  5
29B58
331
29B85
  5
29B89
331
29ED4
  5
29ED8
331
2A710
  5
2A7F2
331
2A6F0
  5
2A6F8
331
29B8D
  5
29B91
331
29EDC
  5
29EE0
331
29EE4
  5
29EE8
331
29FB8
  5
29FBC
331
29F03
  5
29F07
331
29F42
  5
29F46
331
29F79
  5
29F7D
331
2A036
  5
2A03A
331
2A06D
  5
2A071
331
29FC0
  5
29FC4
331
29FF7
  5
29FFB
331
29F0B
  5
29F0F
331
29F4A
  5
29F4E
331
29F81
  5
29F85
331
2A03E
  5
2A042
331
2A075
  5
2A0A9
331
29F89
  5
29F8D
331
29FC8
  5
29FCC
331
29F13
  5
29F17
331
29F52
  5
29F56
331
29FFF
  5
2A003
331
2A0DC
  5
2A0E8
331
2A0E4
  5
2A0F0
331
2A007
  5
2A00B
331
2A046
  5
2A04A
331
29F5A
  5
29F5E
331
29F91
  5
29F95
331
29F1B
  5
29F1F
331
29FD0
  5
29FD4
331
2A0A5
  5
2A0AD
331
2A0EC
  5
2A0F8
331
2A00F
  5
2A013
331
2A04E
  5
2A052
331
2A369
  5
2A37E
331
2A12B
  5
2A137
331
2A16A
  5
2A35D
331
2A371
  5
2A3F0
331
2A133
  5
2A13F
331
2A379
  5
2A3F9
331
2A13B
  5
2A148
331
29EEC
  5
29EF0
331
29EAD
  5
29EB1
331
29EB5
  5
29EB9
331
29EF4
  5
29EF8
331
2A7F3
  5
108F
331
29B5A
  5
29B74
331
29EBD
  5
29EC1
331
29EFC
  5
29F00
331
2A159
  5
2A176
331
29EC5
  5
29EC9
331
29FD8
  5
29FDC
331
29F62
  5
29F66
331
29F99
  5
29F9D
331
29F23
  5
29F27
331
2A0AD
  5
2A0B8
331
2A0F4
  5
2A100
331
29FE0
  5
29FE4
331
2A017
  5
2A01B
331
29F2B
  5
29F2F
331
29F6A
  5
29F6E
331
29FA1
  5
29FA5
331
2A056
  5
2A05A
331
2A05E
  5
2A062
331
2A0B5
  5
2A0C4
331
29FA9
  5
29FAD
331
29FE8
  5
29FEC
331
29F33
  5
29F37
331
29F72
  5
29F76
331
2A01F
  5
2A023
331
2A0FC
  5
2A108
331
2A104
  5
2A110
331
2A027
  5
2A02B
331
29FB1
  5
29FB5
331
2A066
  5
2A06A
331
29F3B
  5
29F3F
331
2A0BD
  5
2A0E1
331
2A02F
  5
2A033
331
2A143
  5
2A158
331
2A6E8
  5
2A6F0
331
2A10C
  5
2A118
331
2A3F1
  5
2A530
331
2A6F8
  5
2A700
331
2A114
  5
2A120
331
2A14B
  5
2A165
331
2A352
  5
2A367
331
2A35A
  5
2A36F
331
2A3F9
  5
2A5DC
331
2A11C
  5
2A128
331
2A153
  5
2A16D
331
2A700
  5
2A708
331
2A708
  5
2A710
331
2A362
  5
2A378
331
2A401
  5
2A6E7
331
2A124
  5
2A130
331
2A163
  5
2A2CA
331
29B76
  5
29B81
331
29ECD
  5
29ED1
331
29ED5
  5
29ED9
331
2A711
  5
2A7F3
331
29B86
  5
29B8A
331
29A83
  5
29B40
331
29EDD
  5
29EE1
331
2A6F1
  5
2A6F9
331
29B8E
  5
29EAB
331
29ABB
  5
29B5A
331
29EE5
  5
29EE9
331
29F7A
  5
29F7E
331
29FB9
  5
29FBD
331
29F04
  5
29F08
331
29F43
  5
29F47
331
29FF0
  5
29FF4
331
29FF8
  5
29FFC
331
2A037
  5
2A03B
331
29F4B
  5
29F4F
331
29F82
  5
29F86
331
29F0C
  5
29F10
331
29FC1
  5
29FC5
331
2A06E
  5
2A072
331
2A076
  5
2A0AA
331
2A0DD
  5
2A0E9
331
29FC9
  5
29FCD
331
2A000
  5
2A004
331
29F14
  5
29F18
331
29F53
  5
29F57
331
29F8A
  5
29F8E
331
2A03F
  5
2A043
331
2A047
  5
2A04B
331
29FD1
  5
29FD5
331
2A008
  5
2A00C
331
2A0E5
  5
2A0F1
331
29F1C
  5
29F20
331
29F5B
  5
29F5F
331
29F92
  5
29F96
331
2A04F
  5
2A053
331
2A0A6
  5
2A0AE
331
2A0ED
  5
2A0F9
  0
SORTENTSTABLE
  5
29D1
102
{ACAD_REACTORS
330
29CF
102
}
330
29CF
100
AcDbSortentsTable
330
341
  0
DIMASSOC
  5
2A15E
102
{ACAD_REACTORS
330
2A15D
102
}
330
2A15D
100
AcDbDimAssoc
330
2A15C
 90
        3
 70
     0
 71
     0
  1
AcDbOsnapPointRef
 72
     1
331
2A126
 73
     2
 91
        0
 40
1.0
 10
0.0
 20
0.0
 30
2.000000000000000E+50
 75
     0
  1
AcDbOsnapPointRef
 72
    13
331
2A138
 73
     2
 91
        0
 40
0.0
 10
0.0
 20
0.0
 30
2.000000000000000E+50
 75
     0
  0
DIMASSOC
  5
2A2E1
102
{ACAD_REACTORS
330
2A2D7
102
}
330
2A2D7
100
AcDbDimAssoc
330
2A2CA
 90
        1
 70
     0
 71
     0
  1
AcDbOsnapPointRef
 72
     6
331
2A143
 73
     2
 91
        0
 40
0.0
 10
0.0
 20
0.0
 30
0.0
332
2A145
 74
     2
 92
        0
 75
     0
  0
DIMASSOC
  5
2A2F9
102
{ACAD_REACTORS
330
2A2EF
102
}
330
2A2EF
100
AcDbDimAssoc
330
2A2E2
 90
        3
 70
     0
 71
     0
  1
AcDbOsnapPointRef
 72
     6
331
2A143
 73
     2
 91
        0
 40
0.0
 10
0.0
 20
0.0
 30
0.0
332
2A145
 74
     2
 92
        0
 75
     0
  1
AcDbOsnapPointRef
 72
     1
331
2A13E
 73
     2
 91
        0
 40
1.0
 10
0.0
 20
0.0
 30
2.000000000000000E+50
 75
     0
  0
DIMASSOC
  5
2A715
102
{ACAD_REACTORS
330
2A714
102
}
330
2A714
100
AcDbDimAssoc
330
2A713
 90
        3
 70
     0
 71
     0
  1
AcDbOsnapPointRef
 72
     1
331
2A6E7
 73
     2
 91
        0
 40
1.0
 10
0.0
 20
0.0
 30
2.000000000000000E+50
 75
     0
  1
AcDbOsnapPointRef
 72
    13
331
2A6EB
 73
     2
 91
        0
 40
0.0
 10
0.0
 20
0.0
 30
2.000000000000000E+50
 75
     0
  0
ACDBDETAILVIEWSTYLE
  5
2A89B
102
{ACAD_XDICTIONARY
360
2A8B5
102
}
102
{ACAD_REACTORS
330
2A89A
102
}
330
2A89A
100
AcDbModelDocViewStyle
 70
     0
  3
Metric50
290
     0
100
AcDbDetailViewStyle
 70
     0
 71
     0
 90
        3
 71
     1
340
11
 62
   256
 40
5.0
340
0
 62
   256
 40
5.0
300

 40
0.0
280
     1
 71
     2
340
16
 90
       25
 62
   256
 71
     3
340
11
 62
   256
 40
5.0
 90
        0
 40
15.0
 90
        1
300
%<\AcVar ViewDetailId>% (%<\AcVar ViewScale \f "%sn">%)
 71
     4
340
16
 90
       25
 62
   256
340
16
 90
       25
 62
   256
280
     0
  0
GROUP
  5
29F6
102
{ACAD_REACTORS
330
D
102
}
330
D
100
AcDbGroup
300

 70
     1
 71
     1
340
29CE
340
29CD
340
29CC
340
29CB
340
29CA
340
29C9
340
29C8
340
29C7
340
29C6
340
29C5
340
29C4
340
29C3
340
29C2
340
29C1
340
29C0
340
29BF
340
29BE
340
29BD
340
29BC
340
29BB
340
29BA
340
29B9
340
29B8
340
29B7
  0
LAYOUT
  5
22
102
{ACAD_XDICTIONARY
360
24E2E
102
}
102
{ACAD_REACTORS
330
1A
102
}
330
1A
100
AcDbPlotSettings
  1

  2
Canon TS8130 series
  4
A4
  6

 40
4.180416584014891
 41
5.831417560577392
 42
4.180404663085936
 43
3.757080078125
 44
209.9733276367186
 45
296.9683227539062
 46
-0.0062006872036022
 47
1.756521382387688
 48
4.0
 49
2.0
140
82.0
141
57.4
142
1.0
143
1.374
 70
  3748
 72
     1
 73
     1
 74
     1
  7
monochrome.ctb
 75
     0
147
0.7277572728131228
 76
     1
 77
     2
 78
   300
148
-19.98230080583869
149
-9.983689057621743
100
AcDbLayout
  1
Model
 70
     1
 71
     0
 10
0.0
 20
0.0
 11
12.0
 21
9.0
 12
0.0
 22
0.0
 32
0.0
 14
0.0
 24
0.0
 34
0.0
 15
0.0
 25
0.0
 35
0.0
146
0.0
 13
0.0
 23
0.0
 33
0.0
 16
1.0
 26
0.0
 36
0.0
 17
0.0
 27
1.0
 37
0.0
 76
     0
330
1F
331
275F
1001
ACAD_PSEXT
1000
Canon TS8130 series
1000
Canon TS8130 series
1000
USB001
1000

1070
     0
  0
LAYOUT
  5
51
102
{ACAD_XDICTIONARY
360
2E30
102
}
102
{ACAD_REACTORS
330
1A
102
}
330
1A
100
AcDbPlotSettings
  1

  2
\\KASHIKEI2\EPSON PX-1001
  4
A3
  6

 40
3.757083415985106
 41
3.757076740264892
 42
3.757080078125
 43
3.757080078125
 44
296.9683227539062
 45
420.0172119140622
 46
0.0
 47
0.0
 48
0.0
 49
0.0
140
0.0
141
0.0
142
1.0
143
1.0
 70
   672
 72
     1
 73
     1
 74
     5
  7
monochrome.ctb
 75
    16
147
1.0
 76
     1
 77
     2
 78
   300
148
0.0
149
0.0
100
AcDbLayout
  1
ﾚｲｱｳﾄ1
 70
     1
 71
     1
 10
-3.757080078125
 20
-3.757083415985106
 11
416.2601318359373
 21
293.2112393379211
 12
0.0
 22
0.0
 32
0.0
 14
-58.82240024691737
 24
-86.72323328256494
 34
0.0
 15
448.1718497119468
 25
324.5569721112054
 35
0.0
146
0.0
 13
0.0
 23
0.0
 33
0.0
 16
1.0
 26
0.0
 36
0.0
 17
0.0
 27
1.0
 37
0.0
 76
     0
330
50
331
6B
1001
ACAD_PSEXT
1000
\\KASHIKEI2\EPSON PX-1001
1000
EPSON PX-1001
1000
\\KASHIKEI2
1000

1070
     0
  0
LAYOUT
  5
56
102
{ACAD_REACTORS
330
1A
102
}
330
1A
100
AcDbPlotSettings
  1

  2
none_device
  4
Letter_(8.50_x_11.00_Inches)
  6

 40
6.349999904632567
 41
6.349999904632567
 42
6.350006103515625
 43
6.350006103515625
 44
215.8999938964843
 45
279.3999938964843
 46
0.0
 47
0.0
 48
0.0
 49
0.0
140
0.0
141
0.0
142
1.0
143
1.0
 70
   688
 72
     1
 73
     1
 74
     5
  7
monochrome.ctb
 75
    16
147
1.0
 76
     0
 77
     2
 78
   300
148
0.0
149
0.0
100
AcDbLayout
  1
ﾚｲｱｳﾄ2
 70
     1
 71
     2
 10
-6.350006103515625
 20
-6.349999904632567
 11
273.0499877929687
 21
209.5499939918517
 12
0.0
 22
0.0
 32
0.0
 14
26.66076962115562
 24
20.31135699206657
 34
-0.0015258207003583
 15
240.039213369355
 25
182.8886381005154
 35
0.0000000349246037
146
0.0
 13
0.0
 23
0.0
 33
0.0
 16
1.0
 26
0.0
 36
0.0
 17
0.0
 27
1.0
 37
0.0
 76
     0
330
55
331
71
  0
MATERIAL
  5
2763
102
{ACAD_REACTORS
330
2761
102
}
330
2761
100
AcDbMaterial
  1
ByBlock
 73
     1
 78
     1
172
     1
176
     1
270
     1
274
     1
 94
       63
  0
MATERIAL
  5
2762
102
{ACAD_REACTORS
330
2761
102
}
330
2761
100
AcDbMaterial
  1
ByLayer
 73
     1
 78
     1
172
     1
176
     1
270
     1
274
     1
 94
       63
  0
MATERIAL
  5
2764
102
{ACAD_REACTORS
330
2761
102
}
330
2761
100
AcDbMaterial
  1
Global
 73
     1
 78
     1
172
     1
176
     1
270
     1
274
     1
 94
       63
  0
MLEADERSTYLE
  5
247F2
102
{ACAD_REACTORS
330
247F1
102
}
330
247F1
100
AcDbMLeaderStyle
179
     2
170
     2
171
     1
172
     0
 90
        2
 40
0.0
 41
0.0
173
     1
 91
-1056964608
340
14
 92
       -2
290
     1
 42
2.0
291
     1
 43
0.36
  3
Standard
 44
4.0
300

342
11
174
     1
178
     6
175
     1
176
     0
 93
-1056964608
 45
4.0
292
     0
297
     0
 46
4.0
 94
-1056964608
 47
1.0
 49
1.0
140
1.0
293
     1
141
0.0
294
     1
177
     0
142
1.0
295
     0
296
     0
143
0.125
271
     0
272
     9
273
     9
298
     0
  0
MLINESTYLE
  5
18
102
{ACAD_REACTORS
330
17
102
}
330
17
100
AcDbMlineStyle
  2
STANDARD
 70
     0
  3

 62
   256
 51
90.0
 52
90.0
 71
     2
 49
0.5
 62
   256
  6
BYLAYER
 49
-0.5
 62
   256
  6
BYLAYER
  0
PLOTSETTINGS
  5
E74
102
{ACAD_REACTORS
330
19
102
}
330
19
100
AcDbPlotSettings
  1
印刷
  2
EPSON PM-930C.pc3
  4
A4
  6

 40
3.757083177566528
 41
14.7637300491333
 42
3.757080078125
 43
3.757080078125
 44
209.9733276367186
 45
296.9683227539062
 46
-3.77
 47
-9.279999999999999
 48
0.0
 49
0.0
140
0.0
141
0.0
142
1.0
143
1.0
 70
  1716
 72
     1
 73
     0
 74
     2
  7
黒.ctb
 75
    16
147
1.0
 76
     0
 77
     2
 78
   300
148
0.0
149
0.0
  0
ACDBPLACEHOLDER
  5
F
102
{ACAD_REACTORS
330
E
102
}
330
E
  0
SCALE
  5
247E0
102
{ACAD_REACTORS
330
247DF
102
}
330
247DF
100
AcDbScale
 70
     0
300
1:1
140
1.0
141
1.0
290
     1
  0
SCALE
  5
247E1
102
{ACAD_REACTORS
330
247DF
102
}
330
247DF
100
AcDbScale
 70
     0
300
1:2
140
1.0
141
2.0
290
     0
  0
SCALE
  5
247E2
102
{ACAD_REACTORS
330
247DF
102
}
330
247DF
100
AcDbScale
 70
     0
300
1:4
140
1.0
141
4.0
290
     0
  0
SCALE
  5
247E3
102
{ACAD_REACTORS
330
247DF
102
}
330
247DF
100
AcDbScale
 70
     0
300
1:5
140
1.0
141
5.0
290
     0
  0
SCALE
  5
247E4
102
{ACAD_REACTORS
330
247DF
102
}
330
247DF
100
AcDbScale
 70
     0
300
1:8
140
1.0
141
8.0
290
     0
  0
SCALE
  5
247E5
102
{ACAD_REACTORS
330
247DF
102
}
330
247DF
100
AcDbScale
 70
     0
300
1:10
140
1.0
141
10.0
290
     0
  0
SCALE
  5
247E6
102
{ACAD_REACTORS
330
247DF
102
}
330
247DF
100
AcDbScale
 70
     0
300
1:16
140
1.0
141
16.0
290
     0
  0
SCALE
  5
247E7
102
{ACAD_REACTORS
330
247DF
102
}
330
247DF
100
AcDbScale
 70
     0
300
1:20
140
1.0
141
20.0
290
     0
  0
SCALE
  5
247E8
102
{ACAD_REACTORS
330
247DF
102
}
330
247DF
100
AcDbScale
 70
     0
300
1:30
140
1.0
141
30.0
290
     0
  0
SCALE
  5
247E9
102
{ACAD_REACTORS
330
247DF
102
}
330
247DF
100
AcDbScale
 70
     0
300
1:40
140
1.0
141
40.0
290
     0
  0
SCALE
  5
247EA
102
{ACAD_REACTORS
330
247DF
102
}
330
247DF
100
AcDbScale
 70
     0
300
1:50
140
1.0
141
50.0
290
     0
  0
SCALE
  5
247EB
102
{ACAD_REACTORS
330
247DF
102
}
330
247DF
100
AcDbScale
 70
     0
300
1:100
140
1.0
141
100.0
290
     0
  0
SCALE
  5
247EC
102
{ACAD_REACTORS
330
247DF
102
}
330
247DF
100
AcDbScale
 70
     0
300
2:1
140
2.0
141
1.0
290
     0
  0
SCALE
  5
247ED
102
{ACAD_REACTORS
330
247DF
102
}
330
247DF
100
AcDbScale
 70
     0
300
4:1
140
4.0
141
1.0
290
     0
  0
SCALE
  5
247EE
102
{ACAD_REACTORS
330
247DF
102
}
330
247DF
100
AcDbScale
 70
     0
300
8:1
140
8.0
141
1.0
290
     0
  0
SCALE
  5
247EF
102
{ACAD_REACTORS
330
247DF
102
}
330
247DF
100
AcDbScale
 70
     0
300
10:1
140
10.0
141
1.0
290
     0
  0
SCALE
  5
247F0
102
{ACAD_REACTORS
330
247DF
102
}
330
247DF
100
AcDbScale
 70
     0
300
100:1
140
100.0
141
1.0
290
     0
  0
ACDBSECTIONVIEWSTYLE
  5
2A899
102
{ACAD_XDICTIONARY
360
2A8B3
102
}
102
{ACAD_REACTORS
330
2A898
102
}
330
2A898
100
AcDbModelDocViewStyle
 70
     0
  3
Metric50
290
     0
100
AcDbSectionViewStyle
 70
     0
 71
     0
 90
      102
 71
     1
340
11
 62
   256
 40
5.0
340
0
340
0
 62
   256
 40
5.0
300
I, O, Q, S, X, Z
 40
10.0
 90
        0
 40
2.5
 90
        0
 71
     2
340
16
 90
       25
 62
   256
340
16
 90
       50
 62
   256
 40
5.0
 40
2.5
 40
5.0
 71
     3
340
11
 62
   256
 40
5.0
 90
        0
 40
15.0
 90
        1
300
%<\AcVar ViewSectionStartId>%-%<\AcVar ViewSectionEndId>% (%<\AcVar ViewScale \f "%sn">%)
 71
     4
 62
   256
 62
   257
300
ANSI31
 40
1.0
 90
        0
290
     0
290
     0
 90
        6
 40
0.0
 40
1.570796326794896
 40
0.2617993877991494
 40
1.308996938995747
 40
-0.2617993877991494
 40
1.832595714594045
  0
TABLESTYLE
  5
2778
102
{ACAD_XDICTIONARY
360
2A8AF
102
}
102
{ACAD_REACTORS
330
2777
102
}
330
2777
100
AcDbTableStyle
280
     0
  3
Standard
 70
     0
 71
     0
 40
1.5
 41
1.5
280
     0
281
     0
  7
Standard
140
4.5
170
     2
 62
     0
 63
     7
283
     0
 90
      512
 91
        0
  1

274
    -2
284
     1
 64
     0
275
    -2
285
     1
 65
     0
276
    -2
286
     1
 66
     0
277
    -2
287
     1
 67
     0
278
    -2
288
     1
 68
     0
279
    -2
289
     1
 69
     0
  7
Standard
140
6.0
170
     5
 62
     0
 63
     7
283
     0
 90
      512
 91
        0
  1

274
    -2
284
     1
 64
     0
275
    -2
285
     1
 65
     0
276
    -2
286
     1
 66
     0
277
    -2
287
     1
 67
     0
278
    -2
288
     1
 68
     0
279
    -2
289
     1
 69
     0
  7
Standard
140
4.5
170
     5
 62
     0
 63
     7
283
     0
 90
      512
 91
        0
  1

274
    -2
284
     1
 64
     0
275
    -2
285
     1
 65
     0
276
    -2
286
     1
 66
     0
277
    -2
287
     1
 67
     0
278
    -2
288
     1
 68
     0
279
    -2
289
     1
 69
     0
  0
TABLESTYLE
  5
2688B
102
{ACAD_XDICTIONARY
360
2A8B1
102
}
102
{ACAD_REACTORS
330
2777
102
}
330
2777
100
AcDbTableStyle
280
     0
  3
Standard
 70
     0
 71
     0
 40
1.5
 41
1.5
280
     0
281
     0
  7
ｽﾀｲﾙ1
140
4.5
170
     2
 62
     2
 63
     7
283
     0
 90
      512
 91
        0
  1

274
    -2
284
     1
 64
     0
275
    -2
285
     1
 65
     0
276
    -2
286
     1
 66
     0
277
    -2
287
     1
 67
     0
278
    -2
288
     1
 68
     0
279
    -2
289
     1
 69
     0
  7
Standard
140
6.0
170
     5
 62
     0
 63
     7
283
     0
 90
      512
 91
        0
  1

274
    -2
284
     1
 64
     0
275
    -2
285
     1
 65
     0
276
    -2
286
     1
 66
     0
277
    -2
287
     1
 67
     0
278
    -2
288
     1
 68
     0
279
    -2
289
     1
 69
     0
  7
ｽﾀｲﾙ1
140
4.5
170
     5
 62
     2
 63
     7
283
     0
 90
      512
 91
        0
  1

274
    -2
284
     1
 64
     0
275
    -2
285
     1
 65
     0
276
    -2
286
     1
 66
     0
277
    -2
287
     1
 67
     0
278
    -2
288
     1
 68
     0
279
    -2
289
     1
 69
     0
  0
VISUALSTYLE
  5
276B
102
{ACAD_REACTORS
330
2765
102
}
330
2765
100
AcDbVisualStyle
  2
2dWireframe
 70
     4
177
     3
291
     0
 70
    58
 90
        0
176
     1
 90
        2
176
     1
 90
        0
176
     1
 90
        0
176
     1
 40
0.6
176
     1
 40
30.0
176
     1
 62
     7
420
 16777215
176
     1
 90
        1
176
     1
 90
        4
176
     1
 62
     7
176
     1
 62
   257
176
     1
 90
        1
176
     1
 90
        1
176
     1
 40
1.0
176
     1
 90
        0
176
     1
 62
   257
176
     1
 40
1.0
176
     1
 90
        1
176
     1
 90
        6
176
     1
 90
        2
176
     1
 62
     7
176
     1
 90
        5
176
     1
 90
        0
176
     1
 90
        0
176
     1
290
     0
176
     1
 90
        1
176
     1
 40
0.0
176
     1
 90
        0
176
     1
290
     1
176
     1
290
     1
176
     1
290
     0
176
     1
290
     0
176
     1
290
     0
176
     1
290
     0
176
     1
290
     0
176
     1
290
     0
176
     1
290
     0
176
     1
 90
       50
176
     1
 40
0.0
176
     1
 40
1.0
176
     1
 90
        0
176
     1
 62
    18
176
     1
 90
       50
176
     1
 90
        3
176
     1
 62
     5
420
      255
176
     1
290
     0
176
     1
 90
       50
176
     1
 90
       50
176
     1
 90
       50
176
     1
290
     0
176
     1
 90
       50
176
     1
 62
   256
176
     0
 40
1.0
176
     0
 90
        2
176
     1
  1
strokes_ogs.tif
176
     1
290
     0
176
     1
 40
1.0
176
     1
 40
1.0
176
     1
  0
VISUALSTYLE
  5
276D
102
{ACAD_REACTORS
330
2765
102
}
330
2765
100
AcDbVisualStyle
  2
3D Hidden
 70
     6
177
     3
291
     0
 70
    58
 90
        1
176
     1
 90
        2
176
     1
 90
        2
176
     1
 90
        0
176
     1
 40
0.6
176
     1
 40
30.0
176
     1
 62
     7
420
 16777215
176
     1
 90
        2
176
     1
 90
        2
176
     1
 62
     7
176
     1
 62
   257
176
     1
 90
        2
176
     1
 90
        1
176
     1
 40
40.0
176
     1
 90
        0
176
     1
 62
   257
176
     1
 40
1.0
176
     1
 90
        1
176
     1
 90
        6
176
     1
 90
        2
176
     1
 62
     7
176
     1
 90
        3
176
     1
 90
        0
176
     1
 90
        0
176
     1
290
     0
176
     1
 90
        1
176
     1
 40
0.0
176
     1
 90
        0
176
     1
290
     0
176
     1
290
     1
176
     1
290
     1
176
     1
290
     0
176
     1
290
     0
176
     1
290
     0
176
     1
290
     0
176
     1
290
     0
176
     1
290
     0
176
     1
 90
       50
176
     1
 40
0.0
176
     1
 40
1.0
176
     1
 90
        0
176
     1
 62
    18
176
     1
 90
       50
176
     1
 90
        3
176
     1
 62
     5
420
      255
176
     1
290
     0
176
     1
 90
       50
176
     1
 90
       50
176
     1
 90
       50
176
     1
290
     0
176
     1
 90
       50
176
     1
 62
   256
176
     0
 40
1.0
176
     0
 90
        2
176
     1
  1
strokes_ogs.tif
176
     1
290
     0
176
     1
 40
1.0
176
     1
 40
1.0
176
     1
  0
VISUALSTYLE
  5
276C
102
{ACAD_REACTORS
330
2765
102
}
330
2765
100
AcDbVisualStyle
  2
3dWireframe
 70
     5
177
     3
291
     0
 70
    58
 90
        0
176
     1
 90
        2
176
     1
 90
        0
176
     1
 90
        0
176
     1
 40
0.6
176
     1
 40
30.0
176
     1
 62
     7
420
 16777215
176
     1
 90
        1
176
     1
 90
        4
176
     1
 62
     7
176
     1
 62
   257
176
     1
 90
        1
176
     1
 90
        1
176
     1
 40
1.0
176
     1
 90
        0
176
     1
 62
   257
176
     1
 40
1.0
176
     1
 90
        1
176
     1
 90
        6
176
     1
 90
        2
176
     1
 62
     7
176
     1
 90
        5
176
     1
 90
        0
176
     1
 90
        0
176
     1
290
     0
176
     1
 90
        1
176
     1
 40
0.0
176
     1
 90
        0
176
     1
290
     0
176
     1
290
     1
176
     1
290
     1
176
     1
290
     0
176
     1
290
     0
176
     1
290
     0
176
     1
290
     0
176
     1
290
     0
176
     1
290
     0
176
     1
 90
       50
176
     1
 40
0.0
176
     1
 40
1.0
176
     1
 90
        0
176
     1
 62
    18
176
     1
 90
       50
176
     1
 90
        3
176
     1
 62
     5
420
      255
176
     1
290
     0
176
     1
 90
       50
176
     1
 90
       50
176
     1
 90
       50
176
     1
290
     0
176
     1
 90
       50
176
     1
 62
   256
176
     0
 40
1.0
176
     0
 90
        2
176
     1
  1
strokes_ogs.tif
176
     1
290
     0
176
     1
 40
1.0
176
     1
 40
1.0
176
     1
  0
VISUALSTYLE
  5
276A
102
{ACAD_REACTORS
330
2765
102
}
330
2765
100
AcDbVisualStyle
  2
Basic
 70
     7
177
     3
291
     1
 70
    58
 90
        1
176
     1
 90
        0
176
     1
 90
        1
176
     1
 90
        0
176
     1
 40
0.6
176
     1
 40
30.0
176
     1
 62
     7
420
 16777215
176
     1
 90
        0
176
     1
 90
        4
176
     1
 62
     7
176
     1
 62
   257
176
     1
 90
        1
176
     1
 90
        1
176
     1
 40
1.0
176
     1
 90
        8
176
     1
 62
     7
176
     1
 40
1.0
176
     1
 90
        1
176
     1
 90
        6
176
     1
 90
        2
176
     1
 62
     7
176
     1
 90
        5
176
     1
 90
        0
176
     1
 90
        0
176
     1
290
     0
176
     1
 90
        1
176
     1
 40
0.0
176
     1
 90
        0
176
     1
290
     0
176
     1
290
     1
176
     1
290
     1
176
     1
290
     0
176
     1
290
     0
176
     1
290
     0
176
     1
290
     0
176
     1
290
     0
176
     1
290
     0
176
     1
 90
       50
176
     1
 40
0.0
176
     1
 40
1.0
176
     1
 90
        0
176
     1
 62
    18
176
     1
 90
       50
176
     1
 90
        3
176
     1
 62
     5
420
      255
176
     1
290
     0
176
     1
 90
       50
176
     1
 90
       50
176
     1
 90
       50
176
     1
290
     0
176
     1
 90
       50
176
     1
 62
   256
176
     0
 40
1.0
176
     0
 90
        2
176
     1
  1
strokes_ogs.tif
176
     1
290
     0
176
     1
 40
1.0
176
     1
 40
1.0
176
     1
  0
VISUALSTYLE
  5
2771
102
{ACAD_REACTORS
330
2765
102
}
330
2765
100
AcDbVisualStyle
  2
Brighten
 70
    12
177
     3
291
     1
 70
    58
 90
        2
176
     1
 90
        2
176
     1
 90
        0
176
     1
 90
        0
176
     1
 40
0.6
176
     1
 40
30.0
176
     1
 62
     7
420
 16777215
176
     1
 90
        1
176
     1
 90
        4
176
     1
 62
     7
176
     1
 62
   257
176
     1
 90
        1
176
     1
 90
        1
176
     1
 40
1.0
176
     1
 90
        8
176
     1
 62
     7
176
     1
 40
1.0
176
     1
 90
        1
176
     1
 90
        6
176
     1
 90
        2
176
     1
 62
     7
176
     1
 90
        5
176
     1
 90
        0
176
     1
 90
        0
176
     1
290
     0
176
     1
 90
        1
176
     1
 40
50.0
176
     1
 90
        0
176
     1
290
     0
176
     1
290
     1
176
     1
290
     1
176
     1
290
     0
176
     1
290
     0
176
     1
290
     0
176
     1
290
     0
176
     1
290
     0
176
     1
290
     0
176
     1
 90
       50
176
     1
 40
0.0
176
     1
 40
1.0
176
     1
 90
        0
176
     1
 62
    18
176
     1
 90
       50
176
     1
 90
        3
176
     1
 62
     5
420
      255
176
     1
290
     0
176
     1
 90
       50
176
     1
 90
       50
176
     1
 90
       50
176
     1
290
     0
176
     1
 90
       50
176
     1
 62
   256
176
     0
 40
1.0
176
     0
 90
        2
176
     1
  1
strokes_ogs.tif
176
     1
290
     0
176
     1
 40
1.0
176
     1
 40
1.0
176
     1
  0
VISUALSTYLE
  5
2775
102
{ACAD_REACTORS
330
2765
102
}
330
2765
100
AcDbVisualStyle
  2
ColorChange
 70
    16
177
     3
291
     1
 70
    58
 90
        2
176
     1
 90
        2
176
     1
 90
        3
176
     1
 90
        0
176
     1
 40
0.6
176
     1
 40
30.0
176
     1
 62
     8
420
  8421504
176
     1
 90
        1
176
     1
 90
        4
176
     1
 62
     7
176
     1
 62
   257
176
     1
 90
        1
176
     1
 90
        1
176
     1
 40
1.0
176
     1
 90
        8
176
     1
 62
     8
420
  8421504
176
     1
 40
1.0
176
     1
 90
        1
176
     1
 90
        6
176
     1
 90
        2
176
     1
 62
     7
176
     1
 90
        5
176
     1
 90
        0
176
     1
 90
        0
176
     1
290
     0
176
     1
 90
        1
176
     1
 40
0.0
176
     1
 90
        0
176
     1
290
     0
176
     1
290
     1
176
     1
290
     1
176
     1
290
     0
176
     1
290
     0
176
     1
290
     0
176
     1
290
     0
176
     1
290
     0
176
     1
290
     0
176
     1
 90
       50
176
     1
 40
0.0
176
     1
 40
1.0
176
     1
 90
        0
176
     1
 62
    18
176
     1
 90
       50
176
     1
 90
        3
176
     1
 62
     5
420
      255
176
     1
290
     0
176
     1
 90
       50
176
     1
 90
       50
176
     1
 90
       50
176
     1
290
     0
176
     1
 90
       50
176
     1
 62
   256
176
     0
 40
1.0
176
     0
 90
        2
176
     1
  1
strokes_ogs.tif
176
     1
290
     0
176
     1
 40
1.0
176
     1
 40
1.0
176
     1
  0
VISUALSTYLE
  5
276E
102
{ACAD_REACTORS
330
2765
102
}
330
2765
100
AcDbVisualStyle
  2
Conceptual
 70
     9
177
     3
291
     0
 70
    58
 90
        3
176
     1
 90
        2
176
     1
 90
        0
176
     1
 90
        0
176
     1
 40
0.6
176
     1
 40
30.0
176
     1
 62
     7
420
 16777215
176
     1
 90
        2
176
     1
 90
        2
176
     1
 62
     7
176
     1
 62
   257
176
     1
 90
        1
176
     1
 90
        1
176
     1
 40
40.0
176
     1
 90
        8
176
     1
 62
     7
176
     1
 40
1.0
176
     1
 90
        1
176
     1
 90
        6
176
     1
 90
        2
176
     1
 62
     7
176
     1
 90
        3
176
     1
 90
        0
176
     1
 90
        0
176
     1
290
     0
176
     1
 90
        1
176
     1
 40
0.0
176
     1
 90
        0
176
     1
290
     0
176
     1
290
     1
176
     1
290
     1
176
     1
290
     0
176
     1
290
     0
176
     1
290
     0
176
     1
290
     0
176
     1
290
     0
176
     1
290
     0
176
     1
 90
       50
176
     1
 40
0.0
176
     1
 40
1.0
176
     1
 90
        0
176
     1
 62
    18
176
     1
 90
       50
176
     1
 90
        3
176
     1
 62
     5
420
      255
176
     1
290
     0
176
     1
 90
       50
176
     1
 90
       50
176
     1
 90
       50
176
     1
290
     0
176
     1
 90
       50
176
     1
 62
   256
176
     0
 40
1.0
176
     0
 90
        2
176
     1
  1
strokes_ogs.tif
176
     1
290
     0
176
     1
 40
1.0
176
     1
 40
1.0
176
     1
  0
VISUALSTYLE
  5
2770
102
{ACAD_REACTORS
330
2765
102
}
330
2765
100
AcDbVisualStyle
  2
Dim
 70
    11
177
     3
291
     1
 70
    58
 90
        2
176
     1
 90
        2
176
     1
 90
        0
176
     1
 90
        0
176
     1
 40
0.6
176
     1
 40
30.0
176
     1
 62
     7
420
 16777215
176
     1
 90
        1
176
     1
 90
        4
176
     1
 62
     7
176
     1
 62
   257
176
     1
 90
        1
176
     1
 90
        1
176
     1
 40
1.0
176
     1
 90
        8
176
     1
 62
     7
176
     1
 40
1.0
176
     1
 90
        1
176
     1
 90
        6
176
     1
 90
        2
176
     1
 62
     7
176
     1
 90
        5
176
     1
 90
        0
176
     1
 90
        0
176
     1
290
     0
176
     1
 90
        1
176
     1
 40
-50.0
176
     1
 90
        0
176
     1
290
     0
176
     1
290
     1
176
     1
290
     1
176
     1
290
     0
176
     1
290
     0
176
     1
290
     0
176
     1
290
     0
176
     1
290
     0
176
     1
290
     0
176
     1
 90
       50
176
     1
 40
0.0
176
     1
 40
1.0
176
     1
 90
        0
176
     1
 62
    18
176
     1
 90
       50
176
     1
 90
        3
176
     1
 62
     5
420
      255
176
     1
290
     0
176
     1
 90
       50
176
     1
 90
       50
176
     1
 90
       50
176
     1
290
     0
176
     1
 90
       50
176
     1
 62
   256
176
     0
 40
1.0
176
     0
 90
        2
176
     1
  1
strokes_ogs.tif
176
     1
290
     0
176
     1
 40
1.0
176
     1
 40
1.0
176
     1
  0
VISUALSTYLE
  5
247DE
102
{ACAD_REACTORS
330
2765
102
}
330
2765
100
AcDbVisualStyle
  2
EdgeColorOff
 70
    22
177
     3
291
     1
 70
    58
 90
        2
176
     0
 90
        2
176
     0
 90
        0
176
     0
 90
        0
176
     0
 40
0.6
176
     0
 40
30.0
176
     0
 62
     7
420
 16777215
176
     0
 90
        1
176
     0
 90
        4
176
     0
 62
     7
176
     0
 62
   257
176
     0
 90
        1
176
     0
 90
        1
176
     0
 40
1.0
176
     0
 90
        8
176
     2
 62
     7
176
     0
 40
1.0
176
     0
 90
        1
176
     0
 90
        6
176
     0
 90
        2
176
     0
 62
     7
176
     0
 90
        5
176
     0
 90
        0
176
     0
 90
        0
176
     0
290
     0
176
     0
 90
        1
176
     0
 40
0.0
176
     0
 90
        0
176
     0
290
     0
176
     1
290
     1
176
     1
290
     1
176
     1
290
     0
176
     1
290
     0
176
     1
290
     0
176
     1
290
     0
176
     1
290
     0
176
     1
290
     0
176
     1
 90
       50
176
     1
 40
0.0
176
     1
 40
1.0
176
     1
 90
        0
176
     1
 62
    18
176
     1
 90
       50
176
     1
 90
        3
176
     1
 62
     5
420
      255
176
     1
290
     0
176
     1
 90
       50
176
     1
 90
       50
176
     1
 90
       50
176
     1
290
     0
176
     1
 90
       50
176
     1
 62
   256
176
     0
 40
1.0
176
     0
 90
        2
176
     1
  1
strokes_ogs.tif
176
     1
290
     0
176
     1
 40
1.0
176
     1
 40
1.0
176
     1
  0
VISUALSTYLE
  5
2774
102
{ACAD_REACTORS
330
2765
102
}
330
2765
100
AcDbVisualStyle
  2
Facepattern
 70
    15
177
     3
291
     1
 70
    58
 90
        2
176
     1
 90
        2
176
     1
 90
        0
176
     1
 90
        0
176
     1
 40
0.6
176
     1
 40
30.0
176
     1
 62
     7
420
 16777215
176
     1
 90
        1
176
     1
 90
        4
176
     1
 62
     7
176
     1
 62
   257
176
     1
 90
        1
176
     1
 90
        1
176
     1
 40
1.0
176
     1
 90
        8
176
     1
 62
     7
176
     1
 40
1.0
176
     1
 90
        1
176
     1
 90
        6
176
     1
 90
        2
176
     1
 62
     7
176
     1
 90
        5
176
     1
 90
        0
176
     1
 90
        0
176
     1
290
     0
176
     1
 90
        1
176
     1
 40
0.0
176
     1
 90
        0
176
     1
290
     0
176
     1
290
     1
176
     1
290
     1
176
     1
290
     0
176
     1
290
     0
176
     1
290
     0
176
     1
290
     0
176
     1
290
     0
176
     1
290
     0
176
     1
 90
       50
176
     1
 40
0.0
176
     1
 40
1.0
176
     1
 90
        0
176
     1
 62
    18
176
     1
 90
       50
176
     1
 90
        3
176
     1
 62
     5
420
      255
176
     1
290
     0
176
     1
 90
       50
176
     1
 90
       50
176
     1
 90
       50
176
     1
290
     0
176
     1
 90
       50
176
     1
 62
   256
176
     0
 40
1.0
176
     0
 90
        2
176
     1
  1
strokes_ogs.tif
176
     1
290
     0
176
     1
 40
1.0
176
     1
 40
1.0
176
     1
  0
VISUALSTYLE
  5
2766
102
{ACAD_REACTORS
330
2765
102
}
330
2765
100
AcDbVisualStyle
  2
Flat
 70
     0
177
     3
291
     1
 70
    58
 90
        2
176
     1
 90
        1
176
     1
 90
        1
176
     1
 90
        2
176
     1
 40
0.6
176
     1
 40
30.0
176
     1
 62
     7
420
 16777215
176
     1
 90
        0
176
     1
 90
        4
176
     1
 62
     7
176
     1
 62
   257
176
     1
 90
        1
176
     1
 90
        1
176
     1
 40
1.0
176
     1
 90
        8
176
     1
 62
     7
176
     1
 40
1.0
176
     1
 90
        1
176
     1
 90
        6
176
     1
 90
        2
176
     1
 62
     7
176
     1
 90
        5
176
     1
 90
        0
176
     1
 90
        0
176
     1
290
     0
176
     1
 90
       13
176
     1
 40
0.0
176
     1
 90
        0
176
     1
290
     0
176
     1
290
     1
176
     1
290
     1
176
     1
290
     0
176
     1
290
     0
176
     1
290
     0
176
     1
290
     0
176
     1
290
     0
176
     1
290
     0
176
     1
 90
       50
176
     1
 40
0.0
176
     1
 40
1.0
176
     1
 90
        0
176
     1
 62
    18
176
     1
 90
       50
176
     1
 90
        3
176
     1
 62
     5
420
      255
176
     1
290
     0
176
     1
 90
       50
176
     1
 90
       50
176
     1
 90
       50
176
     1
290
     0
176
     1
 90
       50
176
     1
 62
   256
176
     0
 40
1.0
176
     0
 90
        2
176
     1
  1
strokes_ogs.tif
176
     1
290
     0
176
     1
 40
1.0
176
     1
 40
1.0
176
     1
  0
VISUALSTYLE
  5
2767
102
{ACAD_REACTORS
330
2765
102
}
330
2765
100
AcDbVisualStyle
  2
FlatWithEdges
 70
     1
177
     3
291
     1
 70
    58
 90
        2
176
     1
 90
        1
176
     1
 90
        1
176
     1
 90
        2
176
     1
 40
0.6
176
     1
 40
30.0
176
     1
 62
     7
420
 16777215
176
     1
 90
        1
176
     1
 90
        4
176
     1
 62
     7
176
     1
 62
   257
176
     1
 90
        1
176
     1
 90
        1
176
     1
 40
1.0
176
     1
 90
        0
176
     1
 62
   257
176
     1
 40
1.0
176
     1
 90
        1
176
     1
 90
        6
176
     1
 90
        2
176
     1
 62
     7
176
     1
 90
        5
176
     1
 90
        0
176
     1
 90
        0
176
     1
290
     0
176
     1
 90
       13
176
     1
 40
0.0
176
     1
 90
        0
176
     1
290
     0
176
     1
290
     1
176
     1
290
     1
176
     1
290
     0
176
     1
290
     0
176
     1
290
     0
176
     1
290
     0
176
     1
290
     0
176
     1
290
     0
176
     1
 90
       50
176
     1
 40
0.0
176
     1
 40
1.0
176
     1
 90
        0
176
     1
 62
    18
176
     1
 90
       50
176
     1
 90
        3
176
     1
 62
     5
420
      255
176
     1
290
     0
176
     1
 90
       50
176
     1
 90
       50
176
     1
 90
       50
176
     1
290
     0
176
     1
 90
       50
176
     1
 62
   256
176
     0
 40
1.0
176
     0
 90
        2
176
     1
  1
strokes_ogs.tif
176
     1
290
     0
176
     1
 40
1.0
176
     1
 40
1.0
176
     1
  0
VISUALSTYLE
  5
2768
102
{ACAD_REACTORS
330
2765
102
}
330
2765
100
AcDbVisualStyle
  2
Gouraud
 70
     2
177
     3
291
     1
 70
    58
 90
        2
176
     1
 90
        2
176
     1
 90
        1
176
     1
 90
        2
176
     1
 40
0.6
176
     1
 40
30.0
176
     1
 62
     7
420
 16777215
176
     1
 90
        0
176
     1
 90
        4
176
     1
 62
     7
176
     1
 62
   257
176
     1
 90
        1
176
     1
 90
        1
176
     1
 40
1.0
176
     1
 90
        0
176
     1
 62
     7
176
     1
 40
1.0
176
     1
 90
        1
176
     1
 90
        6
176
     1
 90
        2
176
     1
 62
     7
176
     1
 90
        5
176
     1
 90
        0
176
     1
 90
        0
176
     1
290
     0
176
     1
 90
       13
176
     1
 40
0.0
176
     1
 90
        0
176
     1
290
     0
176
     1
290
     1
176
     1
290
     1
176
     1
290
     0
176
     1
290
     0
176
     1
290
     0
176
     1
290
     0
176
     1
290
     0
176
     1
290
     0
176
     1
 90
       50
176
     1
 40
0.0
176
     1
 40
1.0
176
     1
 90
        0
176
     1
 62
    18
176
     1
 90
       50
176
     1
 90
        3
176
     1
 62
     5
420
      255
176
     1
290
     0
176
     1
 90
       50
176
     1
 90
       50
176
     1
 90
       50
176
     1
290
     0
176
     1
 90
       50
176
     1
 62
   256
176
     0
 40
1.0
176
     0
 90
        2
176
     1
  1
strokes_ogs.tif
176
     1
290
     0
176
     1
 40
1.0
176
     1
 40
1.0
176
     1
  0
VISUALSTYLE
  5
2769
102
{ACAD_REACTORS
330
2765
102
}
330
2765
100
AcDbVisualStyle
  2
GouraudWithEdges
 70
     3
177
     3
291
     1
 70
    58
 90
        2
176
     1
 90
        2
176
     1
 90
        1
176
     1
 90
        2
176
     1
 40
0.6
176
     1
 40
30.0
176
     1
 62
     7
420
 16777215
176
     1
 90
        1
176
     1
 90
        4
176
     1
 62
     7
176
     1
 62
   257
176
     1
 90
        1
176
     1
 90
        1
176
     1
 40
1.0
176
     1
 90
        0
176
     1
 62
   257
176
     1
 40
1.0
176
     1
 90
        1
176
     1
 90
        6
176
     1
 90
        2
176
     1
 62
     7
176
     1
 90
        5
176
     1
 90
        0
176
     1
 90
        0
176
     1
290
     0
176
     1
 90
       13
176
     1
 40
0.0
176
     1
 90
        0
176
     1
290
     0
176
     1
290
     1
176
     1
290
     1
176
     1
290
     0
176
     1
290
     0
176
     1
290
     0
176
     1
290
     0
176
     1
290
     0
176
     1
290
     0
176
     1
 90
       50
176
     1
 40
0.0
176
     1
 40
1.0
176
     1
 90
        0
176
     1
 62
    18
176
     1
 90
       50
176
     1
 90
        3
176
     1
 62
     5
420
      255
176
     1
290
     0
176
     1
 90
       50
176
     1
 90
       50
176
     1
 90
       50
176
     1
290
     0
176
     1
 90
       50
176
     1
 62
   256
176
     0
 40
1.0
176
     0
 90
        2
176
     1
  1
strokes_ogs.tif
176
     1
290
     0
176
     1
 40
1.0
176
     1
 40
1.0
176
     1
  0
VISUALSTYLE
  5
2A892
102
{ACAD_REACTORS
330
2765
102
}
330
2765
100
AcDbVisualStyle
  2
Hidden
 70
     6
177
     3
291
     0
 70
    58
 90
        1
176
     1
 90
        2
176
     1
 90
        2
176
     1
 90
        0
176
     1
 40
0.6
176
     1
 40
30.0
176
     1
 62
     7
420
 16777215
176
     1
 90
        2
176
     1
 90
        2
176
     1
 62
     7
176
     1
 62
   257
176
     1
 90
        2
176
     1
 90
        1
176
     1
 40
40.0
176
     1
 90
        0
176
     1
 62
   257
176
     1
 40
1.0
176
     1
 90
        1
176
     1
 90
        6
176
     1
 90
        2
176
     1
 62
     7
176
     1
 90
        3
176
     1
 90
        0
176
     1
 90
        0
176
     1
290
     0
176
     1
 90
        1
176
     1
 40
0.0
176
     1
 90
        0
176
     1
290
     0
176
     1
290
     1
176
     1
290
     1
176
     1
290
     0
176
     1
290
     0
176
     1
290
     0
176
     1
290
     0
176
     1
290
     0
176
     1
290
     0
176
     1
 90
       50
176
     1
 40
0.0
176
     1
 40
1.0
176
     1
 90
        0
176
     1
 62
    18
176
     1
 90
       50
176
     1
 90
        3
176
     1
 62
     5
420
      255
176
     1
290
     0
176
     1
 90
       50
176
     1
 90
       50
176
     1
 90
       50
176
     1
290
     0
176
     1
 90
       50
176
     1
 62
   256
176
     0
 40
1.0
176
     0
 90
        2
176
     1
  1
strokes_ogs.tif
176
     1
290
     0
176
     1
 40
1.0
176
     1
 40
1.0
176
     1
  0
VISUALSTYLE
  5
247DC
102
{ACAD_REACTORS
330
2765
102
}
330
2765
100
AcDbVisualStyle
  2
JitterOff
 70
    20
177
     3
291
     1
 70
    58
 90
        2
176
     0
 90
        2
176
     0
 90
        0
176
     0
 90
        0
176
     0
 40
0.6
176
     0
 40
30.0
176
     0
 62
     7
420
 16777215
176
     0
 90
        1
176
     0
 90
        4
176
     0
 62
     7
176
     0
 62
   257
176
     0
 90
        1
176
     0
 90
        1
176
     0
 40
1.0
176
     0
 90
       10
176
     2
 62
     7
176
     0
 40
1.0
176
     0
 90
        1
176
     0
 90
        6
176
     0
 90
        2
176
     0
 62
     7
176
     0
 90
        5
176
     0
 90
        0
176
     0
 90
        0
176
     0
290
     0
176
     0
 90
        1
176
     0
 40
0.0
176
     0
 90
        0
176
     0
290
     0
176
     1
290
     1
176
     1
290
     1
176
     1
290
     0
176
     1
290
     0
176
     1
290
     0
176
     1
290
     0
176
     1
290
     0
176
     1
290
     0
176
     1
 90
       50
176
     1
 40
0.0
176
     1
 40
1.0
176
     1
 90
        0
176
     1
 62
    18
176
     1
 90
       50
176
     1
 90
        3
176
     1
 62
     5
420
      255
176
     1
290
     0
176
     1
 90
       50
176
     1
 90
       50
176
     1
 90
       50
176
     1
290
     0
176
     1
 90
       50
176
     1
 62
   256
176
     0
 40
1.0
176
     0
 90
        2
176
     1
  1
strokes_ogs.tif
176
     1
290
     0
176
     1
 40
1.0
176
     1
 40
1.0
176
     1
  0
VISUALSTYLE
  5
2773
102
{ACAD_REACTORS
330
2765
102
}
330
2765
100
AcDbVisualStyle
  2
Linepattern
 70
    14
177
     3
291
     1
 70
    58
 90
        2
176
     1
 90
        2
176
     1
 90
        0
176
     1
 90
        0
176
     1
 40
0.6
176
     1
 40
30.0
176
     1
 62
     7
420
 16777215
176
     1
 90
        1
176
     1
 90
        4
176
     1
 62
     7
176
     1
 62
   257
176
     1
 90
        7
176
     1
 90
        7
176
     1
 40
1.0
176
     1
 90
        8
176
     1
 62
     7
176
     1
 40
1.0
176
     1
 90
        1
176
     1
 90
        6
176
     1
 90
        2
176
     1
 62
     7
176
     1
 90
        5
176
     1
 90
        0
176
     1
 90
        0
176
     1
290
     0
176
     1
 90
        1
176
     1
 40
0.0
176
     1
 90
        0
176
     1
290
     0
176
     1
290
     1
176
     1
290
     1
176
     1
290
     0
176
     1
290
     0
176
     1
290
     0
176
     1
290
     0
176
     1
290
     0
176
     1
290
     0
176
     1
 90
       50
176
     1
 40
0.0
176
     1
 40
1.0
176
     1
 90
        0
176
     1
 62
    18
176
     1
 90
       50
176
     1
 90
        3
176
     1
 62
     5
420
      255
176
     1
290
     0
176
     1
 90
       50
176
     1
 90
       50
176
     1
 90
       50
176
     1
290
     0
176
     1
 90
       50
176
     1
 62
   256
176
     0
 40
1.0
176
     0
 90
        2
176
     1
  1
strokes_ogs.tif
176
     1
290
     0
176
     1
 40
1.0
176
     1
 40
1.0
176
     1
  0
VISUALSTYLE
  5
247DD
102
{ACAD_REACTORS
330
2765
102
}
330
2765
100
AcDbVisualStyle
  2
OverhangOff
 70
    21
177
     3
291
     1
 70
    58
 90
        2
176
     0
 90
        2
176
     0
 90
        0
176
     0
 90
        0
176
     0
 40
0.6
176
     0
 40
30.0
176
     0
 62
     7
420
 16777215
176
     0
 90
        1
176
     0
 90
        4
176
     0
 62
     7
176
     0
 62
   257
176
     0
 90
        1
176
     0
 90
        1
176
     0
 40
1.0
176
     0
 90
        9
176
     2
 62
     7
176
     0
 40
1.0
176
     0
 90
        1
176
     0
 90
        6
176
     0
 90
        2
176
     0
 62
     7
176
     0
 90
        5
176
     0
 90
        0
176
     0
 90
        0
176
     0
290
     0
176
     0
 90
        1
176
     0
 40
0.0
176
     0
 90
        0
176
     0
290
     0
176
     1
290
     1
176
     1
290
     1
176
     1
290
     0
176
     1
290
     0
176
     1
290
     0
176
     1
290
     0
176
     1
290
     0
176
     1
290
     0
176
     1
 90
       50
176
     1
 40
0.0
176
     1
 40
1.0
176
     1
 90
        0
176
     1
 62
    18
176
     1
 90
       50
176
     1
 90
        3
176
     1
 62
     5
420
      255
176
     1
290
     0
176
     1
 90
       50
176
     1
 90
       50
176
     1
 90
       50
176
     1
290
     0
176
     1
 90
       50
176
     1
 62
   256
176
     0
 40
1.0
176
     0
 90
        2
176
     1
  1
strokes_ogs.tif
176
     1
290
     0
176
     1
 40
1.0
176
     1
 40
1.0
176
     1
  0
VISUALSTYLE
  5
276F
102
{ACAD_REACTORS
330
2765
102
}
330
2765
100
AcDbVisualStyle
  2
Realistic
 70
     8
177
     3
291
     0
 70
    58
 90
        2
176
     1
 90
        2
176
     1
 90
        0
176
     1
 90
        0
176
     1
 40
0.6
176
     1
 40
30.0
176
     1
 62
     7
420
 16777215
176
     1
 90
        1
176
     1
 90
        0
176
     1
 62
     7
176
     1
 62
   257
176
     1
 90
        1
176
     1
 90
        1
176
     1
 40
1.0
176
     1
 90
        8
176
     1
 62
     8
420
  7895160
176
     1
 40
1.0
176
     1
 90
        1
176
     1
 90
        6
176
     1
 90
        2
176
     1
 62
     7
176
     1
 90
        5
176
     1
 90
        0
176
     1
 90
        0
176
     1
290
     0
176
     1
 90
       13
176
     1
 40
0.0
176
     1
 90
        0
176
     1
290
     0
176
     1
290
     1
176
     1
290
     1
176
     1
290
     0
176
     1
290
     0
176
     1
290
     0
176
     1
290
     0
176
     1
290
     0
176
     1
290
     0
176
     1
 90
       50
176
     1
 40
0.0
176
     1
 40
1.0
176
     1
 90
        0
176
     1
 62
    18
176
     1
 90
       50
176
     1
 90
        3
176
     1
 62
     5
420
      255
176
     1
290
     0
176
     1
 90
       50
176
     1
 90
       50
176
     1
 90
       50
176
     1
290
     0
176
     1
 90
       50
176
     1
 62
   256
176
     0
 40
1.0
176
     0
 90
        2
176
     1
  1
strokes_ogs.tif
176
     1
290
     0
176
     1
 40
1.0
176
     1
 40
1.0
176
     1
  0
VISUALSTYLE
  5
2A897
102
{ACAD_REACTORS
330
2765
102
}
330
2765
100
AcDbVisualStyle
  2
Shaded
 70
    27
177
     3
291
     0
 70
    58
 90
        2
176
     1
 90
        2
176
     1
 90
        1
176
     1
 90
        2
176
     1
 40
0.6
176
     1
 40
30.0
176
     1
 62
     7
420
 16777215
176
     1
 90
        0
176
     1
 90
        4
176
     1
 62
     7
176
     1
 62
   257
176
     1
 90
        1
176
     1
 90
        1
176
     1
 40
1.0
176
     1
 90
        8
176
     1
 62
   257
176
     1
 40
1.0
176
     1
 90
        1
176
     1
 90
        6
176
     1
 90
        2
176
     1
 62
     8
420
  7895160
176
     1
 90
        3
176
     1
 90
        0
176
     1
 90
        0
176
     1
290
     0
176
     1
 90
        5
176
     1
 40
0.0
176
     1
 90
        0
176
     1
290
     0
176
     1
290
     1
176
     1
290
     1
176
     1
290
     0
176
     1
290
     0
176
     1
290
     0
176
     1
290
     0
176
     1
290
     0
176
     1
290
     0
176
     1
 90
       50
176
     1
 40
0.0
176
     1
 40
1.0
176
     1
 90
        0
176
     1
 62
    18
176
     1
 90
       50
176
     1
 90
        3
176
     1
 62
     5
420
      255
176
     1
290
     0
176
     1
 90
       50
176
     1
 90
       50
176
     1
 90
       50
176
     1
290
     0
176
     1
 90
       50
176
     1
 62
   256
176
     0
 40
1.0
176
     0
 90
        2
176
     1
  1
strokes_ogs.tif
176
     1
290
     0
176
     1
 40
1.0
176
     1
 40
1.0
176
     1
  0
VISUALSTYLE
  5
2A896
102
{ACAD_REACTORS
330
2765
102
}
330
2765
100
AcDbVisualStyle
  2
Shaded with edges
 70
    26
177
     3
291
     0
 70
    58
 90
        2
176
     1
 90
        2
176
     1
 90
        1
176
     1
 90
        2
176
     1
 40
0.6
176
     1
 40
30.0
176
     1
 62
     7
420
 16777215
176
     1
 90
        1
176
     1
 90
       10
176
     1
 62
     7
176
     1
 62
   257
176
     1
 90
        2
176
     1
 90
        1
176
     1
 40
1.0
176
     1
 90
        8
176
     1
 62
   257
176
     1
 40
1.0
176
     1
 90
        1
176
     1
 90
        6
176
     1
 90
        2
176
     1
 62
     7
176
     1
 90
        3
176
     1
 90
        0
176
     1
 90
        0
176
     1
290
     0
176
     1
 90
        5
176
     1
 40
0.0
176
     1
 90
        0
176
     1
290
     0
176
     1
290
     1
176
     1
290
     1
176
     1
290
     0
176
     1
290
     0
176
     1
290
     0
176
     1
290
     0
176
     1
290
     0
176
     1
290
     0
176
     1
 90
       50
176
     1
 40
0.0
176
     1
 40
1.0
176
     1
 90
        0
176
     1
 62
    18
176
     1
 90
       50
176
     1
 90
        3
176
     1
 62
     5
420
      255
176
     1
290
     0
176
     1
 90
       50
176
     1
 90
       50
176
     1
 90
       50
176
     1
290
     0
176
     1
 90
       50
176
     1
 62
   256
176
     0
 40
1.0
176
     0
 90
        2
176
     1
  1
strokes_ogs.tif
176
     1
290
     0
176
     1
 40
1.0
176
     1
 40
1.0
176
     1
  0
VISUALSTYLE
  5
2A893
102
{ACAD_REACTORS
330
2765
102
}
330
2765
100
AcDbVisualStyle
  2
Shades of Gray
 70
    23
177
     3
291
     0
 70
    58
 90
        2
176
     1
 90
        2
176
     1
 90
        3
176
     1
 90
        0
176
     1
 40
0.6
176
     1
 40
30.0
176
     1
 62
     7
420
 16777215
176
     1
 90
        2
176
     1
 90
        2
176
     1
 62
     7
176
     1
 62
     7
176
     1
 90
        1
176
     1
 90
        1
176
     1
 40
40.0
176
     1
 90
        8
176
     1
 62
     7
176
     1
 40
1.0
176
     1
 90
        1
176
     1
 90
        6
176
     1
 90
        2
176
     1
 62
     7
176
     1
 90
        3
176
     1
 90
        0
176
     1
 90
        0
176
     1
290
     0
176
     1
 90
        1
176
     1
 40
0.0
176
     1
 90
        0
176
     1
290
     0
176
     1
290
     1
176
     1
290
     1
176
     1
290
     0
176
     1
290
     0
176
     1
290
     0
176
     1
290
     0
176
     1
290
     0
176
     1
290
     0
176
     1
 90
       50
176
     1
 40
0.0
176
     1
 40
1.0
176
     1
 90
        0
176
     1
 62
    18
176
     1
 90
       50
176
     1
 90
        3
176
     1
 62
     5
420
      255
176
     1
290
     0
176
     1
 90
       50
176
     1
 90
       50
176
     1
 90
       50
176
     1
290
     0
176
     1
 90
       50
176
     1
 62
   256
176
     0
 40
1.0
176
     0
 90
        2
176
     1
  1
strokes_ogs.tif
176
     1
290
     0
176
     1
 40
1.0
176
     1
 40
1.0
176
     1
  0
VISUALSTYLE
  5
2A894
102
{ACAD_REACTORS
330
2765
102
}
330
2765
100
AcDbVisualStyle
  2
Sketchy
 70
    24
177
     3
291
     0
 70
    58
 90
        1
176
     1
 90
        2
176
     1
 90
        2
176
     1
 90
        0
176
     1
 40
0.6
176
     1
 40
30.0
176
     1
 62
     7
420
 16777215
176
     1
 90
        2
176
     1
 90
        2
176
     1
 62
     7
176
     1
 62
     7
176
     1
 90
        1
176
     1
 90
        1
176
     1
 40
40.0
176
     1
 90
       11
176
     1
 62
     7
176
     1
 40
1.0
176
     1
 90
        1
176
     1
 90
        6
176
     1
 90
        2
176
     1
 62
     7
176
     1
 90
        6
176
     1
 90
        0
176
     1
 90
        0
176
     1
290
     0
176
     1
 90
        1
176
     1
 40
0.0
176
     1
 90
        0
176
     1
290
     0
176
     1
290
     1
176
     1
290
     1
176
     1
290
     0
176
     1
290
     0
176
     1
290
     0
176
     1
290
     0
176
     1
290
     0
176
     1
290
     0
176
     1
 90
       50
176
     1
 40
0.0
176
     1
 40
1.0
176
     1
 90
        0
176
     1
 62
    18
176
     1
 90
       50
176
     1
 90
        3
176
     1
 62
     5
420
      255
176
     1
290
     0
176
     1
 90
       50
176
     1
 90
       50
176
     1
 90
       50
176
     1
290
     0
176
     1
 90
       50
176
     1
 62
   256
176
     0
 40
1.0
176
     0
 90
        2
176
     1
  1
strokes_ogs.tif
176
     1
290
     0
176
     1
 40
1.0
176
     1
 40
1.0
176
     1
  0
VISUALSTYLE
  5
2772
102
{ACAD_REACTORS
330
2765
102
}
330
2765
100
AcDbVisualStyle
  2
Thicken
 70
    13
177
     3
291
     1
 70
    58
 90
        2
176
     1
 90
        2
176
     1
 90
        0
176
     1
 90
        0
176
     1
 40
0.6
176
     1
 40
30.0
176
     1
 62
     7
420
 16777215
176
     1
 90
        1
176
     1
 90
        4
176
     1
 62
     7
176
     1
 62
   257
176
     1
 90
        1
176
     1
 90
        1
176
     1
 40
1.0
176
     1
 90
       12
176
     1
 62
     7
176
     1
 40
1.0
176
     1
 90
        1
176
     1
 90
        6
176
     1
 90
        2
176
     1
 62
     7
176
     1
 90
        5
176
     1
 90
        0
176
     1
 90
        0
176
     1
290
     0
176
     1
 90
        1
176
     1
 40
0.0
176
     1
 90
        0
176
     1
290
     0
176
     1
290
     1
176
     1
290
     1
176
     1
290
     0
176
     1
290
     0
176
     1
290
     0
176
     1
290
     0
176
     1
290
     0
176
     1
290
     0
176
     1
 90
       50
176
     1
 40
0.0
176
     1
 40
1.0
176
     1
 90
        0
176
     1
 62
    18
176
     1
 90
       50
176
     1
 90
        3
176
     1
 62
     5
420
      255
176
     1
290
     0
176
     1
 90
       50
176
     1
 90
       50
176
     1
 90
       50
176
     1
290
     0
176
     1
 90
       50
176
     1
 62
   256
176
     0
 40
1.0
176
     0
 90
        2
176
     1
  1
strokes_ogs.tif
176
     1
290
     0
176
     1
 40
1.0
176
     1
 40
1.0
176
     1
  0
VISUALSTYLE
  5
2A891
102
{ACAD_REACTORS
330
2765
102
}
330
2765
100
AcDbVisualStyle
  2
Wireframe
 70
     5
177
     3
291
     0
 70
    58
 90
        0
176
     1
 90
        2
176
     1
 90
        0
176
     1
 90
        0
176
     1
 40
0.6
176
     1
 40
30.0
176
     1
 62
     7
420
 16777215
176
     1
 90
        1
176
     1
 90
        4
176
     1
 62
     7
176
     1
 62
   257
176
     1
 90
        1
176
     1
 90
        1
176
     1
 40
1.0
176
     1
 90
        0
176
     1
 62
   257
176
     1
 40
1.0
176
     1
 90
        1
176
     1
 90
        6
176
     1
 90
        2
176
     1
 62
     7
176
     1
 90
        3
176
     1
 90
        0
176
     1
 90
        0
176
     1
290
     0
176
     1
 90
        1
176
     1
 40
0.0
176
     1
 90
        0
176
     1
290
     0
176
     1
290
     1
176
     1
290
     1
176
     1
290
     0
176
     1
290
     0
176
     1
290
     0
176
     1
290
     0
176
     1
290
     0
176
     1
290
     0
176
     1
 90
       50
176
     1
 40
0.0
176
     1
 40
1.0
176
     1
 90
        0
176
     1
 62
    18
176
     1
 90
       50
176
     1
 90
        3
176
     1
 62
     5
420
      255
176
     1
290
     0
176
     1
 90
       50
176
     1
 90
       50
176
     1
 90
       50
176
     1
290
     0
176
     1
 90
       50
176
     1
 62
   256
176
     0
 40
1.0
176
     0
 90
        2
176
     1
  1
strokes_ogs.tif
176
     1
290
     0
176
     1
 40
1.0
176
     1
 40
1.0
176
     1
  0
VISUALSTYLE
  5
2A895
102
{ACAD_REACTORS
330
2765
102
}
330
2765
100
AcDbVisualStyle
  2
X-Ray
 70
    25
177
     3
291
     0
 70
    58
 90
        2
176
     1
 90
        2
176
     1
 90
        1
176
     1
 90
        1
176
     1
 40
0.5
176
     1
 40
30.0
176
     1
 62
     7
420
 16777215
176
     1
 90
        1
176
     1
 90
        0
176
     1
 62
     7
176
     1
 62
   257
176
     1
 90
        1
176
     1
 90
        1
176
     1
 40
1.0
176
     1
 90
        8
176
     1
 62
     7
176
     1
 40
1.0
176
     1
 90
        1
176
     1
 90
        6
176
     1
 90
        2
176
     1
 62
     7
176
     1
 90
        3
176
     1
 90
        0
176
     1
 90
        0
176
     1
290
     0
176
     1
 90
       13
176
     1
 40
0.0
176
     1
 90
        0
176
     1
290
     0
176
     1
290
     1
176
     1
290
     1
176
     1
290
     0
176
     1
290
     0
176
     1
290
     0
176
     1
290
     0
176
     1
290
     0
176
     1
290
     0
176
     1
 90
       50
176
     1
 40
0.0
176
     1
 40
1.0
176
     1
 90
        0
176
     1
 62
    18
176
     1
 90
       50
176
     1
 90
        3
176
     1
 62
     5
420
      255
176
     1
290
     0
176
     1
 90
       50
176
     1
 90
       50
176
     1
 90
       50
176
     1
290
     0
176
     1
 90
       50
176
     1
 62
   256
176
     0
 40
1.0
176
     0
 90
        2
176
     1
  1
strokes_ogs.tif
176
     1
290
     0
176
     1
 40
1.0
176
     1
 40
1.0
176
     1
  0
DICTIONARYVAR
  5
24E32
102
{ACAD_REACTORS
330
5E
102
}
330
5E
100
DictionaryVariables
280
     0
  1
1:1
  0
DICTIONARYVAR
  5
24E30
102
{ACAD_REACTORS
330
5E
102
}
330
5E
100
DictionaryVariables
280
     0
  1
STANDARD
  0
DICTIONARYVAR
  5
2792
102
{ACAD_REACTORS
330
5E
102
}
330
5E
100
DictionaryVariables
280
     0
  1
STANDARD
  0
DICTIONARYVAR
  5
2A8AC
102
{ACAD_REACTORS
330
5E
102
}
330
5E
100
DictionaryVariables
280
     0
  1
Metric50
  0
DICTIONARYVAR
  5
2A8AD
102
{ACAD_REACTORS
330
5E
102
}
330
5E
100
DictionaryVariables
280
     0
  1
Metric50
  0
DICTIONARYVAR
  5
5F
102
{ACAD_REACTORS
330
5E
102
}
330
5E
100
DictionaryVariables
280
     0
  1
2
  0
DICTIONARYVAR
  5
63
102
{ACAD_REACTORS
330
5E
102
}
330
5E
100
DictionaryVariables
280
     0
  1
1
  0
DICTIONARYVAR
  5
24E34
102
{ACAD_REACTORS
330
5E
102
}
330
5E
100
DictionaryVariables
280
     0
  1
1
  0
DICTIONARYVAR
  5
24E35
102
{ACAD_REACTORS
330
5E
102
}
330
5E
100
DictionaryVariables
280
     0
  1
15
  0
DICTIONARYVAR
  5
24E33
102
{ACAD_REACTORS
330
5E
102
}
330
5E
100
DictionaryVariables
280
     0
  1
0
  0
DICTIONARYVAR
  5
24E31
102
{ACAD_REACTORS
330
5E
102
}
330
5E
100
DictionaryVariables
280
     0
  1
0
  0
DICTIONARY
  5
2A8B5
330
2A89B
100
AcDbDictionary
280
     1
281
     1
  3
ACAD_XREC_ROUNDTRIP
360
2A8D4
  0
DICTIONARY
  5
24E2E
330
22
100
AcDbDictionary
280
     1
281
     1
  0
DICTIONARY
  5
2E30
330
51
100
AcDbDictionary
280
     1
281
     1
  0
DICTIONARY
  5
2A8B3
330
2A899
100
AcDbDictionary
280
     1
281
     1
  3
ACAD_XREC_ROUNDTRIP
360
2A8D3
  0
DICTIONARY
  5
2A8AF
330
2778
100
AcDbDictionary
280
     1
281
     1
  3
ACAD_ROUNDTRIP_2008_TABLESTYLE_CELLSTYLEMAP
360
2A8D1
  0
DICTIONARY
  5
2A8B1
330
2688B
100
AcDbDictionary
280
     1
281
     1
  3
ACAD_ROUNDTRIP_2008_TABLESTYLE_CELLSTYLEMAP
360
2A8D2
  0
XRECORD
  5
2A8D4
102
{ACAD_REACTORS
330
2A8B5
102
}
330
2A8B5
100
AcDbXrecord
280
     1
102
DISPLAYNAME
  1
Metric50
102
FLAGS
 90
        0
  0
XRECORD
  5
2A8D3
102
{ACAD_REACTORS
330
2A8B3
102
}
330
2A8B3
100
AcDbXrecord
280
     1
102
DISPLAYNAME
  1
Metric50
102
FLAGS
 90
        0
  0
CELLSTYLEMAP
  5
2A8D1
102
{ACAD_REACTORS
330
2A8AF
102
}
330
2A8AF
100
AcDbCellStyleMap
 90
        3
300
CELLSTYLE
  1
TABLEFORMAT_BEGIN
 90
        5
170
     1
 91
        0
 92
    32768
 62
   257
 93
        1
300
CONTENTFORMAT
  1
CONTENTFORMAT_BEGIN
 90
        0
 91
        0
 92
      512
 93
        0
300

 40
0.0
140
1.0
 94
        5
 62
     0
340
11
144
6.0
309
CONTENTFORMAT_END
171
     1
301
MARGIN
  1
CELLMARGIN_BEGIN
 40
1.5
 40
1.5
 40
1.5
 40
1.5
 40
0.18
 40
0.18
309
CELLMARGIN_END
 94
        6
 95
        1
302
GRIDFORMAT
  1
GRIDFORMAT_BEGIN
 90
        0
 91
        1
 62
     0
 92
       -2
340
0
 93
        0
 40
0.045
309
GRIDFORMAT_END
 95
        2
302
GRIDFORMAT
  1
GRIDFORMAT_BEGIN
 90
        0
 91
        1
 62
     0
 92
       -2
340
0
 93
        0
 40
0.045
309
GRIDFORMAT_END
 95
        4
302
GRIDFORMAT
  1
GRIDFORMAT_BEGIN
 90
        0
 91
        1
 62
     0
 92
       -2
340
0
 93
        0
 40
0.045
309
GRIDFORMAT_END
 95
        8
302
GRIDFORMAT
  1
GRIDFORMAT_BEGIN
 90
        0
 91
        1
 62
     0
 92
       -2
340
0
 93
        0
 40
0.045
309
GRIDFORMAT_END
 95
       16
302
GRIDFORMAT
  1
GRIDFORMAT_BEGIN
 90
        0
 91
        1
 62
     0
 92
       -2
340
0
 93
        0
 40
0.045
309
GRIDFORMAT_END
 95
       32
302
GRIDFORMAT
  1
GRIDFORMAT_BEGIN
 90
        0
 91
        1
 62
     0
 92
       -2
340
0
 93
        0
 40
0.045
309
GRIDFORMAT_END
309
TABLEFORMAT_END
  1
CELLSTYLE_BEGIN
 90
        1
 91
        1
300
_TITLE
309
CELLSTYLE_END
300
CELLSTYLE
  1
TABLEFORMAT_BEGIN
 90
        5
170
     1
 91
        0
 92
        0
 62
   257
 93
        1
300
CONTENTFORMAT
  1
CONTENTFORMAT_BEGIN
 90
        0
 91
        0
 92
      512
 93
        0
300

 40
0.0
140
1.0
 94
        5
 62
     0
340
11
144
4.5
309
CONTENTFORMAT_END
171
     1
301
MARGIN
  1
CELLMARGIN_BEGIN
 40
1.5
 40
1.5
 40
1.5
 40
1.5
 40
0.18
 40
0.18
309
CELLMARGIN_END
 94
        6
 95
        1
302
GRIDFORMAT
  1
GRIDFORMAT_BEGIN
 90
        0
 91
        1
 62
     0
 92
       -2
340
0
 93
        0
 40
0.045
309
GRIDFORMAT_END
 95
        2
302
GRIDFORMAT
  1
GRIDFORMAT_BEGIN
 90
        0
 91
        1
 62
     0
 92
       -2
340
0
 93
        0
 40
0.045
309
GRIDFORMAT_END
 95
        4
302
GRIDFORMAT
  1
GRIDFORMAT_BEGIN
 90
        0
 91
        1
 62
     0
 92
       -2
340
0
 93
        0
 40
0.045
309
GRIDFORMAT_END
 95
        8
302
GRIDFORMAT
  1
GRIDFORMAT_BEGIN
 90
        0
 91
        1
 62
     0
 92
       -2
340
0
 93
        0
 40
0.045
309
GRIDFORMAT_END
 95
       16
302
GRIDFORMAT
  1
GRIDFORMAT_BEGIN
 90
        0
 91
        1
 62
     0
 92
       -2
340
0
 93
        0
 40
0.045
309
GRIDFORMAT_END
 95
       32
302
GRIDFORMAT
  1
GRIDFORMAT_BEGIN
 90
        0
 91
        1
 62
     0
 92
       -2
340
0
 93
        0
 40
0.045
309
GRIDFORMAT_END
309
TABLEFORMAT_END
  1
CELLSTYLE_BEGIN
 90
        2
 91
        1
300
_HEADER
309
CELLSTYLE_END
300
CELLSTYLE
  1
TABLEFORMAT_BEGIN
 90
        5
170
     1
 91
        0
 92
        0
 62
   257
 93
        1
300
CONTENTFORMAT
  1
CONTENTFORMAT_BEGIN
 90
        0
 91
        0
 92
      512
 93
        0
300

 40
0.0
140
1.0
 94
        2
 62
     0
340
11
144
4.5
309
CONTENTFORMAT_END
171
     1
301
MARGIN
  1
CELLMARGIN_BEGIN
 40
1.5
 40
1.5
 40
1.5
 40
1.5
 40
0.18
 40
0.18
309
CELLMARGIN_END
 94
        6
 95
        1
302
GRIDFORMAT
  1
GRIDFORMAT_BEGIN
 90
        0
 91
        1
 62
     0
 92
       -2
340
0
 93
        0
 40
0.045
309
GRIDFORMAT_END
 95
        2
302
GRIDFORMAT
  1
GRIDFORMAT_BEGIN
 90
        0
 91
        1
 62
     0
 92
       -2
340
0
 93
        0
 40
0.045
309
GRIDFORMAT_END
 95
        4
302
GRIDFORMAT
  1
GRIDFORMAT_BEGIN
 90
        0
 91
        1
 62
     0
 92
       -2
340
0
 93
        0
 40
0.045
309
GRIDFORMAT_END
 95
        8
302
GRIDFORMAT
  1
GRIDFORMAT_BEGIN
 90
        0
 91
        1
 62
     0
 92
       -2
340
0
 93
        0
 40
0.045
309
GRIDFORMAT_END
 95
       16
302
GRIDFORMAT
  1
GRIDFORMAT_BEGIN
 90
        0
 91
        1
 62
     0
 92
       -2
340
0
 93
        0
 40
0.045
309
GRIDFORMAT_END
 95
       32
302
GRIDFORMAT
  1
GRIDFORMAT_BEGIN
 90
        0
 91
        1
 62
     0
 92
       -2
340
0
 93
        0
 40
0.045
309
GRIDFORMAT_END
309
TABLEFORMAT_END
  1
CELLSTYLE_BEGIN
 90
        3
 91
        2
300
_DATA
309
CELLSTYLE_END
  0
CELLSTYLEMAP
  5
2A8D2
102
{ACAD_REACTORS
330
2A8B1
102
}
330
2A8B1
100
AcDbCellStyleMap
 90
        3
300
CELLSTYLE
  1
TABLEFORMAT_BEGIN
 90
        5
170
     1
 91
        0
 92
    32768
 62
   257
 93
        1
300
CONTENTFORMAT
  1
CONTENTFORMAT_BEGIN
 90
        0
 91
        0
 92
      512
 93
        0
300

 40
0.0
140
1.0
 94
        5
 62
     0
340
11
144
6.0
309
CONTENTFORMAT_END
171
     1
301
MARGIN
  1
CELLMARGIN_BEGIN
 40
1.5
 40
1.5
 40
1.5
 40
1.5
 40
0.18
 40
0.18
309
CELLMARGIN_END
 94
        6
 95
        1
302
GRIDFORMAT
  1
GRIDFORMAT_BEGIN
 90
        0
 91
        1
 62
     0
 92
       -2
340
0
 93
        0
 40
0.045
309
GRIDFORMAT_END
 95
        2
302
GRIDFORMAT
  1
GRIDFORMAT_BEGIN
 90
        0
 91
        1
 62
     0
 92
       -2
340
0
 93
        0
 40
0.045
309
GRIDFORMAT_END
 95
        4
302
GRIDFORMAT
  1
GRIDFORMAT_BEGIN
 90
        0
 91
        1
 62
     0
 92
       -2
340
0
 93
        0
 40
0.045
309
GRIDFORMAT_END
 95
        8
302
GRIDFORMAT
  1
GRIDFORMAT_BEGIN
 90
        0
 91
        1
 62
     0
 92
       -2
340
0
 93
        0
 40
0.045
309
GRIDFORMAT_END
 95
       16
302
GRIDFORMAT
  1
GRIDFORMAT_BEGIN
 90
        0
 91
        1
 62
     0
 92
       -2
340
0
 93
        0
 40
0.045
309
GRIDFORMAT_END
 95
       32
302
GRIDFORMAT
  1
GRIDFORMAT_BEGIN
 90
        0
 91
        1
 62
     0
 92
       -2
340
0
 93
        0
 40
0.045
309
GRIDFORMAT_END
309
TABLEFORMAT_END
  1
CELLSTYLE_BEGIN
 90
        1
 91
        1
300
_TITLE
309
CELLSTYLE_END
300
CELLSTYLE
  1
TABLEFORMAT_BEGIN
 90
        5
170
     1
 91
        0
 92
        0
 62
   257
 93
        1
300
CONTENTFORMAT
  1
CONTENTFORMAT_BEGIN
 90
        0
 91
        0
 92
      512
 93
        0
300

 40
0.0
140
1.0
 94
        5
 62
     2
340
10EC
144
4.5
309
CONTENTFORMAT_END
171
     1
301
MARGIN
  1
CELLMARGIN_BEGIN
 40
1.5
 40
1.5
 40
1.5
 40
1.5
 40
0.18
 40
0.18
309
CELLMARGIN_END
 94
        6
 95
        1
302
GRIDFORMAT
  1
GRIDFORMAT_BEGIN
 90
        0
 91
        1
 62
     0
 92
       -2
340
0
 93
        0
 40
0.045
309
GRIDFORMAT_END
 95
        2
302
GRIDFORMAT
  1
GRIDFORMAT_BEGIN
 90
        0
 91
        1
 62
     0
 92
       -2
340
0
 93
        0
 40
0.045
309
GRIDFORMAT_END
 95
        4
302
GRIDFORMAT
  1
GRIDFORMAT_BEGIN
 90
        0
 91
        1
 62
     0
 92
       -2
340
0
 93
        0
 40
0.045
309
GRIDFORMAT_END
 95
        8
302
GRIDFORMAT
  1
GRIDFORMAT_BEGIN
 90
        0
 91
        1
 62
     0
 92
       -2
340
0
 93
        0
 40
0.045
309
GRIDFORMAT_END
 95
       16
302
GRIDFORMAT
  1
GRIDFORMAT_BEGIN
 90
        0
 91
        1
 62
     0
 92
       -2
340
0
 93
        0
 40
0.045
309
GRIDFORMAT_END
 95
       32
302
GRIDFORMAT
  1
GRIDFORMAT_BEGIN
 90
        0
 91
        1
 62
     0
 92
       -2
340
0
 93
        0
 40
0.045
309
GRIDFORMAT_END
309
TABLEFORMAT_END
  1
CELLSTYLE_BEGIN
 90
        2
 91
        1
300
_HEADER
309
CELLSTYLE_END
300
CELLSTYLE
  1
TABLEFORMAT_BEGIN
 90
        5
170
     1
 91
        0
 92
        0
 62
   257
 93
        1
300
CONTENTFORMAT
  1
CONTENTFORMAT_BEGIN
 90
        0
 91
        0
 92
      512
 93
        0
300

 40
0.0
140
1.0
 94
        2
 62
     2
340
10EC
144
4.5
309
CONTENTFORMAT_END
171
     1
301
MARGIN
  1
CELLMARGIN_BEGIN
 40
1.5
 40
1.5
 40
1.5
 40
1.5
 40
0.18
 40
0.18
309
CELLMARGIN_END
 94
        6
 95
        1
302
GRIDFORMAT
  1
GRIDFORMAT_BEGIN
 90
        0
 91
        1
 62
     0
 92
       -2
340
0
 93
        0
 40
0.045
309
GRIDFORMAT_END
 95
        2
302
GRIDFORMAT
  1
GRIDFORMAT_BEGIN
 90
        0
 91
        1
 62
     0
 92
       -2
340
0
 93
        0
 40
0.045
309
GRIDFORMAT_END
 95
        4
302
GRIDFORMAT
  1
GRIDFORMAT_BEGIN
 90
        0
 91
        1
 62
     0
 92
       -2
340
0
 93
        0
 40
0.045
309
GRIDFORMAT_END
 95
        8
302
GRIDFORMAT
  1
GRIDFORMAT_BEGIN
 90
        0
 91
        1
 62
     0
 92
       -2
340
0
 93
        0
 40
0.045
309
GRIDFORMAT_END
 95
       16
302
GRIDFORMAT
  1
GRIDFORMAT_BEGIN
 90
        0
 91
        1
 62
     0
 92
       -2
340
0
 93
        0
 40
0.045
309
GRIDFORMAT_END
 95
       32
302
GRIDFORMAT
  1
GRIDFORMAT_BEGIN
 90
        0
 91
        1
 62
     0
 92
       -2
340
0
 93
        0
 40
0.045
309
GRIDFORMAT_END
309
TABLEFORMAT_END
  1
CELLSTYLE_BEGIN
 90
        3
 91
        2
300
_DATA
309
CELLSTYLE_END
  0
ENDSEC
  0
SECTION
  2
ACDSDATA
 70
     2
 71
     6
  0
ACDSSCHEMA
 90
        0
  1
AcDb_Thumbnail_Schema
  2
AcDbDs::ID
280
    10
 91
        8
  2
Thumbnail_Data
280
    15
 91
        0
101
ACDSRECORD
 95
        0
 90
        1
  2
AcDbDs::TreatedAsObjectData
280
     1
291
     1
101
ACDSRECORD
 95
        0
 90
        2
  2
AcDbDs::Legacy
280
     1
291
     1
101
ACDSRECORD
  1
AcDbDs::ID
 90
        3
  2
AcDs:Indexable
280
     1
291
     1
101
ACDSRECORD
  1
AcDbDs::ID
 90
        4
  2
AcDbDs::HandleAttribute
280
     7
282
     1
  0
ACDSSCHEMA
 90
        1
  1
AcDbDs::TreatedAsObjectDataSchema
  2
AcDbDs::TreatedAsObjectData
280
     1
 91
        0
  0
ACDSSCHEMA
 90
        2
  1
AcDbDs::LegacySchema
  2
AcDbDs::Legacy
280
     1
 91
        0
  0
ACDSSCHEMA
 90
        3
  1
AcDbDs::IndexedPropertySchema
  2
AcDs:Indexable
280
     1
 91
        0
  0
ACDSSCHEMA
 90
        4
  1
AcDbDs::HandleAttributeSchema
  2
AcDbDs::HandleAttribute
280
     7
 91
        1
284
     1
  0
ACDSRECORD
 90
        0
  2
AcDbDs::ID
280
    10
320
22
  2
Thumbnail_Data
280
    15
 94
     2142
310
89504E470D0A1A0A0000000D49484452000001000000007F080300000037AFECF400000300504C5445000000000000FFFFFF0000000000000000000000000000000000000000000000000000330000660000990000CC0000FF0033000033330033660033990033CC0033FF0066000066330066660066990066CC0066FF0099
310
000099330099660099990099CC0099FF00CC0000CC3300CC6600CC9900CCCC00CCFF00FF0000FF3300FF6600FF9900FFCC00FFFF3300003300333300663300993300CC3300FF3333003333333333663333993333CC3333FF3366003366333366663366993366CC3366FF3399003399333399663399993399CC3399FF33CC00
310
33CC3333CC6633CC9933CCCC33CCFF33FF0033FF3333FF6633FF9933FFCC33FFFF6600006600336600666600996600CC6600FF6633006633336633666633996633CC6633FF6666006666336666666666996666CC6666FF6699006699336699666699996699CC6699FF66CC0066CC3366CC6666CC9966CCCC66CCFF66FF0066
310
FF3366FF6666FF9966FFCC66FFFF9900009900339900669900999900CC9900FF9933009933339933669933999933CC9933FF9966009966339966669966999966CC9966FF9999009999339999669999999999CC9999FF99CC0099CC3399CC6699CC9999CCCC99CCFF99FF0099FF3399FF6699FF9999FFCC99FFFFCC0000CC00
310
33CC0066CC0099CC00CCCC00FFCC3300CC3333CC3366CC3399CC33CCCC33FFCC6600CC6633CC6666CC6699CC66CCCC66FFCC9900CC9933CC9966CC9999CC99CCCC99FFCCCC00CCCC33CCCC66CCCC99CCCCCCCCCCFFCCFF00CCFF33CCFF66CCFF99CCFFCCCCFFFFFF0000FF0033FF0066FF0099FF00CCFF00FFFF3300FF3333
310
FF3366FF3399FF33CCFF33FFFF6600FF6633FF6666FF6699FF66CCFF66FFFF9900FF9933FF9966FF9999FF99CCFF99FFFFCC00FFCC33FFCC66FFCC99FFCCCCFFCCFFFFFF00FFFF33FFFF66FFFF99FFFFCCFFFFFF0000000D0D0D1A1A1A2828283535354343435050505D5D5D6B6B6B787878868686939393A1A1A1AEAEAEBB
310
BBBBC9C9C9D6D6D6E4E4E4F1F1F1FFFFFF000000000000000000000000000000000000000000000000000000000000C11FEF66000005194944415478DAED9D4996A4201086EB065CC3FB9F8715EBDEFEFB4E1564D6C0014284F7BAAB321F59697C460431A0FEA98F8F3FEAC47FAF1B770378DBA91D0006809600F0C4543004
310
00508F35373335F5F2CC8A1A4006A01E0180F700A06B00786B00D88FA701DCEBAACAE753FF5E3B0018009A8E016000680AC073C49F0460E78801A043002830816600F0248043FBC67208EB98F647BF00AC06EC78C4E9290D005AFA8055033C13C820985EE903880082DC2489A04F008BC05A68AD8BEBAB8F0080F6418BECC2
310
D8639A408F00B4BACF524BA97D009021D02900A3F81B8015C937001803903FE97FFF8475822902FD0130F2CFC2CB0580131BC7047A05B09EFD65387901E220BA3B005A01B4F07320E400D87C61FF0094163F0410A9409700B407501E8095485428E90B00360F30BB8075310C01049F7D23806CB96B8BFBA53DDD2900EEC71F
310
CC06976FA9AA01C6D08DFF5B629F0080CE91FA3401D81F1A005200DC7282F114E4934A2DB55607207E0342383F7408B8BE84588222B1BCD4EFB9AE9222FE7E61819306382E6006106BC0F6713A00647EE70CC0F301320980EA0382B34E50823600AC95463E40DA55A01C40D996809600741CB469800B40397140190010DFE3
310
00602520A5356E2F1436CB73110014BCCB07805D1E5C13300971E7004C39C407B0CD280C8450F87E732768B281301952360C2A0370B00B886B4124510F3857114292415B0DD8C5AF09989A9805109A7F0100550E00680AC016858473C0A78AA26EFE082723600BC048BA58C00F80F7EE4900CAB7FBE600089D21D318915B63
310
04271B230900495DE2E204378B5F8FFA076039F05C7BF4311FD014806D8C2AA7317CB23BCC7115A06F933B688E1323C114008E91601281D8F79A24005B8F851B8060B74F189FADEDF1FDA08D940D4A67E84A0A936C708ABF14511C7B799394F1026E92C917407868776C934304804B4124A501F48B190A0860EB364B5625B1
310
43138835E0E42662D8FC0A8C8AA267009CB683D908C8F83A0450EA365A00C0230E801D004790AA1A30BBBF35C3941473A9D21C9D0851FB6D3AB00A4F6C2735F20109D94469397300C8CA1FC6C35FD38057AC02DF06A0D400C02614680440B109859A01209840DF0086067C5D03BE01006F0050A537C8D807A00580D23B9CBC
310
1640CE07A41A5622610178BB0F180006007D55A03C942D36F8AF01100340C700083EA06B00C938E018409D38A0512EA0B874469A015064F9D7CD01668FC0DD7753690720ECDE8A5C22F4ECED645A025024000FDF51870100DDC1F09B19D6005EAC018E259F06306D3AA0EC7F376783F59BA385003A5D0548001E979F3980E7
310
E56F1809E20800305508861A6E91395A068BA341CEF7159EE20828944EA41201949E4C0F6CB46D3AF1C50D01102A42C5003CCDCA9C71FFCC3300E0DE47EE2A00EF9760FB7CF07DFC008429603900EE3E4047B2FAD609E6F609D961269500C85418135793B5D080E9D804A0AE6940B8CE4400A233CF00C07D4E9002A0AE0660
310
0FC0C132780900BDBA56AF37E8948627A878BBA8082FF642692C7CE9110B9501049120745114414C83E99C066882486B005C43781840DA04A670E50E01409DC9863D00D1D29FD794FA4EB006009206387B56DB0070A376117BE6D300F69DA0353FA0CD7583D13584D98E400527584703FC91144B90679E00E0DD9564BB7F87
310
EB889B0348EF6D2F0360BF107E3494BF42E303009CD3EEA5C3C1525C174062FC00905A20B80A40AFFDEC34203D6E0040F9901ACF1A1BCF1B7CEFF306319E37F8260D50455CAE4DE5F8CC51C6630018006E06F0F5678FF73AFE035EF08313AC23AC920000000049454E44AE426082
  0
ACDSRECORD
 90
        0
  2
AcDbDs::ID
280
    10
320
51
  2
Thumbnail_Data
280
    15
 94
     4181
310
89504E470D0A1A0A0000000D4948445200000100000000B5080300000087DCD12600000300504C5445000000000000FFFFFF0000000000000000000000000000000000000000000000000000330000660000990000CC0000FF0033000033330033660033990033CC0033FF0066000066330066660066990066CC0066FF0099
310
000099330099660099990099CC0099FF00CC0000CC3300CC6600CC9900CCCC00CCFF00FF0000FF3300FF6600FF9900FFCC00FFFF3300003300333300663300993300CC3300FF3333003333333333663333993333CC3333FF3366003366333366663366993366CC3366FF3399003399333399663399993399CC3399FF33CC00
310
33CC3333CC6633CC9933CCCC33CCFF33FF0033FF3333FF6633FF9933FFCC33FFFF6600006600336600666600996600CC6600FF6633006633336633666633996633CC6633FF6666006666336666666666996666CC6666FF6699006699336699666699996699CC6699FF66CC0066CC3366CC6666CC9966CCCC66CCFF66FF0066
310
FF3366FF6666FF9966FFCC66FFFF9900009900339900669900999900CC9900FF9933009933339933669933999933CC9933FF9966009966339966669966999966CC9966FF9999009999339999669999999999CC9999FF99CC0099CC3399CC6699CC9999CCCC99CCFF99FF0099FF3399FF6699FF9999FFCC99FFFFCC0000CC00
310
33CC0066CC0099CC00CCCC00FFCC3300CC3333CC3366CC3399CC33CCCC33FFCC6600CC6633CC6666CC6699CC66CCCC66FFCC9900CC9933CC9966CC9999CC99CCCC99FFCCCC00CCCC33CCCC66CCCC99CCCCCCCCCCFFCCFF00CCFF33CCFF66CCFF99CCFFCCCCFFFFFF0000FF0033FF0066FF0099FF00CCFF00FFFF3300FF3333
310
FF3366FF3399FF33CCFF33FFFF6600FF6633FF6666FF6699FF66CCFF66FFFF9900FF9933FF9966FF9999FF99CCFF99FFFFCC00FFCC33FFCC66FFCC99FFCCCCFFCCFFFFFF00FFFF33FFFF66FFFF99FFFFCCFFFFFF0000000D0D0D1A1A1A2828283535354343435050505D5D5D6B6B6B787878868686939393A1A1A1AEAEAEBB
310
BBBBC9C9C9D6D6D6E4E4E4F1F1F1FFFFFF000000000000000000000000000000000000000000000000000000000000C11FEF6600000D104944415478DAED9D4992B33A0C80FF1B700D367DFF03F81A5E694DD55B69FFF02CD93218830319A8EAA44348823E24599207FEE1776FFFFD43F8E6ED07C00088EA907667DBC7BEE1
310
017CEFF5FF01E000BEC9FBCB00BEE9DAFF007C10800E03F830004085B2FFD85D51A6D80026DBA700E0E300F8D86617007C0C80FAE957767E18805E1FF0411A80083C9EC9B58305C39F680214007C23809F0FF8F900F78448F27B62172C1FFE70007814007EAD0FF8E5029FA3014CDB6D6C4C6512EA00D70228F0324FFB7200
310
DCDCF9090E01B05F7A7935004103BC8F7C8106D02AF34BE4BFDB0734D6DF5E170AB35FA4F131AD048D7082ECCA23DEE7040B1F30DC09CABEF0AE64E88656809177AAF66A00F7074237B500439DE04B2FE3653E204FFD37728106006F81400000570040CC3E77E3A6A56DB40F2061CDC3018C0B845E1AD06D6CB3BC6D1445B1
310
AC09D2CE82F68E11DECD701B802381106C2543D8531112110C8562F57BFDD32201A6FF4D3EA01208ED00C83F55D4DB8655104A3BBF054030808A93516E1B6EF10580D90298EFD1003ECEC8887F3182D2CD1704E65C0FC695C5F31C5F3EE72B09CC0CC02C019819A9866CB08CCF8F39C1FDC05E8DF5FEB308809B00C21800C8
310
E3CA0701980F67835846827B009CF8F37E73F74A02A5029CF6017BB9C03CC3E300CCD540C87BAC54FD1253C4C650387C669EF3F0FB050092FED98719C90EFF5801C05BBC130088EAE7E177F2C2E64F85E88DFC69FABA3BC94D00564564F253AF9785C252B5A8AB1ED01CADA9D82CB356BCCCDB8E030804C002002B7A01E096
310
B23891522974AFA5AC15FAE5AF86A180750DF0DDC4909B00F4F8801D02609315BD4684F6939AFD4DEC752F00AAB748DBE51A80B2C93FE304F71038D9561340FFFA6A001BEEB1AA0162BAE635E0800F98F7375CAFBD1550270009C2445F9E28F68BF31DB2D06F48496CDE3FC3695501732E5A231015180F00A4D8F76A27D806
310
C010C060025EDE6B008034E82539335601F2E14F2517E8F401FB00D64D1B33209BF6BB747C81D9117816401AFB8395925866EEE300C0DAFC192330AD00251001D81642739F3408C0581FA02B1AA050398557AC65D0D63626E21184D0B289C0769FFB89A93EC700F048860639A211440D20D690E5609700C09DAE31E432F101
310
C4470108BD114E038CC6E7C10168A701CE1F6A210B3FD010D4CA65F05A00D2E9FDFDA9BF3F63E905010AA06A010D1132B3ED3CD1C0A30591BA0F804E27A82665BC9F330562045A1313D05213E072046822103E5828E07505913E00F1BBB4FD42A5D646415500D8FAB976EF05299A7224AC02C07ACF507B1C701280EB165825
310
53A997C0FE443401E70202804C647DC411E600B0C4340E807CAD56B140F98BAE54DE1278632016E08FE9890793E5FFFDFD09963D66BEC02CFB5ED661B87A016E8053103CDA822600265431686E2E131823CB0060B507678C0F20A7CA5BC42070BE1100C4336E74F0EF22A0A7556A515E0FA01591FEF9020D9160E040D2A304
310
805F196D32A689DAC0914211E99E9BB1E62ACB82C86500EA6735A16C025AD40C06E06896182BD415004103E07A0DA85C2B0A20B345AB15DCD65697B9360C570C2998E1B23142D01409D64CD688376539EE943FF10BA0A8027456CB2500AF4A863217E84514184F85FF3AE3040B02C218A157A7C3986442DCB90AB1841C4B47
310
18C3E18BFA905E5F130C15390C00B0A20140E76FAF7E8001803701209C2AE669A70C005B0EBEAA1771980FD0DB1B0A05FC893980543DA100DE4903A0A601C6A6950880951F6CB3ACB8FB7C271F209B80114405B346316EA300DCA1884CA7DED409C64E4F8C8E3D2B3C4DF9D11ED42813785DC748B86EC9049206908868AAE4
310
732145E8098577CB26BB6385BBFB05FCB85521F6B2971F4BAD2F007813D0472B428F00A02BFECAE5F8152728F5F2814A61D15BF980DA996626B003201C7A3A17B8C107E88D8A1D3402880D466F3ABC67026C9418101985E97CD7F40D5AB17C91ABD5040669C0CE28B1A10000B67201A20199095CEC031A4789C900A017801D
310
1CA4845EDFA9A8E8211FA774A90FBCA963C4EA3431ECED99D3B609304A902EFDB6FC470835CC193A5E16D7FBE363516145F3A6323132AC42F2D4920DA2AE5516A5C1DFBB71C061005A370C904067DB9B0068CB6FEDA515C05E5B9E79D83B00142B58C996E064B7A0FC5962BB5A036065D1D3BCE47271CF503B80BCC7CB7806
310
D3610418AF3B19D07144033600F0E9F13739C150E5320364E897D8FAB7423F8AC1FD9A390AB9605779766E029571343D93A6CAA939420C60474A190474B886520680F3F20E003DC406D0D8A6016C4D1A69BC30E63E80CDEB236B66F402881305E68A1D19D956E18827B41A106B1FAE3B806B49130284431A30AC6364DED07F
310
FFDB668C0091C8751728121D38F9156669149E0700451FE4E5C9D05CCD03431E6CC5B302C64BC27ACD272F7F3EA6416D23909B4171D870EBE4E9BE7AC02C5F7DE525C2287F7C5E3562726A61F778FD2FA71E9B6FC0EB003415448ED7038A09534EA54335C8696A90DB3F00DBE3FE13A6DEA13BF49A56604C41249F34E70C5A
310
01C9A842690CA8260415890FC612FEA4710DC179940389E900313E4E1ACB4911837C006F4F9DF02AADC7A5BC09A8861358ADE20F6BB6549B12C001486B75D138A0AAEDFD3E009365FB8B5C8EB6C4DCBD21B045ABA2B64B00BC41117BA90090E383F833DC0788ABC87402609EAD98B1105A01D5A0721500BEF148C6F3281FB0
310
A7D658E85B1973C57D35001142610245E05E29340CF401324429D22C5434DF075B0040F8298452D62A00960B40889EF1021FC0CF0E451FC0BF5E74CF5D00BAEA01B549052300280A800E8570A3E5D2D9F501389A0DB21972500E97A7C1D8000D60F861E215D8F5E9AF430342DBBF1F098EF001D33C85CD8E475A9F7D6CEF37
310
9C26360430EEC7F4384D2B0B7B9801403E9C6FF48D0E00B419F43E80BB273C6D0273A901180303B5A701CA6A40DE3574A90F48424933464E039825002E08F249CDB609A8BF09F39C78900FC8D6F46C01007D1A90BE366980D789C945374C03FCAED65AB010096E3583971745250020B528BC0D021980F501E03A8837579E6C
310
0500D704427B00C83697D56E1EFC9B5120E86BC4AE4723247ABE1924E5131A6267E9D0D9A22854678D756980CFF1FD9A15BC842302705758E71A403AC9E5CC215695C4A48A4C0440CC123E09005C0540A5CACF9CAD589D08F061902A4FA1D999AAAC8B3C2D7CA9A0282EF3981B2A9633D207CCE487E604B7001007BE00B3F1
310
242BE91751955BA1044B1300C03E80413E608ED58C541667B3FF421F7918F8C6D6EF20B2B2017258484FC49B1FE50366B1A34CA511E0B11F40816402B44E9C7AC6A01C4E207547895D634D45517959DDEB00A4C290F640BC2BD7DE65BA0268A871D845765C59340DABAC4603DD0086748CCCF59E423F679455C9759C160271
310
4581150B907E136B165BDD012D00E035C9D0360023914EA140DB0AFB886A6FD2D0153EE0C0F880130056041A9566F3E0CABC9BEF4D03259B34405C298094C92F1820710A0068656703C69F4BB32B5398E8E70E87B868B753781B00D60748ECDD6C6D08000866EF82591DDA4C304B6878303A268D4DA302E6BE74F8061F1009
310
C431224E1D20AD1C6383488D52717F840F60992F40B69658368BF13080790B407CE94128A3015EEF75D3656CF5012D2650594A0B3A3A471B340034144ED09A00163E10CE03C076008082065CBD965858522C2D21149F75BE138F033854121BD033B43F4C2A1BEFA9A5DD0787C376FA80410B2A1E0340FF992E0070AC244684
310
3A900C7D2C002856951D024056760D04C0D101E1DDCDE02D3E60288023DB5D3EC08BA7EF07D05B0F38EB03B48E8FFC698A6FE97700007D00FC625805004DDF7A15800145D1260D88730AD374481720BE16C0A01B2CF49B00BCD604FA95E61C8001DB0FC00FC02700383125F04334E06300F46E668649E7760B00FC5A1FF029
310
F71EFF01F801F801F801787300CB82576E4BDA369735780E005C119C3C0B22F442BE28EC126F52F92400EBA9A6BB07D6026C722F232FF4FA1F13BA5A0BD1FCC82702D09B00A495FC96EDC5488A550CA8813C1480393114D5BB5C8E54132ED05C0D73DFF6480D88EEB066D31D5F4A0A7681D2434DA074E1A257AF797C797F09
310
803BC8476A40E9B3E8492FD451109B61FB21ED8F355AFF7D8F6E0598DAEBCA4AAE4110844510DAED5FC8A287CCF01F1D08659A5C5B45C8EF77C79263E8FEB8846B4DFA1C003C440388C68BBE1D9917378FBAB23F3FBEB322749B0F088D5E76E6482EA6FB5F2FF2FEF2FFF702903480B9C1F2EAEA8DABCEF73F1D8033DD30DD
310
C6FA31DA9EAD0FBA9ADA48BBED473633ACC76940B87B94BF89127F5AC2AD959AA22273DCDE91CF04A06B00D8BDA57663C31518C623DFC504B8362FC22BF4C2847C7009B921A40E79DF2A90DB9EBC8D136411EA820B7F455FB27430BFC9710900E8714F368125F800084A1FDA311BD2423481CAAD9DF51600BD0DE019A1B068
310
FCE0627A7B0D330050BD674709005201E1B1B980DC0A2C91CEA2B74F8F264D0C4071D48393A1A530FE94044170ED7B148CD16C4AB26C14446EDF968D57B8B456845B0E12017CDDF603F003E000EC4EDEFFD837B240E81B75E007E01F7EF7F6DFFFC74965CB58BC5AB50000000049454E44AE426082
  0
ENDSEC
  0
EOF
