  0
SECTION
  2
HEADER
  9
$ACADVER
  1
AC1027
  9
$ACADMAINTVER
 70
    57
  9
$DWGCODEPAGE
  3
ANSI_932
  9
$LASTSAVEDBY
  1
kashikeiQC
  9
$REQUIREDVERSIONS
160
                 0
  9
$INSBASE
 10
0.0
 20
0.0
 30
0.0
  9
$EXTMIN
 10
4.980469745328264
 20
-0.0090630292066862
 30
-0.0000000000000439
  9
$EXTMAX
 10
425.0129709602486
 20
297.0090644122207
 30
0.0000000000000477
  9
$LIMMIN
 10
0.0
 20
0.0
  9
$LIMMAX
 10
420.0
 20
297.0
  9
$ORTHOMODE
 70
     0
  9
$REGENMODE
 70
     1
  9
$FILLMODE
 70
     1
  9
$QTEXTMODE
 70
     0
  9
$MIRRTEXT
 70
     1
  9
$LTSCALE
 40
0.3
  9
$ATTMODE
 70
     1
  9
$TEXTSIZE
 40
2.5
  9
$TRACEWID
 40
1.0
  9
$TEXTSTYLE
  7
Standard
  9
$CLAYER
  8
寸法
  9
$CELTYPE
  6
ByLayer
  9
$CECOLOR
 62
   256
  9
$CELTSCALE
 40
1.0
  9
$DISPSILH
 70
     0
  9
$DIMSCALE
 40
1.0
  9
$DIMASZ
 40
2.5
  9
$DIMEXO
 40
0.625
  9
$DIMDLI
 40
3.75
  9
$DIMRND
 40
0.0
  9
$DIMDLE
 40
0.0
  9
$DIMEXE
 40
1.25
  9
$DIMTP
 40
0.0
  9
$DIMTM
 40
0.0
  9
$DIMTXT
 40
3.5
  9
$DIMCEN
 40
2.5
  9
$DIMTSZ
 40
0.0
  9
$DIMTOL
 70
     0
  9
$DIMLIM
 70
     0
  9
$DIMTIH
 70
     0
  9
$DIMTOH
 70
     0
  9
$DIMSE1
 70
     0
  9
$DIMSE2
 70
     0
  9
$DIMTAD
 70
     1
  9
$DIMZIN
 70
     8
  9
$DIMBLK
  1

  9
$DIMASO
 70
     1
  9
$DIMSHO
 70
     1
  9
$DIMPOST
  1

  9
$DIMAPOST
  1

  9
$DIMALT
 70
     0
  9
$DIMALTD
 70
     3
  9
$DIMALTF
 40
0.03937007874016
  9
$DIMLFAC
 40
1.0
  9
$DIMTOFL
 70
     1
  9
$DIMTVP
 40
0.0
  9
$DIMTIX
 70
     0
  9
$DIMSOXD
 70
     0
  9
$DIMSAH
 70
     0
  9
$DIMBLK1
  1

  9
$DIMBLK2
  1

  9
$DIMSTYLE
  2
ｺﾋﾟｰ - ISO-25
  9
$DIMCLRD
 70
     0
  9
$DIMCLRE
 70
     0
  9
$DIMCLRT
 70
     2
  9
$DIMTFAC
 40
1.0
  9
$DIMGAP
 40
1.0
  9
$DIMJUST
 70
     0
  9
$DIMSD1
 70
     0
  9
$DIMSD2
 70
     0
  9
$DIMTOLJ
 70
     0
  9
$DIMTZIN
 70
     8
  9
$DIMALTZ
 70
     0
  9
$DIMALTTZ
 70
     0
  9
$DIMUPT
 70
     0
  9
$DIMDEC
 70
     1
  9
$DIMTDEC
 70
     1
  9
$DIMALTU
 70
     2
  9
$DIMALTTD
 70
     3
  9
$DIMTXSTY
  7
寸法
  9
$DIMAUNIT
 70
     0
  9
$DIMADEC
 70
     0
  9
$DIMALTRND
 40
0.0
  9
$DIMAZIN
 70
     0
  9
$DIMDSEP
 70
    46
  9
$DIMATFIT
 70
     3
  9
$DIMFRAC
 70
     0
  9
$DIMLDRBLK
  1

  9
$DIMLUNIT
 70
     2
  9
$DIMLWD
 70
    -2
  9
$DIMLWE
 70
    -2
  9
$DIMTMOVE
 70
     0
  9
$DIMFXL
 40
1.0
  9
$DIMFXLON
 70
     0
  9
$DIMJOGANG
 40
0.7853981633974483
  9
$DIMTFILL
 70
     0
  9
$DIMTFILLCLR
 70
     0
  9
$DIMARCSYM
 70
     0
  9
$DIMLTYPE
  6

  9
$DIMLTEX1
  6

  9
$DIMLTEX2
  6

  9
$DIMTXTDIRECTION
 70
     0
  9
$LUNITS
 70
     2
  9
$LUPREC
 70
     4
  9
$SKETCHINC
 40
1.0
  9
$FILLETRAD
 40
1.0
  9
$AUNITS
 70
     0
  9
$AUPREC
 70
     0
  9
$MENU
  1
.
  9
$ELEVATION
 40
0.0
  9
$PELEVATION
 40
0.0
  9
$THICKNESS
 40
0.0
  9
$LIMCHECK
 70
     0
  9
$CHAMFERA
 40
0.0
  9
$CHAMFERB
 40
0.0
  9
$CHAMFERC
 40
20.0
  9
$CHAMFERD
 40
0.0
  9
$SKPOLY
 70
     0
  9
$TDCREATE
 40
2452970.700528056
  9
$TDUCREATE
 40
2452970.325528056
  9
$TDUPDATE
 40
2458814.753332199
  9
$TDUUPDATE
 40
2458814.378332199
  9
$TDINDWG
 40
1.8115386458
  9
$TDUSRTIMER
 40
1.8115377083
  9
$USRTIMER
 70
     1
  9
$ANGBASE
 50
0.0
  9
$ANGDIR
 70
     0
  9
$PDMODE
 70
     3
  9
$PDSIZE
 40
-3.0
  9
$PLINEWID
 40
0.0
  9
$SPLFRAME
 70
     0
  9
$SPLINETYPE
 70
     6
  9
$SPLINESEGS
 70
     8
  9
$HANDSEED
  5
2B21C
  9
$SURFTAB1
 70
     6
  9
$SURFTAB2
 70
     6
  9
$SURFTYPE
 70
     6
  9
$SURFU
 70
     6
  9
$SURFV
 70
     6
  9
$UCSBASE
  2

  9
$UCSNAME
  2

  9
$UCSORG
 10
0.0
 20
0.0
 30
0.0
  9
$UCSXDIR
 10
1.0
 20
0.0
 30
0.0
  9
$UCSYDIR
 10
0.0
 20
1.0
 30
0.0
  9
$UCSORTHOREF
  2

  9
$UCSORTHOVIEW
 70
     0
  9
$UCSORGTOP
 10
0.0
 20
0.0
 30
0.0
  9
$UCSORGBOTTOM
 10
0.0
 20
0.0
 30
0.0
  9
$UCSORGLEFT
 10
0.0
 20
0.0
 30
0.0
  9
$UCSORGRIGHT
 10
0.0
 20
0.0
 30
0.0
  9
$UCSORGFRONT
 10
0.0
 20
0.0
 30
0.0
  9
$UCSORGBACK
 10
0.0
 20
0.0
 30
0.0
  9
$PUCSBASE
  2

  9
$PUCSNAME
  2

  9
$PUCSORG
 10
0.0
 20
0.0
 30
0.0
  9
$PUCSXDIR
 10
1.0
 20
0.0
 30
0.0
  9
$PUCSYDIR
 10
0.0
 20
1.0
 30
0.0
  9
$PUCSORTHOREF
  2

  9
$PUCSORTHOVIEW
 70
     0
  9
$PUCSORGTOP
 10
0.0
 20
0.0
 30
0.0
  9
$PUCSORGBOTTOM
 10
0.0
 20
0.0
 30
0.0
  9
$PUCSORGLEFT
 10
0.0
 20
0.0
 30
0.0
  9
$PUCSORGRIGHT
 10
0.0
 20
0.0
 30
0.0
  9
$PUCSORGFRONT
 10
0.0
 20
0.0
 30
0.0
  9
$PUCSORGBACK
 10
0.0
 20
0.0
 30
0.0
  9
$USERI1
 70
     0
  9
$USERI2
 70
     0
  9
$USERI3
 70
     0
  9
$USERI4
 70
     0
  9
$USERI5
 70
     0
  9
$USERR1
 40
0.0
  9
$USERR2
 40
0.0
  9
$USERR3
 40
0.0
  9
$USERR4
 40
0.0
  9
$USERR5
 40
0.0
  9
$WORLDVIEW
 70
     1
  9
$SHADEDGE
 70
     3
  9
$SHADEDIF
 70
    70
  9
$TILEMODE
 70
     1
  9
$MAXACTVP
 70
    64
  9
$PINSBASE
 10
0.0
 20
0.0
 30
0.0
  9
$PLIMCHECK
 70
     0
  9
$PEXTMIN
 10
-58.82240024691737
 20
-86.72323328256494
 30
0.0
  9
$PEXTMAX
 10
448.1718497119468
 20
324.5569721112054
 30
0.0
  9
$PLIMMIN
 10
-3.757080078125
 20
-3.757083415985106
  9
$PLIMMAX
 10
416.2601318359373
 20
293.2112393379211
  9
$UNITMODE
 70
     0
  9
$VISRETAIN
 70
     1
  9
$PLINEGEN
 70
     0
  9
$PSLTSCALE
 70
     1
  9
$TREEDEPTH
 70
  3020
  9
$CMLSTYLE
  2
Standard
  9
$CMLJUST
 70
     0
  9
$CMLSCALE
 40
20.0
  9
$PROXYGRAPHICS
 70
     1
  9
$MEASUREMENT
 70
     1
  9
$CELWEIGHT
370
    -1
  9
$ENDCAPS
280
     0
  9
$JOINSTYLE
280
     0
  9
$LWDISPLAY
290
     0
  9
$INSUNITS
 70
     4
  9
$HYPERLINKBASE
  1

  9
$STYLESHEET
  1
monochrome.ctb
  9
$XEDIT
290
     1
  9
$CEPSNTYPE
380
     0
  9
$PSTYLEMODE
290
     1
  9
$FINGERPRINTGUID
  2
{FDEAD578-A652-11D2-9A35-0060089B3A3F}
  9
$VERSIONGUID
  2
{3DECBB12-91A6-4C6E-8AE9-0DFF734E4B8E}
  9
$EXTNAMES
290
     1
  9
$PSVPSCALE
 40
0.0
  9
$OLESTARTUP
290
     0
  9
$SORTENTS
280
   127
  9
$INDEXCTL
280
     0
  9
$HIDETEXT
280
     1
  9
$XCLIPFRAME
280
     0
  9
$HALOGAP
280
     0
  9
$OBSCOLOR
 70
   257
  9
$OBSLTYPE
280
     0
  9
$INTERSECTIONDISPLAY
280
     0
  9
$INTERSECTIONCOLOR
 70
   257
  9
$DIMASSOC
280
     2
  9
$PROJECTNAME
  1

  9
$CAMERADISPLAY
290
     0
  9
$LENSLENGTH
 40
50.0
  9
$CAMERAHEIGHT
 40
0.0
  9
$STEPSPERSEC
 40
2.0
  9
$STEPSIZE
 40
6.0
  9
$3DDWFPREC
 40
2.0
  9
$PSOLWIDTH
 40
0.25
  9
$PSOLHEIGHT
 40
4.0
  9
$LOFTANG1
 40
1.570796326794896
  9
$LOFTANG2
 40
1.570796326794896
  9
$LOFTMAG1
 40
0.0
  9
$LOFTMAG2
 40
0.0
  9
$LOFTPARAM
 70
     7
  9
$LOFTNORMALS
280
     1
  9
$LATITUDE
 40
37.795
  9
$LONGITUDE
 40
-122.394
  9
$NORTHDIRECTION
 40
0.0
  9
$TIMEZONE
 70
 -8000
  9
$LIGHTGLYPHDISPLAY
280
     1
  9
$TILEMODELIGHTSYNCH
280
     1
  9
$CMATERIAL
347
2762
  9
$SOLIDHIST
280
     1
  9
$SHOWHIST
280
     1
  9
$DWFFRAME
280
     2
  9
$DGNFRAME
280
     0
  9
$REALWORLDSCALE
290
     1
  9
$INTERFERECOLOR
 62
     1
  9
$INTERFEREOBJVS
345
276F
  9
$INTERFEREVPVS
346
276C
  9
$CSHADOW
280
     0
  9
$SHADOWPLANELOCATION
 40
0.0
  0
ENDSEC
  0
SECTION
  2
CLASSES
  0
CLASS
  1
ACDBDICTIONARYWDFLT
  2
AcDbDictionaryWithDefault
  3
ObjectDBX Classes
 90
        0
 91
        1
280
     0
281
     0
  0
CLASS
  1
DICTIONARYVAR
  2
AcDbDictionaryVar
  3
ObjectDBX Classes
 90
        0
 91
       11
280
     0
281
     0
  0
CLASS
  1
DIMASSOC
  2
AcDbDimAssoc
  3
"AcDbDimAssoc|Product Desc:     AcDim ARX App For Dimension|Company:          Autodesk, Inc.|WEB Address:      www.autodesk.com"
 90
        0
 91
        4
280
     0
281
     0
  0
CLASS
  1
PLOTSETTINGS
  2
AcDbPlotSettings
  3
ObjectDBX Classes
 90
        0
 91
        1
280
     0
281
     0
  0
CLASS
  1
MATERIAL
  2
AcDbMaterial
  3
ObjectDBX Classes
 90
     1153
 91
        3
280
     0
281
     0
  0
CLASS
  1
VISUALSTYLE
  2
AcDbVisualStyle
  3
ObjectDBX Classes
 90
     4095
 91
       26
280
     0
281
     0
  0
CLASS
  1
TABLESTYLE
  2
AcDbTableStyle
  3
ObjectDBX Classes
 90
     4095
 91
        2
280
     0
281
     0
  0
CLASS
  1
SORTENTSTABLE
  2
AcDbSortentsTable
  3
ObjectDBX Classes
 90
        0
 91
        2
280
     0
281
     0
  0
CLASS
  1
ACAD_EVALUATION_GRAPH
  2
AcDbEvalGraph
  3
ObjectDBX Classes
 90
     1153
 91
        0
280
     0
281
     0
  0
CLASS
  1
ACAECUSTOBJ
  2
AcAeEditorObj
  3
AcAeEditorObj
 90
     1024
 91
        0
280
     0
281
     0
  0
CLASS
  1
ACDB_DYNAMICBLOCKPURGEPREVENTER_VERSION
  2
AcDbDynamicBlockPurgePreventer
  3
ObjectDBX Classes
 90
     1153
 91
        0
280
     0
281
     0
  0
CLASS
  1
ACAD_TABLE
  2
AcDbTable
  3
ObjectDBX Classes
 90
     1025
 91
        0
280
     0
281
     1
  0
CLASS
  1
SCALE
  2
AcDbScale
  3
ObjectDBX Classes
 90
     1153
 91
       17
280
     0
281
     0
  0
CLASS
  1
MLEADERSTYLE
  2
AcDbMLeaderStyle
  3
ACDB_MLEADERSTYLE_CLASS
 90
     4095
 91
        1
280
     0
281
     0
  0
CLASS
  1
TABLECONTENT
  2
AcDbTableContent
  3
ObjectDBX Classes
 90
     1152
 91
        0
280
     0
281
     0
  0
CLASS
  1
TABLEGEOMETRY
  2
AcDbTableGeometry
  3
ObjectDBX Classes
 90
     1152
 91
        0
280
     0
281
     0
  0
CLASS
  1
ACDBSECTIONVIEWSTYLE
  2
AcDbSectionViewStyle
  3
ObjectDBX Classes
 90
     1025
 91
        1
280
     0
281
     0
  0
CLASS
  1
ACDBDETAILVIEWSTYLE
  2
AcDbDetailViewStyle
  3
ObjectDBX Classes
 90
     1025
 91
        1
280
     0
281
     0
  0
CLASS
  1
CELLSTYLEMAP
  2
AcDbCellStyleMap
  3
ObjectDBX Classes
 90
     1152
 91
        4
280
     0
281
     0
  0
ENDSEC
  0
SECTION
  2
TABLES
  0
TABLE
  2
VPORT
  5
8
330
0
100
AcDbSymbolTable
 70
     1
  0
VPORT
  5
275F
330
8
100
AcDbSymbolTableRecord
100
AcDbViewportTableRecord
  2
*Active
 70
     0
 10
0.0
 20
0.0
 11
1.0
 21
1.0
 12
312.9566930080221
 22
167.7836036135911
 13
0.0
 23
0.0
 14
10.0
 24
10.0
 15
10.0
 25
10.0
 16
0.0
 26
0.0
 36
1.0
 17
0.0
 27
0.0
 37
0.0
 40
261.8783085990164
 41
2.367088607594936
 42
50.0
 43
0.0
 44
0.0
 50
0.0
 51
0.0
 71
     0
 72
   100
 73
     1
 74
     3
 75
     0
 76
     0
 77
     0
 78
     0
281
     0
 65
     1
110
0.0
120
0.0
130
0.0
111
1.0
121
0.0
131
0.0
112
0.0
122
1.0
132
0.0
 79
     0
146
0.0
348
276B
 60
     3
 61
     5
292
     1
282
     1
141
0.0
142
0.0
 63
   250
421
  3355443
1001
ACAD_NAV_VCDISPLAY
1070
     3
  0
ENDTAB
  0
TABLE
  2
LTYPE
  5
5
330
0
100
AcDbSymbolTable
 70
     5
  0
LTYPE
  5
14
330
5
100
AcDbSymbolTableRecord
100
AcDbLinetypeTableRecord
  2
ByBlock
 70
     0
  3

 72
    65
 73
     0
 40
0.0
  0
LTYPE
  5
15
330
5
100
AcDbSymbolTableRecord
100
AcDbLinetypeTableRecord
  2
ByLayer
 70
     0
  3

 72
    65
 73
     0
 40
0.0
  0
LTYPE
  5
16
330
5
100
AcDbSymbolTableRecord
100
AcDbLinetypeTableRecord
  2
Continuous
 70
     0
  3
Solid line
 72
    65
 73
     0
 40
0.0
  0
LTYPE
  5
A5
330
5
100
AcDbSymbolTableRecord
100
AcDbLinetypeTableRecord
  2
CENTER
 70
     0
  3
Center ____ _ ____ _ ____ _ ____ _ ____ _ ____
 72
    65
 73
     4
 40
50.8
 49
31.75
 74
     0
 49
-6.349999999999997
 74
     0
 49
6.349999999999997
 74
     0
 49
-6.349999999999997
 74
     0
  0
LTYPE
  5
A6
330
5
100
AcDbSymbolTableRecord
100
AcDbLinetypeTableRecord
  2
HIDDEN
 70
     0
  3
Hidden __ __ __ __ __ __ __ __ __ __ __ __ __ _
 72
    65
 73
     2
 40
9.524999999999996
 49
6.349999999999997
 74
     0
 49
-3.174999999999998
 74
     0
  0
LTYPE
  5
2365
330
5
100
AcDbSymbolTableRecord
100
AcDbLinetypeTableRecord
  2
DIVIDE
 70
     0
  3
Divide ____ . . ____ . . ____ . . ____ . . ____
 72
    65
 73
     6
 40
31.74999999999999
 49
12.7
 74
     0
 49
-6.349999999999997
 74
     0
 49
0.0
 74
     0
 49
-6.349999999999997
 74
     0
 49
0.0
 74
     0
 49
-6.349999999999997
 74
     0
  0
ENDTAB
  0
TABLE
  2
LAYER
  5
2
102
{ACAD_XDICTIONARY
360
279F
102
}
330
0
100
AcDbSymbolTable
 70
    11
  0
LAYER
  5
10
102
{ACAD_XDICTIONARY
360
24E13
102
}
330
2
100
AcDbSymbolTableRecord
100
AcDbLayerTableRecord
  2
0
 70
     0
 62
     7
  6
Continuous
370
    -3
390
F
347
2764
348
0
  0
LAYER
  5
A7
102
{ACAD_XDICTIONARY
360
24E15
102
}
330
2
100
AcDbSymbolTableRecord
100
AcDbLayerTableRecord
  2
破線
 70
     0
 62
     4
  6
HIDDEN
370
    20
390
F
347
2764
348
0
  0
LAYER
  5
A8
102
{ACAD_XDICTIONARY
360
24E17
102
}
330
2
100
AcDbSymbolTableRecord
100
AcDbLayerTableRecord
  2
一点鎖線
 70
     0
 62
     5
  6
CENTER
370
    15
390
F
347
2764
348
0
  0
LAYER
  5
A9
102
{ACAD_XDICTIONARY
360
24E19
102
}
330
2
100
AcDbSymbolTableRecord
100
AcDbLayerTableRecord
  2
補助線
 70
     0
 62
     8
  6
Continuous
290
     0
370
    -3
390
F
347
2764
348
0
  0
LAYER
  5
AA
102
{ACAD_XDICTIONARY
360
24E1B
102
}
330
2
100
AcDbSymbolTableRecord
100
AcDbLayerTableRecord
  2
実線
 70
     0
 62
     7
  6
Continuous
370
    -3
390
F
347
2764
348
0
  0
LAYER
  5
AB
102
{ACAD_XDICTIONARY
360
24E1D
102
}
330
2
100
AcDbSymbolTableRecord
100
AcDbLayerTableRecord
  2
寸法
 70
     0
 62
     3
  6
Continuous
370
    15
390
F
347
2764
348
0
  0
LAYER
  5
AC
102
{ACAD_XDICTIONARY
360
24E1F
102
}
330
2
100
AcDbSymbolTableRecord
100
AcDbLayerTableRecord
  2
文字
 70
     0
 62
     2
  6
Continuous
370
    15
390
F
347
2764
348
0
  0
LAYER
  5
185
330
2
100
AcDbSymbolTableRecord
100
AcDbLayerTableRecord
  2
Defpoints
 70
     0
 62
     7
  6
Continuous
290
     0
370
    -3
390
F
347
2764
348
0
  0
LAYER
  5
58C
102
{ACAD_XDICTIONARY
360
24E21
102
}
330
2
100
AcDbSymbolTableRecord
100
AcDbLayerTableRecord
  2
細線
 70
     0
 62
     6
  6
Continuous
370
     9
390
F
347
2764
348
0
  0
LAYER
  5
1023
102
{ACAD_XDICTIONARY
360
24E23
102
}
330
2
100
AcDbSymbolTableRecord
100
AcDbLayerTableRecord
  2
太線
 70
     0
 62
     3
  6
Continuous
370
    40
390
F
347
2764
348
0
  0
LAYER
  5
2366
102
{ACAD_XDICTIONARY
360
24E25
102
}
330
2
100
AcDbSymbolTableRecord
100
AcDbLayerTableRecord
  2
二点鎖線
 70
     0
 62
     1
  6
DIVIDE
370
    20
390
F
347
2764
348
0
  0
ENDTAB
  0
TABLE
  2
STYLE
  5
3
330
0
100
AcDbSymbolTable
 70
    17
  0
STYLE
  5
11
330
3
100
AcDbSymbolTableRecord
100
AcDbTextStyleTableRecord
  2
Standard
 70
     0
 40
2.5
 41
0.8
 50
0.0
 71
     0
 42
2.5
  3
romans.shx
  4
bigfont.shx
  0
STYLE
  5
A4
330
3
100
AcDbSymbolTableRecord
100
AcDbTextStyleTableRecord
  2

 70
     1
 40
0.0
 41
1.0
 50
0.0
 71
     0
 42
2.5
  3
ltypeshp.shx
  4

  0
STYLE
  5
2A5
330
3
100
AcDbSymbolTableRecord
100
AcDbTextStyleTableRecord
  2
寸法
 70
     0
 40
0.0
 41
0.75
 50
0.0
 71
     0
 42
2.5
  3
romans.shx
  4
bigfont.shx
  0
STYLE
  5
109D
330
3
100
AcDbSymbolTableRecord
100
AcDbTextStyleTableRecord
  2
縦書き
 70
     4
 40
3.0
 41
0.8
 50
0.0
 71
     0
 42
3.0
  3
romans.shx
  4
bigfont.shx
  0
STYLE
  5
10EC
330
3
100
AcDbSymbolTableRecord
100
AcDbTextStyleTableRecord
  2
ｽﾀｲﾙ1
 70
     0
 40
3.0
 41
0.8
 50
0.0
 71
     0
 42
3.0
  3
romans.shx
  4
bigfont.shx
  0
STYLE
  5
114D
330
3
100
AcDbSymbolTableRecord
100
AcDbTextStyleTableRecord
  2
ｽﾀｲﾙ2
 70
     0
 40
9.0
 41
1.0
 50
0.0
 71
     0
 42
9.0
  3
swisscbo.ttf
  4

1001
ACAD
1000
Swis721 BdCnOul BT
1071
       82
  0
STYLE
  5
2367
330
3
100
AcDbSymbolTableRecord
100
AcDbTextStyleTableRecord
  2
ｽﾀｲﾙ3
 70
     0
 40
2.0
 41
1.0
 50
0.0
 71
     0
 42
2.0
  3
isocp.shx
  4
bigfont.shx
  0
STYLE
  5
2368
330
3
100
AcDbSymbolTableRecord
100
AcDbTextStyleTableRecord
  2
ｽﾀｲﾙ4
 70
     0
 40
4.5
 41
1.0
 50
0.0
 71
     0
 42
4.5
  3
swisscbo.ttf
  4

1001
ACAD
1000
Swis721 BdCnOul BT
1071
       82
  0
STYLE
  5
3AB5
330
3
100
AcDbSymbolTableRecord
100
AcDbTextStyleTableRecord
  2
スタイル1
 70
     0
 40
3.0
 41
0.8
 50
0.0
 71
     0
 42
3.0
  3
romans.shx
  4
bigfont.shx
  0
STYLE
  5
3E4F
330
3
100
AcDbSymbolTableRecord
100
AcDbTextStyleTableRecord
  2
hhhhhhhhhhhhhhhhhh
 70
     0
 40
1.5
 41
0.8
 50
0.0
 71
     0
 42
1.0
  3
bold.shx
  4
bigfont.shx
  0
STYLE
  5
3E50
330
3
100
AcDbSymbolTableRecord
100
AcDbTextStyleTableRecord
  2
書き込み
 70
     0
 40
2.5
 41
0.75
 50
0.0
 71
     0
 42
1.0
  3
romand.shx
  4
bigfont.shx
  0
STYLE
  5
24822
330
3
100
AcDbSymbolTableRecord
100
AcDbTextStyleTableRecord
  2
ﾛｺﾞ
 70
     0
 40
14.0
 41
0.7
 50
0.0
 71
     0
 42
2.5
  3
swisscbo.ttf
  4

1001
ACAD
1000
Swis721 BdCnOul BT
1071
       82
  0
STYLE
  5
264FC
330
3
100
AcDbSymbolTableRecord
100
AcDbTextStyleTableRecord
  2
寸法２
 70
     0
 40
1.8
 41
0.8
 50
0.0
 71
     0
 42
1.8
  3
romans.shx
  4
bigfont.shx
  0
STYLE
  5
264FD
330
3
100
AcDbSymbolTableRecord
100
AcDbTextStyleTableRecord
  2
カシケイ
 70
     0
 40
3.0
 41
0.8
 50
0.0
 71
     0
 42
2.5
  3
swisscbo.ttf
  4

1001
ACAD
1000
Swis721 BdCnOul BT
1071
       82
  0
STYLE
  5
29418
330
3
100
AcDbSymbolTableRecord
100
AcDbTextStyleTableRecord
  2
スタイル6
 70
     0
 40
3.0
 41
1.0
 50
0.0
 71
     0
 42
3.0
  3
swissc.ttf
  4

1001
ACAD
1000
Swis721 Cn BT
1071
       34
  0
STYLE
  5
29419
330
3
100
AcDbSymbolTableRecord
100
AcDbTextStyleTableRecord
  2
スタイル3
 70
     0
 40
9.0
 41
1.0
 50
0.0
 71
     0
 42
2.5
  3
swisscbo.ttf
  4

1001
ACAD
1000
Swis721 BdCnOul BT
1071
       82
  0
ENDTAB
  0
TABLE
  2
VIEW
  5
6
330
0
100
AcDbSymbolTable
 70
     0
  0
ENDTAB
  0
TABLE
  2
UCS
  5
7
330
0
100
AcDbSymbolTable
 70
     0
  0
ENDTAB
  0
TABLE
  2
APPID
  5
9
330
0
100
AcDbSymbolTable
 70
    12
  0
APPID
  5
12
330
9
100
AcDbSymbolTableRecord
100
AcDbRegAppTableRecord
  2
ACAD
 70
     0
  0
APPID
  5
2789
330
9
100
AcDbSymbolTableRecord
100
AcDbRegAppTableRecord
  2
ACAD_PSEXT
 70
     0
  0
APPID
  5
28B6
330
9
100
AcDbSymbolTableRecord
100
AcDbRegAppTableRecord
  2
ACAD_EXEMPT_FROM_CAD_STANDARDS
 70
     0
  0
APPID
  5
2977
330
9
100
AcDbSymbolTableRecord
100
AcDbRegAppTableRecord
  2
ACAUTHENVIRON
 70
     0
  0
APPID
  5
29B0
330
9
100
AcDbSymbolTableRecord
100
AcDbRegAppTableRecord
  2
AcDbDynamicBlockTrueName
 70
     0
  0
APPID
  5
29B1
330
9
100
AcDbSymbolTableRecord
100
AcDbRegAppTableRecord
  2
AcDbDynamicBlockGUID
 70
     0
  0
APPID
  5
29B3
330
9
100
AcDbSymbolTableRecord
100
AcDbRegAppTableRecord
  2
AcDbBlockRepETag
 70
     0
  0
APPID
  5
24823
330
9
100
AcDbSymbolTableRecord
100
AcDbRegAppTableRecord
  2
ACAD_DSTYLE_DIMJAG
 70
     0
  0
APPID
  5
24824
330
9
100
AcDbSymbolTableRecord
100
AcDbRegAppTableRecord
  2
ACAD_DSTYLE_DIMTALN
 70
     0
  0
APPID
  5
2867E
330
9
100
AcDbSymbolTableRecord
100
AcDbRegAppTableRecord
  2
ACAD_DSTYLE_DIMRADIAL_EXTENSION
 70
     0
  0
APPID
  5
2AC67
330
9
100
AcDbSymbolTableRecord
100
AcDbRegAppTableRecord
  2
AcadAnnoPO
 70
     0
  0
APPID
  5
2B1EE
330
9
100
AcDbSymbolTableRecord
100
AcDbRegAppTableRecord
  2
ACAD_NAV_VCDISPLAY
 70
     0
  0
ENDTAB
  0
TABLE
  2
DIMSTYLE
  5
A
330
0
100
AcDbSymbolTable
 70
     4
100
AcDbDimStyleTable
 71
     2
340
FF
340
27
  0
DIMSTYLE
105
27
330
A
100
AcDbSymbolTableRecord
100
AcDbDimStyleTableRecord
  2
ISO-25
 70
     0
 41
2.5
 42
0.625
 43
3.75
 44
1.25
 73
     0
 74
     0
 77
     1
 78
     8
140
2.5
141
2.5
143
0.03937007874016
147
0.625
171
     3
172
     1
271
     2
272
     2
274
     3
278
    44
283
     0
284
     8
340
11
  0
DIMSTYLE
105
FF
102
{ACAD_REACTORS
330
2A7AB
330
2A7D7
330
2ACB6
330
2B05E
102
}
330
A
100
AcDbSymbolTableRecord
100
AcDbDimStyleTableRecord
  2
ｺﾋﾟｰ - ISO-25
 70
     0
 41
2.5
 42
0.625
 43
3.75
 44
1.25
 73
     0
 74
     0
 77
     1
 78
     8
140
3.5
141
2.5
143
0.03937007874016
147
1.0
171
     3
172
     1
178
     2
271
     1
272
     1
274
     3
283
     0
284
     8
340
2A5
1001
ACAD_DSTYLE_DIMJAG
1070
   388
1040
1.5
1001
ACAD_DSTYLE_DIMTALN
1070
   392
1070
     0
  0
ENDTAB
  0
TABLE
  2
BLOCK_RECORD
  5
1
330
0
100
AcDbSymbolTable
 70
    13
  0
BLOCK_RECORD
  5
1F
102
{ACAD_XDICTIONARY
360
2D98
102
}
330
1
100
AcDbSymbolTableRecord
100
AcDbBlockTableRecord
  2
*Model_Space
340
22
 70
     0
280
     1
281
     0
  0
BLOCK_RECORD
  5
50
330
1
100
AcDbSymbolTableRecord
100
AcDbBlockTableRecord
  2
*Paper_Space
340
51
 70
     0
280
     1
281
     0
  0
BLOCK_RECORD
  5
55
330
1
100
AcDbSymbolTableRecord
100
AcDbBlockTableRecord
  2
*Paper_Space0
340
56
 70
     0
280
     1
281
     0
  0
BLOCK_RECORD
  5
341
102
{ACAD_XDICTIONARY
360
29CF
102
}
330
1
100
AcDbSymbolTableRecord
100
AcDbBlockTableRecord
  2
_None
340
0
 70
     0
280
     1
281
     0
1001
AcDbDynamicBlockGUID
1000
{FDCFC2F5-9095-49BF-99B6-274B4C3B84BC}
1001
AcDbBlockRepETag
1070
     1
1071
       24
  0
BLOCK_RECORD
  5
429
330
1
100
AcDbSymbolTableRecord
100
AcDbBlockTableRecord
  2
_DotSmall
340
0
 70
     0
280
     1
281
     0
  0
BLOCK_RECORD
  5
10CB
330
1
100
AcDbSymbolTableRecord
100
AcDbBlockTableRecord
  2
mark
340
0
310
2800000020000000200000000100080000000000000400000000000000000000000000000000000000000000000080000080000000808000800000008000800080800000C0C0C000C0DCC000F0CAA6000020400000206000002080000020A0000020C0000020E00000400000004020000040400000406000004080000040A0
310
000040C0000040E00000600000006020000060400000606000006080000060A0000060C0000060E00000800000008020000080400000806000008080000080A0000080C0000080E00000A0000000A0200000A0400000A0600000A0800000A0A00000A0C00000A0E00000C0000000C0200000C0400000C0600000C0800000C0
310
A00000C0C00000C0E00000E0000000E0200000E0400000E0600000E0800000E0A00000E0C00000E0E00040000000400020004000400040006000400080004000A0004000C0004000E00040200000402020004020400040206000402080004020A0004020C0004020E000404000004040200040404000404060004040800040
310
40A0004040C0004040E00040600000406020004060400040606000406080004060A0004060C0004060E00040800000408020004080400040806000408080004080A0004080C0004080E00040A0000040A0200040A0400040A0600040A0800040A0A00040A0C00040A0E00040C0000040C0200040C0400040C0600040C08000
310
40C0A00040C0C00040C0E00040E0000040E0200040E0400040E0600040E0800040E0A00040E0C00040E0E00080000000800020008000400080006000800080008000A0008000C0008000E00080200000802020008020400080206000802080008020A0008020C0008020E00080400000804020008040400080406000804080
310
008040A0008040C0008040E00080600000806020008060400080606000806080008060A0008060C0008060E00080800000808020008080400080806000808080008080A0008080C0008080E00080A0000080A0200080A0400080A0600080A0800080A0A00080A0C00080A0E00080C0000080C0200080C0400080C0600080C0
310
800080C0A00080C0C00080C0E00080E0000080E0200080E0400080E0600080E0800080E0A00080E0C00080E0E000C0000000C0002000C0004000C0006000C0008000C000A000C000C000C000E000C0200000C0202000C0204000C0206000C0208000C020A000C020C000C020E000C0400000C0402000C0404000C0406000C0
310
408000C040A000C040C000C040E000C0600000C0602000C0604000C0606000C0608000C060A000C060C000C060E000C0800000C0802000C0804000C0806000C0808000C080A000C080C000C080E000C0A00000C0A02000C0A04000C0A06000C0A08000C0A0A000C0A0C000C0A0E000C0C00000C0C02000C0C04000C0C06000
310
C0C08000C0C0A000F0FBFF00A4A0A000808080000000FF0000FF000000FFFF00FF000000FF00FF00FFFF0000FFFFFF0000000000000000000000000000000000000000000000000000000000000000000000000000000000000000000000000000000000000000000000000000000000000000000000000000000000000000
310
00000000000000000000000000000000000000000000000000000000000000000000000000000000000000000000000000000000000000000000000000000000000000000000000000000000000000000000000000000000000000000000000000000000000000000000000000000000000000000000000000000000000000
310
FF0000FF0000000000000000000000000000000000000000000000000000FFFFFF0000FFFFFF0000000000000000000000000000000000000000000000FF0000FF0000FF0000FF0000000000000000000000000000000000000000FFFF0000FF00000000FF0000FFFF0000000000000000000000000000000000FF0000FFFF
310
000000FF0000FFFF0000FF000000000000000000FFFFFFFF0000FF0000FF000000FFFF00FF000000FF0000FF0000FFFFFFFF0000FF0000FFFFFF0000FF000000FF00000000FF000000FF0000FFFFFF0000FF0000FF0000FF000000FF000000FF00FFFFFFFF00FF000000FF000000FF0000FF0000FF00000000FFFF00000000
310
FF00FF0000FF00FF00000000FFFF00000000FF0000FF000000FF000000000000FF00FF0000FF00FF000000000000FF000000FF0000FF0000FF00000000000000FF00FF0000FF00FF00000000000000FF0000FF0000FF000000FFFF0000000000FF00FF0000FF00FF0000000000FFFF000000FF0000FF0000FF0000FF000000
310
00FF00FFFFFFFF00FF00000000FF0000FF0000FF0000FF0000FFFFFF00FF00000000FFFF000000FF00000000FF00FFFFFF0000FF0000FFFFFFFF0000FF00FFFF00000000FF00FF000000FFFF00FF0000FFFFFFFF000000000000000000FF0000FF00000000FF000000FF0000FF0000000000000000000000000000000000FF
310
FF00FFFF00000000FFFF00FFFF0000000000000000000000000000000000000000FF0000FF0000FF0000FF0000000000000000000000000000000000000000000000FFFFFF0000FFFFFF0000000000000000000000000000000000000000000000000000FF0000FF0000000000000000000000000000000000000000000000
310
00000000000000000000000000000000000000000000000000000000000000000000000000000000000000000000000000000000000000000000000000000000000000000000000000000000000000000000000000000000000000000000000000000000000000000000000000000000000000000000000000000000000000
310
0000000000000000000000000000000000000000000000000000000000000000000000000000000000000000000000000000000000000000
102
{BLKREFS
331
2B03F
102
}
 70
     4
280
     1
281
     0
  0
BLOCK_RECORD
  5
2D20
330
1
100
AcDbSymbolTableRecord
100
AcDbBlockTableRecord
  2
A$C34DA08B7
340
0
 70
     4
280
     1
281
     0
  0
BLOCK_RECORD
  5
2D24
330
1
100
AcDbSymbolTableRecord
100
AcDbBlockTableRecord
  2
A$C04A47E41
340
0
 70
     4
280
     1
281
     0
  0
BLOCK_RECORD
  5
2D46
330
1
100
AcDbSymbolTableRecord
100
AcDbBlockTableRecord
  2
A$C2FFA21FC
340
0
 70
     4
280
     1
281
     0
  0
BLOCK_RECORD
  5
2A7F4
330
1
100
AcDbSymbolTableRecord
100
AcDbBlockTableRecord
  2
*D7
340
0
 70
     0
280
     1
281
     0
  0
BLOCK_RECORD
  5
2A80C
330
1
100
AcDbSymbolTableRecord
100
AcDbBlockTableRecord
  2
*D8
340
0
 70
     0
280
     1
281
     0
  0
BLOCK_RECORD
  5
2ACB7
330
1
100
AcDbSymbolTableRecord
100
AcDbBlockTableRecord
  2
*D9
340
0
 70
     0
280
     1
281
     0
  0
BLOCK_RECORD
  5
2B061
330
1
100
AcDbSymbolTableRecord
100
AcDbBlockTableRecord
  2
*D10
340
0
 70
     0
280
     1
281
     0
  0
ENDTAB
  0
ENDSEC
  0
SECTION
  2
BLOCKS
  0
BLOCK
  5
20
330
1F
100
AcDbEntity
  8
0
100
AcDbBlockBegin
  2
*Model_Space
 70
     0
 10
0.0
 20
0.0
 30
0.0
  3
*Model_Space
  1

  0
ENDBLK
  5
21
330
1F
100
AcDbEntity
  8
0
100
AcDbBlockEnd
  0
BLOCK
  5
52
330
50
100
AcDbEntity
 67
     1
  8
0
100
AcDbBlockBegin
  2
*Paper_Space
 70
     0
 10
0.0
 20
0.0
 30
0.0
  3
*Paper_Space
  1

  0
ENDBLK
  5
53
330
50
100
AcDbEntity
 67
     1
  8
0
100
AcDbBlockEnd
  0
BLOCK
  5
57
330
55
100
AcDbEntity
 67
     1
  8
0
100
AcDbBlockBegin
  2
*Paper_Space0
 70
     0
 10
0.0
 20
0.0
 30
0.0
  3
*Paper_Space0
  1

  0
VIEWPORT
  5
71
330
55
100
AcDbEntity
 67
     1
  8
0
348
276B
100
AcDbViewport
 10
133.3499908447265
 20
101.5999970436096
 30
0.0
 40
381.3957395593834
 41
218.2856291881582
 68
     0
 69
     0
 12
133.3499908447265
 22
101.5999970436096
 13
0.0
 23
0.0
 14
10.0
 24
10.0
 15
10.0
 25
10.0
 16
0.0
 26
0.0
 36
1.0
 17
0.0
 27
0.0
 37
0.0
 42
50.0
 43
0.0
 44
0.0
 45
218.2856291881582
 50
0.0
 51
0.0
 72
   100
 90
    32800
  1

281
     0
 71
     1
 74
     0
110
0.0
120
0.0
130
0.0
111
1.0
121
0.0
131
0.0
112
0.0
122
1.0
132
0.0
 79
     0
146
0.0
170
     0
 61
     5
292
     1
282
     1
141
0.0
142
0.0
 63
   250
421
  3355443
  0
VIEWPORT
  5
73
330
55
100
AcDbEntity
 67
     1
  8
0
348
276B
100
AcDbViewport
 10
133.349993944168
 20
101.599993944168
 30
0.0
 40
213.3599903106689
 41
162.5599903106689
 68
     0
 69
     0
 12
210.0
 22
148.5
 13
0.0
 23
0.0
 14
10.0
 24
10.0
 15
10.0
 25
10.0
 16
0.0
 26
0.0
 36
1.0
 17
0.0
 27
0.0
 37
0.0
 42
50.0
 43
0.0
 44
0.0
 45
324.0677920111345
 50
0.0
 51
0.0
 72
   100
 90
    32864
  1

281
     0
 71
     1
 74
     0
110
0.0
120
0.0
130
0.0
111
1.0
121
0.0
131
0.0
112
0.0
122
1.0
132
0.0
 79
     0
146
0.0
170
     0
 61
     5
292
     1
282
     1
141
0.0
142
0.0
 63
   250
421
  3355443
  0
ENDBLK
  5
58
330
55
100
AcDbEntity
 67
     1
  8
0
100
AcDbBlockEnd
  0
BLOCK
  5
342
330
341
100
AcDbEntity
  8
0
100
AcDbBlockBegin
  2
_None
 70
     0
 10
0.0
 20
0.0
 30
0.0
  3
_None
  1

  0
LINE
  5
29B7
102
{ACAD_REACTORS
330
29F6
102
}
330
341
100
AcDbEntity
  8
0
100
AcDbLine
 10
7.618927466172911
 20
14.9090276980656
 30
0.0
 11
13.53608213148402
 21
23.35960033891454
 31
0.0
1001
AcDbBlockRepETag
1070
     1
1071
        0
1005
29B7
  0
LINE
  5
29B8
102
{ACAD_REACTORS
330
29F6
102
}
330
341
100
AcDbEntity
  8
0
100
AcDbLine
 10
7.618927466172911
 20
14.9090276980656
 30
0.0
 11
8.516181951946554
 21
13.62761549266754
 31
0.0
1001
AcDbBlockRepETag
1070
     1
1071
        1
1005
29B8
  0
LINE
  5
29B9
102
{ACAD_REACTORS
330
29F6
102
}
330
341
100
AcDbEntity
  8
0
100
AcDbLine
 10
21.97323679679512
 20
14.90902769806559
 30
0.0
 11
21.07598231102148
 21
16.19043990346365
 31
0.0
1001
AcDbBlockRepETag
1070
     1
1071
        2
1005
29B9
  0
LINE
  5
29BA
102
{ACAD_REACTORS
330
29F6
102
}
330
341
100
AcDbEntity
  8
0
100
AcDbLine
 10
21.97323679679512
 20
14.90902769806559
 30
0.0
 11
16.056082131484
 21
6.458455057216696
 31
0.0
1001
AcDbBlockRepETag
1070
     1
1071
        3
1005
29BA
  0
LINE
  5
29BB
102
{ACAD_REACTORS
330
29F6
102
}
330
341
100
AcDbEntity
  8
0
100
AcDbLine
 10
15.556082131484
 20
21.42363521294154
 30
0.0
 11
19.54408298552672
 21
15.72817974235458
 31
0.0
1001
AcDbBlockRepETag
1070
     1
1071
        4
1005
29BB
  0
LINE
  5
29BC
102
{ACAD_REACTORS
330
29F6
102
}
330
341
100
AcDbEntity
  8
0
100
AcDbLine
 10
9.761293059265804
 20
14.49945167592111
 30
0.0
 11
8.516181951946544
 21
13.62761549266753
 31
0.0
1001
AcDbBlockRepETag
1070
     1
1071
        5
1005
29BC
  0
LINE
  5
29BD
102
{ACAD_REACTORS
330
29F6
102
}
330
341
100
AcDbEntity
  8
0
100
AcDbLine
 10
10.04808127744132
 20
14.08987565377662
 30
0.0
 11
8.802970170122067
 21
13.21803947052303
 31
0.0
1001
AcDbBlockRepETag
1070
     1
1071
        6
1005
29BD
  0
LINE
  5
29BE
102
{ACAD_REACTORS
330
29F6
102
}
330
341
100
AcDbEntity
  8
0
100
AcDbLine
 10
14.03608213148402
 20
5.744381053845643
 30
0.0
 11
14.03608213148402
 21
24.07367434228561
 31
0.0
1001
AcDbBlockRepETag
1070
     1
1071
        7
1005
29BE
  0
LINE
  5
29BF
102
{ACAD_REACTORS
330
29F6
102
}
330
341
100
AcDbEntity
  8
0
100
AcDbLine
 10
15.556082131484
 20
5.744381053845647
 30
0.0
 11
15.556082131484
 21
21.42363521294154
 31
0.0
1001
AcDbBlockRepETag
1070
     1
1071
        8
1005
29BF
  0
LINE
  5
29C0
102
{ACAD_REACTORS
330
29F6
102
}
330
341
100
AcDbEntity
  8
0
100
AcDbLine
 10
13.53608213148402
 20
6.458455057216702
 30
0.0
 11
13.53608213148402
 21
9.108494186560758
 31
0.0
1001
AcDbBlockRepETag
1070
     1
1071
        9
1005
29C0
  0
LINE
  5
29C1
102
{ACAD_REACTORS
330
29F6
102
}
330
341
100
AcDbEntity
  8
0
100
AcDbLine
 10
16.056082131484
 20
6.458455057216702
 30
0.0
 11
16.056082131484
 21
9.108494186560747
 31
0.0
1001
AcDbBlockRepETag
1070
     1
1071
       10
1005
29C1
  0
LINE
  5
29C2
102
{ACAD_REACTORS
330
29F6
102
}
330
341
100
AcDbEntity
  8
0
100
AcDbLine
 10
14.03608213148402
 20
24.0736743422856
 30
0.0
 11
14.79608213148402
 21
25.15906682740961
 31
0.0
1001
AcDbBlockRepETag
1070
     1
1071
       11
1005
29C2
  0
LINE
  5
29C3
102
{ACAD_REACTORS
330
29F6
102
}
330
341
100
AcDbEntity
  8
0
100
AcDbLine
 10
13.53608213148402
 20
20.70956120957047
 30
0.0
 11
9.474504841090279
 21
14.90902769806561
 31
0.0
1001
AcDbBlockRepETag
1070
     1
1071
       12
1005
29C3
  0
LINE
  5
29C4
102
{ACAD_REACTORS
330
29F6
102
}
330
341
100
AcDbEntity
  8
0
100
AcDbLine
 10
16.056082131484
 20
9.108494186560752
 30
0.0
 11
20.11765942187774
 21
14.90902769806561
 31
0.0
1001
AcDbBlockRepETag
1070
     1
1071
       13
1005
29C4
  0
LINE
  5
29C5
102
{ACAD_REACTORS
330
29F6
102
}
330
341
100
AcDbEntity
  8
0
100
AcDbLine
 10
15.556082131484
 20
5.744381053845644
 30
0.0
 11
14.79608213148401
 21
4.658988568721648
 31
0.0
1001
AcDbBlockRepETag
1070
     1
1071
       14
1005
29C5
  0
LINE
  5
29C6
102
{ACAD_REACTORS
330
29F6
102
}
330
341
100
AcDbEntity
  8
0
100
AcDbLine
 10
14.03608213148402
 20
5.744381053845644
 30
0.0
 11
14.79608213148401
 21
4.658988568721648
 31
0.0
1001
AcDbBlockRepETag
1070
     1
1071
       15
1005
29C6
  0
LINE
  5
29C7
102
{ACAD_REACTORS
330
29F6
102
}
330
341
100
AcDbEntity
  8
0
100
AcDbLine
 10
8.802970170122078
 20
13.21803947052304
 30
0.0
 11
13.53608213148402
 21
6.458455057216702
 31
0.0
1001
AcDbBlockRepETag
1070
     1
1071
       16
1005
29C7
  0
LINE
  5
29C8
102
{ACAD_REACTORS
330
29F6
102
}
330
341
100
AcDbEntity
  8
0
100
AcDbLine
 10
10.04808127744132
 20
14.08987565377662
 30
0.0
 11
13.53608213148402
 21
9.10849418656076
 31
0.0
1001
AcDbBlockRepETag
1070
     1
1071
       17
1005
29C8
  0
LINE
  5
29C9
102
{ACAD_REACTORS
330
29F6
102
}
330
341
100
AcDbEntity
  8
0
100
AcDbLine
 10
13.53608213148402
 20
20.70956120957048
 30
0.0
 11
13.53608213148402
 21
23.35960033891454
 31
0.0
1001
AcDbBlockRepETag
1070
     1
1071
       18
1005
29C9
  0
LINE
  5
29CA
102
{ACAD_REACTORS
330
29F6
102
}
330
341
100
AcDbEntity
  8
0
100
AcDbLine
 10
19.83087120370222
 20
15.31860372021007
 30
0.0
 11
21.07598231102148
 21
16.19043990346365
 31
0.0
1001
AcDbBlockRepETag
1070
     1
1071
       19
1005
29CA
  0
LINE
  5
29CB
102
{ACAD_REACTORS
330
29F6
102
}
330
341
100
AcDbEntity
  8
0
100
AcDbLine
 10
19.54408298552669
 20
15.72817974235456
 30
0.0
 11
20.78919409284595
 21
16.60001592560815
 31
0.0
1001
AcDbBlockRepETag
1070
     1
1071
       20
1005
29CB
  0
LINE
  5
29CC
102
{ACAD_REACTORS
330
29F6
102
}
330
341
100
AcDbEntity
  8
0
100
AcDbLine
 10
19.83087120370224
 20
15.31860372021007
 30
0.0
 11
20.11765942187774
 21
14.90902769806561
 31
0.0
1001
AcDbBlockRepETag
1070
     1
1071
       21
1005
29CC
  0
LINE
  5
29CD
102
{ACAD_REACTORS
330
29F6
102
}
330
341
100
AcDbEntity
  8
0
100
AcDbLine
 10
20.78919409284596
 20
16.60001592560815
 30
0.0
 11
14.79608213148402
 21
25.15906682740961
 31
0.0
1001
AcDbBlockRepETag
1070
     1
1071
       22
1005
29CD
  0
LINE
  5
29CE
102
{ACAD_REACTORS
330
29F6
102
}
330
341
100
AcDbEntity
  8
0
100
AcDbLine
 10
9.761293059265804
 20
14.49945167592111
 30
0.0
 11
9.474504841090279
 21
14.90902769806561
 31
0.0
1001
AcDbBlockRepETag
1070
     1
1071
       23
1005
29CE
  0
ENDBLK
  5
343
330
341
100
AcDbEntity
  8
0
100
AcDbBlockEnd
  0
BLOCK
  5
42B
330
429
100
AcDbEntity
  8
0
100
AcDbBlockBegin
  2
_DotSmall
 70
     0
 10
0.0
 20
0.0
 30
0.0
  3
_DotSmall
  1

  0
LWPOLYLINE
  5
42A
330
429
100
AcDbEntity
  8
0
  6
ByBlock
 62
     0
100
AcDbPolyline
 90
        2
 70
     1
 43
0.5
 10
-0.0625
 20
0.0
 42
1.0
 10
0.0625
 20
0.0
 42
1.0
  0
ENDBLK
  5
42C
330
429
100
AcDbEntity
  8
0
100
AcDbBlockEnd
  0
BLOCK
  5
10EA
330
10CB
100
AcDbEntity
  8
0
100
AcDbBlockBegin
  2
mark
 70
     0
 10
0.0
 20
0.0
 30
0.0
  3
mark
  1

  4
柏原計器(株)マーク
  0
LINE
  5
10CC
330
10CB
100
AcDbEntity
  8
実線
100
AcDbLine
 10
45.0
 20
-8.5
 30
0.0
 11
27.0
 21
-21.10373568777475
 31
0.0
  0
LINE
  5
10CD
330
10CB
100
AcDbEntity
  8
実線
100
AcDbLine
 10
45.0
 20
-8.5
 30
0.0
 11
27.0
 21
4.103735687774785
 31
0.0
  0
LINE
  5
10CE
330
10CB
100
AcDbEntity
  8
実線
100
AcDbLine
 10
46.0
 20
-4.317109183163836
 30
0.0
 11
27.0
 21
8.986834042820532
 31
0.0
  0
LINE
  5
10CF
330
10CB
100
AcDbEntity
  8
実線
100
AcDbLine
 10
46.0
 20
-12.6828908168361
 30
0.0
 11
27.0
 21
-25.9868340428206
 31
0.0
  0
LINE
  5
10D0
330
10CB
100
AcDbEntity
  8
実線
100
AcDbLine
 10
5.0
 20
-8.5
 30
0.0
 11
23.0
 21
-21.10373568777475
 31
0.0
  0
LINE
  5
10D1
330
10CB
100
AcDbEntity
  8
実線
100
AcDbLine
 10
4.0
 20
-12.6828908168361
 30
0.0
 11
22.99999999999994
 21
-25.98683404282056
 31
0.0
  0
LINE
  5
10D2
330
10CB
100
AcDbEntity
  8
実線
100
AcDbLine
 10
5.0
 20
-8.5
 30
0.0
 11
23.0
 21
4.103735687774785
 31
0.0
  0
LINE
  5
10D3
330
10CB
100
AcDbEntity
  8
実線
100
AcDbLine
 10
4.0
 20
-4.317109183163863
 30
0.0
 11
23.0
 21
8.986834042820587
 31
0.0
  0
LINE
  5
10D4
330
10CB
100
AcDbEntity
  8
実線
100
AcDbLine
 10
4.0
 20
-4.317109183163863
 30
0.0
 11
4.0
 21
0.0
 31
0.0
  0
LINE
  5
10D5
330
10CB
100
AcDbEntity
  8
実線
100
AcDbLine
 10
0.0
 20
0.0
 30
0.0
 11
0.0
 21
-17.0
 31
0.0
  0
LINE
  5
10D6
330
10CB
100
AcDbEntity
  8
実線
100
AcDbLine
 10
0.0
 20
-17.0
 30
0.0
 11
4.0
 21
-17.0
 31
0.0
  0
LINE
  5
10D7
330
10CB
100
AcDbEntity
  8
実線
100
AcDbLine
 10
4.0
 20
-17.0
 30
0.0
 11
4.0
 21
-12.6828908168361
 31
0.0
  0
LINE
  5
10D8
330
10CB
100
AcDbEntity
  8
実線
100
AcDbLine
 10
4.0
 20
0.0
 30
0.0
 11
0.0
 21
0.0
 31
0.0
  0
LINE
  5
10D9
330
10CB
100
AcDbEntity
  8
実線
100
AcDbLine
 10
27.0
 20
-21.10373568777475
 30
0.0
 11
27.0
 21
-25.9868340428206
 31
0.0
  0
LINE
  5
10DA
330
10CB
100
AcDbEntity
  8
実線
100
AcDbLine
 10
23.0
 20
-21.1037356877747
 30
0.0
 11
22.99999999999994
 21
-25.98683404282056
 31
0.0
  0
ARC
  5
10DB
330
10CB
100
AcDbEntity
  8
実線
100
AcDbCircle
 10
25.0
 20
-12.5
 30
0.0
 40
6.0
100
AcDbArc
 50
180.0
 51
0.0
  0
ARC
  5
10DC
330
10CB
100
AcDbEntity
  8
実線
100
AcDbCircle
 10
25.0
 20
-12.5
 30
0.0
 40
3.0
100
AcDbArc
 50
180.0
 51
0.0
  0
ARC
  5
10DD
330
10CB
100
AcDbEntity
  8
実線
100
AcDbCircle
 10
25.0
 20
-4.5
 30
0.0
 40
6.0
100
AcDbArc
 50
0.0
 51
180.0
  0
ARC
  5
10DE
330
10CB
100
AcDbEntity
  8
実線
100
AcDbCircle
 10
25.0
 20
-4.5
 30
0.0
 40
3.0
100
AcDbArc
 50
0.0
 51
180.0
  0
LINE
  5
10DF
330
10CB
100
AcDbEntity
  8
実線
100
AcDbLine
 10
22.0
 20
-4.499999999999943
 30
0.0
 11
22.0
 21
-12.50000000000005
 31
0.0
  0
LINE
  5
10E0
330
10CB
100
AcDbEntity
  8
実線
100
AcDbLine
 10
19.0
 20
-4.499999999999943
 30
0.0
 11
19.0
 21
-12.50000000000005
 31
0.0
  0
LINE
  5
10E1
330
10CB
100
AcDbEntity
  8
実線
100
AcDbLine
 10
23.0
 20
8.986834042820587
 30
0.0
 11
23.0
 21
4.103735687774785
 31
0.0
  0
LINE
  5
10E2
330
10CB
100
AcDbEntity
  8
実線
100
AcDbLine
 10
28.0
 20
-4.499999999999971
 30
0.0
 11
28.0
 21
-12.50000000000005
 31
0.0
  0
LINE
  5
10E3
330
10CB
100
AcDbEntity
  8
実線
100
AcDbLine
 10
31.0
 20
-4.499999999999943
 30
0.0
 11
31.0
 21
-12.50000000000005
 31
0.0
  0
LINE
  5
10E4
330
10CB
100
AcDbEntity
  8
実線
100
AcDbLine
 10
27.0
 20
8.986834042820532
 30
0.0
 11
27.0
 21
4.103735687774785
 31
0.0
  0
LINE
  5
10E5
330
10CB
100
AcDbEntity
  8
実線
100
AcDbLine
 10
50.0
 20
0.0
 30
0.0
 11
50.0
 21
-17.0
 31
0.0
  0
LINE
  5
10E6
330
10CB
100
AcDbEntity
  8
実線
100
AcDbLine
 10
46.0
 20
0.0
 30
0.0
 11
46.0
 21
-4.317109183163836
 31
0.0
  0
LINE
  5
10E7
330
10CB
100
AcDbEntity
  8
実線
100
AcDbLine
 10
46.0
 20
-17.0
 30
0.0
 11
50.0
 21
-17.0
 31
0.0
  0
LINE
  5
10E8
330
10CB
100
AcDbEntity
  8
実線
100
AcDbLine
 10
46.0
 20
-12.6828908168361
 30
0.0
 11
46.0
 21
-17.0
 31
0.0
  0
LINE
  5
10E9
330
10CB
100
AcDbEntity
  8
実線
100
AcDbLine
 10
50.0
 20
0.0
 30
0.0
 11
46.0
 21
0.0
 31
0.0
  0
ENDBLK
  5
10EB
330
10CB
100
AcDbEntity
  8
0
100
AcDbBlockEnd
  0
BLOCK
  5
2D22
330
2D20
100
AcDbEntity
  8
0
100
AcDbBlockBegin
  2
A$C34DA08B7
 70
     0
 10
0.0
 20
0.0
 30
0.0
  3
A$C34DA08B7
  1

  0
LINE
  5
2D21
330
2D20
100
AcDbEntity
  8
実線
100
AcDbLine
 10
3.443694327872606
 20
-0.000000348593062
 30
0.0
 11
0.0000000833857712
 21
3.443693895893829
 31
0.0
  0
ENDBLK
  5
2D23
330
2D20
100
AcDbEntity
  8
0
100
AcDbBlockEnd
  0
BLOCK
  5
2D26
330
2D24
100
AcDbEntity
  8
0
100
AcDbBlockBegin
  2
A$C04A47E41
 70
     0
 10
0.0
 20
0.0
 30
0.0
  3
A$C04A47E41
  1

  0
LINE
  5
2D25
330
2D24
100
AcDbEntity
  8
実線
100
AcDbLine
 10
0.0
 20
0.0
 30
0.0
 11
-3.443694244486835
 21
3.44369424448689
 31
0.0
  0
ENDBLK
  5
2D27
330
2D24
100
AcDbEntity
  8
0
100
AcDbBlockEnd
  0
BLOCK
  5
2D4F
330
2D46
100
AcDbEntity
  8
0
100
AcDbBlockBegin
  2
A$C2FFA21FC
 70
     0
 10
0.0
 20
0.0
 30
0.0
  3
A$C2FFA21FC
  1

  0
LINE
  5
2D47
330
2D46
100
AcDbEntity
  8
実線
100
AcDbLine
 10
1.673649195882091
 20
5.714196736163046
 30
0.0
 11
4.040546862123335
 21
5.714196736163046
 31
0.0
  0
LINE
  5
2D48
330
2D46
100
AcDbEntity
  8
実線
100
AcDbLine
 10
-0.0000001942917152
 20
1.673649679747881
 30
0.0
 11
-0.0000001942917152
 21
4.040547345989124
 31
0.0
  0
LINE
  5
2D49
330
2D46
100
AcDbEntity
  8
実線
100
AcDbLine
 10
-0.0000001942917152
 20
4.040547345989238
 30
0.0
 11
1.673649195882091
 21
5.714196736162987
 31
0.0
  0
LINE
  5
2D4A
330
2D46
100
AcDbEntity
  8
実線
100
AcDbLine
 10
1.673649195882091
 20
0.0000002895740749
 30
0.0
 11
4.040546862123335
 21
0.0000002895740749
 31
0.0
  0
LINE
  5
2D4B
330
2D46
100
AcDbEntity
  8
実線
100
AcDbLine
 10
-0.0000001942917152
 20
1.673649679747881
 30
0.0
 11
1.673649195882035
 21
0.0000002895740749
 31
0.0
  0
LINE
  5
2D4C
330
2D46
100
AcDbEntity
  8
実線
100
AcDbLine
 10
5.714196252297256
 20
1.673649679747881
 30
0.0
 11
5.714196252297256
 21
4.040547345989124
 31
0.0
  0
LINE
  5
2D4D
330
2D46
100
AcDbEntity
  8
実線
100
AcDbLine
 10
5.714196252297256
 20
4.040547345989238
 30
0.0
 11
4.040546862123449
 21
5.714196736162987
 31
0.0
  0
LINE
  5
2D4E
330
2D46
100
AcDbEntity
  8
実線
100
AcDbLine
 10
5.714196252297256
 20
1.673649679747881
 30
0.0
 11
4.040546862123505
 21
0.0000002895740749
 31
0.0
  0
ENDBLK
  5
2D50
330
2D46
100
AcDbEntity
  8
0
100
AcDbBlockEnd
  0
BLOCK
  5
2A7F5
330
2A7F4
100
AcDbEntity
  8
0
100
AcDbBlockBegin
  2
*D7
 70
     1
 10
0.0
 20
0.0
 30
0.0
  3
*D7
  1

  0
LINE
  5
2B1B9
330
2A7F4
100
AcDbEntity
  8
寸法
 62
     0
440
 16777216
370
    -2
100
AcDbLine
 10
65.8996022601579
 20
42.58311907494638
 30
0.0
 11
65.8996022601579
 21
22.38357206703319
 31
0.0
  0
LINE
  5
2B1BA
330
2A7F4
100
AcDbEntity
  8
寸法
 62
     0
440
 16777216
370
    -2
100
AcDbLine
 10
230.8996022601579
 20
42.56311907491677
 30
0.0
 11
230.8996022601579
 21
22.38357206703319
 31
0.0
  0
LINE
  5
2B1BB
330
2A7F4
100
AcDbEntity
  8
寸法
 62
     0
440
 16777216
370
    -2
100
AcDbLine
 10
68.3996022601579
 20
23.63357206703319
 30
0.0
 11
228.3996022601579
 21
23.63357206703319
 31
0.0
  0
SOLID
  5
2B1BC
330
2A7F4
100
AcDbEntity
  8
寸法
 62
     0
440
 16777216
100
AcDbTrace
 10
68.3996022601579
 20
24.05023873369986
 30
0.0
 11
68.3996022601579
 21
23.21690540036652
 31
0.0
 12
65.8996022601579
 22
23.63357206703319
 32
0.0
 13
65.8996022601579
 23
23.63357206703319
 33
0.0
  0
SOLID
  5
2B1BD
330
2A7F4
100
AcDbEntity
  8
寸法
 62
     0
440
 16777216
100
AcDbTrace
 10
228.3996022601579
 20
24.05023873369986
 30
0.0
 11
228.3996022601579
 21
23.21690540036652
 31
0.0
 12
230.8996022601579
 22
23.63357206703319
 32
0.0
 13
230.8996022601579
 23
23.63357206703319
 33
0.0
  0
MTEXT
  5
2B1BE
330
2A7F4
100
AcDbEntity
  8
寸法
 62
     2
440
 16777216
100
AcDbMText
 10
148.3996022601579
 20
26.38357206703318
 30
0.0
 40
3.5
 41
0.0
 46
0.0
 71
     5
 72
     1
  1
165
  7
寸法
 73
     1
 44
1.0
  0
POINT
  5
2B1BF
330
2A7F4
100
AcDbEntity
  8
Defpoints
 62
     0
440
 16777216
100
AcDbPoint
 10
65.8996022601579
 20
43.20811907494638
 30
0.0
  0
POINT
  5
2B1C0
330
2A7F4
100
AcDbEntity
  8
Defpoints
 62
     0
440
 16777216
100
AcDbPoint
 10
230.8996022601579
 20
43.18811907491677
 30
0.0
  0
POINT
  5
2B1C1
330
2A7F4
100
AcDbEntity
  8
Defpoints
 62
     0
440
 16777216
100
AcDbPoint
 10
230.8996022601579
 20
23.63357206703319
 30
0.0
  0
ENDBLK
  5
2A7F6
330
2A7F4
100
AcDbEntity
  8
0
100
AcDbBlockEnd
  0
BLOCK
  5
2A80D
330
2A80C
100
AcDbEntity
  8
0
100
AcDbBlockBegin
  2
*D8
 70
     1
 10
0.0
 20
0.0
 30
0.0
  3
*D8
  1

  0
LINE
  5
2AF6B
330
2A80C
100
AcDbEntity
  8
寸法
 62
     0
440
 16777216
370
    -2
100
AcDbLine
 10
124.6934581711887
 20
31.62610357109546
 30
0.0
 11
37.82384683453731
 21
31.62610357109548
 31
0.0
  0
LINE
  5
2AF6C
330
2A80C
100
AcDbEntity
  8
寸法
 62
     0
440
 16777216
370
    -2
100
AcDbLine
 10
97.51384644620465
 20
164.6140873640759
 30
0.0
 11
37.82384683453734
 21
164.6140873640759
 31
0.0
  0
LINE
  5
2AF6D
330
2A80C
100
AcDbEntity
  8
寸法
 62
     0
440
 16777216
370
    -2
100
AcDbLine
 10
39.07384683453731
 20
34.12610357109548
 30
0.0
 11
39.07384683453734
 21
162.1140873640759
 31
0.0
  0
SOLID
  5
2AF6E
330
2A80C
100
AcDbEntity
  8
寸法
 62
     0
440
 16777216
100
AcDbTrace
 10
38.65718016787064
 20
34.12610357109548
 30
0.0
 11
39.49051350120397
 21
34.12610357109548
 31
0.0
 12
39.07384683453731
 22
31.62610357109548
 32
0.0
 13
39.07384683453731
 23
31.62610357109548
 33
0.0
  0
SOLID
  5
2AF6F
330
2A80C
100
AcDbEntity
  8
寸法
 62
     0
440
 16777216
100
AcDbTrace
 10
38.65718016787068
 20
162.1140873640759
 30
0.0
 11
39.490513501204
 21
162.1140873640759
 31
0.0
 12
39.07384683453734
 22
164.6140873640759
 32
0.0
 13
39.07384683453734
 23
164.6140873640759
 33
0.0
  0
MTEXT
  5
2AF70
330
2A80C
100
AcDbEntity
  8
寸法
 62
     2
440
 16777216
100
AcDbMText
 10
36.32384683453731
 20
98.12009546758572
 30
0.0
 40
3.5
 41
0.0
 46
0.0
 71
     5
 72
     1
  1
133
  7
寸法
 11
0.0000000000000001
 21
1.0
 31
0.0
 73
     1
 44
1.0
  0
POINT
  5
2AF71
330
2A80C
100
AcDbEntity
  8
Defpoints
 62
     0
440
 16777216
100
AcDbPoint
 10
125.3184581711887
 20
31.62610357109546
 30
0.0
  0
POINT
  5
2AF72
330
2A80C
100
AcDbEntity
  8
Defpoints
 62
     0
440
 16777216
100
AcDbPoint
 10
98.13884644620465
 20
164.6140873640759
 30
0.0000000000000032
  0
POINT
  5
2AF73
330
2A80C
100
AcDbEntity
  8
Defpoints
 62
     0
440
 16777216
100
AcDbPoint
 10
39.07384683453734
 20
164.6140873640759
 30
0.0
  0
ENDBLK
  5
2A80E
330
2A80C
100
AcDbEntity
  8
0
100
AcDbBlockEnd
  0
BLOCK
  5
2ACB8
330
2ACB7
100
AcDbEntity
  8
0
100
AcDbBlockBegin
  2
*D9
 70
     1
 10
0.0
 20
0.0
 30
0.0
  3
*D9
  1

  0
LINE
  5
2ACC4
330
2ACB7
100
AcDbEntity
  8
寸法
 62
     0
440
 16777216
370
    -2
100
AcDbLine
 10
124.6934581711887
 20
31.62610357109546
 30
0.0
 11
48.70532123311225
 21
31.62610357109548
 31
0.0
  0
LINE
  5
2ACC5
330
2ACB7
100
AcDbEntity
  8
寸法
 62
     0
440
 16777216
370
    -2
100
AcDbLine
 10
57.7339009072951
 20
54.59044465631542
 30
0.0
 11
48.70532123311228
 21
54.59044465631542
 31
0.0
  0
LINE
  5
2ACC6
330
2ACB7
100
AcDbEntity
  8
寸法
 62
     0
440
 16777216
370
    -2
100
AcDbLine
 10
49.95532123311225
 20
34.12610357109547
 30
0.0
 11
49.95532123311228
 21
52.09044465631542
 31
0.0
  0
SOLID
  5
2ACC7
330
2ACB7
100
AcDbEntity
  8
寸法
 62
     0
440
 16777216
100
AcDbTrace
 10
49.5386545664456
 20
34.12610357109547
 30
0.0
 11
50.37198789977892
 21
34.12610357109547
 31
0.0
 12
49.95532123311225
 22
31.62610357109548
 32
0.0
 13
49.95532123311225
 23
31.62610357109548
 33
0.0
  0
SOLID
  5
2ACC8
330
2ACB7
100
AcDbEntity
  8
寸法
 62
     0
440
 16777216
100
AcDbTrace
 10
49.5386545664456
 20
52.09044465631542
 30
0.0
 11
50.37198789977892
 21
52.09044465631542
 31
0.0
 12
49.95532123311228
 22
54.59044465631542
 32
0.0
 13
49.95532123311228
 23
54.59044465631542
 33
0.0
  0
MTEXT
  5
2ACC9
330
2ACB7
100
AcDbEntity
  8
寸法
 62
     2
440
 16777216
100
AcDbMText
 10
47.20532123311225
 20
43.10827411370546
 30
0.0
 40
3.5
 41
0.0
 46
0.0
 71
     5
 72
     1
  1
23
  7
寸法
 11
0.0000000000000001
 21
1.0
 31
0.0
 73
     1
 44
1.0
  0
POINT
  5
2ACCA
330
2ACB7
100
AcDbEntity
  8
Defpoints
 62
     0
440
 16777216
100
AcDbPoint
 10
125.3184581711887
 20
31.62610357109546
 30
0.0
  0
POINT
  5
2ACCB
330
2ACB7
100
AcDbEntity
  8
Defpoints
 62
     0
440
 16777216
100
AcDbPoint
 10
58.3589009072951
 20
54.59044465631542
 30
0.0
  0
POINT
  5
2ACCC
330
2ACB7
100
AcDbEntity
  8
Defpoints
 62
     0
440
 16777216
100
AcDbPoint
 10
49.95532123311228
 20
54.59044465631542
 30
0.0
  0
ENDBLK
  5
2ACB9
330
2ACB7
100
AcDbEntity
  8
0
100
AcDbBlockEnd
  0
BLOCK
  5
2B062
330
2B061
100
AcDbEntity
  8
0
100
AcDbBlockBegin
  2
*D10
 70
     1
 10
0.0
 20
0.0
 30
0.0
  3
*D10
  1

  0
LINE
  5
2B16C
330
2B061
100
AcDbEntity
  8
寸法
 62
     0
440
 16777216
370
    -2
100
AcDbLine
 10
154.0246022601579
 20
167.075742854445
 30
0.0
 11
257.170255996397
 21
167.075742854445
 31
0.0
  0
LINE
  5
2B16D
330
2B061
100
AcDbEntity
  8
寸法
 62
     0
440
 16777216
370
    -2
100
AcDbLine
 10
154.0246022601579
 20
256.075742854445
 30
0.0
 11
257.170255996397
 21
256.075742854445
 31
0.0
  0
LINE
  5
2B16E
330
2B061
100
AcDbEntity
  8
寸法
 62
     0
440
 16777216
370
    -2
100
AcDbLine
 10
255.9202559963969
 20
169.575742854445
 30
0.0
 11
255.920255996397
 21
253.575742854445
 31
0.0
  0
SOLID
  5
2B16F
330
2B061
100
AcDbEntity
  8
寸法
 62
     0
440
 16777216
100
AcDbTrace
 10
255.5035893297303
 20
169.575742854445
 30
0.0
 11
256.3369226630637
 21
169.575742854445
 31
0.0
 12
255.9202559963969
 22
167.075742854445
 32
0.0
 13
255.9202559963969
 23
167.075742854445
 33
0.0
  0
SOLID
  5
2B170
330
2B061
100
AcDbEntity
  8
寸法
 62
     0
440
 16777216
100
AcDbTrace
 10
255.5035893297303
 20
253.575742854445
 30
0.0
 11
256.3369226630637
 21
253.575742854445
 31
0.0
 12
255.920255996397
 22
256.075742854445
 32
0.0
 13
255.920255996397
 23
256.075742854445
 33
0.0
  0
MTEXT
  5
2B171
330
2B061
100
AcDbEntity
  8
寸法
 62
     2
440
 16777216
100
AcDbMText
 10
253.1702559963969
 20
211.575742854445
 30
0.0
 40
3.5
 41
0.0
 46
0.0
 71
     5
 72
     1
  1
89
  7
寸法
 11
0.0000000000000001
 21
1.0
 31
0.0
 73
     1
 44
1.0
  0
POINT
  5
2B172
330
2B061
100
AcDbEntity
  8
Defpoints
 62
     0
440
 16777216
100
AcDbPoint
 10
153.3996022601579
 20
167.075742854445
 30
0.0
  0
POINT
  5
2B173
330
2B061
100
AcDbEntity
  8
Defpoints
 62
     0
440
 16777216
100
AcDbPoint
 10
153.3996022601579
 20
256.075742854445
 30
0.0
  0
POINT
  5
2B174
330
2B061
100
AcDbEntity
  8
Defpoints
 62
     0
440
 16777216
100
AcDbPoint
 10
255.920255996397
 20
256.075742854445
 30
0.0
  0
ENDBLK
  5
2B063
330
2B061
100
AcDbEntity
  8
0
100
AcDbBlockEnd
  0
ENDSEC
  0
SECTION
  2
ENTITIES
  0
TEXT
  5
108D
330
1F
100
AcDbEntity
  8
文字
100
AcDbText
 10
293.0
 20
27.25
 30
0.0
 40
3.0
  1

 41
0.8
 72
     1
 11
293.0
 21
28.75
 31
0.0
100
AcDbText
 73
     2
  0
TEXT
  5
108F
330
1F
100
AcDbEntity
  8
文字
100
AcDbText
 10
333.0
 20
27.5
 30
0.0
 40
3.0
  1

 41
0.8
 72
     1
 11
333.0
 21
29.0
 31
0.0
100
AcDbText
 73
     2
  0
TEXT
  5
1090
330
1F
100
AcDbEntity
  8
文字
100
AcDbText
 10
353.0
 20
27.5
 30
0.0
 40
3.0
  1

 41
0.8
 72
     1
 11
353.0
 21
29.0
 31
0.0
100
AcDbText
 73
     2
  0
MTEXT
  5
1581D
330
1F
100
AcDbEntity
  8
実線
 62
     2
100
AcDbMText
 10
196.5671900572592
 20
248.2436849630891
 30
0.0
 40
2.5
 41
0.0
 46
0.0
 71
     9
 72
     1
  1

  7
寸法
 73
     1
 44
1.0
  0
LINE
  5
27C67
330
1F
100
AcDbEntity
  8
文字
100
AcDbLine
 10
296.5886027231083
 20
141.973679757555
 30
0.0
 11
323.5607326132747
 21
141.973679757555
 31
0.0
  0
LINE
  5
29A83
330
1F
100
AcDbEntity
  8
0
100
AcDbLine
 10
215.0
 20
272.0
 30
0.0
 11
215.0
 21
287.0
 31
0.0
  0
LINE
  5
29ABB
330
1F
100
AcDbEntity
  8
0
100
AcDbLine
 10
400.0
 20
148.5
 30
0.0
 11
415.0
 21
148.5
 31
0.0
  0
LINE
  5
29B24
330
1F
100
AcDbEntity
  8
0
100
AcDbLine
 10
215.0
 20
25.0
 30
0.0
 11
215.0
 21
10.0
 31
0.0
  0
LINE
  5
29B27
330
1F
100
AcDbEntity
  8
0
100
AcDbLine
 10
29.99999999999926
 20
148.5000000000001
 30
0.0
 11
15.0
 21
148.5
 31
0.0
  0
LINE
  5
29B3C
330
1F
100
AcDbEntity
  8
補助線
100
AcDbLine
 10
5.0
 20
297.0
 30
0.0
 11
5.0
 21
0.0
 31
0.0
  0
LINE
  5
29B3D
330
1F
100
AcDbEntity
  8
補助線
100
AcDbLine
 10
425.0
 20
297.0
 30
0.0
 11
5.0
 21
297.0
 31
0.0
  0
LINE
  5
29B3E
330
1F
100
AcDbEntity
  8
補助線
100
AcDbLine
 10
425.0
 20
0.0
 30
0.0
 11
425.0
 21
297.0
 31
0.0
  0
LINE
  5
29B3F
330
1F
100
AcDbEntity
  8
補助線
100
AcDbLine
 10
5.0
 20
0.0
 30
0.0
 11
425.0
 21
0.0
 31
0.0
  0
LINE
  5
29B58
330
1F
100
AcDbEntity
  8
0
100
AcDbLine
 10
24.99999999999926
 20
217.7500000000001
 30
0.0
 11
14.9999999999996
 21
217.75
 31
0.0
  0
LINE
  5
29B59
330
1F
100
AcDbEntity
  8
0
100
AcDbLine
 10
24.99999999999926
 20
79.25000000000004
 30
0.0
 11
15.00000000000039
 21
79.25
 31
0.0
  0
LINE
  5
29B5A
330
1F
100
AcDbEntity
  8
0
100
AcDbLine
 10
405.0
 20
217.75
 30
0.0
 11
415.0
 21
217.75
 31
0.0
  0
LINE
  5
29B5B
330
1F
100
AcDbEntity
  8
0
100
AcDbLine
 10
405.0
 20
79.25
 30
0.0
 11
415.0
 21
79.25
 31
0.0
  0
LINE
  5
29B74
330
1F
100
AcDbEntity
  8
0
100
AcDbLine
 10
115.0
 20
277.0
 30
0.0
 11
115.0
 21
286.9999999999998
 31
0.0
  0
LINE
  5
29B75
330
1F
100
AcDbEntity
  8
0
100
AcDbLine
 10
315.0
 20
277.0
 30
0.0
 11
315.0
 21
287.0000000000002
 31
0.0
  0
LINE
  5
29B76
330
1F
100
AcDbEntity
  8
0
100
AcDbLine
 10
115.0
 20
20.0
 30
0.0
 11
115.0
 21
10.0
 31
0.0
  0
LINE
  5
29B77
330
1F
100
AcDbEntity
  8
0
100
AcDbLine
 10
315.0
 20
20.0
 30
0.0
 11
315.0
 21
10.0
 31
0.0
  0
TEXT
  5
29B81
330
1F
100
AcDbEntity
  8
0
100
AcDbText
 10
56.8738103311756
 20
279.47215302696
 30
0.0
 40
5.0
  1
1
 41
0.8
 72
     1
 11
58.49285795022321
 21
281.97215302696
 31
0.0
100
AcDbText
 73
     2
  0
TEXT
  5
29B83
330
1F
100
AcDbEntity
  8
0
100
AcDbText
 10
156.5880960454612
 20
279.4721530269602
 30
0.0
 40
5.0
  1
2
 41
0.8
 72
     1
 11
158.4928579502231
 21
281.9721530269601
 31
0.0
100
AcDbText
 73
     2
  0
TEXT
  5
29B84
330
1F
100
AcDbEntity
  8
0
100
AcDbText
 10
256.5880960454613
 20
279.47215302696
 30
0.0
 40
5.0
  1
3
 41
0.8
 72
     1
 11
258.4928579502232
 21
281.97215302696
 31
0.0
100
AcDbText
 73
     2
  0
TEXT
  5
29B85
330
1F
100
AcDbEntity
  8
0
100
AcDbText
 10
356.4928579502232
 20
279.47215302696
 30
0.0
 40
5.0
  1
4
 41
0.8
 72
     1
 11
358.4928579502232
 21
281.97215302696
 31
0.0
100
AcDbText
 73
     2
  0
TEXT
  5
29B86
330
1F
100
AcDbEntity
  8
0
100
AcDbText
 10
56.8738103311756
 20
12.84246760572546
 30
0.0
 40
5.0
  1
1
 41
0.8
 72
     1
 11
58.49285795022321
 21
15.34246760572546
 31
0.0
100
AcDbText
 73
     2
  0
TEXT
  5
29B87
330
1F
100
AcDbEntity
  8
0
100
AcDbText
 10
156.5880960454612
 20
12.84246760572563
 30
0.0
 40
5.0
  1
2
 41
0.8
 72
     1
 11
158.4928579502231
 21
15.34246760572563
 31
0.0
100
AcDbText
 73
     2
  0
TEXT
  5
29B88
330
1F
100
AcDbEntity
  8
0
100
AcDbText
 10
256.5880960454613
 20
12.84246760572546
 30
0.0
 40
5.0
  1
3
 41
0.8
 72
     1
 11
258.4928579502232
 21
15.34246760572546
 31
0.0
100
AcDbText
 73
     2
  0
TEXT
  5
29B89
330
1F
100
AcDbEntity
  8
0
100
AcDbText
 10
356.4928579502232
 20
12.84246760572546
 30
0.0
 40
5.0
  1
4
 41
0.8
 72
     1
 11
358.4928579502232
 21
15.34246760572546
 31
0.0
100
AcDbText
 73
     2
  0
TEXT
  5
29B8A
330
1F
100
AcDbEntity
  8
0
100
AcDbText
 10
18.58632463146319
 20
250.031914925517
 30
0.0
 40
5.0
  1
A
 41
0.8
 72
     1
 11
20.30061034574891
 21
252.531914925517
 31
0.0
100
AcDbText
 73
     2
  0
TEXT
  5
29B8B
330
1F
100
AcDbEntity
  8
0
100
AcDbText
 10
18.2053722505112
 20
180.781914925517
 30
0.0
 40
5.0
  1
B
 41
0.8
 72
     1
 11
20.3006103457493
 21
183.281914925517
 31
0.0
100
AcDbText
 73
     2
  0
TEXT
  5
29B8C
330
1F
100
AcDbEntity
  8
0
100
AcDbText
 10
18.30061034574891
 20
111.531914925517
 30
0.0
 40
5.0
  1
C
 41
0.8
 72
     1
 11
20.30061034574891
 21
114.031914925517
 31
0.0
100
AcDbText
 73
     2
  0
TEXT
  5
29B8D
330
1F
100
AcDbEntity
  8
0
100
AcDbText
 10
18.20537225051081
 20
42.28191492551809
 30
0.0
 40
5.0
  1
D
 41
0.8
 72
     1
 11
20.30061034574891
 21
44.78191492551809
 31
0.0
100
AcDbText
 73
     2
  0
TEXT
  5
29B8E
330
1F
100
AcDbEntity
  8
0
100
AcDbText
 10
408.0524664877939
 20
250.0319149255158
 30
0.0
 40
5.0
  1
A
 41
0.8
 72
     1
 11
409.7667522020797
 21
252.5319149255158
 31
0.0
100
AcDbText
 73
     2
  0
TEXT
  5
29B8F
330
1F
100
AcDbEntity
  8
0
100
AcDbText
 10
407.6715141068421
 20
180.7819149255158
 30
0.0
 40
5.0
  1
B
 41
0.8
 72
     1
 11
409.7667522020802
 21
183.2819149255158
 31
0.0
100
AcDbText
 73
     2
  0
TEXT
  5
29B90
330
1F
100
AcDbEntity
  8
0
100
AcDbText
 10
407.7667522020797
 20
111.5319149255158
 30
0.0
 40
5.0
  1
C
 41
0.8
 72
     1
 11
409.7667522020797
 21
114.0319149255158
 31
0.0
100
AcDbText
 73
     2
  0
TEXT
  5
29B91
330
1F
100
AcDbEntity
  8
0
100
AcDbText
 10
407.6715141068416
 20
42.28191492551693
 30
0.0
 40
5.0
  1
D
 41
0.8
 72
     1
 11
409.7667522020797
 21
44.78191492551693
 31
0.0
100
AcDbText
 73
     2
  0
LINE
  5
2A50A
330
1F
100
AcDbEntity
  8
一点鎖線
100
AcDbLine
 10
148.3996022601579
 20
262.4188871493507
 30
0.0
 11
148.3996022601579
 21
162.8194987371603
 31
0.0
  0
LINE
  5
2A50B
330
1F
100
AcDbEntity
  8
一点鎖線
100
AcDbLine
 10
148.3996022601579
 20
163.3690959985905
 30
0.0
 11
148.3996022601579
 21
24.5116527379848
 31
0.0
  0
LINE
  5
2A510
330
1F
100
AcDbEntity
  8
一点鎖線
100
AcDbLine
 10
89.62344795645369
 20
211.575742854445
 30
0.0
 11
207.5234256976764
 21
211.575742854445
 31
0.0
  0
LINE
  5
2A703
330
1F
100
AcDbEntity
  8
実線
100
AcDbLine
 10
110.850765050942
 20
88.52910938902235
 30
0.0
 11
110.850765050942
 21
88.52910938902235
 31
0.0
  0
LINE
  5
2A704
330
1F
100
AcDbEntity
  8
実線
100
AcDbLine
 10
110.850765050942
 20
88.52910938902235
 30
0.0
 11
111.8937883067536
 21
88.52910938902235
 31
0.0
  0
LINE
  5
2A705
330
1F
100
AcDbEntity
  8
実線
100
AcDbLine
 10
111.6851836555912
 20
88.52910938902235
 30
0.0
 11
111.6851836555912
 21
88.52910938902235
 31
0.0
  0
LINE
  5
2A706
330
1F
100
AcDbEntity
  8
実線
100
AcDbLine
 10
185.1140208647244
 20
88.52910938902235
 30
0.0
 11
185.1140208647244
 21
88.52910938902235
 31
0.0
  0
LINE
  5
2A707
330
1F
100
AcDbEntity
  8
実線
100
AcDbLine
 10
185.9484394693735
 20
88.52910938902235
 30
0.0
 11
185.9484394693735
 21
88.52910938902235
 31
0.0
  0
LINE
  5
2A708
330
1F
100
AcDbEntity
  8
実線
100
AcDbLine
 10
185.9484394693735
 20
88.52910938902235
 30
0.0
 11
184.9054162135621
 21
88.52910938902235
 31
0.0
  0
LINE
  5
2A70D
330
1F
100
AcDbEntity
  8
実線
100
AcDbLine
 10
108.2432069114132
 20
89.57213264483391
 30
0.0
 11
108.2432069114132
 21
89.57213264483391
 31
0.0
  0
LINE
  5
2A70F
330
1F
100
AcDbEntity
  8
実線
100
AcDbLine
 10
188.5559976089025
 20
89.57213264483391
 30
0.0
 11
188.5559976089024
 21
89.57213264483391
 31
0.0
  0
LINE
  5
2A71B
330
1F
100
AcDbEntity
  8
実線
100
AcDbLine
 10
110.850765050942
 20
88.52910938902235
 30
0.0
 11
187.5611029747851
 21
88.52910938902235
 31
0.0
  0
LINE
  5
2A71C
330
1F
100
AcDbEntity
  8
実線
100
AcDbLine
 10
109.2432069114132
 20
88.52910938902235
 30
0.0
 11
111.8937883067536
 21
88.52910938902235
 31
0.0
  0
LINE
  5
2A720
330
1F
100
AcDbEntity
  8
実線
100
AcDbLine
 10
108.2432069114132
 20
89.57213264483391
 30
0.0
 11
108.2432069114132
 21
89.57213264483391
 31
0.0
  0
LINE
  5
2A721
330
1F
100
AcDbEntity
  8
実線
100
AcDbLine
 10
188.5559976089025
 20
89.57213264483391
 30
0.0
 11
188.5559976089024
 21
89.57213264483391
 31
0.0
  0
LINE
  5
2A731
330
1F
100
AcDbEntity
  8
実線
100
AcDbLine
 10
125.3184581711887
 20
31.62610357109597
 30
0.0
 11
148.3996022601579
 21
31.62610357109597
 31
0.0
  0
LINE
  5
2A732
330
1F
100
AcDbEntity
  8
実線
100
AcDbLine
 10
116.4492146633323
 20
83.54548341593758
 30
0.0
 11
116.4492146633323
 21
66.0726151989236
 31
0.0
  0
LINE
  5
2A733
330
1F
100
AcDbEntity
  8
実線
100
AcDbLine
 10
122.6209918743633
 20
33.31922729948614
 30
0.0
 11
117.2665847391068
 21
44.41049922251742
 31
0.0
  0
ARC
  5
2A734
330
1F
100
AcDbEntity
  8
実線
100
AcDbCircle
 10
113.4538658261299
 20
66.0726151989236
 30
0.0
 40
2.995348837202399
100
AcDbArc
 50
270.0
 51
0.0
  0
ARC
  5
2A735
330
1F
100
AcDbEntity
  8
実線
100
AcDbCircle
 10
125.3184581711887
 20
34.62145240829838
 30
0.0
 40
2.995348837202399
100
AcDbArc
 50
205.7693276243383
 51
270.0
  0
LINE
  5
2A736
330
1F
100
AcDbEntity
  8
実線
100
AcDbLine
 10
119.0343208531545
 20
44.10672372610597
 30
0.0
 11
134.9205324927471
 21
44.10672372610597
 31
0.0
  0
ARC
  5
2A737
330
1F
100
AcDbEntity
  8
実線
100
AcDbCircle
 10
119.0343208531545
 20
47.10207256330838
 30
0.0
 40
2.995348837202399
100
AcDbArc
 50
221.8103148957791
 51
270.0
  0
LINE
  5
2A738
330
1F
100
AcDbEntity
  8
実線
100
AcDbLine
 10
139.9127805547512
 20
39.114475664102
 30
0.0
 11
139.9127805547512
 21
37.47701829976469
 31
0.0
  0
LINE
  5
2A739
330
1F
100
AcDbEntity
  8
実線
100
AcDbLine
 10
112.455416213729
 20
86.54083225314002
 30
0.0
 11
112.455416213729
 21
86.54083225314002
 31
0.0
  0
LINE
  5
2A73A
330
1F
100
AcDbEntity
  8
実線
100
AcDbLine
 10
112.455416213729
 20
86.54083225314002
 30
0.0
 11
113.4538658261299
 21
86.54083225314002
 31
0.0
  0
ARC
  5
2A73B
330
1F
100
AcDbEntity
  8
実線
100
AcDbCircle
 10
113.4538658261299
 20
83.54548341593758
 30
0.0
 40
2.995348837202399
100
AcDbArc
 50
0.0
 51
90.0
  0
LINE
  5
2A73C
330
1F
100
AcDbEntity
  8
実線
100
AcDbLine
 10
113.2541759036497
 20
86.54083225314002
 30
0.0
 11
113.2541759036497
 21
86.54083225314002
 31
0.0
  0
ARC
  5
2A73D
330
1F
100
AcDbEntity
  8
実線
100
AcDbCircle
 10
134.9205324927471
 20
39.114475664102
 30
0.0
 40
4.992248062004
100
AcDbArc
 50
0.0
 51
90.0
  0
LINE
  5
2A73E
330
1F
100
AcDbEntity
  8
実線
100
AcDbLine
 10
171.4807463491271
 20
31.62610357109597
 30
0.0
 11
148.3996022601579
 21
31.62610357109597
 31
0.0
  0
LINE
  5
2A73F
330
1F
100
AcDbEntity
  8
実線
100
AcDbLine
 10
177.7648836671611
 20
44.10672372610597
 30
0.0
 11
161.8786720275686
 21
44.10672372610597
 31
0.0
  0
LINE
  5
2A740
330
1F
100
AcDbEntity
  8
実線
100
AcDbLine
 10
174.1782126459525
 20
33.31922729948614
 30
0.0
 11
179.532619781209
 21
44.41049922251742
 31
0.0
  0
ARC
  5
2A741
330
1F
100
AcDbEntity
  8
実線
100
AcDbCircle
 10
171.4807463491271
 20
34.62145240829838
 30
0.0
 40
2.995348837202399
100
AcDbArc
 50
270.0
 51
334.2306723756617
  0
ARC
  5
2A742
330
1F
100
AcDbEntity
  8
実線
100
AcDbCircle
 10
177.7648836671611
 20
47.10207256330838
 30
0.0
 40
2.995348837202399
100
AcDbArc
 50
270.0
 51
318.1896851042209
  0
LINE
  5
2A743
330
1F
100
AcDbEntity
  8
実線
100
AcDbLine
 10
156.8864239655647
 20
39.114475664102
 30
0.0
 11
156.8864239655647
 21
37.47701829976469
 31
0.0
  0
ARC
  5
2A744
330
1F
100
AcDbEntity
  8
実線
100
AcDbCircle
 10
161.8786720275686
 20
39.114475664102
 30
0.0
 40
4.992248062004
100
AcDbArc
 50
90.0
 51
180.0
  0
LINE
  5
2A745
330
1F
100
AcDbEntity
  8
実線
100
AcDbLine
 10
183.545028616666
 20
86.54083225314002
 30
0.0
 11
183.545028616666
 21
86.54083225314002
 31
0.0
  0
LINE
  5
2A746
330
1F
100
AcDbEntity
  8
実線
100
AcDbLine
 10
184.3437883065867
 20
86.54083225314002
 30
0.0
 11
184.3437883065867
 21
86.54083225314002
 31
0.0
  0
LINE
  5
2A747
330
1F
100
AcDbEntity
  8
実線
100
AcDbLine
 10
180.3499898569835
 20
83.54548341593758
 30
0.0
 11
180.3499898569835
 21
66.0726151989236
 31
0.0
  0
ARC
  5
2A748
330
1F
100
AcDbEntity
  8
実線
100
AcDbCircle
 10
183.3453386941859
 20
83.54548341593758
 30
0.0
 40
2.995348837202399
100
AcDbArc
 50
90.0
 51
180.0
  0
LINE
  5
2A749
330
1F
100
AcDbEntity
  8
実線
100
AcDbLine
 10
184.3437883065867
 20
86.54083225314002
 30
0.0
 11
183.3453386941859
 21
86.54083225314002
 31
0.0
  0
ARC
  5
2A74A
330
1F
100
AcDbEntity
  8
実線
100
AcDbCircle
 10
142.9081293919534
 20
37.47701829976469
 30
0.0
 40
2.995348837202399
100
AcDbArc
 50
180.0
 51
242.5255683737241
  0
ARC
  5
2A74B
330
1F
100
AcDbEntity
  8
実線
100
AcDbCircle
 10
153.8910751283623
 20
37.47701829976469
 30
0.0
 40
2.995348837202399
100
AcDbArc
 50
297.4744316262759
 51
0.0
  0
LINE
  5
2A74C
330
1F
100
AcDbEntity
  8
実線
100
AcDbLine
 10
110.9577417951279
 20
86.54083225314002
 30
0.0
 11
185.8414627251878
 21
86.54083225314002
 31
0.0
  0
LINE
  5
2A74D
330
1F
100
AcDbEntity
  8
実線
100
AcDbLine
 10
186.8399123375885
 20
87.738971788021
 30
0.0
 11
186.8399123375885
 21
87.53928186554079
 31
0.0
  0
LINE
  5
2A74E
330
1F
100
AcDbEntity
  8
実線
100
AcDbLine
 10
109.9592921827271
 20
87.53928186554079
 30
0.0
 11
109.9592921827271
 21
87.53928186554079
 31
0.0
  0
LINE
  5
2A74F
330
1F
100
AcDbEntity
  8
実線
100
AcDbLine
 10
186.8399123375885
 20
87.53928186554079
 30
0.0
 11
186.8399123375885
 21
87.53928186554079
 31
0.0
  0
ARC
  5
2A750
330
1F
100
AcDbEntity
  8
実線
100
AcDbCircle
 10
185.8414627251878
 20
87.53928186554079
 30
0.0
 40
0.9984496124008
100
AcDbArc
 50
270.0
 51
0.0
  0
ARC
  5
2A751
330
1F
100
AcDbEntity
  8
実線
100
AcDbCircle
 10
187.8383619499894
 20
87.53928186554079
 30
0.0
 40
0.9984496124008
100
AcDbArc
 50
90.0
 51
180.0
  0
ARC
  5
2A752
330
1F
100
AcDbEntity
  8
実線
100
AcDbCircle
 10
110.9577417951279
 20
87.53928186554079
 30
0.0
 40
0.9984496124008
100
AcDbArc
 50
180.0
 51
270.0
  0
ARC
  5
2A753
330
1F
100
AcDbEntity
  8
実線
100
AcDbCircle
 10
108.9608425703263
 20
87.53928186554079
 30
0.0
 40
0.9984496124008
100
AcDbArc
 50
0.0
 51
90.0
  0
LINE
  5
2A754
330
1F
100
AcDbEntity
  8
実線
100
AcDbLine
 10
157.7850286167254
 20
57.5857934935169
 30
0.0
 11
164.774175903531
 21
54.59044465631442
 31
0.0
  0
LINE
  5
2A755
330
1F
100
AcDbEntity
  8
実線
100
AcDbLine
 10
157.7850286167254
 20
51.595095819112
 30
0.0
 11
164.774175903531
 21
54.59044465631442
 31
0.0
  0
LINE
  5
2A756
330
1F
100
AcDbEntity
  8
実線
100
AcDbLine
 10
130.8268890819038
 20
51.59509581911208
 30
0.0
 11
132.8237883067054
 21
53.59199504391369
 31
0.0
  0
LINE
  5
2A757
330
1F
100
AcDbEntity
  8
実線
100
AcDbLine
 10
148.7989821051181
 20
51.595095819112
 30
0.0
 11
150.7958813299198
 21
53.59199504391361
 31
0.0
  0
LINE
  5
2A758
330
1F
100
AcDbEntity
  8
実線
100
AcDbLine
 10
157.7850286167254
 20
53.59199504391361
 30
0.0
 11
157.7850286167254
 21
51.595095819112
 31
0.0
  0
LINE
  5
2A759
330
1F
100
AcDbEntity
  8
実線
100
AcDbLine
 10
130.8268890819038
 20
57.5857934935169
 30
0.0
 11
148.7989821051181
 21
57.58579349351677
 31
0.0
  0
LINE
  5
2A75A
330
1F
100
AcDbEntity
  8
実線
100
AcDbLine
 10
130.8268890819038
 20
55.58889426871515
 30
0.0
 11
157.7850286167254
 21
55.58889426871515
 31
0.0
  0
LINE
  5
2A75B
330
1F
100
AcDbEntity
  8
実線
100
AcDbLine
 10
130.8268890819038
 20
53.59199504391369
 30
0.0
 11
157.7850286167254
 21
53.59199504391361
 31
0.0
  0
LINE
  5
2A75C
330
1F
100
AcDbEntity
  8
実線
100
AcDbLine
 10
157.7850286167254
 20
55.58889426871515
 30
0.0
 11
157.7850286167254
 21
57.5857934935169
 31
0.0
  0
LINE
  5
2A75D
330
1F
100
AcDbEntity
  8
実線
100
AcDbLine
 10
148.7989821051181
 20
57.58579349351677
 30
0.0
 11
150.7958813299198
 21
55.58889426871515
 31
0.0
  0
LINE
  5
2A75E
330
1F
100
AcDbEntity
  8
実線
100
AcDbLine
 10
130.8268890819038
 20
57.5857934935169
 30
0.0
 11
132.8237883067054
 21
55.58889426871529
 31
0.0
  0
LINE
  5
2A75F
330
1F
100
AcDbEntity
  8
実線
100
AcDbLine
 10
130.8268890819038
 20
53.59199504391369
 30
0.0
 11
130.8268890819038
 21
55.58889426871515
 31
0.0
  0
LINE
  5
2A760
330
1F
100
AcDbEntity
  8
実線
100
AcDbLine
 10
130.8268890819038
 20
51.59509581911208
 30
0.0
 11
148.7989821051181
 21
51.595095819112
 31
0.0
  0
LINE
  5
2A761
330
1F
100
AcDbEntity
  8
実線
100
AcDbLine
 10
112.455416213729
 20
86.54083225314002
 30
0.0
 11
184.3437883065867
 21
86.54083225314002
 31
0.0
  0
LINE
  5
2A762
330
1F
100
AcDbEntity
  8
実線
100
AcDbLine
 10
112.455416213729
 20
63.0772663617212
 30
0.0
 11
113.4538658261299
 21
63.0772663617212
 31
0.0
  0
LINE
  5
2A763
330
1F
100
AcDbEntity
  8
実線
100
AcDbLine
 10
112.455416213729
 20
63.07726636172114
 30
0.0
 11
113.4538658261299
 21
63.07726636172114
 31
0.0
  0
LINE
  5
2A764
330
1F
100
AcDbEntity
  8
実線
100
AcDbLine
 10
116.4492146633323
 20
83.54548341593758
 30
0.0
 11
116.4492146633323
 21
66.07261519892356
 31
0.0
  0
ARC
  5
2A765
330
1F
100
AcDbEntity
  8
実線
100
AcDbCircle
 10
113.4538658261299
 20
66.07261519892356
 30
0.0
 40
2.995348837202399
100
AcDbArc
 50
270.0
 51
0.0
  0
ARC
  5
2A766
330
1F
100
AcDbEntity
  8
実線
100
AcDbCircle
 10
113.4538658261299
 20
83.54548341593758
 30
0.0
 40
2.995348837202399
100
AcDbArc
 50
0.0
 51
90.0
  0
LINE
  5
2A767
330
1F
100
AcDbEntity
  8
実線
100
AcDbLine
 10
112.455416213729
 20
86.54083225314002
 30
0.0
 11
113.4538658261299
 21
86.54083225314002
 31
0.0
  0
LINE
  5
2A768
330
1F
100
AcDbEntity
  8
実線
100
AcDbLine
 10
80.00580381070323
 20
46.10362295090868
 30
0.0
 11
114.5691184422815
 21
46.10362295090868
 31
0.0
  0
LINE
  5
2A769
330
1F
100
AcDbEntity
  8
実線
100
AcDbLine
 10
80.00580381070323
 20
63.07726636172225
 30
0.0
 11
113.45386582613
 21
63.07726636172225
 31
0.0
  0
LINE
  5
2A76A
330
1F
100
AcDbEntity
  8
実線
100
AcDbLine
 10
65.8996022601579
 20
65.9727702376846
 30
0.0
 11
67.39727667875894
 21
67.47044465628579
 31
0.0
  0
LINE
  5
2A76B
330
1F
100
AcDbEntity
  8
実線
100
AcDbLine
 10
65.8996022601579
 20
43.20811907494638
 30
0.0
 11
67.39727667875894
 21
41.71044465634517
 31
0.0
  0
LINE
  5
2A76C
330
1F
100
AcDbEntity
  8
実線
100
AcDbLine
 10
66.59851698883835
 20
66.67168496636506
 30
0.0
 11
77.01045497350083
 21
66.67168496636506
 31
0.0
  0
LINE
  5
2A76D
330
1F
100
AcDbEntity
  8
実線
100
AcDbLine
 10
66.59851698883835
 20
42.50920434626578
 30
0.0
 11
77.01045497350083
 21
42.50920434626578
 31
0.0
  0
LINE
  5
2A76E
102
{ACAD_REACTORS
330
2A7AD
102
}
330
1F
100
AcDbEntity
  8
実線
100
AcDbLine
 10
65.8996022601579
 20
65.9727702376846
 30
0.0
 11
65.8996022601579
 21
43.20811907494638
 31
0.0
  0
ARC
  5
2A76F
330
1F
100
AcDbEntity
  8
実線
100
AcDbCircle
 10
80.00580381070323
 20
43.10827411370627
 30
0.0
 40
2.995348837202399
100
AcDbArc
 50
90.0
 51
180.0
  0
LINE
  5
2A770
330
1F
100
AcDbEntity
  8
実線
100
AcDbLine
 10
67.39727667875894
 20
41.71044465634517
 30
0.0
 11
77.01045497350083
 21
41.71044465634517
 31
0.0
  0
LINE
  5
2A771
330
1F
100
AcDbEntity
  8
実線
100
AcDbLine
 10
77.01045497350083
 20
41.71044465634517
 30
0.0
 11
77.01045497350083
 21
43.10827411370627
 31
0.0
  0
LINE
  5
2A772
330
1F
100
AcDbEntity
  8
実線
100
AcDbLine
 10
77.01045497350083
 20
67.47044465628579
 30
0.0
 11
77.01045497350083
 21
66.07261519892468
 31
0.0
  0
ARC
  5
2A773
330
1F
100
AcDbEntity
  8
実線
100
AcDbCircle
 10
80.00580381070323
 20
66.07261519892468
 30
0.0
 40
2.995348837202399
100
AcDbArc
 50
180.0
 51
270.0
  0
LINE
  5
2A774
330
1F
100
AcDbEntity
  8
実線
100
AcDbLine
 10
67.39727667875894
 20
67.47044465628579
 30
0.0
 11
77.01045497350083
 21
67.47044465628579
 31
0.0
  0
ARC
  5
2A775
330
1F
100
AcDbEntity
  8
実線
100
AcDbCircle
 10
114.5691184422815
 20
43.10827411370627
 30
0.0
 40
2.995348837202399
100
AcDbArc
 50
25.76932762433827
 51
90.0
  0
ARC
  5
2A776
330
1F
100
AcDbEntity
  8
実線
100
AcDbCircle
 10
113.45386582613
 20
77.55478574153386
 30
0.0
 40
2.995348837202399
100
AcDbArc
 50
309.2604936256448
 51
0.0
  0
ARC
  5
2A777
330
1F
100
AcDbEntity
  8
実線
100
AcDbCircle
 10
113.45386582613
 20
66.07261519892468
 30
0.0
 40
2.995348837202399
100
AcDbArc
 50
270.0
 51
0.0
  0
LINE
  5
2A778
330
1F
100
AcDbEntity
  8
実線
100
AcDbLine
 10
100.4740208649195
 20
63.07726636172225
 30
0.0
 11
115.3494637910059
 21
75.2355567722238
 31
0.0
  0
CIRCLE
  5
2A779
330
1F
100
AcDbEntity
  8
実線
100
AcDbCircle
 10
111.4569666013284
 20
66.57184000512507
 30
0.0
 40
1.248062015501
  0
LINE
  5
2A77A
330
1F
100
AcDbEntity
  8
実線
100
AcDbLine
 10
216.7934007096128
 20
63.07726636172225
 30
0.0
 11
183.345338694186
 21
63.07726636172225
 31
0.0
  0
LINE
  5
2A77B
330
1F
100
AcDbEntity
  8
実線
100
AcDbLine
 10
216.7934007096128
 20
46.10362295090868
 30
0.0
 11
182.2300860780343
 21
46.10362295090868
 31
0.0
  0
ARC
  5
2A77C
330
1F
100
AcDbEntity
  8
実線
100
AcDbCircle
 10
182.2300860780343
 20
43.10827411370627
 30
0.0
 40
2.995348837202399
100
AcDbArc
 50
90.0
 51
154.2306723756617
  0
LINE
  5
2A77D
330
1F
100
AcDbEntity
  8
実線
100
AcDbLine
 10
196.3251836553963
 20
63.07726636172225
 30
0.0
 11
181.4497407293099
 21
75.2355567722238
 31
0.0
  0
ARC
  5
2A77E
330
1F
100
AcDbEntity
  8
実線
100
AcDbCircle
 10
183.345338694186
 20
66.07261519892468
 30
0.0
 40
2.995348837202399
100
AcDbArc
 50
180.0
 51
270.0
  0
ARC
  5
2A77F
330
1F
100
AcDbEntity
  8
実線
100
AcDbCircle
 10
183.345338694186
 20
77.55478574153386
 30
0.0
 40
2.995348837202399
100
AcDbArc
 50
180.0
 51
230.7395063743552
  0
LINE
  5
2A780
330
1F
100
AcDbEntity
  8
実線
100
AcDbLine
 10
230.899602260158
 20
65.99277023771435
 30
0.0
 11
230.8996022601579
 21
43.1881190749168
 31
0.0
  0
ARC
  5
2A781
330
1F
100
AcDbEntity
  8
実線
100
AcDbCircle
 10
216.7934007096128
 20
43.10827411370627
 30
0.0
 40
2.995348837202399
100
AcDbArc
 50
0.0
 51
90.0
  0
LINE
  5
2A782
330
1F
100
AcDbEntity
  8
実線
100
AcDbLine
 10
229.4019278415567
 20
41.69044465631556
 30
0.0
 11
219.7887495468152
 21
41.69044465631556
 31
0.0
  0
LINE
  5
2A783
330
1F
100
AcDbEntity
  8
実線
100
AcDbLine
 10
230.2006875314772
 20
42.48920434623618
 30
0.0
 11
219.7887495468152
 21
42.48920434623618
 31
0.0
  0
LINE
  5
2A784
330
1F
100
AcDbEntity
  8
実線
100
AcDbLine
 10
219.7887495468152
 20
41.71044465634517
 30
0.0
 11
219.7887495468152
 21
43.10827411370627
 31
0.0
  0
LINE
  5
2A785
102
{ACAD_REACTORS
330
2A7AD
102
}
330
1F
100
AcDbEntity
  8
実線
100
AcDbLine
 10
230.8996022601579
 20
43.18811907491677
 30
0.0
 11
229.4019278415567
 21
41.69044465631556
 31
0.0
  0
LINE
  5
2A786
330
1F
100
AcDbEntity
  8
実線
100
AcDbLine
 10
219.7887495468152
 20
67.47044465628579
 30
0.0
 11
219.7887495468152
 21
66.07261519892468
 31
0.0
  0
LINE
  5
2A787
330
1F
100
AcDbEntity
  8
実線
100
AcDbLine
 10
230.8996022601579
 20
65.99277023771437
 30
0.0
 11
229.4019278415567
 21
67.49044465631557
 31
0.0
  0
LINE
  5
2A788
330
1F
100
AcDbEntity
  8
実線
100
AcDbLine
 10
230.2006875314772
 20
66.69168496639485
 30
0.0
 11
219.7887495468152
 21
66.69168496639485
 31
0.0
  0
ARC
  5
2A789
330
1F
100
AcDbEntity
  8
実線
100
AcDbCircle
 10
216.7934007096128
 20
66.07261519892468
 30
0.0
 40
2.995348837202399
100
AcDbArc
 50
270.0
 51
0.0
  0
LINE
  5
2A78A
330
1F
100
AcDbEntity
  8
実線
100
AcDbLine
 10
229.4019278415567
 20
67.49044465631557
 30
0.0
 11
219.7887495468152
 21
67.49044465631557
 31
0.0
  0
LINE
  5
2A78B
102
{ACAD_REACTORS
330
2ACCD
102
}
330
1F
100
AcDbEntity
  8
一点鎖線
 48
0.5
100
AcDbLine
 10
238.0597761859413
 20
54.59044465631556
 30
0.0
 11
58.3589009072951
 21
54.59044465631542
 31
0.0
  0
LINE
  5
2A78C
330
1F
100
AcDbEntity
  8
実線
100
AcDbLine
 10
229.4019278415567
 20
67.49044465631557
 30
0.0
 11
229.4019278415567
 21
41.69044465631556
 31
0.0
  0
LINE
  5
2A78D
330
1F
100
AcDbEntity
  8
実線
100
AcDbLine
 10
219.7887495468152
 20
41.69044465631556
 30
0.0
 11
219.7887495468153
 21
67.49044465631556
 31
0.0
  0
LINE
  5
2A78E
330
1F
100
AcDbEntity
  8
実線
100
AcDbLine
 10
67.39727667875894
 20
67.47044465628579
 30
0.0
 11
67.39727667875894
 21
41.71044465634517
 31
0.0
  0
LINE
  5
2A78F
330
1F
100
AcDbEntity
  8
実線
100
AcDbLine
 10
77.01045497350083
 20
42.50920434626578
 30
0.0
 11
77.01045497350083
 21
66.07261519892468
 31
0.0
  0
ARC
  5
2A790
330
1F
100
AcDbEntity
  8
実線
100
AcDbCircle
 10
113.45386582613
 20
54.59044465631547
 30
0.0
 40
8.486821705406798
100
AcDbArc
 50
270.0
 51
90.0
  0
ARC
  5
2A791
330
1F
100
AcDbEntity
  8
実線
100
AcDbCircle
 10
183.345338694186
 20
54.59044465631553
 30
0.0
 40
8.486821705406857
100
AcDbArc
 50
90.0
 51
270.0
  0
LINE
  5
2A792
102
{ACAD_REACTORS
330
2A7D9
330
2ACCD
102
}
330
1F
100
AcDbEntity
  8
実線
100
AcDbLine
 10
125.3184581711887
 20
31.62610357109546
 30
0.0
 11
148.3996022601579
 21
31.62610357109597
 31
0.0
  0
LINE
  5
2A793
330
1F
100
AcDbEntity
  8
実線
100
AcDbLine
 10
122.6209918743633
 20
33.31922729948559
 30
0.0
 11
117.050719801891
 21
44.85764802103472
 31
0.0
  0
ARC
  5
2A794
102
{ACAD_REACTORS
330
2A7D9
102
}
330
1F
100
AcDbEntity
  8
実線
100
AcDbCircle
 10
125.3184581711887
 20
34.62145240829787
 30
0.0
 40
2.995348837202399
100
AcDbArc
 50
205.7693276243447
 51
270.0
  0
LINE
  5
2A795
330
1F
100
AcDbEntity
  8
実線
100
AcDbLine
 10
119.0343208531542
 20
44.10672372610537
 30
0.0
 11
145.3543356204128
 21
44.10672372610591
 31
0.0
  0
ARC
  5
2A796
330
1F
100
AcDbEntity
  8
実線
100
AcDbCircle
 10
119.0343208531542
 20
47.10207256330832
 30
0.0
 40
2.995348837202921
100
AcDbArc
 50
228.5300570480784
 51
270.0
  0
LINE
  5
2A797
330
1F
100
AcDbEntity
  8
実線
100
AcDbLine
 10
139.912780554751
 20
39.1144756641018
 30
0.0
 11
139.912780554751
 21
37.47701829976449
 31
0.0
  0
ARC
  5
2A798
330
1F
100
AcDbEntity
  8
実線
100
AcDbCircle
 10
134.920532492747
 20
39.11447566410169
 30
0.0
 40
4.992248062004
100
AcDbArc
 50
0.0
 51
90.0
  0
ARC
  5
2A799
330
1F
100
AcDbEntity
  8
実線
100
AcDbCircle
 10
142.9081293919534
 20
37.47701829976461
 30
0.0
 40
2.995348837202399
100
AcDbArc
 50
180.0
 51
242.5255683737315
  0
LINE
  5
2A79A
330
1F
100
AcDbEntity
  8
実線
100
AcDbLine
 10
145.3543356204128
 20
44.10672372610591
 30
0.0
 11
145.3543356204131
 21
31.96392859437402
 31
0.0
  0
LINE
  5
2A79B
330
1F
100
AcDbEntity
  8
実線
100
AcDbLine
 10
145.3543356204131
 20
31.96392859437402
 30
0.0
 11
141.5262170087128
 21
34.81949448584024
 31
0.0
  0
LINE
  5
2A79C
330
1F
100
AcDbEntity
  8
実線
100
AcDbLine
 10
171.4807463491271
 20
31.62610357109546
 30
0.0
 11
148.3996022601579
 21
31.62610357109597
 31
0.0
  0
LINE
  5
2A79D
330
1F
100
AcDbEntity
  8
実線
100
AcDbLine
 10
174.1782126459525
 20
33.31922729948559
 30
0.0
 11
179.7484847184254
 21
44.85764802103628
 31
0.0
  0
ARC
  5
2A79E
330
1F
100
AcDbEntity
  8
実線
100
AcDbCircle
 10
171.4807463491271
 20
34.62145240829787
 30
0.0
 40
2.995348837202399
100
AcDbArc
 50
270.0
 51
334.2306723756554
  0
LINE
  5
2A79F
330
1F
100
AcDbEntity
  8
実線
100
AcDbLine
 10
177.7648836671616
 20
44.10672372610537
 30
0.0
 11
151.4448688999029
 21
44.10672372610591
 31
0.0
  0
ARC
  5
2A7A0
330
1F
100
AcDbEntity
  8
実線
100
AcDbCircle
 10
177.7648836671616
 20
47.10207256330832
 30
0.0
 40
2.995348837202921
100
AcDbArc
 50
270.0
 51
311.4699429519216
  0
LINE
  5
2A7A1
330
1F
100
AcDbEntity
  8
実線
100
AcDbLine
 10
156.8864239655648
 20
39.1144756641018
 30
0.0
 11
156.8864239655648
 21
37.47701829976449
 31
0.0
  0
ARC
  5
2A7A2
330
1F
100
AcDbEntity
  8
実線
100
AcDbCircle
 10
161.8786720275689
 20
39.11447566410169
 30
0.0
 40
4.992248062004
100
AcDbArc
 50
90.0
 51
180.0
  0
ARC
  5
2A7A3
330
1F
100
AcDbEntity
  8
実線
100
AcDbCircle
 10
153.8910751283624
 20
37.47701829976461
 30
0.0
 40
2.995348837202399
100
AcDbArc
 50
297.4744316262686
 51
0.0
  0
LINE
  5
2A7A4
330
1F
100
AcDbEntity
  8
実線
100
AcDbLine
 10
151.4448688999029
 20
44.10672372610591
 30
0.0
 11
151.4448688999026
 21
31.96392859437402
 31
0.0
  0
LINE
  5
2A7A5
330
1F
100
AcDbEntity
  8
実線
100
AcDbLine
 10
151.4448688999026
 20
31.96392859437402
 30
0.0
 11
155.272987511603
 21
34.81949448584024
 31
0.0
  0
MTEXT
  5
2A7A6
330
1F
100
AcDbEntity
  8
文字
370
     5
100
AcDbMText
 10
132.0470955662319
 20
79.89974868984994
 30
0.0
 40
8.721892009131526
 41
33.56405486789407
 46
0.0
 71
     1
 72
     5
  1
13{\Fromans,bigfont|c128; }mm
  7
ｽﾀｲﾙ2
 73
     1
 44
1.0
  0
TEXT
  5
2A7A7
330
1F
100
AcDbEntity
  8
寸法
100
AcDbText
 10
239.9270779272839
 20
83.82756128311788
 30
0.0
 40
3.5
  1
φ26.4～山14　上水
 41
0.9
  7
寸法
100
AcDbText
  0
SOLID
  5
2A7A8
330
1F
100
AcDbEntity
  8
寸法
100
AcDbTrace
 10
227.5465496044965
 20
69.76002519336926
 30
0.0
 11
226.4184470839168
 21
67.49044465631557
 31
0.0
 12
228.2216512640502
 22
69.27147407658374
 32
0.0
 13
228.2216512640502
 23
69.27147407658374
 33
0.0
1001
ACAD
1000
DSTYLE
1002
{
1070
   147
1040
1.0
1070
    77
1070
     0
1002
}
  0
LWPOLYLINE
  5
2A7A9
330
1F
100
AcDbEntity
  8
寸法
100
AcDbPolyline
 90
        3
 70
     0
 43
0.0
 10
227.8841004342733
 20
69.5157496349765
 10
237.3130984845886
 20
82.54515845831312
 10
282.9837551711544
 20
82.54515845831312
1001
ACAD
1000
DSTYLE
1002
{
1070
   147
1040
1.0
1070
    77
1070
     0
1002
}
  0
TEXT
  5
2A7AA
330
1F
100
AcDbEntity
  8
寸法
100
AcDbText
 10
240.0867501726494
 20
78.08508713464252
 30
0.0
 40
3.5
  1
φ25.8～山14　金門
 41
0.9
  7
寸法
100
AcDbText
  0
DIMENSION
  5
2A7AB
102
{ACAD_XDICTIONARY
360
2A7AC
102
}
102
{ACAD_REACTORS
330
2A7AD
102
}
330
1F
100
AcDbEntity
  8
寸法
100
AcDbDimension
280
     0
  2
*D7
 10
230.8996022601579
 20
23.63357206703319
 30
0.0
 11
148.3996022601579
 21
26.38357206703318
 31
0.0
 70
    32
 71
     5
 42
165.0
 73
     0
 74
     0
 75
     0
  3
ｺﾋﾟｰ - ISO-25
100
AcDbAlignedDimension
 13
65.8996022601579
 23
43.20811907494638
 33
0.0
 14
230.8996022601579
 24
43.18811907491677
 34
0.0
100
AcDbRotatedDimension
  0
LINE
  5
2A7B1
330
1F
100
AcDbEntity
  8
実線
100
AcDbLine
 10
79.18017377746713
 20
221.2399224743702
 30
0.0
 11
109.3036449426318
 21
231.7625237128725
 31
0.0
  0
LINE
  5
2A7B2
330
1F
100
AcDbEntity
  8
実線
100
AcDbLine
 10
79.55777422045952
 20
203.4739756248963
 30
0.0
 11
107.4509821613002
 21
195.4757269538494
 31
0.0
  0
LINE
  5
2A7B3
330
1F
100
AcDbEntity
  8
実線
100
AcDbLine
 10
79.18017377746713
 20
221.2399224743702
 30
0.0
 11
98.39960226015776
 21
215.7288400400374
 31
0.0
  0
LINE
  5
2A7B4
330
1F
100
AcDbEntity
  8
実線
100
AcDbLine
 10
65.89960226015773
 20
203.5082699862464
 30
0.0
 11
67.39727667875894
 21
202.0105955676452
 31
0.0
  0
LINE
  5
2A7B5
330
1F
100
AcDbEntity
  8
実線
100
AcDbLine
 10
65.89960226015773
 20
226.2729211489849
 30
0.0
 11
67.39727667875894
 21
227.7705955675859
 31
0.0
  0
LINE
  5
2A7B6
330
1F
100
AcDbEntity
  8
実線
100
AcDbLine
 10
66.59851698883819
 20
202.8093552575659
 30
0.0
 11
77.01045497350083
 21
202.8093552575659
 31
0.0
  0
LINE
  5
2A7B7
330
1F
100
AcDbEntity
  8
実線
100
AcDbLine
 10
66.59851698883819
 20
226.9718358776652
 30
0.0
 11
77.01045497350065
 21
226.9718358776652
 31
0.0
  0
ARC
  5
2A7B8
330
1F
100
AcDbEntity
  8
実線
100
AcDbCircle
 10
79.00735419830232
 20
201.5544328894455
 30
0.0
 40
1.9968992248016
100
AcDbArc
 50
74.00000000000183
 51
166.7950192656061
  0
LINE
  5
2A7B9
330
1F
100
AcDbEntity
  8
実線
100
AcDbLine
 10
67.39727667875894
 20
202.0105955676452
 30
0.0
 11
77.06325488884544
 21
202.0105955676452
 31
0.0
  0
LINE
  5
2A7BA
330
1F
100
AcDbEntity
  8
実線
100
AcDbLine
 10
77.01045497350065
 20
227.7705955675859
 30
0.0
 11
77.01045497350065
 21
202.0105955676452
 31
0.0
  0
ARC
  5
2A7BB
330
1F
100
AcDbEntity
  8
実線
100
AcDbCircle
 10
80.00580381070305
 20
224.1192365775463
 30
0.0
 40
2.995348837202399
100
AcDbArc
 50
180.0
 51
254.0000000000018
  0
LINE
  5
2A7BC
330
1F
100
AcDbEntity
  8
実線
100
AcDbLine
 10
67.39727667875894
 20
227.7705955675859
 30
0.0
 11
77.01045497350065
 21
227.7705955675859
 31
0.0
  0
LINE
  5
2A7BD
330
1F
100
AcDbEntity
  8
実線
100
AcDbLine
 10
217.2414302998562
 20
203.4739756248963
 30
0.0
 11
189.3482223590156
 21
195.4757269538494
 31
0.0
  0
LINE
  5
2A7BE
330
1F
100
AcDbEntity
  8
実線
100
AcDbLine
 10
204.8120053608031
 20
219.1255968935479
 30
0.0
 11
195.8259588491958
 21
216.5488895201304
 31
0.0
  0
LINE
  5
2A7BF
330
1F
100
AcDbEntity
  8
実線
100
AcDbLine
 10
217.6190307428486
 20
221.2399224743702
 30
0.0
 11
187.4955595776839
 21
231.7625237128726
 31
0.0
  0
LINE
  5
2A7C0
330
1F
100
AcDbEntity
  8
実線
100
AcDbLine
 10
217.6190307428486
 20
221.2399224743702
 30
0.0
 11
192.8996022601578
 21
214.1517404183638
 31
0.0
  0
LINE
  5
2A7C1
330
1F
100
AcDbEntity
  8
実線
100
AcDbLine
 10
195.8259588491958
 20
216.5488895201304
 30
0.0
 11
195.8259588491958
 21
214.9908596673553
 31
0.0
  0
LINE
  5
2A7C2
330
1F
100
AcDbEntity
  8
実線
100
AcDbLine
 10
230.8996022601577
 20
226.2729211489849
 30
0.0
 11
230.8996022601577
 21
203.5082699862464
 31
0.0
  0
LINE
  5
2A7C3
330
1F
100
AcDbEntity
  8
実線
100
AcDbLine
 10
219.7887495468151
 20
224.4557428544152
 30
0.0
 11
219.7887495468151
 21
202.0105955676452
 31
0.0
  0
ARC
  5
2A7C5
330
1F
100
AcDbEntity
  8
実線
100
AcDbCircle
 10
217.7918503220134
 20
201.5544328894455
 30
0.0
 40
1.9968992248016
100
AcDbArc
 50
13.20498073439386
 51
105.9999999999981
  0
LINE
  5
2A7C6
330
1F
100
AcDbEntity
  8
実線
100
AcDbLine
 10
230.2006875314772
 20
202.8093552575659
 30
0.0
 11
219.7887495468151
 21
202.8093552575659
 31
0.0
  0
LINE
  5
2A7C7
330
1F
100
AcDbEntity
  8
実線
100
AcDbLine
 10
230.8996022601577
 20
205.3254482808158
 30
0.0
 11
219.7359496314704
 21
205.3254482808158
 31
0.0
  0
LINE
  5
2A7C8
330
1F
100
AcDbEntity
  8
実線
100
AcDbLine
 10
229.4019278415564
 20
202.0105955676452
 30
0.0
 11
219.7887495468151
 21
202.0105955676452
 31
0.0
  0
LINE
  5
2A7C9
330
1F
100
AcDbEntity
  8
実線
100
AcDbLine
 10
230.8996022601577
 20
203.5082699862464
 30
0.0
 11
229.4019278415564
 21
202.0105955676452
 31
0.0
  0
LINE
  5
2A7CA
330
1F
100
AcDbEntity
  8
実線
100
AcDbLine
 10
204.8120053608031
 20
221.1224961183495
 30
0.0
 11
210.8027030352078
 21
219.2853719563842
 31
0.0
  0
LINE
  5
2A7CB
330
1F
100
AcDbEntity
  8
実線
100
AcDbLine
 10
204.8120053608031
 20
221.1224961183495
 30
0.0
 11
204.8120053608031
 21
219.1255968935479
 31
0.0
  0
LINE
  5
2A7CC
330
1F
100
AcDbEntity
  8
実線
100
AcDbLine
 10
230.8996022601577
 20
226.2729211489849
 30
0.0
 11
229.4019278415564
 21
227.7705955675859
 31
0.0
  0
LINE
  5
2A7CD
330
1F
100
AcDbEntity
  8
実線
100
AcDbLine
 10
219.7887495468151
 20
227.7705955675859
 30
0.0
 11
219.7887495468151
 21
224.1192365775463
 31
0.0
  0
LINE
  5
2A7CE
330
1F
100
AcDbEntity
  8
実線
100
AcDbLine
 10
230.8996022601577
 20
224.4557428544152
 30
0.0
 11
219.7887495468151
 21
224.4557428544152
 31
0.0
  0
ARC
  5
2A7CF
330
1F
100
AcDbEntity
  8
実線
100
AcDbCircle
 10
216.7934007096126
 20
224.1192365775463
 30
0.0
 40
2.995348837202399
100
AcDbArc
 50
285.9999999999982
 51
0.0
  0
LINE
  5
2A7D0
330
1F
100
AcDbEntity
  8
実線
100
AcDbLine
 10
230.200687531477
 20
226.9718358776652
 30
0.0
 11
219.7887495468151
 21
226.9718358776652
 31
0.0
  0
LINE
  5
2A7D1
330
1F
100
AcDbEntity
  8
実線
100
AcDbLine
 10
229.4019278415564
 20
227.7705955675859
 30
0.0
 11
219.7887495468151
 21
227.7705955675859
 31
0.0
  0
LINE
  5
2A7D2
330
1F
100
AcDbEntity
  8
一点鎖線
100
AcDbLine
 10
62.60207668725951
 20
214.8905955676156
 30
0.0
 11
80.13968229742118
 21
214.8905955676156
 31
0.0
  0
LINE
  5
2A7D3
330
1F
100
AcDbEntity
  8
一点鎖線
100
AcDbLine
 10
234.1971278330559
 20
214.8905955676156
 30
0.0
 11
216.6595222228945
 21
214.8905955676156
 31
0.0
  0
LINE
  5
2A7D4
330
1F
100
AcDbEntity
  8
実線
100
AcDbLine
 10
229.4019278415564
 20
227.7705955675859
 30
0.0
 11
229.4019278415564
 21
202.0105955676453
 31
0.0
  0
LINE
  5
2A7D5
330
1F
100
AcDbEntity
  8
実線
100
AcDbLine
 10
67.39727667875894
 20
227.7705955675859
 30
0.0
 11
67.39727667875894
 21
202.0105955676452
 31
0.0
  0
LINE
  5
2A7D6
330
1F
100
AcDbEntity
  8
実線
100
AcDbLine
 10
65.89960226015773
 20
226.2729211489849
 30
0.0
 11
65.89960226015773
 21
203.5082699862464
 31
0.0
  0
DIMENSION
  5
2A7D7
102
{ACAD_XDICTIONARY
360
2A7D8
102
}
102
{ACAD_REACTORS
330
2A7D9
102
}
330
1F
100
AcDbEntity
  8
寸法
100
AcDbDimension
280
     0
  2
*D8
 10
39.07384683453734
 20
164.6140873640759
 30
0.0
 11
36.32384683453731
 21
98.12009546758572
 31
0.0
 70
    32
 71
     5
 42
132.9879837929804
 73
     0
 74
     0
 75
     0
  3
ｺﾋﾟｰ - ISO-25
100
AcDbAlignedDimension
 13
125.3184581711887
 23
31.62610357109546
 33
0.0
 14
98.13884644620465
 24
164.6140873640759
 34
0.0000000000000032
 50
90.0
100
AcDbRotatedDimension
  0
TEXT
  5
2AA9D
330
1F
100
AcDbEntity
  8
文字
100
AcDbText
 10
298.1627032852008
 20
143.17450021536
 30
0.0
 40
4.5
  1
表　示　部
 41
0.9
 72
     1
 11
309.7727032852008
 21
145.42450021536
 31
0.0
100
AcDbText
 73
     2
  0
HATCH
  5
2AA9F
330
1F
100
AcDbEntity
  8
実線
100
AcDbHatch
 10
0.0
 20
0.0
 30
0.0
210
0.0
220
0.0
230
1.0
  2
SOLID
 70
     1
 71
     0
 91
       22
 92
        7
 72
     0
 73
     1
 93
        4
 10
305.2376627751594
 20
172.0122646968833
 10
284.2376627751594
 20
172.0122646968833
 10
284.2376627751594
 20
170.9832751708093
 10
305.2376627751594
 20
170.9832751708093
 97
        0
 92
        7
 72
     1
 73
     1
 93
        4
 10
291.7668753082949
 20
185.5339051146944
 42
0.0
 10
291.7668753082949
 20
186.3239820808948
 42
0.0
 10
289.1127097276213
 20
185.0339051146944
 42
0.0
 10
291.2668753082948
 20
185.0339051146944
 42
0.4142135623730951
 97
        0
 92
        7
 72
     1
 73
     1
 93
        2
 10
293.9261776919334
 20
186.5394118988538
 42
0.0
 10
295.5755341418022
 20
186.5394118988538
 42
1.0
 97
        0
 92
        7
 72
     1
 73
     1
 93
        2
 10
296.8937725341425
 20
186.5394118988538
 42
0.0
 10
301.0179220715677
 20
186.5394118988538
 42
1.0
 97
        0
 92
        5
 93
        4
 72
     4
 94
        3
 73
     0
 74
     0
 95
       11
 96
        7
 40
0.1555204288834384
 40
0.1555204288834384
 40
0.1555204288834384
 40
0.1555204288834384
 40
0.5593633922873859
 40
0.5822009405451765
 40
0.8548250476437651
 40
0.8719448745157816
 40
0.8719448745157816
 40
0.8719448745157816
 40
0.8719448745157816
 10
306.7875769432614
 20
185.8747541242676
 10
306.6853971459224
 20
185.9833674478007
 10
306.5835945422278
 20
186.102414454539
 10
306.4550835977392
 20
186.3242540266359
 10
306.405912717528
 20
186.4303496593989
 10
306.3809850546238
 20
186.5333132480478
 10
306.3795789574704
 20
186.5394118988538
 97
        0
 72
     1
 10
306.3795789574704
 20
186.5394118988538
 11
306.2376627751594
 21
186.5394118988538
 72
     1
 10
306.2376627751594
 20
186.5394118988538
 11
306.2376627751594
 21
184.1934104784485
 72
     2
 10
306.2376627751594
 20
185.1240120408943
 40
0.9306015624457725
 50
269.9999999999992
 51
413.7774425556551
 73
     1
 97
        0
 92
        5
 93
        4
 72
     1
 10
306.2376627751594
 20
186.5394118988538
 11
306.0957465928483
 21
186.5394118988538
 72
     4
 94
        3
 73
     0
 74
     0
 95
       11
 96
        7
 40
0.1555204288834384
 40
0.1555204288834384
 40
0.1555204288834384
 40
0.1555204288834384
 40
0.1726402557554549
 40
0.4452643628540436
 40
0.4681019111118343
 40
0.8719448745157816
 40
0.8719448745157816
 40
0.8719448745157816
 40
0.8719448745157816
 10
306.0957465928483
 20
186.5394118988538
 10
306.094340495695
 20
186.5333132480478
 10
306.0694128327907
 20
186.4303496593989
 10
306.0202419525794
 20
186.3242540266359
 10
305.8917310080908
 20
186.102414454539
 10
305.7899284043963
 20
185.9833674478007
 10
305.6877486070573
 20
185.8747541242676
 97
        0
 72
     2
 10
306.2376627751594
 20
185.1240120408943
 40
0.9306015624457677
 50
126.2225574443448
 51
270.0
 73
     1
 72
     1
 10
306.2376627751594
 20
184.1934104784486
 11
306.2376627751594
 21
186.5394118988538
 97
        0
 92
        5
 93
        5
 72
     2
 10
306.2376627751594
 20
187.2932860244333
 40
0.1099999999999994
 50
89.99999999999259
 51
179.9999999999926
 73
     1
 72
     1
 10
306.1276627751594
 20
187.2932860244333
 11
306.1276627751594
 21
186.7740120408941
 72
     4
 94
        3
 73
     0
 74
     0
 95
        8
 96
        4
 40
0.8719448745157816
 40
0.8719448745157816
 40
0.8719448745157816
 40
0.8719448745157816
 40
1.087050667177579
 40
1.087050667177579
 40
1.087050667177579
 40
1.087050667177579
 10
306.1276627751594
 20
186.7740120408943
 10
306.1205382909376
 20
186.695025882906
 10
306.1134138067159
 20
186.6160397249176
 10
306.0957465928483
 20
186.5394118988538
 97
        0
 72
     1
 10
306.0957465928483
 20
186.5394118988538
 11
306.2376627751594
 21
186.5394118988538
 72
     1
 10
306.2376627751594
 20
186.5394118988538
 11
306.2376627751594
 21
187.4032860244333
 97
        0
 92
        5
 93
        5
 72
     2
 10
306.2376627751594
 20
187.2932860244333
 40
0.1099999999999987
 50
359.9999999999926
 51
450.0000000000222
 73
     1
 72
     1
 10
306.2376627751594
 20
187.4032860244333
 11
306.2376627751594
 21
186.5394118988538
 72
     1
 10
306.2376627751594
 20
186.5394118988538
 11
306.3795789574705
 21
186.5394118988538
 72
     4
 94
        3
 73
     0
 74
     0
 95
        8
 96
        4
 40
0.8719448745157816
 40
0.8719448745157816
 40
0.8719448745157816
 40
0.8719448745157816
 40
1.087050667177579
 40
1.087050667177579
 40
1.087050667177579
 40
1.087050667177579
 10
306.3795789574704
 20
186.5394118988538
 10
306.3619117436028
 20
186.6160397249176
 10
306.3547872593812
 20
186.695025882906
 10
306.3476627751594
 20
186.7740120408943
 97
        0
 72
     1
 10
306.3476627751594
 20
186.7740120408942
 11
306.3476627751594
 21
187.2932860244333
 97
        0
 92
        7
 72
     0
 73
     1
 93
        5
 10
317.3017101585939
 20
187.1723315351309
 10
317.3017101585939
 20
186.973413935158
 10
314.5906477618301
 20
186.973413935158
 10
314.5906477618301
 20
186.5394118988538
 10
318.0698899029203
 20
186.5394118988538
 97
        0
 92
        7
 72
     0
 73
     1
 93
        5
 10
318.0698899029203
 20
186.5394118988538
 10
314.5906477618301
 20
186.5394118988538
 10
314.5906477618301
 20
186.1054098625495
 10
317.3017101585939
 20
186.1054098625496
 10
317.301710158594
 20
185.9064922625768
 97
        0
 92
        7
 72
     0
 73
     1
 93
        4
 10
314.2809565524773
 20
186.5394118988538
 10
314.1018946260074
 20
186.5394118988538
 10
314.1018946260075
 20
186.1054098625496
 10
314.2809565524773
 20
186.1054098625496
 97
        0
 92
        7
 72
     0
 73
     1
 93
        4
 10
314.2809565524772
 20
186.973413935158
 10
314.1018946260074
 20
186.973413935158
 10
314.1018946260074
 20
186.5394118988538
 10
314.2809565524772
 20
186.5394118988538
 97
        0
 92
        7
 72
     0
 73
     1
 93
        4
 10
313.7922034166545
 20
186.973413935158
 10
313.6131414901847
 20
186.973413935158
 10
313.6131414901847
 20
186.5394118988538
 10
313.7922034166545
 20
186.5394118988538
 97
        0
 92
        7
 72
     0
 73
     1
 93
        4
 10
313.7922034166545
 20
186.5394118988538
 10
313.6131414901848
 20
186.5394118988538
 10
313.6131414901848
 20
186.1054098625496
 10
313.7922034166545
 20
186.1054098625495
 97
        0
 92
        7
 72
     1
 73
     1
 93
        4
 10
323.6376627751592
 20
183.2994370246406
 42
-0.2015383907678711
 10
322.2764132755596
 20
184.0394118988538
 42
0.0
 10
320.7835671643443
 20
184.0394118988538
 42
0.2880055559027073
 10
323.6376627751592
 20
181.9954780804537
 42
0.0
 97
        0
 92
        7
 72
     1
 73
     1
 93
        4
 10
321.8476879009461
 20
185.0894118988538
 42
0.0
 10
320.5437289567592
 20
185.0894118988538
 42
0.082144771069855
 10
320.7835671643443
 20
184.0394118988538
 42
0.0
 10
322.2764132755596
 20
184.0394118988538
 42
-0.1447392462316549
 97
        0
 92
        7
 72
     1
 73
     1
 93
        7
 10
322.2764132755596
 20
186.5394118988538
 42
0.0
 10
320.7835671643443
 20
186.5394118988538
 42
0.082144771069856
 10
320.5437289567592
 20
185.4894118988538
 42
0.0
 10
320.8989876405646
 20
185.4894118988538
 42
0.0
 10
321.1876627751593
 20
185.9894118988538
 42
0.0
 10
321.4763379097542
 20
185.4894118988538
 42
0.0
 10
321.8476879009461
 20
185.4894118988538
 42
-0.144739246231655
 97
        0
 92
        7
 72
     1
 73
     1
 93
        4
 10
323.6376627751592
 20
188.5833457172539
 42
0.2880055559027072
 10
320.7835671643443
 20
186.5394118988538
 42
0.0
 10
322.2764132755596
 20
186.5394118988538
 42
-0.2015383907678713
 10
323.6376627751592
 20
187.279386773067
 42
0.0
 97
        0
 92
        7
 72
     1
 73
     1
 93
        4
 10
324.0376627751593
 20
188.5833457172539
 42
0.0
 10
324.0376627751593
 20
187.279386773067
 42
-0.2015383907678734
 10
325.3989122747589
 20
186.5394118988538
 42
0.0
 10
326.8917583859744
 20
186.5394118988538
 42
0.2880055559027075
 97
        0
 92
        7
 72
     1
 73
     1
 93
        7
 10
326.8917583859744
 20
186.5394118988538
 42
0.0
 10
325.3989122747589
 20
186.5394118988538
 42
-0.1447392462316545
 10
325.8276376493725
 20
185.4894118988538
 42
0.0
 10
326.1989876405645
 20
185.4894118988538
 42
0.0
 10
326.4876627751594
 20
185.9894118988538
 42
0.0
 10
326.7763379097541
 20
185.4894118988538
 42
0.0
 10
327.1315965935594
 20
185.4894118988538
 42
0.0821447710698563
 97
        0
 92
        7
 72
     1
 73
     1
 93
        4
 10
327.1315965935594
 20
185.0894118988538
 42
0.0
 10
325.8276376493725
 20
185.0894118988538
 42
-0.1447392462316528
 10
325.3989122747589
 20
184.0394118988538
 42
0.0
 10
326.8917583859744
 20
184.0394118988538
 42
0.0821447710698551
 97
        0
 92
        7
 72
     1
 73
     1
 93
        4
 10
326.8917583859744
 20
184.0394118988538
 42
0.0
 10
325.3989122747589
 20
184.0394118988538
 42
-0.2015383907678717
 10
324.0376627751593
 20
183.2994370246406
 42
0.0
 10
324.0376627751593
 20
181.9954780804537
 42
0.2880055559027098
 97
        0
 75
     0
 76
     1
 47
0.0632745196833325
 98
       22
 10
293.9698393116641
 20
171.3113766937509
 10
291.2218713511152
 20
185.4953781223144
 10
294.7424773688421
 20
186.8221352383803
 10
299.4173785969037
 20
187.0528760952911
 10
306.5620070753998
 20
185.7296638649532
 10
306.0044409223883
 20
185.437092723231
 10
306.1995893009907
 20
186.9556770715515
 10
306.297163490292
 20
186.9974721457488
 10
316.7978314207326
 20
186.6535521676192
 10
316.8132877376393
 20
186.4372775929901
 10
314.2166445011899
 20
186.4372775929901
 10
314.1702755504698
 20
186.7462420742232
 10
313.6911319768478
 20
186.7462420742232
 10
313.6911319768478
 20
186.3754838533924
 10
322.8551480634442
 20
183.017383523619
 10
321.4817660873591
 20
184.4554222209625
 10
321.5689655502565
 20
186.0024036059066
 10
321.9831601859169
 20
187.3750769718065
 10
325.3621163057496
 20
187.5058076346936
 10
326.1251042920344
 20
186.2202875755236
 10
326.3649022523823
 20
184.4772101962485
 10
325.8853085821697
 20
183.4967288190101
450
        0
451
        0
460
0.0
461
0.0
452
        1
462
1.0
453
        2
463
0.0
 63
     5
421
      255
463
1.0
 63
    51
421
 16777113
470
LINEAR
1001
ACAD
1010
0.0
1020
0.0
1030
0.0
  0
HATCH
  5
2AAA0
330
1F
100
AcDbEntity
  8
文字
 62
     0
370
     0
100
AcDbHatch
 10
0.0
 20
0.0
 30
0.0
210
0.0
220
0.0
230
1.0
  2
SOLID
 70
     1
 71
     0
 91
       35
 92
        7
 72
     0
 73
     1
 93
        5
 10
289.5548326615567
 20
180.9718196536929
 10
288.7539609106596
 20
181.4342031746598
 10
288.4620294871334
 20
178.532056171229
 10
288.8342018376051
 20
178.1894118988538
 10
289.2956077915449
 20
178.532056171229
 97
        0
 92
        7
 72
     1
 73
     1
 93
        6
 10
291.5620572582699
 20
181.9396125596072
 42
0.1621059674175419
 10
291.2623249925184
 20
182.0394118988538
 42
0.0
 10
289.2679536826918
 20
182.0394118988538
 42
0.3503453397349183
 10
288.7803197479083
 20
181.6499250005545
 42
0.0
 10
289.577951837605
 20
181.1894118988538
 42
0.0
 10
290.7321477773114
 20
181.1894118988538
 42
0.0
 97
        0
 92
        7
 72
     1
 73
     1
 93
        6
 10
291.7595263998427
 20
181.4865842493256
 42
0.1614262479963703
 10
291.692630126546
 20
181.7940439699474
 42
0.0
 10
290.862460156199
 20
181.0436078385601
 42
0.0
 10
290.5970710300154
 20
178.5458278274214
 42
0.0
 10
290.984201837605
 20
178.1894118988538
 42
0.0
 10
291.4456077915449
 20
178.532056171229
 42
0.0
 97
        0
 92
        7
 72
     0
 73
     1
 93
        5
 10
290.4773444905434
 20
178.3965922626542
 10
289.4427455823181
 20
178.3965922626542
 10
288.9617652777431
 20
178.0394118988538
 10
290.8244962164821
 20
178.0394118988538
 10
290.847204502543
 20
178.0560768682901
 97
        0
 92
        7
 72
     0
 73
     1
 93
        6
 10
290.8244962164821
 20
178.0394118988538
 10
288.9617652777432
 20
178.0394118988538
 10
288.9438962064125
 20
178.0261421634033
 10
288.9628946684545
 20
178.0086510354504
 10
289.3350670189263
 20
177.6660067630752
 10
290.3156809634843
 20
177.6660067630752
 97
        0
 92
        7
 72
     0
 73
     1
 93
        5
 10
289.1744991880769
 20
177.5467676264787
 10
288.8023268376051
 20
177.8894118988538
 10
288.3409208836653
 20
177.5467676264787
 10
288.0747959698883
 20
175.0420625556379
 10
288.9406617763128
 20
175.2100359287418
 97
        0
 92
        7
 72
     1
 73
     1
 93
        6
 10
291.3394576451949
 20
177.5329959702862
 42
0.0
 10
290.9523268376052
 20
177.8894118988538
 42
0.0
 10
290.4909208836652
 20
177.5467676264786
 42
0.0
 10
290.2426431407807
 20
175.2100359287419
 42
0.0
 10
290.5185749925183
 20
174.0394118988539
 42
0.3835390513495723
 10
291.0157763998427
 20
174.4865842493256
 42
0.0
 97
        0
 92
        7
 72
     1
 73
     1
 93
        7
 10
290.1127380102001
 20
174.8894118988538
 42
0.0
 10
288.9085768376052
 20
174.8894118988538
 42
0.0
 10
288.9202514919111
 20
175.0060764418426
 42
0.0
 10
288.0530987481345
 20
174.8378534097196
 42
0.0
 10
288.0270022753675
 20
174.592239548382
 42
0.4455681594596862
 10
288.5242036826919
 20
174.0394118988539
 42
0.0
 10
290.3130944594005
 20
174.0394118988539
 42
0.0
 97
        0
 92
        7
 72
     1
 73
     1
 93
        7
 10
295.1127380102001
 20
174.8894118988538
 42
0.0
 10
293.9085768376052
 20
174.8894118988538
 42
0.0
 10
293.9202514919111
 20
175.0060764418426
 42
0.0
 10
293.0530987481345
 20
174.8378534097196
 42
0.0
 10
293.0270022753675
 20
174.592239548382
 42
0.4455681594596862
 10
293.5242036826919
 20
174.0394118988539
 42
0.0
 10
295.3130944594006
 20
174.0394118988539
 42
0.0
 97
        0
 92
        7
 72
     0
 73
     1
 93
        5
 10
294.1744991880769
 20
177.5467676264787
 10
293.8023268376051
 20
177.8894118988539
 10
293.3409208836653
 20
177.5467676264787
 10
293.0747959698883
 20
175.0420625556379
 10
293.9406617763128
 20
175.2100359287418
 97
        0
 92
        7
 72
     1
 73
     1
 93
        6
 10
296.3394576451948
 20
177.5329959702862
 42
0.0
 10
295.9523268376051
 20
177.8894118988538
 42
0.0
 10
295.4909208836653
 20
177.5467676264786
 42
0.0
 10
295.2426431407807
 20
175.2100359287419
 42
0.0
 10
295.5185749925183
 20
174.0394118988539
 42
0.3835390513495723
 10
296.0157763998427
 20
174.4865842493256
 42
0.0
 97
        0
 92
        7
 72
     0
 73
     1
 93
        6
 10
295.8244962164822
 20
178.0394118988538
 10
293.9617652777431
 20
178.0394118988538
 10
293.9438962064126
 20
178.0261421634033
 10
293.9628946684545
 20
178.0086510354504
 10
294.3350670189263
 20
177.6660067630752
 10
295.3156809634844
 20
177.6660067630752
 97
        0
 92
        7
 72
     0
 73
     1
 93
        5
 10
295.4773444905434
 20
178.3965922626542
 10
294.4427455823181
 20
178.3965922626542
 10
293.9617652777431
 20
178.0394118988538
 10
295.8244962164822
 20
178.0394118988538
 10
295.847204502543
 20
178.0560768682901
 97
        0
 92
        7
 72
     0
 73
     1
 93
        5
 10
294.5548326615567
 20
180.971819653693
 10
293.7539609106595
 20
181.4342031746599
 10
293.4620294871333
 20
178.532056171229
 10
293.8342018376051
 20
178.1894118988538
 10
294.295607791545
 20
178.532056171229
 97
        0
 92
        7
 72
     1
 73
     1
 93
        6
 10
296.7595263998427
 20
181.4865842493256
 42
0.1614262479963703
 10
296.6926301265459
 20
181.7940439699474
 42
0.0
 10
295.8624601561989
 20
181.0436078385601
 42
0.0
 10
295.5970710300154
 20
178.5458278274214
 42
0.0
 10
295.984201837605
 20
178.1894118988538
 42
0.0
 10
296.4456077915449
 20
178.532056171229
 42
0.0
 97
        0
 92
        7
 72
     1
 73
     1
 93
        6
 10
296.5620572582699
 20
181.9396125596072
 42
0.162105967417542
 10
296.2623249925183
 20
182.0394118988538
 42
0.0
 10
294.2679536826918
 20
182.0394118988538
 42
0.3503453397349183
 10
293.7803197479082
 20
181.6499250005545
 42
0.0
 10
294.577951837605
 20
181.1894118988538
 42
0.0
 10
295.7321477773113
 20
181.1894118988538
 42
0.0
 97
        0
 92
        7
 72
     0
 73
     1
 93
        5
 10
299.5548326615567
 20
180.971819653693
 10
298.7539609106595
 20
181.4342031746599
 10
298.4620294871334
 20
178.532056171229
 10
298.8342018376051
 20
178.1894118988538
 10
299.2956077915449
 20
178.5320561712291
 97
        0
 92
        7
 72
     1
 73
     1
 93
        6
 10
301.7595263998427
 20
181.4865842493256
 42
0.1614262479963703
 10
301.692630126546
 20
181.7940439699475
 42
0.0
 10
300.862460156199
 20
181.0436078385601
 42
0.0
 10
300.5970710300154
 20
178.5458278274214
 42
0.0
 10
300.984201837605
 20
178.1894118988539
 42
0.0
 10
301.445607791545
 20
178.532056171229
 42
0.0
 97
        0
 92
        7
 72
     1
 73
     1
 93
        6
 10
301.5620572582699
 20
181.9396125596072
 42
0.1621059674175418
 10
301.2623249925184
 20
182.0394118988538
 42
0.0
 10
299.2679536826918
 20
182.0394118988538
 42
0.3503453397349183
 10
298.7803197479083
 20
181.6499250005546
 42
0.0
 10
299.577951837605
 20
181.1894118988538
 42
0.0
 10
300.7321477773114
 20
181.1894118988538
 42
0.0
 97
        0
 92
        7
 72
     0
 73
     1
 93
        6
 10
300.824496216482
 20
178.0394118988538
 10
298.9617652777431
 20
178.0394118988538
 10
298.9438962064125
 20
178.0261421634033
 10
298.9628946684545
 20
178.0086510354504
 10
299.3350670189263
 20
177.6660067630752
 10
300.3156809634844
 20
177.6660067630752
 97
        0
 92
        7
 72
     0
 73
     1
 93
        5
 10
300.4773444905434
 20
178.3965922626542
 10
299.4427455823181
 20
178.3965922626542
 10
298.9617652777431
 20
178.0394118988538
 10
300.824496216482
 20
178.0394118988538
 10
300.847204502543
 20
178.0560768682901
 97
        0
 92
        7
 72
     0
 73
     1
 93
        5
 10
299.1744991880769
 20
177.5467676264787
 10
298.802326837605
 20
177.8894118988539
 10
298.3409208836653
 20
177.5467676264787
 10
298.0747959698884
 20
175.042062555638
 10
298.9406617763128
 20
175.2100359287418
 97
        0
 92
        7
 72
     1
 73
     1
 93
        6
 10
301.3394576451948
 20
177.5329959702863
 42
0.0
 10
300.9523268376051
 20
177.8894118988539
 42
0.0
 10
300.4909208836652
 20
177.5467676264787
 42
0.0
 10
300.2426431407807
 20
175.2100359287419
 42
0.0
 10
300.5185749925183
 20
174.0394118988539
 42
0.3835390513495723
 10
301.0157763998427
 20
174.4865842493257
 42
0.0
 97
        0
 92
        7
 72
     1
 73
     1
 93
        7
 10
300.1127380102001
 20
174.8894118988538
 42
0.0
 10
298.9085768376051
 20
174.8894118988538
 42
0.0
 10
298.9202514919112
 20
175.0060764418426
 42
0.0
 10
298.0530987481345
 20
174.8378534097196
 42
0.0
 10
298.0270022753675
 20
174.5922395483821
 42
0.4455681594596862
 10
298.5242036826919
 20
174.0394118988539
 42
0.0
 10
300.3130944594005
 20
174.0394118988539
 42
0.0
 97
        0
 92
        7
 72
     1
 73
     1
 93
        7
 10
305.1127380102002
 20
174.8894118988538
 42
0.0
 10
303.9085768376052
 20
174.8894118988538
 42
0.0
 10
303.9202514919111
 20
175.0060764418426
 42
0.0
 10
303.0530987481345
 20
174.8378534097196
 42
0.0
 10
303.0270022753675
 20
174.5922395483821
 42
0.4455681594596862
 10
303.5242036826919
 20
174.0394118988539
 42
0.0
 10
305.3130944594006
 20
174.0394118988539
 42
0.0
 97
        0
 92
        7
 72
     0
 73
     1
 93
        5
 10
304.1744991880769
 20
177.5467676264787
 10
303.8023268376051
 20
177.8894118988538
 10
303.3409208836653
 20
177.5467676264787
 10
303.0747959698885
 20
175.042062555638
 10
303.9406617763128
 20
175.2100359287419
 97
        0
 92
        7
 72
     1
 73
     1
 93
        7
 10
306.2376627751594
 20
177.6267144561721
 42
0.0
 10
305.9523268376052
 20
177.8894118988539
 42
0.0
 10
305.4909208836652
 20
177.5467676264787
 42
0.0
 10
305.2426431407807
 20
175.2100359287419
 42
0.0
 10
305.5185749925183
 20
174.0394118988539
 42
0.3835390513495723
 10
306.0157763998427
 20
174.4865842493257
 42
0.0
 10
306.2376627751594
 20
176.5749266052469
 42
0.0
 97
        0
 92
        7
 72
     0
 73
     1
 93
        3
 10
306.3394576451949
 20
177.5329959702862
 10
306.2376627751594
 20
177.6267144561721
 10
306.2376627751594
 20
176.5749266052468
 97
        0
 92
        7
 72
     0
 73
     1
 93
        6
 10
305.824496216482
 20
178.0394118988538
 10
303.9617652777431
 20
178.0394118988538
 10
303.9438962064125
 20
178.0261421634033
 10
303.9628946684545
 20
178.0086510354504
 10
304.3350670189263
 20
177.6660067630752
 10
305.3156809634843
 20
177.6660067630752
 97
        0
 92
        7
 72
     0
 73
     1
 93
        5
 10
305.4773444905434
 20
178.3965922626542
 10
304.4427455823182
 20
178.3965922626542
 10
303.9617652777431
 20
178.0394118988538
 10
305.824496216482
 20
178.0394118988538
 10
305.8472045025431
 20
178.0560768682901
 97
        0
 92
        7
 72
     0
 73
     1
 93
        5
 10
306.2376627751594
 20
181.38277404779
 10
305.862460156199
 20
181.0436078385601
 10
305.5970710300154
 20
178.5458278274215
 10
305.9842018376051
 20
178.1894118988539
 10
306.2376627751594
 20
178.3776343042698
 97
        0
 92
        7
 72
     1
 73
     1
 93
        5
 10
306.7595263998427
 20
181.4865842493256
 42
0.1614262479963703
 10
306.692630126546
 20
181.7940439699475
 42
0.0
 10
306.2376627751594
 20
181.38277404779
 42
0.0
 10
306.2376627751594
 20
178.3776343042698
 42
0.0
 10
306.4456077915449
 20
178.532056171229
 42
0.0
 97
        0
 92
        7
 72
     1
 73
     1
 93
        6
 10
306.2376627751594
 20
182.0394118988538
 42
0.0
 10
304.2679536826918
 20
182.0394118988538
 42
0.3503453397349183
 10
303.7803197479083
 20
181.6499250005546
 42
0.0
 10
304.577951837605
 20
181.1894118988538
 42
0.0
 10
305.7321477773113
 20
181.1894118988538
 42
0.0
 10
306.2376627751594
 20
181.6463746087729
 42
0.0
 97
        0
 92
        7
 72
     0
 73
     1
 93
        5
 10
304.5548326615567
 20
180.971819653693
 10
303.7539609106596
 20
181.4342031746599
 10
303.4620294871333
 20
178.532056171229
 10
303.8342018376051
 20
178.1894118988539
 10
304.295607791545
 20
178.5320561712291
 97
        0
 92
        7
 72
     1
 73
     1
 93
        4
 10
306.5620572582699
 20
181.9396125596072
 42
0.1621059674175418
 10
306.2623249925183
 20
182.0394118988538
 42
0.0
 10
306.2376627751594
 20
182.0394118988538
 42
0.0
 10
306.2376627751594
 20
181.6463746087729
 42
0.0
 97
        0
 75
     0
 76
     1
 47
0.0462895852180626
 98
       35
 10
288.7974238176521
 20
179.4936813691709
 10
289.8627236796942
 20
181.584465372948
 10
291.1410835141446
 20
180.0938142181545
 10
289.9789386192773
 20
178.0998258351811
 10
289.5721863307358
 20
177.9255937177343
 10
288.6812088780689
 20
176.8995615427989
 10
290.5793809734691
 20
176.1058374522077
 10
289.7852463031441
 20
174.4990315524496
 10
294.0464480017949
 20
174.5377498007712
 10
293.8914954991783
 20
175.8348111195424
 10
295.7121902180288
 20
176.2994286938154
 10
295.0730103008036
 20
177.9255937177343
 10
294.9955329242534
 20
178.196621455985
 10
294.2014005044116
 20
179.5130404933316
 10
296.1770477258788
 20
180.4229193288874
 10
295.5378678086536
 20
181.7393383662341
 10
299.2878295458368
 20
180.3689532929455
 10
300.8990605640343
 20
180.4928303226803
 10
300.372312524552
 20
181.6077221847075
 10
299.9695053326231
 20
177.8604448464025
 10
300.000489981891
 20
178.1701360151542
 10
298.6991099573361
 20
176.9003978659585
 10
300.8990605640343
 20
176.2190742024175
 10
299.3498010948552
 20
174.5157664491503
 10
303.749702308251
 20
174.5467357065841
 10
303.6567461099653
 20
175.9713201429482
 10
305.8257120673957
 20
176.5907052916216
 10
306.282785154719
 20
177.4794919165368
 10
305.3751991378744
 20
177.8675065061559
 10
305.2860147490142
 20
178.166383102825
 10
305.962768729587
 20
178.5176936476314
 10
306.3195062850282
 20
178.6592669943039
 10
305.0648665408803
 20
181.8541212601001
 10
303.8836240476921
 20
180.4158942143476
 10
306.3527054095198
 20
181.8733833988861
450
        0
451
        0
460
0.0
461
0.0
452
        1
462
1.0
453
        2
463
0.0
 63
     5
421
      255
463
1.0
 63
    51
421
 16777113
470
LINEAR
1001
ACAD
1010
0.0
1020
0.0
1030
0.0
  0
TEXT
  5
2AAA1
330
1F
100
AcDbEntity
  8
文字
370
    13
100
AcDbText
 10
326.1647989747705
 20
168.2248262684765
 30
0.0
 40
2.299999999999998
  1
L
 41
0.8
  7
ｽﾀｲﾙ1
 72
     1
 11
327.040989450961
 21
169.3748262684765
 31
0.0
100
AcDbText
 73
     2
  0
CIRCLE
  5
2AAA2
330
1F
100
AcDbEntity
  8
実線
100
AcDbCircle
 10
306.2376627751594
 20
184.0394118988538
 30
0.0
 40
29.0
  0
LINE
  5
2AAA3
330
1F
100
AcDbEntity
  8
実線
100
AcDbLine
 10
278.0951682162188
 20
191.0394118988538
 30
0.0
 11
334.3801573341
 21
191.0394118988538
 31
0.0
  0
TEXT
  5
2AAA4
330
1F
100
AcDbEntity
  8
文字
370
    13
100
AcDbText
 10
295.7138698357907
 20
159.1604828710551
 30
0.0
 40
2.299999999999998
  1
型承L　　　　号
 41
0.8
  7
ｽﾀｲﾙ1
 72
     1
 11
303.9412984072192
 21
160.3104828710551
 31
0.0
100
AcDbText
 73
     2
  0
LINE
  5
2AAA5
330
1F
100
AcDbEntity
  8
実線
100
AcDbLine
 10
306.2376627751594
 20
189.0394118988537
 30
0.0
 11
284.2376627751594
 21
189.0394118988537
 31
0.0
  0
LINE
  5
2AAA6
330
1F
100
AcDbEntity
  8
実線
100
AcDbLine
 10
284.2376627751594
 20
189.0394118988537
 30
0.0
 11
284.2376627751594
 21
173.0394118988538
 31
0.0
  0
LINE
  5
2AAA7
330
1F
100
AcDbEntity
  8
実線
100
AcDbLine
 10
284.2376627751594
 20
173.0394118988538
 30
0.0
 11
306.2376627751594
 21
173.0394118988538
 31
0.0
  0
LINE
  5
2AAA8
330
1F
100
AcDbEntity
  8
実線
100
AcDbLine
 10
306.2376627751594
 20
189.0394118988537
 30
0.0
 11
328.2376627751594
 21
189.0394118988537
 31
0.0
  0
LINE
  5
2AAA9
330
1F
100
AcDbEntity
  8
実線
100
AcDbLine
 10
328.2376627751594
 20
189.0394118988537
 30
0.0
 11
328.2376627751594
 21
173.0394118988538
 31
0.0
  0
LINE
  5
2AAAA
330
1F
100
AcDbEntity
  8
実線
100
AcDbLine
 10
328.2376627751594
 20
173.0394118988538
 30
0.0
 11
306.2376627751594
 21
173.0394118988538
 31
0.0
  0
LINE
  5
2AAAB
330
1F
100
AcDbEntity
  8
実線
100
AcDbLine
 10
284.2376627751594
 20
189.0394118988537
 30
0.0
 11
293.0376627751593
 21
189.0394118988537
 31
0.0
  0
LINE
  5
2AAAC
330
1F
100
AcDbEntity
  8
実線
100
AcDbLine
 10
306.2376627751594
 20
173.0394118988538
 30
0.0
 11
284.2376627751594
 21
173.0394118988538
 31
0.0
  0
LINE
  5
2AAAD
330
1F
100
AcDbEntity
  8
実線
100
AcDbLine
 10
284.2376627751594
 20
173.0394118988538
 30
0.0
 11
289.7376627751594
 21
173.0394118988538
 31
0.0
  0
LINE
  5
2AAAE
330
1F
100
AcDbEntity
  8
実線
100
AcDbLine
 10
284.2376627751594
 20
173.0394118988538
 30
0.0
 11
285.7376627751594
 21
173.0394118988538
 31
0.0
  0
LINE
  5
2AAAF
330
1F
100
AcDbEntity
  8
実線
100
AcDbLine
 10
324.2376627751594
 20
173.0394118988538
 30
0.0
 11
306.2376627751594
 21
173.0394118988538
 31
0.0
  0
LINE
  5
2AAB0
330
1F
100
AcDbEntity
  8
実線
370
     9
100
AcDbLine
 10
286.2651241392514
 20
188.0449186830132
 30
0.0
 11
290.7236684373815
 21
188.0449186830132
 31
0.0
  0
LWPOLYLINE
  5
2AAB1
330
1F
100
AcDbEntity
  8
実線
370
     9
100
AcDbPolyline
 90
        8
 70
     1
 43
0.0
 10
286.1103191188981
 20
188.044918683013
 10
291.2668753082948
 20
188.0449186830132
 42
-0.4142135623730951
 10
291.7668753082949
 20
187.544918683013
 10
291.7668753082949
 20
185.5339051146944
 42
-0.4142135623730951
 10
291.2668753082948
 20
185.0339051146944
 10
286.1103191188981
 20
185.0339051146944
 42
-0.4142135623730943
 10
285.6103191188982
 20
185.5339051146944
 10
285.6103191188982
 20
187.544918683013
 42
-0.4142135623730951
  0
LINE
  5
2AAB2
330
1F
100
AcDbEntity
  8
実線
370
     9
100
AcDbLine
 10
285.6103191188982
 20
187.544918683013
 30
0.0
 11
285.6103191188982
 21
186.5394118988538
 31
0.0
  0
LINE
  5
2AAB3
330
1F
100
AcDbEntity
  8
実線
370
     9
100
AcDbLine
 10
285.6103191188982
 20
186.5394118988538
 30
0.0
 11
285.6103191188982
 21
186.9394118988538
 31
0.0
  0
LINE
  5
2AAB4
330
1F
100
AcDbEntity
  8
実線
370
     9
100
AcDbLine
 10
285.6103191188982
 20
186.8394118988538
 30
0.0
 11
285.2724091586012
 21
186.8394118988538
 31
0.0
  0
LINE
  5
2AAB5
330
1F
100
AcDbEntity
  8
実線
370
     9
100
AcDbLine
 10
285.6103191188982
 20
186.2394118988538
 30
0.0
 11
285.2724091586012
 21
186.2394118988538
 31
0.0
  0
LINE
  5
2AAB6
330
1F
100
AcDbEntity
  8
実線
370
     9
100
AcDbLine
 10
285.2724091586012
 20
186.2394118988538
 30
0.0
 11
285.2724091586012
 21
186.8394118988538
 31
0.0
  0
LINE
  5
2AAB7
330
1F
100
AcDbEntity
  8
実線
370
     9
100
AcDbLine
 10
291.7668753082949
 20
186.3239820808948
 30
0.0
 11
289.1127097276211
 21
185.0339051146944
 31
0.0
  0
LINE
  5
2AAB8
330
1F
100
AcDbEntity
  8
実線
100
AcDbLine
 10
284.2376627751594
 20
184.0394118988538
 30
0.0
 11
284.2376627751594
 21
186.5394118988538
 31
0.0
  0
LINE
  5
2AAB9
330
1F
100
AcDbEntity
  8
実線
370
     9
100
AcDbLine
 10
293.9261776919334
 20
186.5394118988538
 30
0.0
 11
301.0179220715677
 21
186.5394118988538
 31
0.0
  0
ARC
  5
2AABA
330
1F
100
AcDbEntity
  8
実線
370
     9
100
AcDbCircle
 10
294.7508559168678
 20
186.5394118988538
 30
0.0
 40
0.8246782249343596
100
AcDbArc
 50
0.0
 51
180.0
  0
ARC
  5
2AABB
330
1F
100
AcDbEntity
  8
実線
370
     9
100
AcDbCircle
 10
298.9558473028551
 20
186.5394118988538
 30
0.0
 40
2.06207476871259
100
AcDbArc
 50
0.0
 51
180.0
  0
ARC
  5
2AABC
330
1F
100
AcDbEntity
  8
実線
370
     9
100
AcDbCircle
 10
296.2346533379723
 20
186.5394118988538
 30
0.0
 40
0.6591191961701952
100
AcDbArc
 50
180.0
 51
0.0
  0
LINE
  5
2AABD
330
1F
100
AcDbEntity
  8
実線
370
     9
100
AcDbLine
 10
306.1510602347809
 20
187.9179415400208
 30
0.0
 11
305.5283708561242
 21
186.8394118988538
 31
0.0
  0
LINE
  5
2AABE
330
1F
100
AcDbEntity
  8
実線
370
     9
100
AcDbLine
 10
305.5283708561242
 20
186.8394118988538
 30
0.0
 11
302.6603125059697
 21
186.8394118988538
 31
0.0
  0
LINE
  5
2AABF
330
1F
100
AcDbEntity
  8
実線
370
     9
100
AcDbLine
 10
302.6603125059697
 20
186.8394118988538
 30
0.0
 11
302.6603125059697
 21
188.3394118988538
 31
0.0
  0
LINE
  5
2AAC0
330
1F
100
AcDbEntity
  8
実線
370
     9
100
AcDbLine
 10
302.6603125059697
 20
188.3394118988538
 30
0.0
 11
302.6603125059697
 21
188.5394118988538
 31
0.0
  0
LINE
  5
2AAC1
330
1F
100
AcDbEntity
  8
実線
370
     9
100
AcDbLine
 10
302.6603125059697
 20
188.5394118988538
 30
0.0
 11
306.2376627751594
 21
188.5394118988538
 31
0.0
  0
LINE
  5
2AAC2
330
1F
100
AcDbEntity
  8
実線
370
     9
100
AcDbLine
 10
306.3242653155378
 20
187.9179415400208
 30
0.0
 11
306.9469546941946
 21
186.8394118988538
 31
0.0
  0
ARC
  5
2AAC3
330
1F
100
AcDbEntity
  8
実線
370
     9
100
AcDbCircle
 10
306.2376627751594
 20
187.8679415400208
 30
0.0
 40
0.1
100
AcDbArc
 50
30.000000000002
 51
149.999999999998
  0
LINE
  5
2AAC4
330
1F
100
AcDbEntity
  8
実線
370
     9
100
AcDbLine
 10
306.9469546941946
 20
186.8394118988538
 30
0.0
 11
309.8150130443489
 21
186.8394118988538
 31
0.0
  0
LINE
  5
2AAC5
330
1F
100
AcDbEntity
  8
実線
370
     9
100
AcDbLine
 10
309.8150130443489
 20
186.8394118988538
 30
0.0
 11
309.8150130443489
 21
188.3394118988538
 31
0.0
  0
LINE
  5
2AAC6
330
1F
100
AcDbEntity
  8
実線
370
     9
100
AcDbLine
 10
309.8150130443489
 20
188.3394118988538
 30
0.0
 11
309.8150130443489
 21
188.5394118988538
 31
0.0
  0
LINE
  5
2AAC7
330
1F
100
AcDbEntity
  8
実線
370
     9
100
AcDbLine
 10
309.8150130443489
 20
188.5394118988538
 30
0.0
 11
306.2376627751594
 21
188.5394118988538
 31
0.0
  0
LINE
  5
2AAC8
330
1F
100
AcDbEntity
  8
実線
370
     9
100
AcDbLine
 10
306.2376627751594
 20
187.4032860244333
 30
0.0
 11
306.2376627751594
 21
187.4032860244333
 31
0.0
  0
LINE
  5
2AAC9
330
1F
100
AcDbEntity
  8
実線
370
     9
100
AcDbLine
 10
306.1276627751594
 20
187.2932860244333
 30
0.0
 11
306.1276627751592
 21
186.7740120408943
 31
0.0
  0
ARC
  5
2AACA
330
1F
100
AcDbEntity
  8
実線
370
     9
100
AcDbCircle
 10
306.2376627751594
 20
187.2932860244333
 30
0.0
 40
0.11
100
AcDbArc
 50
90.0
 51
180.0
  0
LINE
  5
2AACB
330
1F
100
AcDbEntity
  8
実線
370
     9
100
AcDbLine
 10
306.2376627751594
 20
187.4032860244333
 30
0.0
 11
306.2376627751594
 21
187.4032860244333
 31
0.0
  0
ARC
  5
2AACC
330
1F
100
AcDbEntity
  8
実線
370
     9
100
AcDbCircle
 10
306.2376627751594
 20
185.1240120408943
 30
0.0
 40
0.9306015624457703
100
AcDbArc
 50
126.2225574198025
 51
270.0
  0
SPLINE
  5
2AACD
330
1F
100
AcDbEntity
  8
実線
370
     9
100
AcDbSpline
210
0.0
220
0.0
230
1.0
 70
     8
 71
     3
 72
    11
 73
     7
 74
     0
 42
0.000000001
 43
0.0000000001
 40
0.1555204288834384
 40
0.1555204288834384
 40
0.1555204288834384
 40
0.1555204288834384
 40
0.5593633922873859
 40
0.5822009405451765
 40
0.8548250476437651
 40
1.087050667177579
 40
1.087050667177579
 40
1.087050667177579
 40
1.087050667177579
 10
305.6877486070573
 20
185.8747541242676
 30
0.0
 10
305.7899284043963
 20
185.9833674478007
 30
0.0
 10
305.8917310080908
 20
186.102414454539
 30
0.0
 10
306.0202419525794
 20
186.3242540266359
 30
0.0
 10
306.1032502216479
 20
186.5033603349537
 30
0.0
 10
306.1199712679163
 20
186.6887395373208
 30
0.0
 10
306.1276627751594
 20
186.7740120408943
 30
0.0
  0
LINE
  5
2AACE
330
1F
100
AcDbEntity
  8
実線
370
     9
100
AcDbLine
 10
306.2376627751594
 20
187.4032860244333
 30
0.0
 11
306.2376627751594
 21
187.4032860244333
 31
0.0
  0
LINE
  5
2AACF
330
1F
100
AcDbEntity
  8
実線
370
     9
100
AcDbLine
 10
306.3476627751594
 20
187.2932860244333
 30
0.0
 11
306.3476627751594
 21
186.7740120408943
 31
0.0
  0
ARC
  5
2AAD0
330
1F
100
AcDbEntity
  8
実線
370
     9
100
AcDbCircle
 10
306.2376627751594
 20
187.2932860244333
 30
0.0
 40
0.11
100
AcDbArc
 50
359.9999999999984
 51
90.0
  0
LINE
  5
2AAD1
330
1F
100
AcDbEntity
  8
実線
370
     9
100
AcDbLine
 10
306.2376627751594
 20
187.4032860244333
 30
0.0
 11
306.2376627751594
 21
187.4032860244333
 31
0.0
  0
ARC
  5
2AAD2
330
1F
100
AcDbEntity
  8
実線
370
     9
100
AcDbCircle
 10
306.2376627751594
 20
185.1240120408943
 30
0.0
 40
0.9306015624457703
100
AcDbArc
 50
270.0
 51
53.77744258019748
  0
SPLINE
  5
2AAD3
330
1F
100
AcDbEntity
  8
実線
370
     9
100
AcDbSpline
210
0.0
220
0.0
230
1.0
 70
     8
 71
     3
 72
    11
 73
     7
 74
     0
 42
0.000000001
 43
0.0000000001
 40
0.1555204288834384
 40
0.1555204288834384
 40
0.1555204288834384
 40
0.1555204288834384
 40
0.5593633922873859
 40
0.5822009405451765
 40
0.8548250476437651
 40
1.087050667177579
 40
1.087050667177579
 40
1.087050667177579
 40
1.087050667177579
 10
306.7875769432614
 20
185.8747541242676
 30
0.0
 10
306.6853971459224
 20
185.9833674478007
 30
0.0
 10
306.5835945422278
 20
186.102414454539
 30
0.0
 10
306.4550835977392
 20
186.3242540266359
 30
0.0
 10
306.3720753286709
 20
186.5033603349537
 30
0.0
 10
306.3553542824022
 20
186.6887395373208
 30
0.0
 10
306.3476627751594
 20
186.7740120408943
 30
0.0
  0
LINE
  5
2AAD4
330
1F
100
AcDbEntity
  8
実線
370
     9
100
AcDbLine
 10
313.8333017363034
 20
188.2894118988538
 30
0.0
 11
311.7093124088767
 21
186.5394118988538
 31
0.0
  0
LINE
  5
2AAD5
330
1F
100
AcDbEntity
  8
実線
370
     9
100
AcDbLine
 10
318.4970810776217
 20
186.8394118988538
 30
0.0
 11
318.4970810776217
 21
187.7394118988538
 31
0.0
  0
LINE
  5
2AAD6
330
1F
100
AcDbEntity
  8
実線
370
     9
100
AcDbLine
 10
318.4970810776217
 20
187.7394118988538
 30
0.0
 11
313.8333017363034
 21
187.7394118988538
 31
0.0
  0
LINE
  5
2AAD7
330
1F
100
AcDbEntity
  8
実線
370
     9
100
AcDbLine
 10
313.8333017363034
 20
187.7394118988538
 30
0.0
 11
313.8333017363034
 21
188.2894118988538
 31
0.0
  0
LINE
  5
2AAD8
330
1F
100
AcDbEntity
  8
実線
370
     9
100
AcDbLine
 10
313.8333017363034
 20
184.7894118988538
 30
0.0
 11
311.7093124088767
 21
186.5394118988538
 31
0.0
  0
LINE
  5
2AAD9
330
1F
100
AcDbEntity
  8
実線
370
     9
100
AcDbLine
 10
318.4970810776217
 20
186.2394118988538
 30
0.0
 11
318.4970810776217
 21
185.3394118988538
 31
0.0
  0
LINE
  5
2AADA
330
1F
100
AcDbEntity
  8
実線
370
     9
100
AcDbLine
 10
318.4970810776217
 20
185.3394118988538
 30
0.0
 11
313.8333017363034
 21
185.3394118988538
 31
0.0
  0
LINE
  5
2AADB
330
1F
100
AcDbEntity
  8
実線
370
     9
100
AcDbLine
 10
313.8333017363034
 20
185.3394118988538
 30
0.0
 11
313.8333017363034
 21
184.7894118988538
 31
0.0
  0
LINE
  5
2AADC
330
1F
100
AcDbEntity
  8
実線
370
     9
100
AcDbLine
 10
317.3017101585939
 20
185.9064922625766
 30
0.0
 11
318.0698899029203
 21
186.5394118988538
 31
0.0
  0
LINE
  5
2AADD
330
1F
100
AcDbEntity
  8
実線
370
     9
100
AcDbLine
 10
317.3017101585939
 20
186.1054098625495
 30
0.0
 11
317.3017101585939
 21
185.9064922625766
 31
0.0
  0
LINE
  5
2AADE
330
1F
100
AcDbEntity
  8
実線
370
     9
100
AcDbLine
 10
317.3017101585939
 20
187.1723315351309
 30
0.0
 11
318.0698899029203
 21
186.5394118988538
 31
0.0
  0
LINE
  5
2AADF
330
1F
100
AcDbEntity
  8
実線
370
     9
100
AcDbLine
 10
317.3017101585939
 20
186.973413935158
 30
0.0
 11
317.3017101585939
 21
187.1723315351309
 31
0.0
  0
LINE
  5
2AAE0
330
1F
100
AcDbEntity
  8
実線
370
     9
100
AcDbLine
 10
317.3017101585939
 20
186.973413935158
 30
0.0
 11
314.5906477618301
 21
186.973413935158
 31
0.0
  0
LINE
  5
2AAE1
330
1F
100
AcDbEntity
  8
実線
370
     9
100
AcDbLine
 10
314.5906477618301
 20
186.973413935158
 30
0.0
 11
314.5906477618301
 21
186.1054098625495
 31
0.0
  0
LINE
  5
2AAE2
330
1F
100
AcDbEntity
  8
実線
370
     9
100
AcDbLine
 10
314.5906477618301
 20
186.1054098625495
 30
0.0
 11
317.3017101585939
 21
186.1054098625495
 31
0.0
  0
LWPOLYLINE
  5
2AAE3
330
1F
100
AcDbEntity
  8
実線
370
     9
100
AcDbPolyline
 90
        4
 70
     1
 43
0.0
 10
314.2809565524772
 20
186.973413935158
 10
314.1018946260074
 20
186.973413935158
 10
314.1018946260074
 20
186.1054098625495
 10
314.2809565524772
 20
186.1054098625495
  0
LWPOLYLINE
  5
2AAE4
330
1F
100
AcDbEntity
  8
実線
370
     9
100
AcDbPolyline
 90
        4
 70
     1
 43
0.0
 10
313.7922034166545
 20
186.973413935158
 10
313.6131414901847
 20
186.973413935158
 10
313.6131414901847
 20
186.1054098625495
 10
313.7922034166545
 20
186.1054098625495
  0
LINE
  5
2AAE5
330
1F
100
AcDbEntity
  8
実線
370
     0
100
AcDbLine
 10
320.5437289567592
 20
185.0894118988538
 30
0.0
 11
321.8476879009461
 21
185.0894118988538
 31
0.0
  0
LINE
  5
2AAE6
330
1F
100
AcDbEntity
  8
実線
370
     0
100
AcDbLine
 10
325.8276376493725
 20
185.0894118988538
 30
0.0
 11
327.1315965935594
 21
185.0894118988538
 31
0.0
  0
LINE
  5
2AAE7
330
1F
100
AcDbEntity
  8
実線
370
     0
100
AcDbLine
 10
320.5437289567592
 20
185.4894118988538
 30
0.0
 11
320.8989876405644
 21
185.4894118988538
 31
0.0
  0
LINE
  5
2AAE8
330
1F
100
AcDbEntity
  8
実線
370
     0
100
AcDbLine
 10
321.4763379097542
 20
185.4894118988538
 30
0.0
 11
321.8476879009461
 21
185.4894118988538
 31
0.0
  0
LINE
  5
2AAE9
330
1F
100
AcDbEntity
  8
実線
370
     0
100
AcDbLine
 10
325.8276376493725
 20
185.4894118988538
 30
0.0
 11
326.1989876405645
 21
185.4894118988538
 31
0.0
  0
LINE
  5
2AAEA
330
1F
100
AcDbEntity
  8
実線
370
     0
100
AcDbLine
 10
326.7763379097541
 20
185.4894118988538
 30
0.0
 11
327.1315965935594
 21
185.4894118988538
 31
0.0
  0
LINE
  5
2AAEB
330
1F
100
AcDbEntity
  8
実線
370
     0
100
AcDbLine
 10
323.6376627751592
 20
187.279386773067
 30
0.0
 11
323.6376627751592
 21
188.5833457172539
 31
0.0
  0
LINE
  5
2AAEC
330
1F
100
AcDbEntity
  8
実線
370
     0
100
AcDbLine
 10
324.0376627751593
 20
187.279386773067
 30
0.0
 11
324.0376627751593
 21
188.5833457172539
 31
0.0
  0
LINE
  5
2AAED
330
1F
100
AcDbEntity
  8
実線
370
     0
100
AcDbLine
 10
321.1876627751593
 20
185.9894118988538
 30
0.0
 11
320.8989876405646
 21
185.4894118988538
 31
0.0
  0
LINE
  5
2AAEE
330
1F
100
AcDbEntity
  8
実線
370
     0
100
AcDbLine
 10
320.8989876405646
 20
185.4894118988538
 30
0.0
 11
321.1876627751593
 21
185.9894118988538
 31
0.0
  0
LINE
  5
2AAEF
330
1F
100
AcDbEntity
  8
実線
370
     0
100
AcDbLine
 10
321.1876627751593
 20
185.9894118988538
 30
0.0
 11
321.4763379097542
 21
185.4894118988538
 31
0.0
  0
LINE
  5
2AAF0
330
1F
100
AcDbEntity
  8
実線
370
     0
100
AcDbLine
 10
326.4876627751594
 20
185.9894118988538
 30
0.0
 11
326.7763379097541
 21
185.4894118988538
 31
0.0
  0
LINE
  5
2AAF1
330
1F
100
AcDbEntity
  8
実線
370
     0
100
AcDbLine
 10
326.7763379097541
 20
185.4894118988538
 30
0.0
 11
326.4876627751594
 21
185.9894118988538
 31
0.0
  0
LINE
  5
2AAF2
330
1F
100
AcDbEntity
  8
実線
370
     0
100
AcDbLine
 10
326.4876627751594
 20
185.9894118988538
 30
0.0
 11
326.1989876405645
 21
185.4894118988538
 31
0.0
  0
LINE
  5
2AAF3
330
1F
100
AcDbEntity
  8
実線
100
AcDbLine
 10
286.2376627751594
 20
173.0394118988538
 30
0.0
 11
288.7376627751594
 21
173.0394118988538
 31
0.0
  0
LINE
  5
2AAF4
330
1F
100
AcDbEntity
  8
実線
100
AcDbLine
 10
290.2376627751594
 20
173.0394118988538
 30
0.0
 11
287.2376627751594
 21
173.0394118988538
 31
0.0
  0
LINE
  5
2AAF5
330
1F
100
AcDbEntity
  8
実線
100
AcDbLine
 10
287.2376627751594
 20
173.0394118988538
 30
0.0
 11
286.2376627751594
 21
173.0394118988538
 31
0.0
  0
LINE
  5
2AAF6
330
1F
100
AcDbEntity
  8
実線
100
AcDbLine
 10
290.2376627751594
 20
173.0394118988538
 30
0.0
 11
291.0876627751593
 21
173.0394118988538
 31
0.0
  0
LINE
  5
2AAF7
330
1F
100
AcDbEntity
  8
実線
370
     0
100
AcDbLine
 10
291.0157763998427
 20
174.4865842493256
 30
0.0
 11
291.3394576451949
 21
177.5329959702862
 31
0.0
  0
LINE
  5
2AAF8
330
1F
100
AcDbEntity
  8
実線
370
     0
100
AcDbLine
 10
291.4456077915449
 20
178.532056171229
 30
0.0
 11
291.7595263998428
 21
181.4865842493256
 31
0.0
  0
LINE
  5
2AAF9
330
1F
100
AcDbEntity
  8
実線
370
     0
100
AcDbLine
 10
288.4620294871334
 20
178.532056171229
 30
0.0
 11
288.7539609106596
 21
181.4342031746598
 31
0.0
  0
HATCH
  5
2AAFA
330
1F
100
AcDbEntity
  8
文字
 62
     0
370
     0
100
AcDbHatch
 10
0.0
 20
0.0
 30
0.0
210
0.0
220
0.0
230
1.0
  2
SOLID
 70
     1
 71
     0
 91
       28
 92
        7
 72
     0
 73
     1
 93
        5
 10
308.7042910427467
 20
175.7902514766566
 10
308.5701393376051
 20
175.9394118988538
 10
308.4042910427466
 20
175.7902514766566
 10
308.2667302944319
 20
174.4955620807524
 10
308.5724710392096
 20
174.5495926198368
 97
        0
 92
        7
 72
     1
 73
     1
 93
        8
 10
309.2182643376052
 20
174.0394118988539
 42
0.0
 10
309.9382072658693
 20
174.0394118988539
 42
0.0
 10
309.8994459656184
 20
174.3394118988538
 42
0.0
 10
308.5501393376051
 20
174.3394118988538
 42
0.0
 10
308.5619055093039
 20
174.4501523383719
 42
0.0
 10
308.2561647645261
 20
174.3961217992876
 42
0.0
 10
308.24175951271
 20
174.2605429586651
 42
0.4455681594597042
 10
308.4406400756397
 20
174.0394118988539
 42
0.0
 97
        0
 92
        7
 72
     1
 73
     1
 93
        8
 10
313.7182643376052
 20
174.0394118988539
 42
0.0
 10
314.4382072658693
 20
174.0394118988538
 42
0.0
 10
314.3994459656184
 20
174.3394118988538
 42
0.0
 10
313.0501393376051
 20
174.3394118988538
 42
0.0
 10
313.0619055093039
 20
174.4501523383719
 42
0.0
 10
312.7561647645261
 20
174.3961217992876
 42
0.0
 10
312.74175951271
 20
174.2605429586651
 42
0.4455681594597042
 10
312.9406400756398
 20
174.0394118988539
 42
0.0
 97
        0
 92
        7
 72
     1
 73
     1
 93
        8
 10
318.2182643376052
 20
174.0394118988539
 42
0.0
 10
318.9382072658693
 20
174.0394118988538
 42
0.0
 10
318.8994459656184
 20
174.3394118988538
 42
0.0
 10
317.550139337605
 20
174.3394118988538
 42
0.0
 10
317.5619055093039
 20
174.4501523383719
 42
0.0
 10
317.2561647645261
 20
174.3961217992876
 42
0.0
 10
317.24175951271
 20
174.2605429586651
 42
0.4455681594597037
 10
317.4406400756398
 20
174.0394118988539
 42
0.0
 97
        0
 92
        7
 72
     1
 73
     1
 93
        8
 10
322.050139337605
 20
174.3394118988538
 42
0.0
 10
322.0619055093039
 20
174.4501523383719
 42
0.0
 10
321.7561647645262
 20
174.3961217992876
 42
0.0
 10
321.74175951271
 20
174.2605429586651
 42
0.4455681594597037
 10
321.9406400756398
 20
174.0394118988539
 42
0.0
 10
322.7182643376051
 20
174.0394118988539
 42
0.0
 10
323.4382072658693
 20
174.0394118988538
 42
0.0
 10
323.3994459656184
 20
174.3394118988538
 42
0.0
 97
        0
 92
        7
 72
     0
 73
     1
 93
        5
 10
308.8987738947187
 20
177.6206783187464
 10
308.613108552026
 20
177.7555927404617
 10
308.4572376324636
 20
176.2885723210511
 10
308.5913893376051
 20
176.1394118988538
 10
308.7572376324636
 20
176.2885723210511
 97
        0
 92
        7
 72
     1
 73
     1
 93
        6
 10
310.2297253174071
 20
177.7394118988538
 42
0.0
 10
310.5548827941366
 20
177.9878893578251
 42
0.1856316266337449
 10
310.4208885995704
 20
178.0394118988538
 42
0.0
 10
308.8231400756398
 20
178.0394118988538
 42
0.3835390513495728
 10
308.6242595127101
 20
177.8605429586651
 42
0.0
 10
308.9113893376052
 20
177.7394118988538
 42
0.0
 97
        0
 92
        7
 72
     1
 73
     1
 93
        6
 10
310.1566763386874
 20
176.2832895560983
 42
0.0
 10
310.2860768376051
 20
176.1394118988538
 42
0.0
 10
310.4577989262399
 20
176.2938550860039
 42
0.0
 10
310.6197691625001
 20
177.8182808390425
 42
0.1105095351356948
 10
310.6098101517551
 20
177.9050521846553
 42
0.0
 10
310.3041727984877
 20
177.6714915306901
 42
0.0
 97
        0
 92
        7
 72
     0
 73
     1
 93
        6
 10
310.0596911289442
 20
175.8894118988538
 10
310.2347913794188
 20
176.0468933327747
 10
310.1066132181331
 20
176.1894118988538
 10
308.7965250462662
 20
176.1894118988538
 10
308.6214247957914
 20
176.0319304649329
 10
308.749602957077
 20
175.8894118988538
 97
        0
 92
        7
 72
     1
 73
     1
 93
        6
 10
310.104852336523
 20
175.7955342416094
 42
0.0
 10
309.9724710392095
 20
174.5495926198368
 42
0.0
 10
310.0383885995705
 20
174.0394118988538
 42
0.3835390513495732
 10
310.2372691625002
 20
174.2182808390425
 42
0.0
 10
310.4037297489704
 20
175.7849687117038
 42
0.0
 10
310.2648268376051
 20
175.9394118988538
 42
0.0
 97
        0
 92
        7
 72
     0
 73
     1
 93
        5
 10
312.9572376324636
 20
176.2885723210511
 10
313.091389337605
 20
176.1394118988538
 10
313.2572376324636
 20
176.2885723210511
 10
313.3987738947187
 20
177.6206783187464
 10
313.1131085520259
 20
177.7555927404617
 97
        0
 92
        7
 72
     1
 73
     1
 93
        6
 10
313.1242595127101
 20
177.8605429586651
 42
0.0
 10
313.4113893376051
 20
177.7394118988538
 42
0.0
 10
314.729725317407
 20
177.7394118988538
 42
0.0
 10
315.0548827941366
 20
177.9878893578251
 42
0.1856316266337449
 10
314.9208885995704
 20
178.0394118988538
 42
0.0
 10
313.3231400756398
 20
178.0394118988538
 42
0.3835390513495728
 97
        0
 92
        7
 72
     1
 73
     1
 93
        6
 10
314.6566763386874
 20
176.2832895560983
 42
0.0
 10
314.7860768376052
 20
176.1394118988538
 42
0.0
 10
314.9577989262398
 20
176.2938550860039
 42
0.0
 10
315.1197691625001
 20
177.8182808390425
 42
0.1105095351356948
 10
315.1098101517551
 20
177.9050521846553
 42
0.0
 10
314.8041727984877
 20
177.6714915306901
 42
0.0
 97
        0
 92
        7
 72
     0
 73
     1
 93
        6
 10
313.1214247957914
 20
176.0319304649329
 10
313.249602957077
 20
175.8894118988538
 10
314.5596911289441
 20
175.8894118988538
 10
314.7347913794188
 20
176.0468933327747
 10
314.6066132181331
 20
176.1894118988538
 10
313.2965250462662
 20
176.1894118988538
 97
        0
 92
        7
 72
     0
 73
     1
 93
        5
 10
312.7667302944319
 20
174.4955620807524
 10
313.0724710392095
 20
174.5495926198368
 10
313.2042910427467
 20
175.7902514766566
 10
313.0701393376051
 20
175.9394118988538
 10
312.9042910427466
 20
175.7902514766566
 97
        0
 92
        7
 72
     1
 73
     1
 93
        6
 10
314.4724710392095
 20
174.5495926198367
 42
0.0
 10
314.5383885995705
 20
174.0394118988538
 42
0.3835390513495732
 10
314.7372691625002
 20
174.2182808390425
 42
0.0
 10
314.9037297489704
 20
175.7849687117038
 42
0.0
 10
314.7648268376051
 20
175.9394118988538
 42
0.0
 10
314.6048523365231
 20
175.7955342416094
 42
0.0
 97
        0
 92
        7
 72
     0
 73
     1
 93
        5
 10
317.2667302944319
 20
174.4955620807524
 10
317.5724710392095
 20
174.5495926198368
 10
317.7042910427467
 20
175.7902514766566
 10
317.5701393376052
 20
175.9394118988538
 10
317.4042910427467
 20
175.7902514766566
 97
        0
 92
        7
 72
     1
 73
     1
 93
        6
 10
318.9724710392095
 20
174.5495926198368
 42
0.0
 10
319.0383885995704
 20
174.0394118988538
 42
0.3835390513495732
 10
319.2372691625002
 20
174.2182808390425
 42
0.0
 10
319.4037297489704
 20
175.7849687117038
 42
0.0
 10
319.2648268376051
 20
175.9394118988538
 42
0.0
 10
319.1048523365231
 20
175.7955342416094
 42
0.0
 97
        0
 92
        7
 72
     0
 73
     1
 93
        6
 10
317.6214247957914
 20
176.0319304649329
 10
317.7496029570771
 20
175.8894118988538
 10
319.0596911289442
 20
175.8894118988538
 10
319.2347913794188
 20
176.0468933327747
 10
319.1066132181331
 20
176.1894118988538
 10
317.7965250462662
 20
176.1894118988539
 97
        0
 92
        7
 72
     1
 73
     1
 93
        6
 10
319.1566763386873
 20
176.2832895560983
 42
0.0
 10
319.2860768376052
 20
176.1394118988538
 42
0.0
 10
319.4577989262398
 20
176.2938550860039
 42
0.0
 10
319.6197691625001
 20
177.8182808390425
 42
0.1105095351356948
 10
319.6098101517551
 20
177.9050521846553
 42
0.0
 10
319.3041727984877
 20
177.6714915306901
 42
0.0
 97
        0
 92
        7
 72
     1
 73
     1
 93
        6
 10
317.6242595127101
 20
177.8605429586651
 42
0.0
 10
317.9113893376051
 20
177.7394118988538
 42
0.0
 10
319.229725317407
 20
177.7394118988538
 42
0.0
 10
319.5548827941366
 20
177.9878893578251
 42
0.1856316266337449
 10
319.4208885995704
 20
178.0394118988538
 42
0.0
 10
317.8231400756398
 20
178.0394118988538
 42
0.3835390513495728
 97
        0
 92
        7
 72
     0
 73
     1
 93
        5
 10
317.4572376324636
 20
176.2885723210511
 10
317.591389337605
 20
176.1394118988538
 10
317.7572376324635
 20
176.2885723210511
 10
317.8987738947187
 20
177.6206783187464
 10
317.6131085520259
 20
177.7555927404617
 97
        0
 92
        7
 72
     0
 73
     1
 93
        5
 10
321.7667302944319
 20
174.4955620807524
 10
322.0724710392096
 20
174.5495926198368
 10
322.2042910427467
 20
175.7902514766566
 10
322.0701393376052
 20
175.9394118988538
 10
321.9042910427467
 20
175.7902514766565
 97
        0
 92
        7
 72
     0
 73
     1
 93
        6
 10
322.1214247957914
 20
176.0319304649329
 10
322.2496029570771
 20
175.8894118988538
 10
323.5596911289441
 20
175.8894118988538
 10
323.7347913794188
 20
176.0468933327747
 10
323.6066132181331
 20
176.1894118988538
 10
322.2965250462662
 20
176.1894118988538
 97
        0
 92
        7
 72
     1
 73
     1
 93
        6
 10
323.4724710392095
 20
174.5495926198368
 42
0.0
 10
323.5383885995704
 20
174.0394118988538
 42
0.3835390513495732
 10
323.7372691625002
 20
174.2182808390425
 42
0.0
 10
323.9037297489704
 20
175.7849687117038
 42
0.0
 10
323.7648268376052
 20
175.9394118988538
 42
0.0
 10
323.604852336523
 20
175.7955342416094
 42
0.0
 97
        0
 92
        7
 72
     1
 73
     1
 93
        6
 10
323.6566763386873
 20
176.2832895560983
 42
0.0
 10
323.7860768376052
 20
176.1394118988538
 42
0.0
 10
323.9577989262398
 20
176.293855086004
 42
0.0
 10
324.1197691625001
 20
177.8182808390425
 42
0.1105095351356948
 10
324.1098101517551
 20
177.9050521846553
 42
0.0
 10
323.8041727984878
 20
177.6714915306901
 42
0.0
 97
        0
 92
        7
 72
     1
 73
     1
 93
        6
 10
322.1242595127101
 20
177.8605429586651
 42
0.0
 10
322.4113893376052
 20
177.7394118988538
 42
0.0
 10
323.729725317407
 20
177.7394118988538
 42
0.0
 10
324.0548827941367
 20
177.9878893578251
 42
0.1856316266337449
 10
323.9208885995704
 20
178.0394118988538
 42
0.0
 10
322.3231400756398
 20
178.0394118988538
 42
0.3835390513495728
 97
        0
 92
        7
 72
     0
 73
     1
 93
        5
 10
321.9572376324636
 20
176.2885723210511
 10
322.091389337605
 20
176.1394118988538
 10
322.2572376324635
 20
176.2885723210511
 10
322.3987738947187
 20
177.6206783187464
 10
322.1131085520259
 20
177.7555927404617
 97
        0
 75
     0
 76
     1
 47
0.0115826104484682
 98
      104
 10
308.4938689005749
 20
174.8213772042348
 10
308.7024639148089
 20
174.161168240697
 10
313.1756588569492
 20
174.1843336894222
 10
317.6557807856125
 20
174.1381307002196
 10
322.2448620968253
 20
174.2076256408102
 10
308.6816379455813
 20
176.9447581330401
 10
309.4026814306277
 20
177.8591573304124
 10
310.3175522607839
 20
176.7665271258641
 10
309.3561616975498
 20
176.0303575300823
 10
308.6273652987379
 20
175.5731586341888
 10
310.2012563038147
 20
175.17020267451
 10
309.4398999176692
 20
174.2149627952515
 10
309.4398999176692
 20
174.2149627952515
 10
309.4398999176692
 20
174.2149627952515
 10
309.4398999176692
 20
174.2149627952515
 10
309.4398999176692
 20
174.2149627952515
 10
309.4398999176692
 20
174.2149627952515
 10
309.4398999176692
 20
174.2149627952515
 10
309.4398999176692
 20
174.2149627952515
 10
309.4398999176692
 20
174.2149627952515
 10
309.4398999176692
 20
174.2149627952515
 10
309.4398999176692
 20
174.2149627952515
 10
309.4398999176692
 20
174.2149627952515
 10
309.4398999176692
 20
174.2149627952515
 10
309.4398999176692
 20
174.2149627952515
 10
309.4398999176692
 20
174.2149627952515
 10
309.4398999176692
 20
174.2149627952515
 10
309.4398999176692
 20
174.2149627952515
 10
309.4398999176692
 20
174.2149627952515
 10
309.4398999176692
 20
174.2149627952515
 10
309.4398999176692
 20
174.2149627952515
 10
309.4398999176692
 20
174.2149627952515
 10
309.4398999176692
 20
174.2149627952515
 10
309.4398999176692
 20
174.2149627952515
 10
309.4398999176692
 20
174.2149627952515
 10
309.4398999176692
 20
174.2149627952515
 10
313.2692564428762
 20
177.1102896784578
 10
313.6263990852484
 20
177.9233602429436
 10
314.9557616148145
 20
176.9913026794323
 10
314.1422705406294
 20
176.0195837199689
 10
312.9319563086815
 20
175.0478647605057
 10
313.5470335535028
 20
174.1554699985313
 10
313.5470335535028
 20
174.1554699985313
 10
313.5470335535028
 20
174.1554699985313
 10
313.5470335535028
 20
174.1554699985313
 10
313.5470335535028
 20
174.1554699985313
 10
313.5470335535028
 20
174.1554699985313
 10
313.5470335535028
 20
174.1554699985313
 10
313.5470335535028
 20
174.1554699985313
 10
313.5470335535028
 20
174.1554699985313
 10
313.5470335535028
 20
174.1554699985313
 10
313.5470335535028
 20
174.1554699985313
 10
313.5470335535028
 20
174.1554699985313
 10
313.5470335535028
 20
174.1554699985313
 10
313.5470335535028
 20
174.1554699985313
 10
313.5470335535028
 20
174.1554699985313
 10
313.5470335535028
 20
174.1554699985313
 10
313.5470335535028
 20
174.1554699985313
 10
313.5470335535028
 20
174.1554699985313
 10
313.5470335535028
 20
174.1554699985313
 10
313.5470335535028
 20
174.1554699985313
 10
313.5470335535028
 20
174.1554699985313
 10
313.5470335535028
 20
174.1554699985313
 10
313.5470335535028
 20
174.1554699985313
 10
313.5470335535028
 20
174.1554699985313
 10
313.5470335535028
 20
174.1554699985313
 10
314.7176672700607
 20
175.0280347653225
 10
317.4954383763284
 20
175.1668517595315
 10
319.2811493377076
 20
175.2263445562517
 10
318.9835319693857
 20
175.9600909232486
 10
319.3605148694528
 20
176.3963733066441
 10
318.7851181400215
 20
177.8836974414066
 10
317.741065087519
 20
176.5747153550463
 10
321.9870895291488
 20
175.4046866046538
 10
322.7410553292834
 20
175.9996159774416
 10
323.7132752164772
 20
174.9485728204898
 10
323.8918465376632
 20
177.0506591343938
 10
323.1974037610967
 20
177.883561099648
 10
322.1656608503349
 20
177.0506591343938
 10
321.9672470209712
 20
174.2544878494446
 10
321.9672470209712
 20
174.2544878494446
 10
321.9672470209712
 20
174.2544878494446
 10
321.9672470209712
 20
174.2544878494446
 10
321.9672470209712
 20
174.2544878494446
 10
321.9672470209712
 20
174.2544878494446
 10
321.9672470209712
 20
174.2544878494446
 10
321.9672470209712
 20
174.2544878494446
 10
321.9672470209712
 20
174.2544878494446
 10
321.9672470209712
 20
174.2544878494446
 10
321.9672470209712
 20
174.2544878494446
 10
321.9672470209712
 20
174.2544878494446
 10
321.9672470209712
 20
174.2544878494446
 10
321.9672470209712
 20
174.2544878494446
 10
321.9672470209712
 20
174.2544878494446
 10
321.9672470209712
 20
174.2544878494446
 10
321.9672470209712
 20
174.2544878494446
 10
321.9672470209712
 20
174.2544878494446
 10
321.9672470209712
 20
174.2544878494446
 10
321.9672470209712
 20
174.2544878494446
 10
321.9672470209712
 20
174.2544878494446
 10
321.9672470209712
 20
174.2544878494446
 10
321.9672470209712
 20
174.2544878494446
 10
321.9672470209712
 20
174.2544878494446
 10
321.9672470209712
 20
174.2544878494446
450
        0
451
        0
460
0.0
461
0.0
452
        1
462
1.0
453
        2
463
0.0
 63
     5
421
      255
463
1.0
 63
    51
421
 16777113
470
LINEAR
1001
ACAD
1010
0.0
1020
0.0
1030
0.0
  0
ARC
  5
2AAFB
330
1F
100
AcDbEntity
  8
実線
370
     0
100
AcDbCircle
 10
310.0383885995705
 20
174.2394118988538
 30
0.0
 40
0.2
100
AcDbArc
 50
270.0
 51
353.9350775545522
  0
LINE
  5
2AAFC
330
1F
100
AcDbEntity
  8
実線
370
     0
100
AcDbLine
 10
290.3130944594005
 20
174.0394118988538
 30
0.0
 11
288.5242036826919
 21
174.0394118988538
 31
0.0
  0
LINE
  5
2AAFD
330
1F
100
AcDbEntity
  8
実線
370
     0
100
AcDbLine
 10
289.2679536826918
 20
182.0394118988538
 30
0.0
 11
291.2623249925184
 21
182.0394118988538
 31
0.0
  0
LINE
  5
2AAFE
330
1F
100
AcDbEntity
  8
実線
370
     0
100
AcDbLine
 10
288.9085768376052
 20
174.8894118988538
 30
0.0
 11
288.9202514919111
 21
175.0060764418425
 31
0.0
  0
LINE
  5
2AAFF
330
1F
100
AcDbEntity
  8
実線
370
     0
100
AcDbLine
 10
288.9406617763128
 20
175.2100359287418
 30
0.0
 11
289.1744991880769
 21
177.5467676264786
 31
0.0
  0
LINE
  5
2AB00
330
1F
100
AcDbEntity
  8
実線
370
     0
100
AcDbLine
 10
289.2956077915449
 20
178.532056171229
 30
0.0
 11
289.5548326615567
 21
180.9718196536929
 31
0.0
  0
LINE
  5
2AB01
330
1F
100
AcDbEntity
  8
実線
370
     0
100
AcDbLine
 10
290.2426431407807
 20
175.2100359287418
 30
0.0
 11
290.4909208836652
 21
177.5467676264786
 31
0.0
  0
LINE
  5
2AB02
330
1F
100
AcDbEntity
  8
実線
370
     0
100
AcDbLine
 10
290.5970710300154
 20
178.5458278274214
 30
0.0
 11
290.862460156199
 21
181.0436078385601
 31
0.0
  0
LINE
  5
2AB03
330
1F
100
AcDbEntity
  8
実線
370
     0
100
AcDbLine
 10
288.9085768376052
 20
174.8894118988538
 30
0.0
 11
290.1127380102001
 21
174.8894118988538
 31
0.0
  0
LINE
  5
2AB04
330
1F
100
AcDbEntity
  8
実線
370
     0
100
AcDbLine
 10
289.577951837605
 20
181.1894118988538
 30
0.0
 11
290.7321477773114
 21
181.1894118988538
 31
0.0
  0
LINE
  5
2AB05
330
1F
100
AcDbEntity
  8
実線
370
     0
100
AcDbLine
 10
289.2679536826918
 20
182.0394118988538
 30
0.0
 11
291.2623249925184
 21
182.0394118988538
 31
0.0
  0
ARC
  5
2AB06
330
1F
100
AcDbEntity
  8
実線
370
     0
100
AcDbCircle
 10
289.2679536826918
 20
181.5394118988537
 30
0.0
 40
0.5
100
AcDbArc
 50
90.0
 51
167.2306860022317
  0
LINE
  5
2AB07
330
1F
100
AcDbEntity
  8
実線
370
     0
100
AcDbLine
 10
291.7595263998427
 20
181.4865842493256
 30
0.0
 11
291.4456077915449
 21
178.532056171229
 31
0.0
  0
LINE
  5
2AB08
330
1F
100
AcDbEntity
  8
実線
370
     0
100
AcDbLine
 10
291.3394576451949
 20
177.5329959702862
 30
0.0
 11
291.0157763998427
 21
174.4865842493256
 31
0.0
  0
ARC
  5
2AB09
330
1F
100
AcDbEntity
  8
実線
370
     0
100
AcDbCircle
 10
291.2623249925184
 20
181.5394118988537
 30
0.0
 40
0.5
100
AcDbArc
 50
353.9350775545506
 51
30.61482704589979
  0
ARC
  5
2AB0A
330
1F
100
AcDbEntity
  8
実線
370
     0
100
AcDbCircle
 10
291.2623249925184
 20
181.5394118988537
 30
0.0
 40
0.5
100
AcDbArc
 50
53.16844284210926
 51
90.0
  0
LINE
  5
2AB0B
330
1F
100
AcDbEntity
  8
実線
370
     0
100
AcDbLine
 10
290.3130944594005
 20
174.0394118988539
 30
0.0
 11
288.5242036826919
 21
174.0394118988539
 31
0.0
  0
ARC
  5
2AB0C
330
1F
100
AcDbEntity
  8
実線
370
     0
100
AcDbCircle
 10
290.5185749925183
 20
174.5394118988538
 30
0.0
 40
0.5
100
AcDbArc
 50
270.0
 51
353.9350775545506
  0
LINE
  5
2AB0D
330
1F
100
AcDbEntity
  8
実線
370
     0
100
AcDbLine
 10
288.0270022753675
 20
174.592239548382
 30
0.0
 11
288.0530987481345
 21
174.8378534097196
 31
0.0
  0
LINE
  5
2AB0E
330
1F
100
AcDbEntity
  8
実線
370
     0
100
AcDbLine
 10
288.0747959698884
 20
175.0420625556379
 30
0.0
 11
288.3409208836653
 21
177.5467676264787
 31
0.0
  0
ARC
  5
2AB0F
330
1F
100
AcDbEntity
  8
実線
370
     0
100
AcDbCircle
 10
288.5242036826919
 20
174.5394118988538
 30
0.0
 40
0.5
100
AcDbArc
 50
173.9350775545506
 51
270.0
  0
LINE
  5
2AB10
330
1F
100
AcDbEntity
  8
実線
370
     0
100
AcDbLine
 10
290.7321477773114
 20
181.1894118988538
 30
0.0
 11
291.5620572582699
 21
181.9396125596072
 31
0.0
  0
LINE
  5
2AB11
330
1F
100
AcDbEntity
  8
実線
370
     0
100
AcDbLine
 10
290.862460156199
 20
181.0436078385601
 30
0.0
 11
291.692630126546
 21
181.7940439699474
 31
0.0
  0
LINE
  5
2AB12
330
1F
100
AcDbEntity
  8
実線
370
     0
100
AcDbLine
 10
289.577951837605
 20
181.1894118988538
 30
0.0
 11
288.7803197479083
 21
181.6499250005545
 31
0.0
  0
LINE
  5
2AB13
330
1F
100
AcDbEntity
  8
実線
370
     0
100
AcDbLine
 10
288.7539609106596
 20
181.4342031746598
 30
0.0
 11
289.5548326615567
 21
180.9718196536929
 31
0.0
  0
LINE
  5
2AB14
330
1F
100
AcDbEntity
  8
実線
370
     0
100
AcDbLine
 10
288.8342018376051
 20
178.1894118988538
 30
0.0
 11
288.4620294871334
 21
178.532056171229
 31
0.0
  0
LINE
  5
2AB15
330
1F
100
AcDbEntity
  8
実線
370
     0
100
AcDbLine
 10
288.8342018376051
 20
178.1894118988538
 30
0.0
 11
289.2956077915449
 21
178.532056171229
 31
0.0
  0
LINE
  5
2AB16
330
1F
100
AcDbEntity
  8
実線
370
     0
100
AcDbLine
 10
288.3409208836653
 20
177.5467676264787
 30
0.0
 11
288.8023268376051
 21
177.8894118988539
 31
0.0
  0
LINE
  5
2AB17
330
1F
100
AcDbEntity
  8
実線
370
     0
100
AcDbLine
 10
289.1744991880769
 20
177.5467676264786
 30
0.0
 11
288.8023268376051
 21
177.8894118988538
 31
0.0
  0
LINE
  5
2AB18
330
1F
100
AcDbEntity
  8
実線
370
     0
100
AcDbLine
 10
290.984201837605
 20
178.1894118988538
 30
0.0
 11
290.5970710300154
 21
178.5458278274214
 31
0.0
  0
LINE
  5
2AB19
330
1F
100
AcDbEntity
  8
実線
370
     0
100
AcDbLine
 10
290.984201837605
 20
178.1894118988538
 30
0.0
 11
291.4456077915449
 21
178.532056171229
 31
0.0
  0
LINE
  5
2AB1A
330
1F
100
AcDbEntity
  8
実線
370
     0
100
AcDbLine
 10
290.4909208836652
 20
177.5467676264787
 30
0.0
 11
290.9523268376052
 21
177.8894118988539
 31
0.0
  0
LINE
  5
2AB1B
330
1F
100
AcDbEntity
  8
実線
370
     0
100
AcDbLine
 10
291.3394576451949
 20
177.5329959702862
 30
0.0
 11
290.9523268376052
 21
177.8894118988538
 31
0.0
  0
LINE
  5
2AB1C
330
1F
100
AcDbEntity
  8
実線
370
     0
100
AcDbLine
 10
288.9406617763128
 20
175.2100359287418
 30
0.0
 11
288.0747959698884
 21
175.042062555638
 31
0.0
  0
LINE
  5
2AB1D
330
1F
100
AcDbEntity
  8
実線
370
     0
100
AcDbLine
 10
288.9202514919111
 20
175.0060764418425
 30
0.0
 11
288.0530987481345
 21
174.8378534097196
 31
0.0
  0
LINE
  5
2AB1E
330
1F
100
AcDbEntity
  8
実線
370
     0
100
AcDbLine
 10
290.2426431407807
 20
175.2100359287418
 30
0.0
 11
290.5185749925183
 21
174.0394118988539
 31
0.0
  0
LINE
  5
2AB1F
330
1F
100
AcDbEntity
  8
実線
370
     0
100
AcDbLine
 10
290.1127380102001
 20
174.8894118988538
 30
0.0
 11
290.3130944594005
 21
174.0394118988538
 31
0.0
  0
LINE
  5
2AB20
330
1F
100
AcDbEntity
  8
実線
370
     0
100
AcDbLine
 10
288.9438962064125
 20
178.0261421634033
 30
0.0
 11
289.4427455823181
 21
178.3965922626542
 31
0.0
  0
LINE
  5
2AB21
330
1F
100
AcDbEntity
  8
実線
370
     0
100
AcDbLine
 10
289.3350670189263
 20
177.6660067630752
 30
0.0
 11
288.9628946684545
 21
178.0086510354504
 31
0.0
  0
LINE
  5
2AB22
330
1F
100
AcDbEntity
  8
実線
370
     0
100
AcDbLine
 10
288.9628946684545
 20
178.0086510354504
 30
0.0
 11
288.9438962064125
 21
178.0261421634033
 31
0.0
  0
LINE
  5
2AB23
330
1F
100
AcDbEntity
  8
実線
370
     0
100
AcDbLine
 10
289.4427455823181
 20
178.3965922626542
 30
0.0
 11
290.4773444905434
 21
178.3965922626542
 31
0.0
  0
LINE
  5
2AB24
330
1F
100
AcDbEntity
  8
実線
370
     0
100
AcDbLine
 10
289.3350670189263
 20
177.6660067630752
 30
0.0
 11
290.3156809634844
 21
177.6660067630752
 31
0.0
  0
LINE
  5
2AB25
330
1F
100
AcDbEntity
  8
実線
370
     0
100
AcDbLine
 10
290.847204502543
 20
178.05607686829
 30
0.0
 11
290.4773444905434
 21
178.3965922626542
 31
0.0
  0
LINE
  5
2AB26
330
1F
100
AcDbEntity
  8
実線
370
     0
100
AcDbLine
 10
290.3156809634844
 20
177.6660067630752
 30
0.0
 11
290.847204502543
 21
178.05607686829
 31
0.0
  0
LINE
  5
2AB27
330
1F
100
AcDbEntity
  8
実線
370
     0
100
AcDbLine
 10
296.0157763998427
 20
174.4865842493256
 30
0.0
 11
296.3394576451948
 21
177.5329959702862
 31
0.0
  0
LINE
  5
2AB28
330
1F
100
AcDbEntity
  8
実線
370
     0
100
AcDbLine
 10
296.4456077915449
 20
178.532056171229
 30
0.0
 11
296.7595263998428
 21
181.4865842493256
 31
0.0
  0
LINE
  5
2AB29
330
1F
100
AcDbEntity
  8
実線
370
     0
100
AcDbLine
 10
293.4620294871333
 20
178.532056171229
 30
0.0
 11
293.7539609106595
 21
181.4342031746598
 31
0.0
  0
LINE
  5
2AB2A
330
1F
100
AcDbEntity
  8
実線
370
     0
100
AcDbLine
 10
295.3130944594006
 20
174.0394118988539
 30
0.0
 11
293.5242036826919
 21
174.0394118988538
 31
0.0
  0
LINE
  5
2AB2B
330
1F
100
AcDbEntity
  8
実線
370
     0
100
AcDbLine
 10
294.2679536826918
 20
182.0394118988538
 30
0.0
 11
296.2623249925183
 21
182.0394118988538
 31
0.0
  0
LINE
  5
2AB2C
330
1F
100
AcDbEntity
  8
実線
370
     0
100
AcDbLine
 10
293.9085768376052
 20
174.8894118988538
 30
0.0
 11
293.9202514919111
 21
175.0060764418425
 31
0.0
  0
LINE
  5
2AB2D
330
1F
100
AcDbEntity
  8
実線
370
     0
100
AcDbLine
 10
293.9406617763128
 20
175.2100359287418
 30
0.0
 11
294.1744991880769
 21
177.5467676264787
 31
0.0
  0
LINE
  5
2AB2E
330
1F
100
AcDbEntity
  8
実線
370
     0
100
AcDbLine
 10
294.295607791545
 20
178.532056171229
 30
0.0
 11
294.5548326615567
 21
180.9718196536929
 31
0.0
  0
LINE
  5
2AB2F
330
1F
100
AcDbEntity
  8
実線
370
     0
100
AcDbLine
 10
295.2426431407807
 20
175.2100359287418
 30
0.0
 11
295.4909208836653
 21
177.5467676264787
 31
0.0
  0
LINE
  5
2AB30
330
1F
100
AcDbEntity
  8
実線
370
     0
100
AcDbLine
 10
295.5970710300154
 20
178.5458278274214
 30
0.0
 11
295.8624601561989
 21
181.0436078385601
 31
0.0
  0
LINE
  5
2AB31
330
1F
100
AcDbEntity
  8
実線
370
     0
100
AcDbLine
 10
293.9085768376052
 20
174.8894118988538
 30
0.0
 11
295.1127380102001
 21
174.8894118988538
 31
0.0
  0
LINE
  5
2AB32
330
1F
100
AcDbEntity
  8
実線
370
     0
100
AcDbLine
 10
294.577951837605
 20
181.1894118988538
 30
0.0
 11
295.7321477773113
 21
181.1894118988538
 31
0.0
  0
LINE
  5
2AB33
330
1F
100
AcDbEntity
  8
実線
370
     0
100
AcDbLine
 10
294.2679536826918
 20
182.0394118988538
 30
0.0
 11
296.2623249925183
 21
182.0394118988538
 31
0.0
  0
ARC
  5
2AB34
330
1F
100
AcDbEntity
  8
実線
370
     0
100
AcDbCircle
 10
294.2679536826918
 20
181.5394118988537
 30
0.0
 40
0.5
100
AcDbArc
 50
90.0
 51
167.2306860022317
  0
LINE
  5
2AB35
330
1F
100
AcDbEntity
  8
実線
370
     0
100
AcDbLine
 10
296.7595263998427
 20
181.4865842493256
 30
0.0
 11
296.4456077915449
 21
178.532056171229
 31
0.0
  0
LINE
  5
2AB36
330
1F
100
AcDbEntity
  8
実線
370
     0
100
AcDbLine
 10
296.3394576451948
 20
177.5329959702862
 30
0.0
 11
296.0157763998427
 21
174.4865842493256
 31
0.0
  0
ARC
  5
2AB37
330
1F
100
AcDbEntity
  8
実線
370
     0
100
AcDbCircle
 10
296.2623249925183
 20
181.5394118988539
 30
0.0
 40
0.5
100
AcDbArc
 50
353.9350775545506
 51
30.61482704589979
  0
ARC
  5
2AB38
330
1F
100
AcDbEntity
  8
実線
370
     0
100
AcDbCircle
 10
296.2623249925183
 20
181.5394118988539
 30
0.0
 40
0.5
100
AcDbArc
 50
53.16844284210926
 51
90.0
  0
LINE
  5
2AB39
330
1F
100
AcDbEntity
  8
実線
370
     0
100
AcDbLine
 10
295.3130944594006
 20
174.0394118988539
 30
0.0
 11
293.5242036826919
 21
174.0394118988539
 31
0.0
  0
ARC
  5
2AB3A
330
1F
100
AcDbEntity
  8
実線
370
     0
100
AcDbCircle
 10
295.5185749925183
 20
174.5394118988538
 30
0.0
 40
0.5
100
AcDbArc
 50
270.0
 51
353.9350775545506
  0
LINE
  5
2AB3B
330
1F
100
AcDbEntity
  8
実線
370
     0
100
AcDbLine
 10
293.0270022753675
 20
174.592239548382
 30
0.0
 11
293.0530987481345
 21
174.8378534097196
 31
0.0
  0
LINE
  5
2AB3C
330
1F
100
AcDbEntity
  8
実線
370
     0
100
AcDbLine
 10
293.0747959698885
 20
175.042062555638
 30
0.0
 11
293.3409208836653
 21
177.5467676264787
 31
0.0
  0
ARC
  5
2AB3D
330
1F
100
AcDbEntity
  8
実線
370
     0
100
AcDbCircle
 10
293.5242036826919
 20
174.5394118988538
 30
0.0
 40
0.5
100
AcDbArc
 50
173.9350775545506
 51
270.0
  0
LINE
  5
2AB3E
330
1F
100
AcDbEntity
  8
実線
370
     0
100
AcDbLine
 10
295.7321477773113
 20
181.1894118988538
 30
0.0
 11
296.5620572582699
 21
181.9396125596072
 31
0.0
  0
LINE
  5
2AB3F
330
1F
100
AcDbEntity
  8
実線
370
     0
100
AcDbLine
 10
295.8624601561989
 20
181.0436078385601
 30
0.0
 11
296.6926301265459
 21
181.7940439699474
 31
0.0
  0
LINE
  5
2AB40
330
1F
100
AcDbEntity
  8
実線
370
     0
100
AcDbLine
 10
294.577951837605
 20
181.1894118988538
 30
0.0
 11
293.7803197479082
 21
181.6499250005545
 31
0.0
  0
LINE
  5
2AB41
330
1F
100
AcDbEntity
  8
実線
370
     0
100
AcDbLine
 10
293.7539609106595
 20
181.4342031746599
 30
0.0
 11
294.5548326615567
 21
180.9718196536929
 31
0.0
  0
LINE
  5
2AB42
330
1F
100
AcDbEntity
  8
実線
370
     0
100
AcDbLine
 10
293.8342018376051
 20
178.1894118988538
 30
0.0
 11
293.4620294871333
 21
178.532056171229
 31
0.0
  0
LINE
  5
2AB43
330
1F
100
AcDbEntity
  8
実線
370
     0
100
AcDbLine
 10
293.8342018376051
 20
178.1894118988538
 30
0.0
 11
294.295607791545
 21
178.532056171229
 31
0.0
  0
LINE
  5
2AB44
330
1F
100
AcDbEntity
  8
実線
370
     0
100
AcDbLine
 10
293.3409208836653
 20
177.5467676264787
 30
0.0
 11
293.8023268376051
 21
177.8894118988539
 31
0.0
  0
LINE
  5
2AB45
330
1F
100
AcDbEntity
  8
実線
370
     0
100
AcDbLine
 10
294.1744991880769
 20
177.5467676264787
 30
0.0
 11
293.8023268376051
 21
177.8894118988539
 31
0.0
  0
LINE
  5
2AB46
330
1F
100
AcDbEntity
  8
実線
370
     0
100
AcDbLine
 10
295.984201837605
 20
178.1894118988538
 30
0.0
 11
295.5970710300154
 21
178.5458278274214
 31
0.0
  0
LINE
  5
2AB47
330
1F
100
AcDbEntity
  8
実線
370
     0
100
AcDbLine
 10
295.984201837605
 20
178.1894118988538
 30
0.0
 11
296.4456077915449
 21
178.532056171229
 31
0.0
  0
LINE
  5
2AB48
330
1F
100
AcDbEntity
  8
実線
370
     0
100
AcDbLine
 10
295.4909208836653
 20
177.5467676264787
 30
0.0
 11
295.9523268376051
 21
177.8894118988539
 31
0.0
  0
LINE
  5
2AB49
330
1F
100
AcDbEntity
  8
実線
370
     0
100
AcDbLine
 10
296.3394576451948
 20
177.5329959702862
 30
0.0
 11
295.9523268376051
 21
177.8894118988539
 31
0.0
  0
LINE
  5
2AB4A
330
1F
100
AcDbEntity
  8
実線
370
     0
100
AcDbLine
 10
293.9406617763128
 20
175.2100359287418
 30
0.0
 11
293.0747959698885
 21
175.042062555638
 31
0.0
  0
LINE
  5
2AB4B
330
1F
100
AcDbEntity
  8
実線
370
     0
100
AcDbLine
 10
293.9202514919111
 20
175.0060764418426
 30
0.0
 11
293.0530987481345
 21
174.8378534097196
 31
0.0
  0
LINE
  5
2AB4C
330
1F
100
AcDbEntity
  8
実線
370
     0
100
AcDbLine
 10
295.2426431407807
 20
175.2100359287418
 30
0.0
 11
295.5185749925183
 21
174.0394118988539
 31
0.0
  0
LINE
  5
2AB4D
330
1F
100
AcDbEntity
  8
実線
370
     0
100
AcDbLine
 10
295.1127380102001
 20
174.8894118988538
 30
0.0
 11
295.3130944594006
 21
174.0394118988538
 31
0.0
  0
LINE
  5
2AB4E
330
1F
100
AcDbEntity
  8
実線
370
     0
100
AcDbLine
 10
293.9438962064126
 20
178.0261421634033
 30
0.0
 11
294.4427455823181
 21
178.3965922626542
 31
0.0
  0
LINE
  5
2AB4F
330
1F
100
AcDbEntity
  8
実線
370
     0
100
AcDbLine
 10
294.3350670189263
 20
177.6660067630752
 30
0.0
 11
293.9628946684545
 21
178.0086510354504
 31
0.0
  0
LINE
  5
2AB50
330
1F
100
AcDbEntity
  8
実線
370
     0
100
AcDbLine
 10
293.9628946684545
 20
178.0086510354504
 30
0.0
 11
293.9438962064126
 21
178.0261421634033
 31
0.0
  0
LINE
  5
2AB51
330
1F
100
AcDbEntity
  8
実線
370
     0
100
AcDbLine
 10
294.4427455823181
 20
178.3965922626542
 30
0.0
 11
295.4773444905434
 21
178.3965922626542
 31
0.0
  0
LINE
  5
2AB52
330
1F
100
AcDbEntity
  8
実線
370
     0
100
AcDbLine
 10
294.3350670189263
 20
177.6660067630752
 30
0.0
 11
295.3156809634844
 21
177.6660067630752
 31
0.0
  0
LINE
  5
2AB53
330
1F
100
AcDbEntity
  8
実線
370
     0
100
AcDbLine
 10
295.847204502543
 20
178.0560768682901
 30
0.0
 11
295.4773444905434
 21
178.3965922626542
 31
0.0
  0
LINE
  5
2AB54
330
1F
100
AcDbEntity
  8
実線
370
     0
100
AcDbLine
 10
295.3156809634844
 20
177.6660067630752
 30
0.0
 11
295.847204502543
 21
178.0560768682901
 31
0.0
  0
LINE
  5
2AB55
330
1F
100
AcDbEntity
  8
実線
370
     0
100
AcDbLine
 10
301.0157763998427
 20
174.4865842493257
 30
0.0
 11
301.3394576451948
 21
177.5329959702862
 31
0.0
  0
LINE
  5
2AB56
330
1F
100
AcDbEntity
  8
実線
370
     0
100
AcDbLine
 10
301.445607791545
 20
178.532056171229
 30
0.0
 11
301.7595263998428
 21
181.4865842493256
 31
0.0
  0
LINE
  5
2AB57
330
1F
100
AcDbEntity
  8
実線
370
     0
100
AcDbLine
 10
298.4620294871334
 20
178.532056171229
 30
0.0
 11
298.7539609106595
 21
181.4342031746599
 31
0.0
  0
LINE
  5
2AB58
330
1F
100
AcDbEntity
  8
実線
370
     0
100
AcDbLine
 10
300.3130944594005
 20
174.0394118988539
 30
0.0
 11
298.5242036826919
 21
174.0394118988539
 31
0.0
  0
LINE
  5
2AB59
330
1F
100
AcDbEntity
  8
実線
370
     0
100
AcDbLine
 10
299.2679536826918
 20
182.0394118988538
 30
0.0
 11
301.2623249925184
 21
182.0394118988538
 31
0.0
  0
LINE
  5
2AB5A
330
1F
100
AcDbEntity
  8
実線
370
     0
100
AcDbLine
 10
298.9085768376051
 20
174.8894118988538
 30
0.0
 11
298.9202514919112
 21
175.0060764418426
 31
0.0
  0
LINE
  5
2AB5B
330
1F
100
AcDbEntity
  8
実線
370
     0
100
AcDbLine
 10
298.9406617763128
 20
175.2100359287418
 30
0.0
 11
299.1744991880769
 21
177.5467676264787
 31
0.0
  0
LINE
  5
2AB5C
330
1F
100
AcDbEntity
  8
実線
370
     0
100
AcDbLine
 10
299.2956077915449
 20
178.532056171229
 30
0.0
 11
299.5548326615567
 21
180.971819653693
 31
0.0
  0
LINE
  5
2AB5D
330
1F
100
AcDbEntity
  8
実線
370
     0
100
AcDbLine
 10
300.2426431407807
 20
175.2100359287418
 30
0.0
 11
300.4909208836652
 21
177.5467676264787
 31
0.0
  0
LINE
  5
2AB5E
330
1F
100
AcDbEntity
  8
実線
370
     0
100
AcDbLine
 10
300.5970710300154
 20
178.5458278274214
 30
0.0
 11
300.862460156199
 21
181.0436078385601
 31
0.0
  0
LINE
  5
2AB5F
330
1F
100
AcDbEntity
  8
実線
370
     0
100
AcDbLine
 10
298.9085768376051
 20
174.8894118988538
 30
0.0
 11
300.1127380102001
 21
174.8894118988538
 31
0.0
  0
LINE
  5
2AB60
330
1F
100
AcDbEntity
  8
実線
370
     0
100
AcDbLine
 10
299.577951837605
 20
181.1894118988538
 30
0.0
 11
300.7321477773114
 21
181.1894118988538
 31
0.0
  0
LINE
  5
2AB61
330
1F
100
AcDbEntity
  8
実線
370
     0
100
AcDbLine
 10
299.2679536826918
 20
182.0394118988538
 30
0.0
 11
301.2623249925184
 21
182.0394118988538
 31
0.0
  0
ARC
  5
2AB62
330
1F
100
AcDbEntity
  8
実線
370
     0
100
AcDbCircle
 10
299.2679536826918
 20
181.5394118988539
 30
0.0
 40
0.5
100
AcDbArc
 50
90.0
 51
167.2306860022317
  0
LINE
  5
2AB63
330
1F
100
AcDbEntity
  8
実線
370
     0
100
AcDbLine
 10
301.7595263998427
 20
181.4865842493256
 30
0.0
 11
301.445607791545
 21
178.532056171229
 31
0.0
  0
LINE
  5
2AB64
330
1F
100
AcDbEntity
  8
実線
370
     0
100
AcDbLine
 10
301.3394576451948
 20
177.5329959702862
 30
0.0
 11
301.0157763998427
 21
174.4865842493257
 31
0.0
  0
ARC
  5
2AB65
330
1F
100
AcDbEntity
  8
実線
370
     0
100
AcDbCircle
 10
301.2623249925184
 20
181.5394118988539
 30
0.0
 40
0.5
100
AcDbArc
 50
353.9350775545506
 51
30.61482704589979
  0
ARC
  5
2AB66
330
1F
100
AcDbEntity
  8
実線
370
     0
100
AcDbCircle
 10
301.2623249925184
 20
181.5394118988539
 30
0.0
 40
0.5
100
AcDbArc
 50
53.16844284210926
 51
90.0
  0
LINE
  5
2AB67
330
1F
100
AcDbEntity
  8
実線
370
     0
100
AcDbLine
 10
300.3130944594005
 20
174.0394118988539
 30
0.0
 11
298.5242036826919
 21
174.0394118988539
 31
0.0
  0
ARC
  5
2AB68
330
1F
100
AcDbEntity
  8
実線
370
     0
100
AcDbCircle
 10
300.5185749925183
 20
174.5394118988538
 30
0.0
 40
0.5
100
AcDbArc
 50
270.0
 51
353.9350775545506
  0
LINE
  5
2AB69
330
1F
100
AcDbEntity
  8
実線
370
     0
100
AcDbLine
 10
298.0270022753675
 20
174.5922395483821
 30
0.0
 11
298.0530987481345
 21
174.8378534097196
 31
0.0
  0
LINE
  5
2AB6A
330
1F
100
AcDbEntity
  8
実線
370
     0
100
AcDbLine
 10
298.0747959698884
 20
175.042062555638
 30
0.0
 11
298.3409208836653
 21
177.5467676264787
 31
0.0
  0
ARC
  5
2AB6B
330
1F
100
AcDbEntity
  8
実線
370
     0
100
AcDbCircle
 10
298.5242036826919
 20
174.5394118988538
 30
0.0
 40
0.5
100
AcDbArc
 50
173.9350775545506
 51
270.0
  0
LINE
  5
2AB6C
330
1F
100
AcDbEntity
  8
実線
370
     0
100
AcDbLine
 10
300.7321477773114
 20
181.1894118988538
 30
0.0
 11
301.5620572582699
 21
181.9396125596072
 31
0.0
  0
LINE
  5
2AB6D
330
1F
100
AcDbEntity
  8
実線
370
     0
100
AcDbLine
 10
300.862460156199
 20
181.0436078385601
 30
0.0
 11
301.692630126546
 21
181.7940439699475
 31
0.0
  0
LINE
  5
2AB6E
330
1F
100
AcDbEntity
  8
実線
370
     0
100
AcDbLine
 10
299.577951837605
 20
181.1894118988538
 30
0.0
 11
298.7803197479083
 21
181.6499250005546
 31
0.0
  0
LINE
  5
2AB6F
330
1F
100
AcDbEntity
  8
実線
370
     0
100
AcDbLine
 10
298.7539609106595
 20
181.4342031746599
 30
0.0
 11
299.5548326615567
 21
180.971819653693
 31
0.0
  0
LINE
  5
2AB70
330
1F
100
AcDbEntity
  8
実線
370
     0
100
AcDbLine
 10
298.8342018376051
 20
178.1894118988539
 30
0.0
 11
298.4620294871334
 21
178.532056171229
 31
0.0
  0
LINE
  5
2AB71
330
1F
100
AcDbEntity
  8
実線
370
     0
100
AcDbLine
 10
298.8342018376051
 20
178.1894118988539
 30
0.0
 11
299.2956077915449
 21
178.532056171229
 31
0.0
  0
LINE
  5
2AB72
330
1F
100
AcDbEntity
  8
実線
370
     0
100
AcDbLine
 10
298.3409208836653
 20
177.5467676264787
 30
0.0
 11
298.802326837605
 21
177.8894118988539
 31
0.0
  0
LINE
  5
2AB73
330
1F
100
AcDbEntity
  8
実線
370
     0
100
AcDbLine
 10
299.1744991880769
 20
177.5467676264787
 30
0.0
 11
298.802326837605
 21
177.8894118988539
 31
0.0
  0
LINE
  5
2AB74
330
1F
100
AcDbEntity
  8
実線
370
     0
100
AcDbLine
 10
300.984201837605
 20
178.1894118988539
 30
0.0
 11
300.5970710300154
 21
178.5458278274215
 31
0.0
  0
LINE
  5
2AB75
330
1F
100
AcDbEntity
  8
実線
370
     0
100
AcDbLine
 10
300.984201837605
 20
178.1894118988539
 30
0.0
 11
301.445607791545
 21
178.532056171229
 31
0.0
  0
LINE
  5
2AB76
330
1F
100
AcDbEntity
  8
実線
370
     0
100
AcDbLine
 10
300.4909208836652
 20
177.5467676264787
 30
0.0
 11
300.9523268376051
 21
177.8894118988539
 31
0.0
  0
LINE
  5
2AB77
330
1F
100
AcDbEntity
  8
実線
370
     0
100
AcDbLine
 10
301.3394576451948
 20
177.5329959702862
 30
0.0
 11
300.9523268376051
 21
177.8894118988539
 31
0.0
  0
LINE
  5
2AB78
330
1F
100
AcDbEntity
  8
実線
370
     0
100
AcDbLine
 10
298.9406617763128
 20
175.2100359287418
 30
0.0
 11
298.0747959698884
 21
175.042062555638
 31
0.0
  0
LINE
  5
2AB79
330
1F
100
AcDbEntity
  8
実線
370
     0
100
AcDbLine
 10
298.9202514919112
 20
175.0060764418426
 30
0.0
 11
298.0530987481345
 21
174.8378534097196
 31
0.0
  0
LINE
  5
2AB7A
330
1F
100
AcDbEntity
  8
実線
370
     0
100
AcDbLine
 10
300.2426431407807
 20
175.2100359287418
 30
0.0
 11
300.5185749925183
 21
174.0394118988539
 31
0.0
  0
LINE
  5
2AB7B
330
1F
100
AcDbEntity
  8
実線
370
     0
100
AcDbLine
 10
300.1127380102001
 20
174.8894118988538
 30
0.0
 11
300.3130944594005
 21
174.0394118988539
 31
0.0
  0
LINE
  5
2AB7C
330
1F
100
AcDbEntity
  8
実線
370
     0
100
AcDbLine
 10
298.9438962064125
 20
178.0261421634033
 30
0.0
 11
299.4427455823181
 21
178.3965922626542
 31
0.0
  0
LINE
  5
2AB7D
330
1F
100
AcDbEntity
  8
実線
370
     0
100
AcDbLine
 10
299.3350670189263
 20
177.6660067630752
 30
0.0
 11
298.9628946684545
 21
178.0086510354504
 31
0.0
  0
LINE
  5
2AB7E
330
1F
100
AcDbEntity
  8
実線
370
     0
100
AcDbLine
 10
298.9628946684545
 20
178.0086510354504
 30
0.0
 11
298.9438962064125
 21
178.0261421634033
 31
0.0
  0
LINE
  5
2AB7F
330
1F
100
AcDbEntity
  8
実線
370
     0
100
AcDbLine
 10
299.4427455823181
 20
178.3965922626542
 30
0.0
 11
300.4773444905434
 21
178.3965922626542
 31
0.0
  0
LINE
  5
2AB80
330
1F
100
AcDbEntity
  8
実線
370
     0
100
AcDbLine
 10
299.3350670189263
 20
177.6660067630752
 30
0.0
 11
300.3156809634844
 21
177.6660067630752
 31
0.0
  0
LINE
  5
2AB81
330
1F
100
AcDbEntity
  8
実線
370
     0
100
AcDbLine
 10
300.847204502543
 20
178.0560768682901
 30
0.0
 11
300.4773444905434
 21
178.3965922626542
 31
0.0
  0
LINE
  5
2AB82
330
1F
100
AcDbEntity
  8
実線
370
     0
100
AcDbLine
 10
300.3156809634844
 20
177.6660067630752
 30
0.0
 11
300.847204502543
 21
178.0560768682901
 31
0.0
  0
LINE
  5
2AB83
330
1F
100
AcDbEntity
  8
実線
370
     0
100
AcDbLine
 10
306.0157763998427
 20
174.4865842493257
 30
0.0
 11
306.3394576451949
 21
177.5329959702862
 31
0.0
  0
LINE
  5
2AB84
330
1F
100
AcDbEntity
  8
実線
370
     0
100
AcDbLine
 10
306.4456077915449
 20
178.532056171229
 30
0.0
 11
306.7595263998428
 21
181.4865842493256
 31
0.0
  0
LINE
  5
2AB85
330
1F
100
AcDbEntity
  8
実線
370
     0
100
AcDbLine
 10
303.4620294871333
 20
178.532056171229
 30
0.0
 11
303.7539609106596
 21
181.4342031746599
 31
0.0
  0
LINE
  5
2AB86
330
1F
100
AcDbEntity
  8
実線
370
     0
100
AcDbLine
 10
305.3130944594006
 20
174.0394118988539
 30
0.0
 11
303.5242036826919
 21
174.0394118988539
 31
0.0
  0
LINE
  5
2AB87
330
1F
100
AcDbEntity
  8
実線
370
     0
100
AcDbLine
 10
304.2679536826918
 20
182.0394118988538
 30
0.0
 11
306.2623249925183
 21
182.0394118988538
 31
0.0
  0
LINE
  5
2AB88
330
1F
100
AcDbEntity
  8
実線
370
     0
100
AcDbLine
 10
303.9085768376052
 20
174.8894118988538
 30
0.0
 11
303.9202514919111
 21
175.0060764418426
 31
0.0
  0
LINE
  5
2AB89
330
1F
100
AcDbEntity
  8
実線
370
     0
100
AcDbLine
 10
303.9406617763128
 20
175.2100359287418
 30
0.0
 11
304.1744991880769
 21
177.5467676264787
 31
0.0
  0
LINE
  5
2AB8A
330
1F
100
AcDbEntity
  8
実線
370
     0
100
AcDbLine
 10
304.295607791545
 20
178.532056171229
 30
0.0
 11
304.5548326615567
 21
180.971819653693
 31
0.0
  0
LINE
  5
2AB8B
330
1F
100
AcDbEntity
  8
実線
370
     0
100
AcDbLine
 10
305.2426431407807
 20
175.2100359287418
 30
0.0
 11
305.4909208836652
 21
177.5467676264787
 31
0.0
  0
LINE
  5
2AB8C
330
1F
100
AcDbEntity
  8
実線
370
     0
100
AcDbLine
 10
305.5970710300154
 20
178.5458278274214
 30
0.0
 11
305.862460156199
 21
181.0436078385601
 31
0.0
  0
LINE
  5
2AB8D
330
1F
100
AcDbEntity
  8
実線
370
     0
100
AcDbLine
 10
303.9085768376052
 20
174.8894118988538
 30
0.0
 11
305.1127380102002
 21
174.8894118988538
 31
0.0
  0
LINE
  5
2AB8E
330
1F
100
AcDbEntity
  8
実線
370
     0
100
AcDbLine
 10
304.577951837605
 20
181.1894118988538
 30
0.0
 11
305.7321477773113
 21
181.1894118988538
 31
0.0
  0
LINE
  5
2AB8F
330
1F
100
AcDbEntity
  8
実線
370
     0
100
AcDbLine
 10
304.2679536826918
 20
182.0394118988538
 30
0.0
 11
306.2623249925183
 21
182.0394118988538
 31
0.0
  0
ARC
  5
2AB90
330
1F
100
AcDbEntity
  8
実線
370
     0
100
AcDbCircle
 10
304.2679536826918
 20
181.5394118988539
 30
0.0
 40
0.5
100
AcDbArc
 50
90.0
 51
167.2306860022317
  0
LINE
  5
2AB91
330
1F
100
AcDbEntity
  8
実線
370
     0
100
AcDbLine
 10
306.7595263998427
 20
181.4865842493256
 30
0.0
 11
306.4456077915449
 21
178.532056171229
 31
0.0
  0
LINE
  5
2AB92
330
1F
100
AcDbEntity
  8
実線
370
     0
100
AcDbLine
 10
306.3394576451949
 20
177.5329959702862
 30
0.0
 11
306.0157763998427
 21
174.4865842493257
 31
0.0
  0
ARC
  5
2AB93
330
1F
100
AcDbEntity
  8
実線
370
     0
100
AcDbCircle
 10
306.2623249925183
 20
181.5394118988539
 30
0.0
 40
0.5
100
AcDbArc
 50
353.9350775545506
 51
30.61482704589979
  0
ARC
  5
2AB94
330
1F
100
AcDbEntity
  8
実線
370
     0
100
AcDbCircle
 10
306.2623249925183
 20
181.5394118988539
 30
0.0
 40
0.5
100
AcDbArc
 50
53.16844284210926
 51
90.0
  0
LINE
  5
2AB95
330
1F
100
AcDbEntity
  8
実線
370
     0
100
AcDbLine
 10
305.3130944594006
 20
174.0394118988539
 30
0.0
 11
303.5242036826919
 21
174.0394118988539
 31
0.0
  0
ARC
  5
2AB96
330
1F
100
AcDbEntity
  8
実線
370
     0
100
AcDbCircle
 10
305.5185749925183
 20
174.5394118988538
 30
0.0
 40
0.5
100
AcDbArc
 50
270.0
 51
353.9350775545506
  0
LINE
  5
2AB97
330
1F
100
AcDbEntity
  8
実線
370
     0
100
AcDbLine
 10
303.0270022753675
 20
174.5922395483821
 30
0.0
 11
303.0530987481345
 21
174.8378534097196
 31
0.0
  0
LINE
  5
2AB98
330
1F
100
AcDbEntity
  8
実線
370
     0
100
AcDbLine
 10
303.0747959698885
 20
175.042062555638
 30
0.0
 11
303.3409208836653
 21
177.5467676264787
 31
0.0
  0
ARC
  5
2AB99
330
1F
100
AcDbEntity
  8
実線
370
     0
100
AcDbCircle
 10
303.5242036826919
 20
174.5394118988538
 30
0.0
 40
0.5
100
AcDbArc
 50
173.9350775545506
 51
270.0
  0
LINE
  5
2AB9A
330
1F
100
AcDbEntity
  8
実線
370
     0
100
AcDbLine
 10
305.7321477773113
 20
181.1894118988538
 30
0.0
 11
306.5620572582699
 21
181.9396125596072
 31
0.0
  0
LINE
  5
2AB9B
330
1F
100
AcDbEntity
  8
実線
370
     0
100
AcDbLine
 10
305.862460156199
 20
181.0436078385601
 30
0.0
 11
306.692630126546
 21
181.7940439699475
 31
0.0
  0
LINE
  5
2AB9C
330
1F
100
AcDbEntity
  8
実線
370
     0
100
AcDbLine
 10
304.577951837605
 20
181.1894118988538
 30
0.0
 11
303.7803197479083
 21
181.6499250005546
 31
0.0
  0
LINE
  5
2AB9D
330
1F
100
AcDbEntity
  8
実線
370
     0
100
AcDbLine
 10
303.7539609106596
 20
181.4342031746599
 30
0.0
 11
304.5548326615567
 21
180.971819653693
 31
0.0
  0
LINE
  5
2AB9E
330
1F
100
AcDbEntity
  8
実線
370
     0
100
AcDbLine
 10
303.8342018376051
 20
178.1894118988539
 30
0.0
 11
303.4620294871333
 21
178.532056171229
 31
0.0
  0
LINE
  5
2AB9F
330
1F
100
AcDbEntity
  8
実線
370
     0
100
AcDbLine
 10
303.8342018376051
 20
178.1894118988539
 30
0.0
 11
304.295607791545
 21
178.532056171229
 31
0.0
  0
LINE
  5
2ABA0
330
1F
100
AcDbEntity
  8
実線
370
     0
100
AcDbLine
 10
303.3409208836653
 20
177.5467676264787
 30
0.0
 11
303.8023268376051
 21
177.8894118988539
 31
0.0
  0
LINE
  5
2ABA1
330
1F
100
AcDbEntity
  8
実線
370
     0
100
AcDbLine
 10
304.1744991880769
 20
177.5467676264787
 30
0.0
 11
303.8023268376051
 21
177.8894118988539
 31
0.0
  0
LINE
  5
2ABA2
330
1F
100
AcDbEntity
  8
実線
370
     0
100
AcDbLine
 10
305.9842018376051
 20
178.1894118988539
 30
0.0
 11
305.5970710300154
 21
178.5458278274215
 31
0.0
  0
LINE
  5
2ABA3
330
1F
100
AcDbEntity
  8
実線
370
     0
100
AcDbLine
 10
305.9842018376051
 20
178.1894118988539
 30
0.0
 11
306.4456077915449
 21
178.532056171229
 31
0.0
  0
LINE
  5
2ABA4
330
1F
100
AcDbEntity
  8
実線
370
     0
100
AcDbLine
 10
305.4909208836652
 20
177.5467676264787
 30
0.0
 11
305.9523268376052
 21
177.8894118988539
 31
0.0
  0
LINE
  5
2ABA5
330
1F
100
AcDbEntity
  8
実線
370
     0
100
AcDbLine
 10
306.3394576451949
 20
177.5329959702862
 30
0.0
 11
305.9523268376052
 21
177.8894118988539
 31
0.0
  0
LINE
  5
2ABA6
330
1F
100
AcDbEntity
  8
実線
370
     0
100
AcDbLine
 10
303.9406617763128
 20
175.2100359287418
 30
0.0
 11
303.0747959698885
 21
175.042062555638
 31
0.0
  0
LINE
  5
2ABA7
330
1F
100
AcDbEntity
  8
実線
370
     0
100
AcDbLine
 10
303.9202514919111
 20
175.0060764418426
 30
0.0
 11
303.0530987481345
 21
174.8378534097196
 31
0.0
  0
LINE
  5
2ABA8
330
1F
100
AcDbEntity
  8
実線
370
     0
100
AcDbLine
 10
305.2426431407807
 20
175.2100359287418
 30
0.0
 11
305.5185749925183
 21
174.0394118988539
 31
0.0
  0
LINE
  5
2ABA9
330
1F
100
AcDbEntity
  8
実線
370
     0
100
AcDbLine
 10
305.1127380102002
 20
174.8894118988538
 30
0.0
 11
305.3130944594006
 21
174.0394118988539
 31
0.0
  0
LINE
  5
2ABAA
330
1F
100
AcDbEntity
  8
実線
370
     0
100
AcDbLine
 10
303.9438962064125
 20
178.0261421634033
 30
0.0
 11
304.4427455823182
 21
178.3965922626542
 31
0.0
  0
LINE
  5
2ABAB
330
1F
100
AcDbEntity
  8
実線
370
     0
100
AcDbLine
 10
304.3350670189263
 20
177.6660067630752
 30
0.0
 11
303.9628946684545
 21
178.0086510354504
 31
0.0
  0
LINE
  5
2ABAC
330
1F
100
AcDbEntity
  8
実線
370
     0
100
AcDbLine
 10
303.9628946684545
 20
178.0086510354504
 30
0.0
 11
303.9438962064125
 21
178.0261421634033
 31
0.0
  0
LINE
  5
2ABAD
330
1F
100
AcDbEntity
  8
実線
370
     0
100
AcDbLine
 10
304.4427455823182
 20
178.3965922626542
 30
0.0
 11
305.4773444905434
 21
178.3965922626542
 31
0.0
  0
LINE
  5
2ABAE
330
1F
100
AcDbEntity
  8
実線
370
     0
100
AcDbLine
 10
304.3350670189263
 20
177.6660067630752
 30
0.0
 11
305.3156809634844
 21
177.6660067630752
 31
0.0
  0
LINE
  5
2ABAF
330
1F
100
AcDbEntity
  8
実線
370
     0
100
AcDbLine
 10
305.8472045025431
 20
178.0560768682901
 30
0.0
 11
305.4773444905434
 21
178.3965922626542
 31
0.0
  0
LINE
  5
2ABB0
330
1F
100
AcDbEntity
  8
実線
370
     0
100
AcDbLine
 10
305.3156809634844
 20
177.6660067630752
 30
0.0
 11
305.8472045025431
 21
178.0560768682901
 31
0.0
  0
LINE
  5
2ABB1
330
1F
100
AcDbEntity
  8
実線
370
     0
100
AcDbLine
 10
308.4406400756397
 20
174.0394118988539
 30
0.0
 11
309.2182643376052
 21
174.0394118988539
 31
0.0
  0
LINE
  5
2ABB2
330
1F
100
AcDbEntity
  8
実線
370
     0
100
AcDbLine
 10
308.24175951271
 20
174.2605429586651
 30
0.0
 11
308.2561647645261
 21
174.3961217992876
 31
0.0
  0
LINE
  5
2ABB3
330
1F
100
AcDbEntity
  8
実線
370
     0
100
AcDbLine
 10
308.2667302944319
 20
174.4955620807524
 30
0.0
 11
308.4042910427466
 21
175.7902514766566
 31
0.0
  0
LINE
  5
2ABB4
330
1F
100
AcDbEntity
  8
実線
370
     0
100
AcDbLine
 10
308.4572376324636
 20
176.2885723210511
 30
0.0
 11
308.6131085520259
 21
177.7555927404615
 31
0.0
  0
ARC
  5
2ABB5
330
1F
100
AcDbEntity
  8
実線
370
     0
100
AcDbCircle
 10
308.4406400756397
 20
174.2394118988538
 30
0.0
 40
0.2
100
AcDbArc
 50
173.9350775545521
 51
270.0
  0
ARC
  5
2ABB6
330
1F
100
AcDbEntity
  8
実線
370
     0
100
AcDbCircle
 10
308.8231400756398
 20
177.8394118988538
 30
0.0
 40
0.2
100
AcDbArc
 50
90.0
 51
173.9350775545521
  0
LINE
  5
2ABB7
330
1F
100
AcDbEntity
  8
実線
370
     0
100
AcDbLine
 10
310.2372691625002
 20
174.2182808390425
 30
0.0
 11
310.4037297489704
 21
175.7849687117038
 31
0.0
  0
LINE
  5
2ABB8
330
1F
100
AcDbEntity
  8
実線
370
     0
100
AcDbLine
 10
310.4577989262399
 20
176.2938550860039
 30
0.0
 11
310.6197691625001
 21
177.8182808390425
 31
0.0
  0
ARC
  5
2ABB9
330
1F
100
AcDbEntity
  8
実線
370
     0
100
AcDbCircle
 10
310.4208885995704
 20
177.8394118988538
 30
0.0
 40
0.2
100
AcDbArc
 50
353.9350775545506
 51
19.15964585805588
  0
ARC
  5
2ABBA
330
1F
100
AcDbEntity
  8
実線
370
     0
100
AcDbCircle
 10
310.4208885995704
 20
177.8394118988538
 30
0.0
 40
0.2
100
AcDbArc
 50
47.93517548859148
 51
90.0
  0
LINE
  5
2ABBB
330
1F
100
AcDbEntity
  8
実線
370
     0
100
AcDbLine
 10
310.4208885995704
 20
178.0394118988538
 30
0.0
 11
308.8231400756398
 21
178.0394118988538
 31
0.0
  0
LINE
  5
2ABBC
330
1F
100
AcDbEntity
  8
実線
370
     0
100
AcDbLine
 10
308.5501393376051
 20
174.3394118988538
 30
0.0
 11
308.5619055093039
 21
174.4501523383719
 31
0.0
  0
LINE
  5
2ABBD
330
1F
100
AcDbEntity
  8
実線
370
     0
100
AcDbLine
 10
308.5724710392096
 20
174.5495926198368
 30
0.0
 11
308.7042910427467
 21
175.7902514766565
 31
0.0
  0
LINE
  5
2ABBE
330
1F
100
AcDbEntity
  8
実線
370
     0
100
AcDbLine
 10
308.7572376324636
 20
176.2885723210511
 30
0.0
 11
308.8987738947187
 21
177.6206783187464
 31
0.0
  0
LINE
  5
2ABBF
330
1F
100
AcDbEntity
  8
実線
370
     0
100
AcDbLine
 10
309.9724710392095
 20
174.5495926198368
 30
0.0
 11
310.104852336523
 21
175.7955342416094
 31
0.0
  0
LINE
  5
2ABC0
330
1F
100
AcDbEntity
  8
実線
370
     0
100
AcDbLine
 10
310.1566763386874
 20
176.2832895560983
 30
0.0
 11
310.3041727984878
 21
177.6714915306901
 31
0.0
  0
LINE
  5
2ABC1
330
1F
100
AcDbEntity
  8
実線
370
     0
100
AcDbLine
 10
308.5182643376052
 20
174.0394118988538
 30
0.0
 11
309.9382072658693
 21
174.0394118988538
 31
0.0
  0
LINE
  5
2ABC2
330
1F
100
AcDbEntity
  8
実線
370
     0
100
AcDbLine
 10
308.5501393376051
 20
174.3394118988538
 30
0.0
 11
309.8994459656184
 21
174.3394118988538
 31
0.0
  0
LINE
  5
2ABC3
330
1F
100
AcDbEntity
  8
実線
370
     0
100
AcDbLine
 10
308.9113893376052
 20
177.7394118988538
 30
0.0
 11
310.229725317407
 21
177.7394118988538
 31
0.0
  0
LINE
  5
2ABC4
330
1F
100
AcDbEntity
  8
実線
370
     0
100
AcDbLine
 10
310.3041727984877
 20
177.6714915306901
 30
0.0
 11
310.6098101517551
 21
177.9050521846553
 31
0.0
  0
LINE
  5
2ABC5
330
1F
100
AcDbEntity
  8
実線
370
     0
100
AcDbLine
 10
310.2297253174071
 20
177.7394118988538
 30
0.0
 11
310.5548827941366
 21
177.9878893578251
 31
0.0
  0
LINE
  5
2ABC6
330
1F
100
AcDbEntity
  8
実線
370
     0
100
AcDbLine
 10
308.9113893376052
 20
177.7394118988538
 30
0.0
 11
308.6242595127101
 21
177.8605429586651
 31
0.0
  0
LINE
  5
2ABC7
330
1F
100
AcDbEntity
  8
実線
370
     0
100
AcDbLine
 10
308.8987738947187
 20
177.6206783187464
 30
0.0
 11
308.613108552026
 21
177.7555927404617
 31
0.0
  0
LINE
  5
2ABC8
330
1F
100
AcDbEntity
  8
実線
370
     0
100
AcDbLine
 10
308.5619055093039
 20
174.4501523383719
 30
0.0
 11
308.2561647645261
 21
174.3961217992876
 31
0.0
  0
LINE
  5
2ABC9
330
1F
100
AcDbEntity
  8
実線
370
     0
100
AcDbLine
 10
308.5724710392096
 20
174.5495926198368
 30
0.0
 11
308.2667302944318
 21
174.4955620807524
 31
0.0
  0
LINE
  5
2ABCA
330
1F
100
AcDbEntity
  8
実線
370
     0
100
AcDbLine
 10
309.9724710392095
 20
174.5495926198368
 30
0.0
 11
310.0383885995705
 21
174.0394118988538
 31
0.0
  0
LINE
  5
2ABCB
330
1F
100
AcDbEntity
  8
実線
370
     0
100
AcDbLine
 10
309.8994459656184
 20
174.3394118988538
 30
0.0
 11
309.9382072658693
 21
174.0394118988538
 31
0.0
  0
LINE
  5
2ABCC
330
1F
100
AcDbEntity
  8
実線
370
     0
100
AcDbLine
 10
308.5913893376051
 20
176.1394118988538
 30
0.0
 11
308.7572376324636
 21
176.2885723210511
 31
0.0
  0
LINE
  5
2ABCD
330
1F
100
AcDbEntity
  8
実線
370
     0
100
AcDbLine
 10
308.5913893376051
 20
176.1394118988538
 30
0.0
 11
308.4572376324636
 21
176.2885723210511
 31
0.0
  0
LINE
  5
2ABCE
330
1F
100
AcDbEntity
  8
実線
370
     0
100
AcDbLine
 10
308.4042910427466
 20
175.7902514766565
 30
0.0
 11
308.5701393376051
 21
175.9394118988538
 31
0.0
  0
LINE
  5
2ABCF
330
1F
100
AcDbEntity
  8
実線
370
     0
100
AcDbLine
 10
308.7042910427467
 20
175.7902514766566
 30
0.0
 11
308.5701393376051
 21
175.9394118988538
 31
0.0
  0
LINE
  5
2ABD0
330
1F
100
AcDbEntity
  8
実線
370
     0
100
AcDbLine
 10
310.2860768376051
 20
176.1394118988538
 30
0.0
 11
310.4577989262399
 21
176.293855086004
 31
0.0
  0
LINE
  5
2ABD1
330
1F
100
AcDbEntity
  8
実線
370
     0
100
AcDbLine
 10
310.2860768376051
 20
176.1394118988538
 30
0.0
 11
310.1566763386874
 21
176.2832895560983
 31
0.0
  0
LINE
  5
2ABD2
330
1F
100
AcDbEntity
  8
実線
370
     0
100
AcDbLine
 10
310.104852336523
 20
175.7955342416094
 30
0.0
 11
310.2648268376051
 21
175.9394118988538
 31
0.0
  0
LINE
  5
2ABD3
330
1F
100
AcDbEntity
  8
実線
370
     0
100
AcDbLine
 10
310.4037297489704
 20
175.7849687117038
 30
0.0
 11
310.2648268376051
 21
175.9394118988538
 31
0.0
  0
LINE
  5
2ABD4
330
1F
100
AcDbEntity
  8
実線
370
     0
100
AcDbLine
 10
308.6214247957914
 20
176.0319304649329
 30
0.0
 11
308.7965250462661
 21
176.1894118988538
 31
0.0
  0
LINE
  5
2ABD5
330
1F
100
AcDbEntity
  8
実線
370
     0
100
AcDbLine
 10
308.749602957077
 20
175.8894118988538
 30
0.0
 11
308.6214247957914
 21
176.0319304649329
 31
0.0
  0
LINE
  5
2ABD6
330
1F
100
AcDbEntity
  8
実線
370
     0
100
AcDbLine
 10
310.0596911289441
 20
175.8894118988538
 30
0.0
 11
310.2347913794188
 21
176.0468933327747
 31
0.0
  0
LINE
  5
2ABD7
330
1F
100
AcDbEntity
  8
実線
370
     0
100
AcDbLine
 10
310.2347913794188
 20
176.0468933327747
 30
0.0
 11
310.1066132181331
 21
176.1894118988538
 31
0.0
  0
LINE
  5
2ABD8
330
1F
100
AcDbEntity
  8
実線
370
     0
100
AcDbLine
 10
310.1066132181331
 20
176.1894118988538
 30
0.0
 11
308.7965250462662
 21
176.1894118988538
 31
0.0
  0
LINE
  5
2ABD9
330
1F
100
AcDbEntity
  8
実線
370
     0
100
AcDbLine
 10
310.0596911289441
 20
175.8894118988538
 30
0.0
 11
308.749602957077
 21
175.8894118988538
 31
0.0
  0
ARC
  5
2ABDA
330
1F
100
AcDbEntity
  8
実線
370
     0
100
AcDbCircle
 10
314.5383885995705
 20
174.2394118988538
 30
0.0
 40
0.2
100
AcDbArc
 50
270.0
 51
353.9350775545522
  0
LINE
  5
2ABDB
330
1F
100
AcDbEntity
  8
実線
370
     0
100
AcDbLine
 10
312.9406400756398
 20
174.0394118988539
 30
0.0
 11
313.7182643376052
 21
174.0394118988539
 31
0.0
  0
LINE
  5
2ABDC
330
1F
100
AcDbEntity
  8
実線
370
     0
100
AcDbLine
 10
312.74175951271
 20
174.2605429586651
 30
0.0
 11
312.7561647645261
 21
174.3961217992876
 31
0.0
  0
LINE
  5
2ABDD
330
1F
100
AcDbEntity
  8
実線
370
     0
100
AcDbLine
 10
312.7667302944319
 20
174.4955620807524
 30
0.0
 11
312.9042910427466
 21
175.7902514766566
 31
0.0
  0
LINE
  5
2ABDE
330
1F
100
AcDbEntity
  8
実線
370
     0
100
AcDbLine
 10
312.9572376324636
 20
176.2885723210511
 30
0.0
 11
313.1131085520259
 21
177.7555927404615
 31
0.0
  0
ARC
  5
2ABDF
330
1F
100
AcDbEntity
  8
実線
370
     0
100
AcDbCircle
 10
312.9406400756398
 20
174.2394118988538
 30
0.0
 40
0.2
100
AcDbArc
 50
173.9350775545521
 51
270.0
  0
ARC
  5
2ABE0
330
1F
100
AcDbEntity
  8
実線
370
     0
100
AcDbCircle
 10
313.3231400756398
 20
177.8394118988538
 30
0.0
 40
0.2
100
AcDbArc
 50
90.0
 51
173.9350775545521
  0
LINE
  5
2ABE1
330
1F
100
AcDbEntity
  8
実線
370
     0
100
AcDbLine
 10
314.7372691625002
 20
174.2182808390425
 30
0.0
 11
314.9037297489704
 21
175.7849687117038
 31
0.0
  0
LINE
  5
2ABE2
330
1F
100
AcDbEntity
  8
実線
370
     0
100
AcDbLine
 10
314.9577989262398
 20
176.2938550860039
 30
0.0
 11
315.1197691625001
 21
177.8182808390425
 31
0.0
  0
ARC
  5
2ABE3
330
1F
100
AcDbEntity
  8
実線
370
     0
100
AcDbCircle
 10
314.9208885995704
 20
177.8394118988538
 30
0.0
 40
0.2
100
AcDbArc
 50
353.9350775545506
 51
19.15964585805588
  0
ARC
  5
2ABE4
330
1F
100
AcDbEntity
  8
実線
370
     0
100
AcDbCircle
 10
314.9208885995704
 20
177.8394118988538
 30
0.0
 40
0.2
100
AcDbArc
 50
47.93517548859148
 51
90.0
  0
LINE
  5
2ABE5
330
1F
100
AcDbEntity
  8
実線
370
     0
100
AcDbLine
 10
314.9208885995704
 20
178.0394118988538
 30
0.0
 11
313.3231400756398
 21
178.0394118988538
 31
0.0
  0
LINE
  5
2ABE6
330
1F
100
AcDbEntity
  8
実線
370
     0
100
AcDbLine
 10
313.0501393376051
 20
174.3394118988538
 30
0.0
 11
313.0619055093039
 21
174.4501523383719
 31
0.0
  0
LINE
  5
2ABE7
330
1F
100
AcDbEntity
  8
実線
370
     0
100
AcDbLine
 10
313.0724710392096
 20
174.5495926198368
 30
0.0
 11
313.2042910427467
 21
175.7902514766565
 31
0.0
  0
LINE
  5
2ABE8
330
1F
100
AcDbEntity
  8
実線
370
     0
100
AcDbLine
 10
313.2572376324636
 20
176.2885723210511
 30
0.0
 11
313.3987738947187
 21
177.6206783187464
 31
0.0
  0
LINE
  5
2ABE9
330
1F
100
AcDbEntity
  8
実線
370
     0
100
AcDbLine
 10
314.4724710392095
 20
174.5495926198368
 30
0.0
 11
314.6048523365231
 21
175.7955342416094
 31
0.0
  0
LINE
  5
2ABEA
330
1F
100
AcDbEntity
  8
実線
370
     0
100
AcDbLine
 10
314.6566763386874
 20
176.2832895560983
 30
0.0
 11
314.8041727984878
 21
177.6714915306901
 31
0.0
  0
LINE
  5
2ABEB
330
1F
100
AcDbEntity
  8
実線
370
     0
100
AcDbLine
 10
313.0182643376052
 20
174.0394118988538
 30
0.0
 11
314.4182643376051
 21
174.0394118988538
 31
0.0
  0
LINE
  5
2ABEC
330
1F
100
AcDbEntity
  8
実線
370
     0
100
AcDbLine
 10
313.0501393376051
 20
174.3394118988538
 30
0.0
 11
314.3994459656184
 21
174.3394118988538
 31
0.0
  0
LINE
  5
2ABED
330
1F
100
AcDbEntity
  8
実線
370
     0
100
AcDbLine
 10
313.4113893376051
 20
177.7394118988538
 30
0.0
 11
314.729725317407
 21
177.7394118988538
 31
0.0
  0
LINE
  5
2ABEE
330
1F
100
AcDbEntity
  8
実線
370
     0
100
AcDbLine
 10
314.8041727984877
 20
177.6714915306901
 30
0.0
 11
315.1098101517551
 21
177.9050521846553
 31
0.0
  0
LINE
  5
2ABEF
330
1F
100
AcDbEntity
  8
実線
370
     0
100
AcDbLine
 10
314.7297253174071
 20
177.7394118988538
 30
0.0
 11
315.0548827941366
 21
177.9878893578251
 31
0.0
  0
LINE
  5
2ABF0
330
1F
100
AcDbEntity
  8
実線
370
     0
100
AcDbLine
 10
313.4113893376051
 20
177.7394118988538
 30
0.0
 11
313.1242595127101
 21
177.8605429586651
 31
0.0
  0
LINE
  5
2ABF1
330
1F
100
AcDbEntity
  8
実線
370
     0
100
AcDbLine
 10
313.3987738947187
 20
177.6206783187464
 30
0.0
 11
313.113108552026
 21
177.7555927404617
 31
0.0
  0
LINE
  5
2ABF2
330
1F
100
AcDbEntity
  8
実線
370
     0
100
AcDbLine
 10
313.0619055093039
 20
174.4501523383719
 30
0.0
 11
312.7561647645261
 21
174.3961217992876
 31
0.0
  0
LINE
  5
2ABF3
330
1F
100
AcDbEntity
  8
実線
370
     0
100
AcDbLine
 10
313.0724710392096
 20
174.5495926198368
 30
0.0
 11
312.7667302944318
 21
174.4955620807524
 31
0.0
  0
LINE
  5
2ABF4
330
1F
100
AcDbEntity
  8
実線
370
     0
100
AcDbLine
 10
314.4724710392095
 20
174.5495926198368
 30
0.0
 11
314.5383885995705
 21
174.0394118988538
 31
0.0
  0
LINE
  5
2ABF5
330
1F
100
AcDbEntity
  8
実線
370
     0
100
AcDbLine
 10
314.3994459656184
 20
174.3394118988538
 30
0.0
 11
314.4382072658693
 21
174.0394118988538
 31
0.0
  0
LINE
  5
2ABF6
330
1F
100
AcDbEntity
  8
実線
370
     0
100
AcDbLine
 10
313.091389337605
 20
176.1394118988538
 30
0.0
 11
313.2572376324636
 21
176.2885723210511
 31
0.0
  0
LINE
  5
2ABF7
330
1F
100
AcDbEntity
  8
実線
370
     0
100
AcDbLine
 10
313.091389337605
 20
176.1394118988538
 30
0.0
 11
312.9572376324636
 21
176.2885723210511
 31
0.0
  0
LINE
  5
2ABF8
330
1F
100
AcDbEntity
  8
実線
370
     0
100
AcDbLine
 10
312.9042910427466
 20
175.7902514766565
 30
0.0
 11
313.0701393376051
 21
175.9394118988538
 31
0.0
  0
LINE
  5
2ABF9
330
1F
100
AcDbEntity
  8
実線
370
     0
100
AcDbLine
 10
313.2042910427467
 20
175.7902514766566
 30
0.0
 11
313.0701393376051
 21
175.9394118988538
 31
0.0
  0
LINE
  5
2ABFA
330
1F
100
AcDbEntity
  8
実線
370
     0
100
AcDbLine
 10
314.7860768376052
 20
176.1394118988538
 30
0.0
 11
314.9577989262398
 21
176.293855086004
 31
0.0
  0
LINE
  5
2ABFB
330
1F
100
AcDbEntity
  8
実線
370
     0
100
AcDbLine
 10
314.7860768376052
 20
176.1394118988538
 30
0.0
 11
314.6566763386874
 21
176.2832895560983
 31
0.0
  0
LINE
  5
2ABFC
330
1F
100
AcDbEntity
  8
実線
370
     0
100
AcDbLine
 10
314.6048523365231
 20
175.7955342416094
 30
0.0
 11
314.7648268376051
 21
175.9394118988538
 31
0.0
  0
LINE
  5
2ABFD
330
1F
100
AcDbEntity
  8
実線
370
     0
100
AcDbLine
 10
314.9037297489704
 20
175.7849687117038
 30
0.0
 11
314.7648268376051
 21
175.9394118988538
 31
0.0
  0
LINE
  5
2ABFE
330
1F
100
AcDbEntity
  8
実線
370
     0
100
AcDbLine
 10
313.1214247957914
 20
176.0319304649329
 30
0.0
 11
313.2965250462661
 21
176.1894118988538
 31
0.0
  0
LINE
  5
2ABFF
330
1F
100
AcDbEntity
  8
実線
370
     0
100
AcDbLine
 10
313.249602957077
 20
175.8894118988538
 30
0.0
 11
313.1214247957914
 21
176.0319304649329
 31
0.0
  0
LINE
  5
2AC00
330
1F
100
AcDbEntity
  8
実線
370
     0
100
AcDbLine
 10
314.5596911289441
 20
175.8894118988538
 30
0.0
 11
314.7347913794188
 21
176.0468933327747
 31
0.0
  0
LINE
  5
2AC01
330
1F
100
AcDbEntity
  8
実線
370
     0
100
AcDbLine
 10
314.7347913794188
 20
176.0468933327747
 30
0.0
 11
314.6066132181331
 21
176.1894118988538
 31
0.0
  0
LINE
  5
2AC02
330
1F
100
AcDbEntity
  8
実線
370
     0
100
AcDbLine
 10
314.6066132181331
 20
176.1894118988538
 30
0.0
 11
313.2965250462662
 21
176.1894118988538
 31
0.0
  0
LINE
  5
2AC03
330
1F
100
AcDbEntity
  8
実線
370
     0
100
AcDbLine
 10
314.5596911289441
 20
175.8894118988538
 30
0.0
 11
313.249602957077
 21
175.8894118988538
 31
0.0
  0
ARC
  5
2AC04
330
1F
100
AcDbEntity
  8
実線
370
     0
100
AcDbCircle
 10
319.0383885995704
 20
174.2394118988538
 30
0.0
 40
0.2
100
AcDbArc
 50
270.0
 51
353.9350775545522
  0
LINE
  5
2AC05
330
1F
100
AcDbEntity
  8
実線
370
     0
100
AcDbLine
 10
317.4406400756398
 20
174.0394118988539
 30
0.0
 11
318.2182643376052
 21
174.0394118988539
 31
0.0
  0
LINE
  5
2AC06
330
1F
100
AcDbEntity
  8
実線
370
     0
100
AcDbLine
 10
317.24175951271
 20
174.2605429586651
 30
0.0
 11
317.2561647645261
 21
174.3961217992876
 31
0.0
  0
LINE
  5
2AC07
330
1F
100
AcDbEntity
  8
実線
370
     0
100
AcDbLine
 10
317.2667302944319
 20
174.4955620807524
 30
0.0
 11
317.4042910427467
 21
175.7902514766566
 31
0.0
  0
LINE
  5
2AC08
330
1F
100
AcDbEntity
  8
実線
370
     0
100
AcDbLine
 10
317.4572376324636
 20
176.2885723210511
 30
0.0
 11
317.6131085520259
 21
177.7555927404615
 31
0.0
  0
ARC
  5
2AC09
330
1F
100
AcDbEntity
  8
実線
370
     0
100
AcDbCircle
 10
317.4406400756398
 20
174.2394118988538
 30
0.0
 40
0.2
100
AcDbArc
 50
173.9350775545521
 51
270.0
  0
ARC
  5
2AC0A
330
1F
100
AcDbEntity
  8
実線
370
     0
100
AcDbCircle
 10
317.8231400756398
 20
177.8394118988538
 30
0.0
 40
0.2
100
AcDbArc
 50
90.0
 51
173.9350775545521
  0
LINE
  5
2AC0B
330
1F
100
AcDbEntity
  8
実線
370
     0
100
AcDbLine
 10
319.2372691625002
 20
174.2182808390425
 30
0.0
 11
319.4037297489704
 21
175.7849687117038
 31
0.0
  0
LINE
  5
2AC0C
330
1F
100
AcDbEntity
  8
実線
370
     0
100
AcDbLine
 10
319.4577989262398
 20
176.2938550860039
 30
0.0
 11
319.6197691625001
 21
177.8182808390425
 31
0.0
  0
ARC
  5
2AC0D
330
1F
100
AcDbEntity
  8
実線
370
     0
100
AcDbCircle
 10
319.4208885995704
 20
177.8394118988538
 30
0.0
 40
0.2
100
AcDbArc
 50
353.9350775545506
 51
19.15964585805588
  0
ARC
  5
2AC0E
330
1F
100
AcDbEntity
  8
実線
370
     0
100
AcDbCircle
 10
319.4208885995704
 20
177.8394118988538
 30
0.0
 40
0.2
100
AcDbArc
 50
47.93517548859148
 51
90.0
  0
LINE
  5
2AC0F
330
1F
100
AcDbEntity
  8
実線
370
     0
100
AcDbLine
 10
319.4208885995704
 20
178.0394118988538
 30
0.0
 11
317.8231400756398
 21
178.0394118988538
 31
0.0
  0
LINE
  5
2AC10
330
1F
100
AcDbEntity
  8
実線
370
     0
100
AcDbLine
 10
317.550139337605
 20
174.3394118988538
 30
0.0
 11
317.5619055093039
 21
174.4501523383719
 31
0.0
  0
LINE
  5
2AC11
330
1F
100
AcDbEntity
  8
実線
370
     0
100
AcDbLine
 10
317.5724710392096
 20
174.5495926198368
 30
0.0
 11
317.7042910427467
 21
175.7902514766565
 31
0.0
  0
LINE
  5
2AC12
330
1F
100
AcDbEntity
  8
実線
370
     0
100
AcDbLine
 10
317.7572376324635
 20
176.2885723210511
 30
0.0
 11
317.8987738947187
 21
177.6206783187464
 31
0.0
  0
LINE
  5
2AC13
330
1F
100
AcDbEntity
  8
実線
370
     0
100
AcDbLine
 10
318.9724710392095
 20
174.5495926198368
 30
0.0
 11
319.1048523365231
 21
175.7955342416094
 31
0.0
  0
LINE
  5
2AC14
330
1F
100
AcDbEntity
  8
実線
370
     0
100
AcDbLine
 10
319.1566763386874
 20
176.2832895560983
 30
0.0
 11
319.3041727984878
 21
177.6714915306901
 31
0.0
  0
LINE
  5
2AC15
330
1F
100
AcDbEntity
  8
実線
370
     0
100
AcDbLine
 10
317.5182643376051
 20
174.0394118988538
 30
0.0
 11
318.9182643376051
 21
174.0394118988538
 31
0.0
  0
LINE
  5
2AC16
330
1F
100
AcDbEntity
  8
実線
370
     0
100
AcDbLine
 10
317.550139337605
 20
174.3394118988538
 30
0.0
 11
318.8994459656184
 21
174.3394118988538
 31
0.0
  0
LINE
  5
2AC17
330
1F
100
AcDbEntity
  8
実線
370
     0
100
AcDbLine
 10
317.9113893376051
 20
177.7394118988538
 30
0.0
 11
319.229725317407
 21
177.7394118988538
 31
0.0
  0
LINE
  5
2AC18
330
1F
100
AcDbEntity
  8
実線
370
     0
100
AcDbLine
 10
319.3041727984877
 20
177.6714915306901
 30
0.0
 11
319.6098101517551
 21
177.9050521846553
 31
0.0
  0
LINE
  5
2AC19
330
1F
100
AcDbEntity
  8
実線
370
     0
100
AcDbLine
 10
319.2297253174071
 20
177.7394118988538
 30
0.0
 11
319.5548827941366
 21
177.9878893578251
 31
0.0
  0
LINE
  5
2AC1A
330
1F
100
AcDbEntity
  8
実線
370
     0
100
AcDbLine
 10
317.9113893376051
 20
177.7394118988538
 30
0.0
 11
317.6242595127101
 21
177.8605429586651
 31
0.0
  0
LINE
  5
2AC1B
330
1F
100
AcDbEntity
  8
実線
370
     0
100
AcDbLine
 10
317.8987738947187
 20
177.6206783187464
 30
0.0
 11
317.613108552026
 21
177.7555927404617
 31
0.0
  0
LINE
  5
2AC1C
330
1F
100
AcDbEntity
  8
実線
370
     0
100
AcDbLine
 10
317.5619055093039
 20
174.4501523383719
 30
0.0
 11
317.2561647645261
 21
174.3961217992876
 31
0.0
  0
LINE
  5
2AC1D
330
1F
100
AcDbEntity
  8
実線
370
     0
100
AcDbLine
 10
317.5724710392096
 20
174.5495926198368
 30
0.0
 11
317.2667302944318
 21
174.4955620807524
 31
0.0
  0
LINE
  5
2AC1E
330
1F
100
AcDbEntity
  8
実線
370
     0
100
AcDbLine
 10
318.9724710392095
 20
174.5495926198368
 30
0.0
 11
319.0383885995704
 21
174.0394118988538
 31
0.0
  0
LINE
  5
2AC1F
330
1F
100
AcDbEntity
  8
実線
370
     0
100
AcDbLine
 10
318.8994459656184
 20
174.3394118988538
 30
0.0
 11
318.9382072658693
 21
174.0394118988538
 31
0.0
  0
LINE
  5
2AC20
330
1F
100
AcDbEntity
  8
実線
370
     0
100
AcDbLine
 10
317.591389337605
 20
176.1394118988538
 30
0.0
 11
317.7572376324635
 21
176.2885723210511
 31
0.0
  0
LINE
  5
2AC21
330
1F
100
AcDbEntity
  8
実線
370
     0
100
AcDbLine
 10
317.591389337605
 20
176.1394118988538
 30
0.0
 11
317.4572376324636
 21
176.2885723210511
 31
0.0
  0
LINE
  5
2AC22
330
1F
100
AcDbEntity
  8
実線
370
     0
100
AcDbLine
 10
317.4042910427467
 20
175.7902514766565
 30
0.0
 11
317.5701393376052
 21
175.9394118988538
 31
0.0
  0
LINE
  5
2AC23
330
1F
100
AcDbEntity
  8
実線
370
     0
100
AcDbLine
 10
317.7042910427467
 20
175.7902514766566
 30
0.0
 11
317.5701393376052
 21
175.9394118988538
 31
0.0
  0
LINE
  5
2AC24
330
1F
100
AcDbEntity
  8
実線
370
     0
100
AcDbLine
 10
319.2860768376052
 20
176.1394118988538
 30
0.0
 11
319.4577989262398
 21
176.293855086004
 31
0.0
  0
LINE
  5
2AC25
330
1F
100
AcDbEntity
  8
実線
370
     0
100
AcDbLine
 10
319.2860768376052
 20
176.1394118988538
 30
0.0
 11
319.1566763386874
 21
176.2832895560983
 31
0.0
  0
LINE
  5
2AC26
330
1F
100
AcDbEntity
  8
実線
370
     0
100
AcDbLine
 10
319.1048523365231
 20
175.7955342416094
 30
0.0
 11
319.2648268376051
 21
175.9394118988538
 31
0.0
  0
LINE
  5
2AC27
330
1F
100
AcDbEntity
  8
実線
370
     0
100
AcDbLine
 10
319.4037297489704
 20
175.7849687117038
 30
0.0
 11
319.2648268376051
 21
175.9394118988538
 31
0.0
  0
LINE
  5
2AC28
330
1F
100
AcDbEntity
  8
実線
370
     0
100
AcDbLine
 10
317.6214247957914
 20
176.0319304649329
 30
0.0
 11
317.7965250462662
 21
176.1894118988538
 31
0.0
  0
LINE
  5
2AC29
330
1F
100
AcDbEntity
  8
実線
370
     0
100
AcDbLine
 10
317.7496029570771
 20
175.8894118988538
 30
0.0
 11
317.6214247957914
 21
176.0319304649329
 31
0.0
  0
LINE
  5
2AC2A
330
1F
100
AcDbEntity
  8
実線
370
     0
100
AcDbLine
 10
319.0596911289441
 20
175.8894118988538
 30
0.0
 11
319.2347913794188
 21
176.0468933327747
 31
0.0
  0
LINE
  5
2AC2B
330
1F
100
AcDbEntity
  8
実線
370
     0
100
AcDbLine
 10
319.2347913794188
 20
176.0468933327747
 30
0.0
 11
319.1066132181331
 21
176.1894118988538
 31
0.0
  0
LINE
  5
2AC2C
330
1F
100
AcDbEntity
  8
実線
370
     0
100
AcDbLine
 10
319.1066132181331
 20
176.1894118988538
 30
0.0
 11
317.7965250462662
 21
176.1894118988538
 31
0.0
  0
LINE
  5
2AC2D
330
1F
100
AcDbEntity
  8
実線
370
     0
100
AcDbLine
 10
319.0596911289441
 20
175.8894118988538
 30
0.0
 11
317.7496029570771
 21
175.8894118988538
 31
0.0
  0
ARC
  5
2AC2E
330
1F
100
AcDbEntity
  8
実線
370
     0
100
AcDbCircle
 10
323.5383885995704
 20
174.2394118988538
 30
0.0
 40
0.2
100
AcDbArc
 50
270.0
 51
353.9350775545522
  0
LINE
  5
2AC2F
330
1F
100
AcDbEntity
  8
実線
370
     0
100
AcDbLine
 10
321.9406400756398
 20
174.0394118988539
 30
0.0
 11
322.7182643376051
 21
174.0394118988539
 31
0.0
  0
LINE
  5
2AC30
330
1F
100
AcDbEntity
  8
実線
370
     0
100
AcDbLine
 10
321.74175951271
 20
174.2605429586651
 30
0.0
 11
321.7561647645262
 21
174.3961217992876
 31
0.0
  0
LINE
  5
2AC31
330
1F
100
AcDbEntity
  8
実線
370
     0
100
AcDbLine
 10
321.7667302944319
 20
174.4955620807524
 30
0.0
 11
321.9042910427467
 21
175.7902514766566
 31
0.0
  0
LINE
  5
2AC32
330
1F
100
AcDbEntity
  8
実線
370
     0
100
AcDbLine
 10
321.9572376324636
 20
176.2885723210511
 30
0.0
 11
322.1131085520259
 21
177.7555927404615
 31
0.0
  0
ARC
  5
2AC33
330
1F
100
AcDbEntity
  8
実線
370
     0
100
AcDbCircle
 10
321.9406400756398
 20
174.2394118988538
 30
0.0
 40
0.2
100
AcDbArc
 50
173.9350775545521
 51
270.0
  0
ARC
  5
2AC34
330
1F
100
AcDbEntity
  8
実線
370
     0
100
AcDbCircle
 10
322.3231400756398
 20
177.8394118988538
 30
0.0
 40
0.2
100
AcDbArc
 50
90.0
 51
173.9350775545521
  0
LINE
  5
2AC35
330
1F
100
AcDbEntity
  8
実線
370
     0
100
AcDbLine
 10
323.7372691625002
 20
174.2182808390425
 30
0.0
 11
323.9037297489704
 21
175.7849687117038
 31
0.0
  0
LINE
  5
2AC36
330
1F
100
AcDbEntity
  8
実線
370
     0
100
AcDbLine
 10
323.9577989262398
 20
176.2938550860039
 30
0.0
 11
324.1197691625001
 21
177.8182808390425
 31
0.0
  0
ARC
  5
2AC37
330
1F
100
AcDbEntity
  8
実線
370
     0
100
AcDbCircle
 10
323.9208885995704
 20
177.8394118988538
 30
0.0
 40
0.2
100
AcDbArc
 50
353.9350775545506
 51
19.15964585805588
  0
ARC
  5
2AC38
330
1F
100
AcDbEntity
  8
実線
370
     0
100
AcDbCircle
 10
323.9208885995704
 20
177.8394118988538
 30
0.0
 40
0.2
100
AcDbArc
 50
47.93517548859148
 51
90.0
  0
LINE
  5
2AC39
330
1F
100
AcDbEntity
  8
実線
370
     0
100
AcDbLine
 10
323.9208885995704
 20
178.0394118988538
 30
0.0
 11
322.3231400756398
 21
178.0394118988538
 31
0.0
  0
LINE
  5
2AC3A
330
1F
100
AcDbEntity
  8
実線
370
     0
100
AcDbLine
 10
322.050139337605
 20
174.3394118988538
 30
0.0
 11
322.0619055093039
 21
174.4501523383719
 31
0.0
  0
LINE
  5
2AC3B
330
1F
100
AcDbEntity
  8
実線
370
     0
100
AcDbLine
 10
322.0724710392096
 20
174.5495926198368
 30
0.0
 11
322.2042910427467
 21
175.7902514766565
 31
0.0
  0
LINE
  5
2AC3C
330
1F
100
AcDbEntity
  8
実線
370
     0
100
AcDbLine
 10
322.2572376324635
 20
176.2885723210511
 30
0.0
 11
322.3987738947187
 21
177.6206783187464
 31
0.0
  0
LINE
  5
2AC3D
330
1F
100
AcDbEntity
  8
実線
370
     0
100
AcDbLine
 10
323.4724710392095
 20
174.5495926198368
 30
0.0
 11
323.604852336523
 21
175.7955342416094
 31
0.0
  0
LINE
  5
2AC3E
330
1F
100
AcDbEntity
  8
実線
370
     0
100
AcDbLine
 10
323.6566763386873
 20
176.2832895560983
 30
0.0
 11
323.8041727984878
 21
177.6714915306901
 31
0.0
  0
LINE
  5
2AC3F
330
1F
100
AcDbEntity
  8
実線
370
     0
100
AcDbLine
 10
322.0182643376052
 20
174.0394118988538
 30
0.0
 11
323.4182643376052
 21
174.0394118988538
 31
0.0
  0
LINE
  5
2AC40
330
1F
100
AcDbEntity
  8
実線
370
     0
100
AcDbLine
 10
322.050139337605
 20
174.3394118988538
 30
0.0
 11
323.3994459656184
 21
174.3394118988538
 31
0.0
  0
LINE
  5
2AC41
330
1F
100
AcDbEntity
  8
実線
370
     0
100
AcDbLine
 10
322.4113893376052
 20
177.7394118988538
 30
0.0
 11
323.729725317407
 21
177.7394118988538
 31
0.0
  0
LINE
  5
2AC42
330
1F
100
AcDbEntity
  8
実線
370
     0
100
AcDbLine
 10
323.8041727984877
 20
177.6714915306901
 30
0.0
 11
324.1098101517551
 21
177.9050521846553
 31
0.0
  0
LINE
  5
2AC43
330
1F
100
AcDbEntity
  8
実線
370
     0
100
AcDbLine
 10
323.7297253174071
 20
177.7394118988538
 30
0.0
 11
324.0548827941367
 21
177.9878893578251
 31
0.0
  0
LINE
  5
2AC44
330
1F
100
AcDbEntity
  8
実線
370
     0
100
AcDbLine
 10
322.4113893376052
 20
177.7394118988538
 30
0.0
 11
322.1242595127101
 21
177.8605429586651
 31
0.0
  0
LINE
  5
2AC45
330
1F
100
AcDbEntity
  8
実線
370
     0
100
AcDbLine
 10
322.3987738947187
 20
177.6206783187464
 30
0.0
 11
322.113108552026
 21
177.7555927404617
 31
0.0
  0
LINE
  5
2AC46
330
1F
100
AcDbEntity
  8
実線
370
     0
100
AcDbLine
 10
322.0619055093039
 20
174.4501523383719
 30
0.0
 11
321.7561647645262
 21
174.3961217992876
 31
0.0
  0
LINE
  5
2AC47
330
1F
100
AcDbEntity
  8
実線
370
     0
100
AcDbLine
 10
322.0724710392096
 20
174.5495926198368
 30
0.0
 11
321.7667302944318
 21
174.4955620807524
 31
0.0
  0
LINE
  5
2AC48
330
1F
100
AcDbEntity
  8
実線
370
     0
100
AcDbLine
 10
323.4724710392095
 20
174.5495926198368
 30
0.0
 11
323.5383885995704
 21
174.0394118988538
 31
0.0
  0
LINE
  5
2AC49
330
1F
100
AcDbEntity
  8
実線
370
     0
100
AcDbLine
 10
323.3994459656184
 20
174.3394118988538
 30
0.0
 11
323.4382072658693
 21
174.0394118988538
 31
0.0
  0
LINE
  5
2AC4A
330
1F
100
AcDbEntity
  8
実線
370
     0
100
AcDbLine
 10
322.091389337605
 20
176.1394118988538
 30
0.0
 11
322.2572376324635
 21
176.2885723210511
 31
0.0
  0
LINE
  5
2AC4B
330
1F
100
AcDbEntity
  8
実線
370
     0
100
AcDbLine
 10
322.091389337605
 20
176.1394118988538
 30
0.0
 11
321.9572376324636
 21
176.2885723210511
 31
0.0
  0
LINE
  5
2AC4C
330
1F
100
AcDbEntity
  8
実線
370
     0
100
AcDbLine
 10
321.9042910427467
 20
175.7902514766565
 30
0.0
 11
322.0701393376052
 21
175.9394118988538
 31
0.0
  0
LINE
  5
2AC4D
330
1F
100
AcDbEntity
  8
実線
370
     0
100
AcDbLine
 10
322.2042910427467
 20
175.7902514766566
 30
0.0
 11
322.0701393376052
 21
175.9394118988538
 31
0.0
  0
LINE
  5
2AC4E
330
1F
100
AcDbEntity
  8
実線
370
     0
100
AcDbLine
 10
323.7860768376052
 20
176.1394118988538
 30
0.0
 11
323.9577989262398
 21
176.293855086004
 31
0.0
  0
LINE
  5
2AC4F
330
1F
100
AcDbEntity
  8
実線
370
     0
100
AcDbLine
 10
323.7860768376052
 20
176.1394118988538
 30
0.0
 11
323.6566763386873
 21
176.2832895560983
 31
0.0
  0
LINE
  5
2AC50
330
1F
100
AcDbEntity
  8
実線
370
     0
100
AcDbLine
 10
323.604852336523
 20
175.7955342416094
 30
0.0
 11
323.7648268376052
 21
175.9394118988538
 31
0.0
  0
LINE
  5
2AC51
330
1F
100
AcDbEntity
  8
実線
370
     0
100
AcDbLine
 10
323.9037297489704
 20
175.7849687117038
 30
0.0
 11
323.7648268376052
 21
175.9394118988538
 31
0.0
  0
LINE
  5
2AC52
330
1F
100
AcDbEntity
  8
実線
370
     0
100
AcDbLine
 10
322.1214247957914
 20
176.0319304649329
 30
0.0
 11
322.2965250462662
 21
176.1894118988538
 31
0.0
  0
LINE
  5
2AC53
330
1F
100
AcDbEntity
  8
実線
370
     0
100
AcDbLine
 10
322.2496029570771
 20
175.8894118988538
 30
0.0
 11
322.1214247957914
 21
176.0319304649329
 31
0.0
  0
LINE
  5
2AC54
330
1F
100
AcDbEntity
  8
実線
370
     0
100
AcDbLine
 10
323.5596911289441
 20
175.8894118988538
 30
0.0
 11
323.7347913794188
 21
176.0468933327747
 31
0.0
  0
LINE
  5
2AC55
330
1F
100
AcDbEntity
  8
実線
370
     0
100
AcDbLine
 10
323.7347913794188
 20
176.0468933327747
 30
0.0
 11
323.6066132181331
 21
176.1894118988538
 31
0.0
  0
LINE
  5
2AC56
330
1F
100
AcDbEntity
  8
実線
370
     0
100
AcDbLine
 10
323.6066132181331
 20
176.1894118988538
 30
0.0
 11
322.2965250462662
 21
176.1894118988538
 31
0.0
  0
LINE
  5
2AC57
330
1F
100
AcDbEntity
  8
実線
370
     0
100
AcDbLine
 10
323.5596911289441
 20
175.8894118988538
 30
0.0
 11
322.2496029570771
 21
175.8894118988538
 31
0.0
  0
LWPOLYLINE
  5
2AC58
330
1F
100
AcDbEntity
  8
実線
100
AcDbPolyline
 90
        4
 70
     1
 43
0.0
 10
284.2376627751594
 20
172.0122646968833
 10
305.2376627751594
 20
172.0122646968833
 10
305.2376627751594
 20
170.9832751708093
 10
284.2376627751594
 20
170.9832751708093
  0
HATCH
  5
2AC59
330
1F
100
AcDbEntity
  8
実線
100
AcDbHatch
 10
0.0
 20
0.0
 30
0.0
210
0.0
220
0.0
230
1.0
  2
ANSI31
 70
     0
 71
     1
 91
        1
 92
        7
 72
     0
 73
     1
 93
        4
 10
328.2376627751594
 20
170.9832751708093
 10
328.2376627751594
 20
172.0122646968833
 10
307.2376627751594
 20
172.0122646968833
 10
307.2376627751594
 20
170.9832751708093
 97
        1
330
2AC5A
 75
     0
 76
     1
 52
0.0
 41
0.25
 77
     0
 78
     1
 53
45.0
 43
219.7029468536989
 44
78.4451849880941
 45
-0.5612660075668221
 46
0.5612660075668221
 79
     0
 47
0.125688400356518
 98
        1
 10
319.65280534463
 20
171.4791501474702
1001
ACAD
1010
0.0
1020
0.0
1030
0.0
  0
LWPOLYLINE
  5
2AC5A
102
{ACAD_REACTORS
330
2AC59
102
}
330
1F
100
AcDbEntity
  8
実線
100
AcDbPolyline
 90
        4
 70
     1
 43
0.0
 10
307.2376627751594
 20
172.0122646968833
 10
328.2376627751594
 20
172.0122646968833
 10
328.2376627751594
 20
170.9832751708093
 10
307.2376627751594
 20
170.9832751708093
  0
HATCH
  5
2AC5B
330
1F
100
AcDbEntity
  8
実線
370
     9
100
AcDbHatch
 10
0.0
 20
0.0
 30
0.0
210
0.0
220
0.0
230
1.0
  2
SOLID
 70
     1
 71
     0
 91
        6
 92
        7
 72
     0
 73
     1
 93
        7
 10
293.514557083374
 20
166.4086995361369
 10
293.514557083374
 20
167.170462879524
 10
290.5505570833741
 20
165.0950477362705
 10
290.5505570833741
 20
165.7685167688439
 10
289.926557083374
 20
165.7685167688439
 10
289.926557083374
 20
164.442516768844
 10
290.706557083374
 20
164.442516768844
 97
        0
 92
        7
 72
     0
 73
     1
 93
        7
 10
294.1385570833741
 20
167.170462879524
 10
294.1385570833741
 20
166.4086995361369
 10
296.946557083374
 20
164.442516768844
 10
297.726557083374
 20
164.442516768844
 10
297.726557083374
 20
165.7685167688439
 10
297.102557083374
 20
165.7685167688439
 10
297.102557083374
 20
165.0950477362705
 97
        0
 92
        7
 72
     0
 73
     1
 93
        7
 10
297.102557083374
 20
163.7899858014175
 10
297.102557083374
 20
163.116516768844
 10
297.726557083374
 20
163.116516768844
 10
297.726557083374
 20
164.442516768844
 10
296.946557083374
 20
164.442516768844
 10
294.1385570833741
 20
162.4763340015511
 10
294.1385570833741
 20
161.714570658164
 97
        0
 92
        7
 72
     0
 73
     1
 93
        7
 10
290.706557083374
 20
164.442516768844
 10
289.926557083374
 20
164.442516768844
 10
289.926557083374
 20
163.116516768844
 10
290.5505570833741
 20
163.116516768844
 10
290.5505570833741
 20
163.7899858014175
 10
293.514557083374
 20
161.714570658164
 10
293.514557083374
 20
162.4763340015511
 97
        0
 92
        7
 72
     1
 73
     1
 93
        8
 10
293.3585570833741
 20
163.8185167688439
 42
0.0
 10
293.3585570833741
 20
164.442516768844
 42
0.0
 10
292.890557083374
 20
164.442516768844
 42
0.0
 10
292.890557083374
 20
163.8185167688439
 42
1.0
 10
294.7625570833741
 20
163.8185167688439
 42
0.0
 10
294.7625570833741
 20
164.442516768844
 42
0.0
 10
294.294557083374
 20
164.442516768844
 42
0.0
 10
294.294557083374
 20
163.8185167688439
 42
-1.0
 97
        0
 92
        7
 72
     1
 73
     1
 93
        8
 10
294.294557083374
 20
165.066516768844
 42
0.0
 10
294.294557083374
 20
164.442516768844
 42
0.0
 10
294.7625570833741
 20
164.442516768844
 42
0.0
 10
294.7625570833741
 20
165.066516768844
 42
1.0
 10
292.890557083374
 20
165.066516768844
 42
0.0
 10
292.8905570833741
 20
164.442516768844
 42
0.0
 10
293.3585570833741
 20
164.442516768844
 42
0.0
 10
293.3585570833741
 20
165.066516768844
 42
-1.0
 97
        0
 75
     0
 76
     1
 47
0.0198786333863674
 98
        6
 10
290.4145334568621
 20
164.8791384559124
 10
295.0183162483247
 20
166.2746185302097
 10
296.1821942043759
 20
163.5353427614489
 10
292.5871046784185
 20
162.7859183444664
 10
293.2337035428915
 20
163.7679229253971
 10
293.2854317730736
 20
165.1892451896114
450
        0
451
        0
460
0.0
461
0.0
452
        0
462
0.0
453
        0
470

  0
TEXT
  5
2AC5C
330
1F
100
AcDbEntity
  8
文字
370
    13
100
AcDbText
 10
300.4984730698765
 20
162.1562257795836
 30
0.0
 40
2.299999999999998
  1
R =
 41
0.8
  7
ｽﾀｲﾙ1
 72
     1
 11
303.1095206889241
 21
163.3062257795836
 31
0.0
100
AcDbText
 73
     2
  0
TEXT
  5
2AC5D
330
1F
100
AcDbEntity
  8
文字
370
    13
100
AcDbText
 10
299.8422758781521
 20
165.016404600729
 30
0.0
 40
2.299999999999998
  1
Q3=
 41
0.8
  7
ｽﾀｲﾙ1
 72
     1
 11
302.7775139733902
 21
166.166404600729
 31
0.0
100
AcDbText
 73
     2
  0
TEXT
  5
2AC5E
330
1F
100
AcDbEntity
  8
文字
370
    13
100
AcDbText
 10
305.2841577701356
 20
155.4545727558556
 30
0.0
 40
2.299999999999998
  1
H
 41
0.8
  7
ｽﾀｲﾙ1
 72
     1
 11
306.2479672939451
 21
156.6045727558556
 31
0.0
100
AcDbText
 73
     2
  0
TEXT
  5
2AC5F
330
1F
100
AcDbEntity
  8
文字
370
    13
100
AcDbText
 10
284.4496945572825
 20
168.1394637384075
 30
0.0
 40
2.299999999999998
  1
瞬時流量は検定外
 41
0.8
  7
ｽﾀｲﾙ1
 72
     1
 11
293.0363612239491
 21
169.2894637384075
 31
0.0
100
AcDbText
 73
     2
  0
LINE
  5
2AC60
330
1F
100
AcDbEntity
  8
実線
370
     0
100
AcDbLine
 10
313.0182643376052
 20
174.0394118988538
 30
0.0
 11
314.4382072658693
 21
174.0394118988538
 31
0.0
  0
LINE
  5
2AC61
330
1F
100
AcDbEntity
  8
実線
370
     0
100
AcDbLine
 10
317.5182643376051
 20
174.0394118988538
 30
0.0
 11
318.9382072658693
 21
174.0394118988538
 31
0.0
  0
LINE
  5
2AC62
330
1F
100
AcDbEntity
  8
実線
370
     0
100
AcDbLine
 10
322.0182643376052
 20
174.0394118988538
 30
0.0
 11
323.4382072658693
 21
174.0394118988538
 31
0.0
  0
MTEXT
  5
2AC63
330
1F
100
AcDbEntity
  8
文字
100
AcDbMText
 10
303.4480434688699
 20
170.6220774510668
 30
0.0
 40
2.299999999999998
 41
2.583
 46
0.0
 71
     1
 72
     1
  1
㎥
  7
スタイル1
 73
     1
 44
1.0
  0
TEXT
  5
2AC64
330
1F
100
AcDbEntity
  8
文字
370
    13
100
AcDbText
 10
306.3931999816752
 20
165.0190569398919
 30
0.0
 40
2.299999999999998
  1
2.5
 41
0.8
  7
ｽﾀｲﾙ1
 72
     1
 11
308.5836761721514
 21
166.1690569398919
 31
0.0
100
AcDbText
 73
     2
  0
TEXT
  5
2AC65
330
1F
100
AcDbEntity
  8
文字
370
    13
100
AcDbText
 10
305.8236761721514
 20
162.0176983359138
 30
0.0
 40
2.299999999999998
  1
100
 41
0.8
  7
ｽﾀｲﾙ1
 72
     1
 11
308.5836761721514
 21
163.1676983359138
 31
0.0
100
AcDbText
 73
     2
  0
TEXT
  5
2AC66
330
1F
100
AcDbEntity
  8
文字
370
    13
100
AcDbText
 10
303.3249454812266
 20
159.0921298103849
 30
0.0
 40
2.299999999999998
  1
129
 41
0.8
  7
ｽﾀｲﾙ1
 72
     1
 11
306.0411359574171
 21
160.2421298103849
 31
0.0
100
AcDbText
 73
     2
  0
DIMENSION
  5
2ACB6
102
{ACAD_XDICTIONARY
360
2ACC3
102
}
102
{ACAD_REACTORS
330
2ACCD
102
}
330
1F
100
AcDbEntity
  8
寸法
100
AcDbDimension
280
     0
  2
*D9
 10
49.95532123311228
 20
54.59044465631542
 30
0.0
 11
47.20532123311225
 21
43.10827411370546
 31
0.0
 70
    32
 71
     5
 42
22.96434108521996
 73
     0
 74
     0
 75
     0
  3
ｺﾋﾟｰ - ISO-25
100
AcDbAlignedDimension
 13
125.3184581711887
 23
31.62610357109546
 33
0.0
 14
58.3589009072951
 24
54.59044465631542
 34
0.0
 50
90.0
100
AcDbRotatedDimension
  0
LINE
  5
2AD1F
330
1F
100
AcDbEntity
  8
0
100
AcDbLine
 10
280.0
 20
20.0
 30
0.0
 11
280.0
 21
68.0
 31
0.0
  0
LINE
  5
2AD20
330
1F
100
AcDbEntity
  8
0
100
AcDbLine
 10
280.0
 20
35.0
 30
0.0
 11
405.0
 21
35.0
 31
0.0
  0
LINE
  5
2AD21
330
1F
100
AcDbEntity
  8
0
100
AcDbLine
 10
280.0
 20
58.0
 30
0.0
 11
405.0
 21
58.0
 31
0.0
  0
LINE
  5
2AD22
330
1F
100
AcDbEntity
  8
0
100
AcDbLine
 10
280.0
 20
68.0
 30
0.0
 11
405.0
 21
68.0
 31
0.0
  0
LINE
  5
2AD23
330
1F
100
AcDbEntity
  8
0
100
AcDbLine
 10
292.5
 20
35.0
 30
0.0
 11
292.5
 21
20.0
 31
0.0
  0
LINE
  5
2AD24
330
1F
100
AcDbEntity
  8
0
100
AcDbLine
 10
305.0
 20
35.0
 30
0.0
 11
305.0
 21
20.0
 31
0.0
  0
LINE
  5
2AD25
330
1F
100
AcDbEntity
  8
0
100
AcDbLine
 10
317.5
 20
35.0
 30
0.0
 11
317.5
 21
20.0
 31
0.0
  0
LINE
  5
2AD26
330
1F
100
AcDbEntity
  8
0
100
AcDbLine
 10
330.0
 20
35.0
 30
0.0
 11
330.0
 21
20.0
 31
0.0
  0
LINE
  5
2AD27
330
1F
100
AcDbEntity
  8
0
100
AcDbLine
 10
342.5
 20
58.0
 30
0.0
 11
342.5
 21
20.0
 31
0.0
  0
LINE
  5
2AD28
330
1F
100
AcDbEntity
  8
0
100
AcDbLine
 10
373.7499999999998
 20
46.49999999999999
 30
0.0
 11
373.7499999999998
 21
35.0
 31
0.0
  0
LINE
  5
2AD29
330
1F
100
AcDbEntity
  8
0
100
AcDbLine
 10
301.5
 20
68.0
 30
0.0
 11
301.5
 21
58.0
 31
0.0
  0
LINE
  5
2AD2A
330
1F
100
AcDbEntity
  8
0
100
AcDbLine
 10
280.0
 20
31.0
 30
0.0
 11
342.5
 21
31.0
 31
0.0
  0
TEXT
  5
2AD2B
330
1F
100
AcDbEntity
  8
0
100
AcDbText
 10
287.96
 20
61.5
 30
0.0
 40
3.0
  1
品名
 41
0.9
 72
     1
 11
290.75
 21
63.0
 31
0.0
100
AcDbText
 73
     2
  0
TEXT
  5
2AD2C
330
1F
100
AcDbEntity
  8
0
100
AcDbText
 10
283.37
 20
31.5
 30
0.0
 40
3.0
  1
承認
 41
0.9
 72
     1
 11
286.25
 21
33.0
 31
0.0
100
AcDbText
 73
     2
  0
TEXT
  5
2AD2D
330
1F
100
AcDbEntity
  8
0
100
AcDbText
 10
295.96
 20
31.5
 30
0.0
 40
3.0
  1
検図
 41
0.9
 72
     1
 11
298.75
 21
33.0
 31
0.0
100
AcDbText
 73
     2
  0
TEXT
  5
2AD2E
330
1F
100
AcDbEntity
  8
0
100
AcDbText
 10
308.46
 20
31.5
 30
0.0
 40
3.0
  1
製図
 41
0.9
 72
     1
 11
311.25
 21
33.0
 31
0.0
100
AcDbText
 73
     2
  0
TEXT
  5
2AD2F
330
1F
100
AcDbEntity
  8
0
100
AcDbText
 10
319.43
 20
31.5
 30
0.0
 40
3.0
  1
年月日
 41
0.9
 72
     1
 11
323.75
 21
33.0
 31
0.0
100
AcDbText
 73
     2
  0
TEXT
  5
2AD30
330
1F
100
AcDbEntity
  8
0
100
AcDbText
 10
333.37
 20
31.5
 30
0.0
 40
3.0
  1
尺度
 41
0.9
 72
     1
 11
336.25
 21
33.0
 31
0.0
100
AcDbText
 73
     2
  0
TEXT
  5
2AD31
330
1F
100
AcDbEntity
  8
0
100
AcDbText
 10
347.5141191097012
 20
25.47732717604083
 30
0.0
 40
5.0
  1
柏原計器工業株式会社
 41
0.9
 72
     1
 11
373.9141191097012
 21
27.97732717604083
 31
0.0
100
AcDbText
 73
     2
  0
TEXT
  5
2AD32
330
1F
100
AcDbEntity
  8
0
100
AcDbText
 10
331.75
 20
23.75
 30
0.0
 40
3.5
  1
free
 41
0.9
 72
     1
 11
336.25
 21
25.5
 31
0.0
100
AcDbText
 73
     2
  0
TEXT
  5
2AD33
330
1F
100
AcDbEntity
  8
0
100
AcDbText
 10
306.5860329945234
 20
50.90516497261692
 30
0.0
 40
3.5
  1
外観図
 41
0.9
 72
     1
 11
311.7310329945234
 21
52.65516497261693
 31
0.0
100
AcDbText
 73
     2
  0
LINE
  5
2AD35
330
1F
100
AcDbEntity
  8
0
100
AcDbLine
 10
404.9999999999998
 20
46.49999999999999
 30
0.0
 11
280.0
 21
46.5
 31
0.0
  0
LINE
  5
2AD37
330
1F
100
AcDbEntity
  8
0
100
AcDbLine
 10
347.5
 20
57.99999999999999
 30
0.0
 11
347.5
 21
46.5
 31
0.0
  0
TEXT
  5
2AD38
330
1F
100
AcDbEntity
  8
0
100
AcDbText
 10
343.8012444219987
 20
53.78915733104803
 30
0.0
 40
3.0
  1
図
 41
0.9
 72
     1
 11
345.0612444219987
 21
55.28915733104803
 31
0.0
100
AcDbText
 73
     2
  0
TEXT
  5
2AD39
330
1F
100
AcDbEntity
  8
0
100
AcDbText
 10
343.74
 20
48.125
 30
0.0
 40
3.0
  1
番
 41
0.9
 72
     1
 11
345.0
 21
49.62499999999999
 31
0.0
100
AcDbText
 73
     2
  0
LINE
  5
2AD3A
330
1F
100
AcDbEntity
  8
0
100
AcDbLine
 10
285.0
 20
46.49999999999999
 30
0.0
 11
285.0
 21
35.0
 31
0.0
  0
TEXT
  5
2AD3B
330
1F
100
AcDbEntity
  8
0
100
AcDbText
 10
281.3012444219987
 20
42.28915733104803
 30
0.0
 40
3.0
  1
摘
 41
0.9
 72
     1
 11
282.5612444219986
 21
43.78915733104803
 31
0.0
100
AcDbText
 73
     2
  0
TEXT
  5
2AD3C
330
1F
100
AcDbEntity
  8
0
100
AcDbText
 10
281.24
 20
36.625
 30
0.0
 40
3.0
  1
要
 41
0.9
 72
     1
 11
282.5
 21
38.125
 31
0.0
100
AcDbText
 73
     2
  0
LINE
  5
2AD3D
330
1F
100
AcDbEntity
  8
0
100
AcDbLine
 10
285.0
 20
57.99999999999999
 30
0.0
 11
285.0
 21
46.5
 31
0.0
  0
TEXT
  5
2AD3E
330
1F
100
AcDbEntity
  8
0
100
AcDbText
 10
281.3912444219986
 20
53.78915733104803
 30
0.0
 40
3.0
  1
名
 41
0.9
 72
     1
 11
282.5612444219986
 21
55.28915733104803
 31
0.0
100
AcDbText
 73
     2
  0
TEXT
  5
2AD3F
330
1F
100
AcDbEntity
  8
0
100
AcDbText
 10
281.24
 20
48.125
 30
0.0
 40
3.0
  1
称
 41
0.9
 72
     1
 11
282.5
 21
49.62499999999999
 31
0.0
100
AcDbText
 73
     2
  0
LINE
  5
2AD40
330
1F
100
AcDbEntity
  8
0
  6
CENTER
 48
0.2
370
    15
100
AcDbLine
 10
380.3743237194039
 20
40.70717840942182
 30
0.0
 11
402.3661932218493
 21
40.70717840942182
 31
0.0
  0
LINE
  5
2AD41
330
1F
100
AcDbEntity
  8
0
  6
CENTER
 48
0.2
370
    15
100
AcDbLine
 10
385.6829979138538
 20
45.02275052681983
 30
0.0
 11
385.6829979138538
 21
36.39160629202383
 31
0.0
  0
CIRCLE
  5
2AD42
330
1F
100
AcDbEntity
  8
0
100
AcDbCircle
 10
385.6829979138538
 20
40.70717840942182
 30
0.0
 40
3.616483184024218
  0
CIRCLE
  5
2AD43
330
1F
100
AcDbEntity
  8
0
100
AcDbCircle
 10
385.6829979138538
 20
40.70717840942182
 30
0.0
 40
2.153012167676263
  0
LINE
  5
2AD44
330
1F
100
AcDbEntity
  8
0
100
AcDbLine
 10
391.435352056124
 20
42.86019057709808
 30
0.0
 11
391.435352056124
 21
38.5377720924151
 31
0.0
  0
LINE
  5
2AD45
330
1F
100
AcDbEntity
  8
0
100
AcDbLine
 10
391.435352056124
 20
38.5377720924151
 30
0.0
 11
400.8293035353752
 21
37.0906952253976
 31
0.0
  0
LINE
  5
2AD46
330
1F
100
AcDbEntity
  8
0
100
AcDbLine
 10
400.8293035353752
 20
37.0906952253976
 30
0.0
 11
400.8293035353752
 21
44.32366159344603
 31
0.0
  0
LINE
  5
2AD47
330
1F
100
AcDbEntity
  8
0
100
AcDbLine
 10
400.8293035353752
 20
44.32366159344603
 30
0.0
 11
391.435352056124
 21
42.86019057709808
 31
0.0
  0
TEXT
  5
2AD48
330
1F
100
AcDbEntity
  8
0
100
AcDbText
 10
343.8012444219987
 20
42.28915733104803
 30
0.0
 40
3.0
  1
材
 41
0.9
 72
     1
 11
345.0612444219987
 21
43.78915733104803
 31
0.0
100
AcDbText
 73
     2
  0
TEXT
  5
2AD49
330
1F
100
AcDbEntity
  8
0
100
AcDbText
 10
343.74
 20
36.625
 30
0.0
 40
3.0
  1
質
 41
0.9
 72
     1
 11
345.0
 21
38.125
 31
0.0
100
AcDbText
 73
     2
  0
LINE
  5
2AD4A
330
1F
100
AcDbEntity
  8
0
100
AcDbLine
 10
347.5
 20
46.49999999999999
 30
0.0
 11
347.5
 21
35.0
 31
0.0
  0
TEXT
  5
2AD4B
330
1F
100
AcDbEntity
  8
0
100
AcDbText
 10
375.0512444219986
 20
42.72828299788964
 30
0.0
 40
3.0
  1
投
 41
0.9
 72
     1
 11
376.3112444219985
 21
44.22828299788965
 31
0.0
100
AcDbText
 73
     2
  0
TEXT
  5
2AD4C
330
1F
100
AcDbEntity
  8
0
100
AcDbText
 10
374.9899999999998
 20
35.74674936600604
 30
0.0
 40
3.0
  1
法
 41
0.9
 72
     1
 11
376.2499999999998
 21
37.24674936600604
 31
0.0
100
AcDbText
 73
     2
  0
LINE
  5
2AD4D
330
1F
100
AcDbEntity
  8
0
100
AcDbLine
 10
378.7499999999998
 20
46.49999999999999
 30
0.0
 11
378.7499999999998
 21
35.0
 31
0.0
  0
TEXT
  5
2AD4E
330
1F
100
AcDbEntity
  8
0
100
AcDbText
 10
375.0512444219986
 20
39.32506030432351
 30
0.0
 40
3.0
  1
影
 41
0.9
 72
     1
 11
376.3112444219985
 21
40.82506030432351
 31
0.0
100
AcDbText
 73
     2
  0
LINE
  5
2AE88
330
1F
100
AcDbEntity
  8
実線
100
AcDbLine
 10
109.2862301672248
 20
111.9054222757632
 30
0.0000000000000064
 11
187.5611029747851
 21
111.9054222757632
 31
0.0000000000000064
  0
ARC
  5
2AE8D
330
1F
100
AcDbEntity
  8
実線
100
AcDbCircle
 10
109.2862301672248
 20
110.8623990199517
 30
0.0000000000000064
 40
1.043023255811549
100
AcDbArc
 50
90.0
 51
180.0
  0
LINE
  5
2AE93
330
1F
100
AcDbEntity
  8
実線
100
AcDbLine
 10
145.3996022601578
 20
102.5291093890223
 30
0.0
 11
145.3996022601579
 21
90.52910938902234
 31
0.0
  0
LINE
  5
2AE94
330
1F
100
AcDbEntity
  8
実線
100
AcDbLine
 10
151.3996022601579
 20
90.52910938902234
 30
0.0
 11
145.3996022601579
 21
90.52910938902234
 31
0.0
  0
LINE
  5
2AE95
330
1F
100
AcDbEntity
  8
実線
100
AcDbLine
 10
151.3996022601576
 20
102.5291093890223
 30
0.0
 11
145.3996022601578
 21
102.5291093890223
 31
0.0
  0
LINE
  5
2AE96
330
1F
100
AcDbEntity
  8
実線
100
AcDbLine
 10
151.3996022601579
 20
90.52910938902234
 30
0.0
 11
151.3996022601576
 21
102.5291093890223
 31
0.0
  0
LINE
  5
2AE99
330
1F
100
AcDbEntity
  8
実線
100
AcDbLine
 10
185.3422379189875
 20
111.9054222757632
 30
0.0000000000000064
 11
185.8414627251879
 21
111.9054222757632
 31
0.0000000000000064
  0
ARC
  5
2AE9D
330
1F
100
AcDbEntity
  8
実線
100
AcDbCircle
 10
109.2862301672248
 20
110.8623990199517
 30
0.0000000000000064
 40
1.043023255811549
100
AcDbArc
 50
90.0
 51
180.0
  0
LINE
  5
2AEA0
330
1F
100
AcDbEntity
  8
実線
100
AcDbLine
 10
101.985067376544
 20
109.8193757641402
 30
0.0000000000000064
 11
105.1141371439788
 21
109.8193757641402
 31
0.0000000000000064
  0
LINE
  5
2AEA2
330
1F
100
AcDbEntity
  8
実線
100
AcDbLine
 10
101.985067376544
 20
109.8193757641402
 30
0.0000000000000064
 11
101.985067376544
 21
90.6151559006455
 31
0.0
  0
LINE
  5
2AEA3
330
1F
100
AcDbEntity
  8
実線
100
AcDbLine
 10
108.2432069114132
 20
90.6151559006455
 30
0.0
 11
101.985067376544
 21
90.6151559006455
 31
0.0
  0
LINE
  5
2AEA4
330
1F
100
AcDbEntity
  8
実線
100
AcDbLine
 10
108.2432069114132
 20
109.8193757641402
 30
0.0000000000000064
 11
105.1141371439788
 21
109.8193757641402
 31
0.0000000000000064
  0
LINE
  5
2AEA5
330
1F
100
AcDbEntity
  8
実線
100
AcDbLine
 10
108.2432069114132
 20
89.52910938902235
 30
-0.0000000000000003
 11
108.2432069114132
 21
110.8623990199517
 31
0.0000000000000067
  0
LINE
  5
2AEA6
330
1F
100
AcDbEntity
  8
実線
100
AcDbLine
 10
188.5611029747851
 20
109.8193757641402
 30
0.0000000000000064
 11
191.6901727422199
 21
109.8193757641402
 31
0.0000000000000064
  0
LINE
  5
2AEA8
330
1F
100
AcDbEntity
  8
実線
100
AcDbLine
 10
188.5611029747851
 20
110.9054222757632
 30
0.0000000000000068
 11
188.5611029747851
 21
89.52910938902235
 31
-0.0000000000000004
  0
LINE
  5
2AEA9
330
1F
100
AcDbEntity
  8
実線
100
AcDbLine
 10
194.8192425096545
 20
90.6151559006455
 30
0.0
 11
188.5611029747851
 21
90.6151559006455
 31
0.0
  0
LINE
  5
2AEAA
330
1F
100
AcDbEntity
  8
実線
100
AcDbLine
 10
194.8192425096544
 20
109.8193757641402
 30
0.0000000000000064
 11
191.6901727422199
 21
109.8193757641402
 31
0.0000000000000064
  0
LINE
  5
2AEAB
330
1F
100
AcDbEntity
  8
実線
100
AcDbLine
 10
194.8192425096545
 20
90.6151559006455
 30
0.0
 11
194.8192425096544
 21
109.8193757641402
 31
0.0000000000000064
  0
LINE
  5
2AF28
330
1F
100
AcDbEntity
  8
実線
100
AcDbLine
 10
105.6388464462051
 20
123.0291093890223
 30
0.0
 11
190.6388464462049
 21
123.0291093890223
 31
0.0
  0
LINE
  5
2AF29
330
1F
100
AcDbEntity
  8
実線
100
AcDbLine
 10
105.6388464462051
 20
128.0291093890223
 30
0.0
 11
190.6388464462049
 21
128.0291093890223
 31
0.0
  0
LINE
  5
2AF2A
330
1F
100
AcDbEntity
  8
実線
100
AcDbLine
 10
105.6388464462051
 20
113.5291093890223
 30
0.0000000000000064
 11
190.6388464462049
 21
113.5291093890223
 31
0.0000000000000064
  0
LINE
  5
2AF2B
330
1F
100
AcDbEntity
  8
実線
100
AcDbLine
 10
104.1388464462048
 20
131.0291093890224
 30
0.0
 11
192.1388464462048
 21
131.0291093890224
 31
0.0000000000000032
  0
LINE
  5
2AF2C
330
1F
100
AcDbEntity
  8
実線
100
AcDbLine
 10
183.8996022601579
 20
113.5291093890223
 30
0.0000000000000064
 11
183.8996022601579
 21
111.9054222757632
 31
0.0000000000000128
  0
LINE
  5
2AF2D
330
1F
100
AcDbEntity
  8
実線
100
AcDbLine
 10
112.8996022601579
 20
113.5291093890223
 30
0.0000000000000064
 11
112.8996022601579
 21
111.9054222757632
 31
0.0000000000000128
  0
LINE
  5
2AF2E
330
1F
100
AcDbEntity
  8
実線
100
AcDbLine
 10
189.5388464462046
 20
156.614087364076
 30
0.0000000000000032
 11
192.1388464462047
 21
156.614087364076
 31
0.0000000000000032
  0
ARC
  5
2AF2F
330
1F
100
AcDbEntity
  8
実線
100
AcDbCircle
 10
189.5388464462048
 20
152.714087364076
 30
0.0000000000000032
 40
3.9
100
AcDbArc
 50
90.0
 51
180.0000000000008
  0
LINE
  5
2AF30
330
1F
100
AcDbEntity
  8
実線
100
AcDbLine
 10
110.6388464462048
 20
158.614087364076
 30
0.0
 11
191.5475853078051
 21
158.6140873640759
 31
0.0
  0
LINE
  5
2AF31
330
1F
100
AcDbEntity
  8
実線
100
AcDbLine
 10
192.1388464462047
 20
158.0228262256764
 30
0.0000000000000032
 11
192.1388464462047
 21
156.614087364076
 31
0.0000000000000032
  0
ARC
  5
2AF32
330
1F
100
AcDbEntity
  8
実線
100
AcDbCircle
 10
191.5475853078051
 20
158.0228262256764
 30
0.0000000000000032
 40
0.5912611383995614
100
AcDbArc
 50
0.0
 51
90.0
  0
LINE
  5
2AF33
330
1F
100
AcDbEntity
  8
実線
100
AcDbLine
 10
192.1388464462048
 20
131.0291093890224
 30
0.0000000000000032
 11
192.1388464462047
 21
140.7140873640759
 31
0.0000000000000032
  0
ARC
  5
2AF34
330
1F
100
AcDbEntity
  8
実線
100
AcDbCircle
 10
188.2388464462048
 20
140.7140873640759
 30
-0.0000000000000062
 40
3.9
100
AcDbArc
 50
0.0000000000008142
 51
90.0
  0
LINE
  5
2AF35
330
1F
100
AcDbEntity
  8
実線
100
AcDbLine
 10
108.0388464462047
 20
144.6140873640759
 30
0.0
 11
188.2388464462048
 21
144.6140873640759
 31
0.0
  0
ARC
  5
2AF36
330
1F
100
AcDbEntity
  8
実線
100
AcDbCircle
 10
108.0388464462047
 20
140.7140873640759
 30
0.0000000000000363
 40
3.9
100
AcDbArc
 50
90.0
 51
180.0000000000008
  0
LINE
  5
2AF37
330
1F
100
AcDbEntity
  8
実線
100
AcDbLine
 10
185.6388464462049
 20
152.7140873640759
 30
0.0000000000000032
 11
185.6388464462049
 21
144.6140873640759
 31
0.0000000000000032
  0
LINE
  5
2AF38
330
1F
100
AcDbEntity
  8
実線
100
AcDbLine
 10
110.6388464462048
 20
144.6140873640759
 30
0.0000000000000032
 11
110.6388464462048
 21
158.614087364076
 31
0.0000000000000032
  0
ARC
  5
2AF39
330
1F
100
AcDbEntity
  8
実線
100
AcDbCircle
 10
105.6388464462048
 20
155.6140873640759
 30
0.0000000000000032
 40
9.0
100
AcDbArc
 50
19.4712206344895
 51
90.0
  0
LINE
  5
2AF3A
330
1F
100
AcDbEntity
  8
実線
100
AcDbLine
 10
104.1388464462048
 20
131.0291093890224
 30
0.0000000000000032
 11
104.1388464462047
 21
140.7140873640758
 31
0.0000000000000032
  0
LINE
  5
2AF3B
330
1F
100
AcDbEntity
  8
実線
100
AcDbLine
 10
185.6388464462049
 20
149.6140873640759
 30
0.0
 11
98.13884644620475
 21
149.6140873640758
 31
0.0
  0
LINE
  5
2AF3C
330
1F
100
AcDbEntity
  8
実線
100
AcDbLine
 10
98.13884644620465
 20
164.6140873640759
 30
0.0000000000000032
 11
98.13884644620475
 21
134.0255025845187
 31
0.0000000000000032
  0
LINE
  5
2AF3D
330
1F
100
AcDbEntity
  8
実線
100
AcDbLine
 10
98.13884644620475
 20
134.0255025845187
 30
0.0000000000000032
 11
104.1388464462047
 21
134.0255025845187
 31
0.0000000000000032
  0
LINE
  5
2AF3E
330
1F
100
AcDbEntity
  8
実線
100
AcDbLine
 10
98.13884644620465
 20
164.6140873640759
 30
0.0000000000000032
 11
105.6388464462048
 21
164.6140873640759
 31
0.0000000000000032
  0
LINE
  5
2AF3F
330
1F
100
AcDbEntity
  8
実線
100
AcDbLine
 10
190.6388464462048
 20
113.5291093890223
 30
0.0
 11
190.6388464462049
 21
131.0291093890223
 31
0.0
  0
LINE
  5
2AF40
330
1F
100
AcDbEntity
  8
実線
100
AcDbLine
 10
105.6388464462054
 20
113.5291093890223
 30
0.0
 11
105.6388464462046
 21
131.0291093890224
 31
0.0
  0
ARC
  5
2AF74
330
1F
100
AcDbEntity
  8
実線
100
AcDbCircle
 10
187.5611029747851
 20
110.9054222757632
 30
-0.0000000000000325
 40
1.0
100
AcDbArc
 50
0.0
 51
90.0
  0
ARC
  5
2AF75
330
1F
100
AcDbEntity
  8
実線
100
AcDbCircle
 10
187.5611029747851
 20
89.52910938902235
 30
-0.0000000000000278
 40
1.0
100
AcDbArc
 50
270.0
 51
0.0
  0
ARC
  5
2AF76
330
1F
100
AcDbEntity
  8
実線
100
AcDbCircle
 10
109.2432069114132
 20
89.52910938902235
 30
0.0000000000000295
 40
1.0
100
AcDbArc
 50
180.0
 51
270.0
  0
LINE
  5
2B008
330
1F
100
AcDbEntity
  8
実線
100
AcDbLine
 10
115.237123462577
 20
204.0757428544451
 30
0.0
 11
98.39960226015774
 21
204.0757428544451
 31
0.0
  0
LINE
  5
2B009
330
1F
100
AcDbEntity
  8
実線
100
AcDbLine
 10
115.2371234625771
 20
219.0757428544451
 30
0.0
 11
98.39960226015774
 21
219.0757428544451
 31
0.0
  0
LINE
  5
2B00A
330
1F
100
AcDbEntity
  8
実線
100
AcDbLine
 10
189.9688216418109
 20
199.575742854445
 30
0.0
 11
183.9277601071389
 21
199.575742854445
 31
0.0
  0
LINE
  5
2B00B
330
1F
100
AcDbEntity
  8
実線
100
AcDbLine
 10
189.9688216418109
 20
223.575742854445
 30
0.0
 11
183.9277601071389
 21
223.575742854445
 31
0.0
  0
LINE
  5
2B030
330
1F
100
AcDbEntity
  8
実線
100
AcDbLine
 10
153.3996022601579
 20
167.075742854445
 30
0.0
 11
143.3996022601579
 21
167.075742854445
 31
0.0
  0
LINE
  5
2B031
102
{ACAD_REACTORS
330
2B060
102
}
330
1F
100
AcDbEntity
  8
実線
100
AcDbLine
 10
153.3371761508092
 20
167.8536618875655
 30
0.0
 11
153.3996022601579
 21
167.075742854445
 31
0.0
  0
LINE
  5
2B032
330
1F
100
AcDbEntity
  8
実線
100
AcDbLine
 10
143.3996022601579
 20
167.075742854445
 30
0.0
 11
143.4620283695066
 21
167.8536618875655
 31
0.0
  0
LINE
  5
2B033
330
1F
100
AcDbEntity
  8
実線
100
AcDbLine
 10
143.3996022601579
 20
256.075742854445
 30
0.0
 11
153.3996022601579
 21
256.075742854445
 31
0.0
  0
LINE
  5
2B034
330
1F
100
AcDbEntity
  8
実線
100
AcDbLine
 10
143.4620283695067
 20
255.2978238213244
 30
0.0
 11
143.3996022601579
 21
256.075742854445
 31
0.0
  0
LINE
  5
2B035
102
{ACAD_REACTORS
330
2B060
102
}
330
1F
100
AcDbEntity
  8
実線
100
AcDbLine
 10
153.3996022601579
 20
256.075742854445
 30
0.0
 11
153.3371761508091
 21
255.2978238213244
 31
0.0
  0
LINE
  5
2B036
330
1F
100
AcDbEntity
  8
実線
100
AcDbLine
 10
192.1216832270373
 20
216.5133167450962
 30
0.0
 11
192.8996022601578
 21
216.575742854445
 31
0.0
  0
LINE
  5
2B037
330
1F
100
AcDbEntity
  8
実線
100
AcDbLine
 10
192.8996022601578
 20
206.575742854445
 30
0.0
 11
192.1216832270373
 21
206.6381689637937
 31
0.0
  0
LINE
  5
2B038
330
1F
100
AcDbEntity
  8
実線
100
AcDbLine
 10
192.8996022601578
 20
216.575742854445
 30
0.0
 11
192.8996022601578
 21
206.575742854445
 31
0.0
  0
LINE
  5
2B039
330
1F
100
AcDbEntity
  8
実線
100
AcDbLine
 10
151.3996022601576
 20
236.075742854445
 30
0.0
 11
161.3996022601576
 21
236.075742854445
 31
0.0
  0
LINE
  5
2B03A
330
1F
100
AcDbEntity
  8
実線
100
AcDbLine
 10
161.3996022601576
 20
236.075742854445
 30
0.0
 11
161.3996022601576
 21
187.075742854445
 31
0.0
  0
LINE
  5
2B03B
330
1F
100
AcDbEntity
  8
実線
100
AcDbLine
 10
161.3996022601576
 20
187.075742854445
 30
0.0
 11
151.3996022601576
 21
187.075742854445
 31
0.0
  0
LINE
  5
2B03C
330
1F
100
AcDbEntity
  8
実線
100
AcDbLine
 10
151.3996022601576
 20
187.075742854445
 30
0.0
 11
151.3996022601576
 21
236.075742854445
 31
0.0
  0
TEXT
  5
2B03D
330
1F
100
AcDbEntity
  8
文字
100
AcDbText
 10
173.8996022601579
 20
195.7960025947046
 30
0.0
 40
9.0
  1
13
 50
90.0
 41
1.3
  7
スタイル3
 72
     1
 11
169.3996022601579
 21
203.5757428544449
 31
0.0
100
AcDbText
 73
     2
  0
TEXT
  5
2B03E
330
1F
100
AcDbEntity
  8
文字
100
AcDbText
 10
174.3092172963701
 20
211.93567791938
 30
0.0
 40
9.0
  1
mm
 50
90.0
 41
0.85
  7
スタイル3
 72
     1
 11
169.8092172963701
 21
219.575742854445
 31
0.0
100
AcDbText
 73
     2
  0
INSERT
  5
2B03F
330
1F
100
AcDbEntity
  8
実線
100
AcDbBlockReference
  2
mark
 10
137.1696022601579
 20
202.075742854445
 30
0.0
 41
0.38
 42
0.38
 43
0.38
 50
90.0
  0
TEXT
  5
2B041
330
1F
100
AcDbEntity
  8
文字
100
AcDbText
 10
147.7965941731763
 20
189.3426839882787
 30
0.0
 40
9.0
  1
K
 50
169.9999999999997
  7
スタイル3
 72
     1
 11
143.7979255519839
 21
185.4783373996214
 31
0.0
100
AcDbText
 73
     2
  0
TEXT
  5
2B042
330
1F
100
AcDbEntity
  8
文字
100
AcDbText
 10
126.3996022601579
 20
209.9715220752242
 30
0.0
 40
9.0
  1
I
 50
90.0
  7
スタイル3
 72
     1
 11
121.8996022601579
 21
211.575742854445
 31
0.0
100
AcDbText
 73
     2
  0
TEXT
  5
2B043
330
1F
100
AcDbEntity
  8
文字
100
AcDbText
 10
140.2338672179977
 20
190.8868203348236
 30
0.0
 40
9.0
  1
A
 50
149.9999999999994
  7
スタイル3
 72
     1
 11
135.1496022601577
 21
188.6260696541573
 31
0.0
100
AcDbText
 73
     2
  0
TEXT
  5
2B044
330
1F
100
AcDbEntity
  8
文字
100
AcDbText
 10
133.6540496032983
 20
194.9228840171153
 30
0.0
 40
9.0
  1
S
 50
130.0000000000001
  7
スタイル3
 72
     1
 11
128.0994245175049
 21
194.5418711977517
 31
0.0
100
AcDbText
 73
     2
  0
TEXT
  5
2B045
330
1F
100
AcDbEntity
  8
文字
100
AcDbText
 10
128.9506412522723
 20
200.6876272518762
 30
0.0
 40
9.0
  1
H
 50
110.0000000000001
  7
スタイル3
 72
     1
 11
123.4977478093314
 21
202.5122090563148
 31
0.0
100
AcDbText
 73
     2
  0
TEXT
  5
2B046
330
1F
100
AcDbEntity
  8
文字
100
AcDbText
 10
126.5020879534636
 20
215.7365135582055
 30
0.0
 40
9.0
  1
H
 50
69.99999999999992
  7
スタイル3
 72
     1
 11
123.4977478093314
 21
220.6392766525751
 31
0.0
100
AcDbText
 73
     2
  0
TEXT
  5
2B047
330
1F
100
AcDbEntity
  8
文字
100
AcDbText
 10
129.442955970748
 20
223.2100157264321
 30
0.0
 40
9.0
  1
A
 50
49.99999999999991
  7
スタイル3
 72
     1
 11
128.0994245175049
 21
228.6096145111382
 31
0.0
100
AcDbText
 73
     2
  0
TEXT
  5
2B048
330
1F
100
AcDbEntity
  8
文字
100
AcDbText
 10
134.408440492152
 20
228.9013536857546
 30
0.0
 40
9.0
  1
R
 50
30.00000000000055
  7
スタイル3
 72
     1
 11
135.1496022601581
 21
234.5254160547326
 31
0.0
100
AcDbText
 73
     2
  0
TEXT
  5
2B049
330
1F
100
AcDbEntity
  8
文字
100
AcDbText
 10
141.3563351598088
 20
232.6732102938036
 30
0.0
 40
9.0
  1
A
 50
10.00000000000021
  7
スタイル3
 72
     1
 11
143.7979255519839
 21
237.6731483092685
 31
0.0
100
AcDbText
 73
     2
  0
ARC
  5
2B04B
330
1F
100
AcDbEntity
  8
実線
100
AcDbCircle
 10
148.3996022601579
 20
211.575742854445
 30
0.0
 40
44.0
100
AcDbArc
 50
189.8142483329314
 51
111.5406777503634
  0
ARC
  5
2B04C
330
1F
100
AcDbEntity
  8
実線
100
AcDbCircle
 10
148.3996022601579
 20
211.575742854445
 30
0.0
 40
44.0
100
AcDbArc
 50
122.815065677192
 51
170.1857516670665
  0
ARC
  5
2B04D
330
1F
100
AcDbEntity
  8
実線
100
AcDbCircle
 10
189.9688216418109
 20
200.575742854445
 30
0.0
 40
1.0
100
AcDbArc
 50
270.0
 51
345.1781789379503
  0
ARC
  5
2B04E
330
1F
100
AcDbEntity
  8
実線
100
AcDbCircle
 10
189.9688216418109
 20
222.575742854445
 30
0.0
 40
1.0
100
AcDbArc
 50
14.82182106204982
 51
90.0
  0
ARC
  5
2B04F
330
1F
100
AcDbEntity
  8
実線
100
AcDbCircle
 10
148.3996022601579
 20
211.575742854445
 30
0.0
 40
37.5
100
AcDbArc
 50
191.536959032815
 51
168.4630409671849
  0
CIRCLE
  5
2B050
330
1F
100
AcDbEntity
  8
実線
100
AcDbCircle
 10
148.3996022601579
 20
211.575742854445
 30
0.0
 40
34.0
  0
LINE
  5
2B051
330
1F
100
AcDbEntity
  8
実線
100
AcDbLine
 10
98.39960226015774
 20
204.0757428544451
 30
0.0
 11
98.39960226015774
 21
219.0757428544451
 31
0.0
  0
ARC
  5
2B052
330
1F
100
AcDbEntity
  8
実線
100
AcDbCircle
 10
100.3996022601577
 20
219.0757428544451
 30
0.0
 40
2.0
100
AcDbArc
 50
0.0
 51
180.0
  0
ARC
  5
2B053
330
1F
100
AcDbEntity
  8
実線
100
AcDbCircle
 10
100.3996022601577
 20
204.0757428544451
 30
0.0
 40
2.0
100
AcDbArc
 50
180.0
 51
0.0
  0
LINE
  5
2B054
330
1F
100
AcDbEntity
  8
実線
100
AcDbLine
 10
132.2444877158827
 20
245.4174667180626
 30
0.0
 11
132.2444877158827
 21
257.6649186940896
 31
0.0
  0
LINE
  5
2B055
330
1F
100
AcDbEntity
  8
実線
100
AcDbLine
 10
124.5547168044331
 20
257.6649186940896
 30
0.0
 11
124.5547168044331
 21
240.518296950505
 31
0.0
  0
LINE
  5
2B056
330
1F
100
AcDbEntity
  8
実線
100
AcDbLine
 10
122.5838463431012
 20
257.6649186940896
 30
0.0
 11
122.5838463431012
 21
265.5484005394171
 31
0.0
  0
LINE
  5
2B057
330
1F
100
AcDbEntity
  8
実線
100
AcDbLine
 10
122.5838463431012
 20
265.5484005394169
 30
0.0
 11
134.2153581772146
 21
265.548400539417
 31
0.0
  0
LINE
  5
2B058
330
1F
100
AcDbEntity
  8
実線
100
AcDbLine
 10
134.2153581772146
 20
265.548400539417
 30
0.0
 11
134.2153581772146
 21
257.6649186940896
 31
0.0
  0
LINE
  5
2B059
330
1F
100
AcDbEntity
  8
実線
100
AcDbLine
 10
134.2153581772146
 20
257.6649186940896
 30
0.0
 11
122.5838463431012
 21
257.6649186940896
 31
0.0
  0
LINE
  5
2B05A
330
1F
100
AcDbEntity
  8
実線
100
AcDbLine
 10
126.7517942077061
 20
265.5484005394171
 30
0.0
 11
126.7517942077061
 21
275.5603811021995
 31
0.0
  0
LINE
  5
2B05B
330
1F
100
AcDbEntity
  8
実線
100
AcDbLine
 10
130.0474103126098
 20
265.5484005394169
 30
0.0
 11
130.0474103126098
 21
273.3644365316322
 31
0.0
  0
SPLINE
  5
2B05C
330
1F
100
AcDbEntity
  8
実線
100
AcDbSpline
210
0.0
220
0.0
230
1.0
 70
  1064
 71
     3
 72
    11
 73
     7
 74
     5
 42
0.000000001
 43
0.0000000001
 44
0.0000000001
 40
0.0
 40
0.0
 40
0.0
 40
0.0
 40
1.357024005235501
 40
2.910663794972683
 40
3.892682383120585
 40
4.563445293846299
 40
4.563445293846299
 40
4.563445293846299
 40
4.563445293846299
 10
130.0474103126098
 20
273.3644365316322
 30
0.0
 10
129.5429123830804
 20
273.2740986600934
 30
0.0
 10
128.4608210918028
 20
273.0803340907208
 30
0.0
 10
127.9763589463378
 20
274.4886622621962
 30
0.0
 10
127.6054248490584
 20
275.6974137535631
 30
0.0
 10
126.9982210766364
 20
275.599939812467
 30
0.0
 10
126.7517942077061
 20
275.5603811021995
 30
0.0
 11
130.0474103126098
 21
273.3644365316322
 31
0.0
 11
128.6903863073743
 21
273.3644365316322
 31
0.0
 11
127.9135664125057
 21
274.7099280578749
 31
0.0
 11
127.4225571184318
 21
275.5603811021995
 31
0.0
 11
126.7517942077061
 21
275.5603811021995
 31
0.0
  0
SPLINE
  5
2B05D
330
1F
100
AcDbEntity
  8
実線
100
AcDbSpline
210
0.0
220
0.0
230
1.0
 70
  1064
 71
     3
 72
     9
 73
     5
 74
     3
 42
0.000000001
 43
0.0000000001
 44
0.0000000001
 40
0.0
 40
0.0
 40
0.0
 40
0.0
 40
1.088445461038261
 40
2.1980085023327
 40
2.1980085023327
 40
2.1980085023327
 40
2.1980085023327
 10
129.8510856548353
 20
273.3644365316322
 30
0.0
 10
129.6044767247312
 20
273.644129166407
 30
0.0
 10
129.1064742574301
 20
274.208940919757
 30
0.0
 10
128.3703218402451
 20
274.369574636818
 30
0.0
 10
127.9987093037144
 20
274.4506631473709
 30
0.0
 11
129.8510856548353
 21
273.3644365316322
 31
0.0
 11
129.0528599057812
 21
274.1044021897555
 31
0.0
 11
127.9987093037144
 21
274.4506631473709
 31
0.0
  0
DIMENSION
  5
2B05E
102
{ACAD_XDICTIONARY
360
2B05F
102
}
102
{ACAD_REACTORS
330
2B060
102
}
330
1F
100
AcDbEntity
  8
寸法
100
AcDbDimension
280
     0
  2
*D10
 10
255.920255996397
 20
256.075742854445
 30
0.0
 11
253.1702559963969
 21
211.575742854445
 31
0.0
 70
    32
 71
     5
 42
89.00000000000003
 73
     0
 74
     0
 75
     0
  3
ｺﾋﾟｰ - ISO-25
100
AcDbAlignedDimension
 13
153.3996022601579
 23
167.075742854445
 33
0.0
 14
153.3996022601579
 24
256.075742854445
 34
0.0
 50
90.0
100
AcDbRotatedDimension
  0
TEXT
  5
2B104
330
1F
100
AcDbEntity
  8
0
100
AcDbText
 10
318.7335983023972
 20
61.25
 30
0.0
 40
3.5
  1
多機能型電子式水道メーター　13mm
 41
0.9
 72
     1
 11
352.3935983023971
 21
63.0
 31
0.0
100
AcDbText
 73
     2
  0
TEXT
  5
2B105
330
1F
100
AcDbEntity
  8
0
100
AcDbText
 10
317.8166666666667
 20
26.58703627890884
 30
0.0
 40
3.5
  1
2019.
 41
0.8
 72
     1
 11
323.75
 21
28.33703627890884
 31
0.0
100
AcDbText
 73
     2
  0
TEXT
  5
2B106
330
1F
100
AcDbEntity
  8
0
100
AcDbText
 10
317.55
 20
21.53356531963255
 30
0.0
 40
3.5
  1
11.20
 41
0.8
 72
     1
 11
323.75
 21
23.28356531963255
 31
0.0
100
AcDbText
 73
     2
  0
TEXT
  5
2B136
330
1F
100
AcDbEntity
  8
0
100
AcDbText
 10
302.4310329945234
 20
39.40516497261691
 30
0.0
 40
3.5
  1
KEL-13
 41
0.9
 72
     1
 11
311.7310329945234
 21
41.1551649726169
 31
0.0
100
AcDbText
 73
     2
  0
TEXT
  5
2B14F
330
1F
100
AcDbEntity
  8
0
100
AcDbText
 10
362.0810329945234
 20
50.90516497261691
 30
0.0
 40
3.5
  1
A-223100
 41
0.9
 72
     1
 11
374.2310329945234
 21
52.65516497261691
 31
0.0
100
AcDbText
 73
     2
  0
LINE
  5
2B168
330
1F
100
AcDbEntity
  8
0
100
AcDbLine
 10
405.0
 20
277.0
 30
0.0
 11
25.0
 21
277.0
 31
0.0
  0
LINE
  5
2B169
330
1F
100
AcDbEntity
  8
0
100
AcDbLine
 10
405.0
 20
20.0
 30
0.0
 11
405.0
 21
277.0
 31
0.0
  0
LINE
  5
2B16A
330
1F
100
AcDbEntity
  8
0
100
AcDbLine
 10
25.0
 20
277.0
 30
0.0
 11
25.0
 21
20.0
 31
0.0
  0
LINE
  5
2B16B
330
1F
100
AcDbEntity
  8
0
100
AcDbLine
 10
25.0
 20
20.0
 30
0.0
 11
405.0
 21
20.0
 31
0.0
  0
VIEWPORT
  5
6B
330
50
100
AcDbEntity
 67
     1
  8
0
348
276B
100
AcDbViewport
 10
433.5371052199573
 20
123.3251464112375
 30
0.0
 40
833.2744282326544
 41
415.0001327249073
 68
     1
 69
     1
 12
433.5371052199573
 22
123.3251464112375
 13
0.0
 23
0.0
 14
10.0
 24
10.0
 15
10.0
 25
10.0
 16
0.0
 26
0.0
 36
1.0
 17
0.0
 27
0.0
 37
0.0
 42
50.0
 43
0.0
 44
0.0
 45
415.0001327249073
 50
0.0
 51
0.0
 72
   100
 90
    32800
  1

281
     0
 71
     1
 74
     0
110
0.0
120
0.0
130
0.0
111
1.0
121
0.0
131
0.0
112
0.0
122
1.0
132
0.0
 79
     0
146
0.0
170
     0
 61
     5
292
     1
282
     1
141
0.0
142
0.0
 63
   250
421
  3355443
  0
VIEWPORT
  5
6D
330
50
100
AcDbEntity
 67
     1
  8
0
348
276B
100
AcDbViewport
 10
194.6747247325147
 20
118.9168694143202
 30
0.0
 40
506.9942499588641
 41
411.2802053937703
 68
     2
 69
     2
 12
200.9197229890301
 22
122.5631282670758
 13
0.0
 23
0.0
 14
10.0
 24
10.0
 15
10.0
 25
10.0
 16
0.0
 26
0.0
 36
1.0
 17
0.0
 27
0.0
 37
0.0
 42
50.0
 43
0.0
 44
0.0
 45
411.2802071812528
 50
0.0
 51
0.0
 72
   100
 90
    32864
  1

281
     0
 71
     1
 74
     0
110
0.0
120
0.0
130
0.0
111
1.0
121
0.0
131
0.0
112
0.0
122
1.0
132
0.0
 79
     0
146
0.0
170
     0
 61
     5
292
     1
282
     1
141
0.0
142
0.0
 63
   250
421
  3355443
  0
ENDSEC
  0
SECTION
  2
OBJECTS
  0
DICTIONARY
  5
C
330
0
100
AcDbDictionary
281
     1
  3
ACAD_CIP_PREVIOUS_PRODUCT_INFO
350
2B1E9
  3
ACAD_COLOR
350
2776
  3
ACAD_DETAILVIEWSTYLE
350
2B1DA
  3
ACAD_GROUP
350
D
  3
ACAD_LAYOUT
350
1A
  3
ACAD_MATERIAL
350
2761
  3
ACAD_MLEADERSTYLE
350
247F1
  3
ACAD_MLINESTYLE
350
17
  3
ACAD_PLOTSETTINGS
350
19
  3
ACAD_PLOTSTYLENAME
350
E
  3
ACAD_SCALELIST
350
247DF
  3
ACAD_SECTIONVIEWSTYLE
350
2B1D8
  3
ACAD_TABLESTYLE
350
2777
  3
ACAD_VISUALSTYLE
350
2765
  3
ACDB_RECOMPOSE_DATA
350
2B21B
  3
AcDbVariableDictionary
350
5E
  0
DICTIONARY
  5
279F
330
2
100
AcDbDictionary
280
     1
281
     1
  3
ACAD_LAYERFILTERS
360
2DF9
  3
ACAD_LAYERSTATES
360
2E2E
  3
ACLYDICTIONARY
360
2DF8
  0
DICTIONARY
  5
24E13
330
10
100
AcDbDictionary
280
     1
281
     1
  3
ADSK_XREC_LAYER_RECONCILED
360
24E14
  0
DICTIONARY
  5
24E15
330
A7
100
AcDbDictionary
280
     1
281
     1
  3
ADSK_XREC_LAYER_RECONCILED
360
24E16
  0
DICTIONARY
  5
24E17
330
A8
100
AcDbDictionary
280
     1
281
     1
  3
ADSK_XREC_LAYER_RECONCILED
360
24E18
  0
DICTIONARY
  5
24E19
330
A9
100
AcDbDictionary
280
     1
281
     1
  3
ADSK_XREC_LAYER_RECONCILED
360
24E1A
  0
DICTIONARY
  5
24E1B
330
AA
100
AcDbDictionary
280
     1
281
     1
  3
ADSK_XREC_LAYER_RECONCILED
360
24E1C
  0
DICTIONARY
  5
24E1D
330
AB
100
AcDbDictionary
280
     1
281
     1
  3
ADSK_XREC_LAYER_RECONCILED
360
24E1E
  0
DICTIONARY
  5
24E1F
330
AC
100
AcDbDictionary
280
     1
281
     1
  3
ADSK_XREC_LAYER_RECONCILED
360
24E20
  0
DICTIONARY
  5
24E21
330
58C
100
AcDbDictionary
280
     1
281
     1
  3
ADSK_XREC_LAYER_RECONCILED
360
24E22
  0
DICTIONARY
  5
24E23
330
1023
100
AcDbDictionary
280
     1
281
     1
  3
ADSK_XREC_LAYER_RECONCILED
360
24E24
  0
DICTIONARY
  5
24E25
330
2366
100
AcDbDictionary
280
     1
281
     1
  3
ADSK_XREC_LAYER_RECONCILED
360
24E26
  0
DICTIONARY
  5
2D98
330
1F
100
AcDbDictionary
280
     1
281
     1
  3
ACAD_SORTENTS
360
2D99
  0
DICTIONARY
  5
29CF
330
341
100
AcDbDictionary
280
     1
281
     1
  3
ACAD_SORTENTS
360
29D1
  0
DICTIONARY
  5
2A7AC
330
2A7AB
100
AcDbDictionary
280
     1
281
     1
  3
ACAD_DIMASSOC
360
2A7AD
  0
DICTIONARY
  5
2A7D8
330
2A7D7
100
AcDbDictionary
280
     1
281
     1
  3
ACAD_DIMASSOC
360
2A7D9
  0
DICTIONARY
  5
2ACC3
330
2ACB6
100
AcDbDictionary
280
     1
281
     1
  3
ACAD_DIMASSOC
360
2ACCD
  0
DICTIONARY
  5
2B05F
330
2B05E
100
AcDbDictionary
280
     1
281
     1
  3
ACAD_DIMASSOC
360
2B060
  0
XRECORD
  5
2B1E9
102
{ACAD_REACTORS
330
C
102
}
330
C
100
AcDbXrecord
280
     1
300
ACDLT
300
2014
300
ACDLT_F_S
  0
DICTIONARY
  5
2776
102
{ACAD_REACTORS
330
C
102
}
330
C
100
AcDbDictionary
281
     1
  0
DICTIONARY
  5
2B1DA
102
{ACAD_REACTORS
330
C
102
}
330
C
100
AcDbDictionary
281
     1
  3
Metric50
350
2B1DB
  0
DICTIONARY
  5
D
102
{ACAD_REACTORS
330
C
102
}
330
C
100
AcDbDictionary
281
     1
  3
*A1
350
29F6
  0
DICTIONARY
  5
1A
102
{ACAD_REACTORS
330
C
102
}
330
C
100
AcDbDictionary
281
     1
  3
Model
350
22
  3
ﾚｲｱｳﾄ1
350
51
  3
ﾚｲｱｳﾄ2
350
56
  0
DICTIONARY
  5
2761
102
{ACAD_REACTORS
330
C
102
}
330
C
100
AcDbDictionary
281
     1
  3
ByBlock
350
2763
  3
ByLayer
350
2762
  3
Global
350
2764
  0
DICTIONARY
  5
247F1
102
{ACAD_REACTORS
330
C
102
}
330
C
100
AcDbDictionary
281
     1
  3
Standard
350
247F2
  0
DICTIONARY
  5
17
102
{ACAD_REACTORS
330
C
102
}
330
C
100
AcDbDictionary
281
     1
  3
Standard
350
18
  0
DICTIONARY
  5
19
102
{ACAD_REACTORS
330
C
102
}
330
C
100
AcDbDictionary
281
     1
  3
印刷
350
E74
  0
ACDBDICTIONARYWDFLT
  5
E
102
{ACAD_REACTORS
330
C
102
}
330
C
100
AcDbDictionary
281
     1
  3
Normal
350
F
100
AcDbDictionaryWithDefault
340
F
  0
DICTIONARY
  5
247DF
102
{ACAD_REACTORS
330
C
102
}
330
C
100
AcDbDictionary
281
     1
  3
A0
350
247E0
  3
A1
350
247E1
  3
A2
350
247E2
  3
A3
350
247E3
  3
A4
350
247E4
  3
A5
350
247E5
  3
A6
350
247E6
  3
A7
350
247E7
  3
A8
350
247E8
  3
A9
350
247E9
  3
B0
350
247EA
  3
B1
350
247EB
  3
B2
350
247EC
  3
B3
350
247ED
  3
B4
350
247EE
  3
B5
350
247EF
  3
B6
350
247F0
  0
DICTIONARY
  5
2B1D8
102
{ACAD_REACTORS
330
C
102
}
330
C
100
AcDbDictionary
281
     1
  3
Metric50
350
2B1D9
  0
DICTIONARY
  5
2777
102
{ACAD_REACTORS
330
C
102
}
330
C
100
AcDbDictionary
281
     1
  3
Standard
350
2778
  3
コピー - Standard
350
2688B
  0
DICTIONARY
  5
2765
102
{ACAD_REACTORS
330
C
102
}
330
C
100
AcDbDictionary
281
     1
  3
2dWireframe
350
276B
  3
3D Hidden
350
276D
  3
3dWireframe
350
276C
  3
Basic
350
276A
  3
Brighten
350
2771
  3
ColorChange
350
2775
  3
Conceptual
350
276E
  3
Dim
350
2770
  3
EdgeColorOff
350
247DE
  3
Facepattern
350
2774
  3
Flat
350
2766
  3
FlatWithEdges
350
2767
  3
Gouraud
350
2768
  3
GouraudWithEdges
350
2769
  3
Hidden
350
2B1D2
  3
JitterOff
350
247DC
  3
Linepattern
350
2773
  3
OverhangOff
350
247DD
  3
Realistic
350
276F
  3
Shaded
350
2B1D7
  3
Shaded with edges
350
2B1D6
  3
Shades of Gray
350
2B1D3
  3
Sketchy
350
2B1D4
  3
Thicken
350
2772
  3
Wireframe
350
2B1D1
  3
X-Ray
350
2B1D5
  0
XRECORD
  5
2B21B
102
{ACAD_REACTORS
330
C
102
}
330
C
100
AcDbXrecord
280
     1
 90
        1
330
2778
330
2688B
330
2B1D9
330
2B1DB
  0
DICTIONARY
  5
5E
102
{ACAD_REACTORS
330
C
102
}
330
C
100
AcDbDictionary
281
     1
  3
CANNOSCALE
350
24E32
  3
CMLEADERSTYLE
350
24E30
  3
CTABLESTYLE
350
2792
  3
CVIEWDETAILSTYLE
350
2B1EC
  3
CVIEWSECTIONSTYLE
350
2B1ED
  3
DIMASSOC
350
5F
  3
HIDETEXT
350
63
  3
LAYEREVAL
350
24E34
  3
LAYERNOTIFY
350
24E35
  3
LIGHTINGUNITS
350
24E33
  3
MSLTSCALE
350
24E31
  0
DICTIONARY
  5
2DF9
102
{ACAD_REACTORS
330
279F
102
}
330
279F
100
AcDbDictionary
281
     1
  0
DICTIONARY
  5
2E2E
102
{ACAD_REACTORS
330
279F
102
}
330
279F
100
AcDbDictionary
281
     1
  0
DICTIONARY
  5
2DF8
102
{ACAD_REACTORS
330
279F
102
}
330
279F
100
AcDbDictionary
281
     1
1001
ACAD
1000
<All
  0
XRECORD
  5
24E14
102
{ACAD_REACTORS
330
24E13
102
}
330
24E13
100
AcDbXrecord
280
     1
290
     1
  0
XRECORD
  5
24E16
102
{ACAD_REACTORS
330
24E15
102
}
330
24E15
100
AcDbXrecord
280
     1
290
     1
  0
XRECORD
  5
24E18
102
{ACAD_REACTORS
330
24E17
102
}
330
24E17
100
AcDbXrecord
280
     1
290
     1
  0
XRECORD
  5
24E1A
102
{ACAD_REACTORS
330
24E19
102
}
330
24E19
100
AcDbXrecord
280
     1
290
     1
  0
XRECORD
  5
24E1C
102
{ACAD_REACTORS
330
24E1B
102
}
330
24E1B
100
AcDbXrecord
280
     1
290
     1
  0
XRECORD
  5
24E1E
102
{ACAD_REACTORS
330
24E1D
102
}
330
24E1D
100
AcDbXrecord
280
     1
290
     1
  0
XRECORD
  5
24E20
102
{ACAD_REACTORS
330
24E1F
102
}
330
24E1F
100
AcDbXrecord
280
     1
290
     1
  0
XRECORD
  5
24E22
102
{ACAD_REACTORS
330
24E21
102
}
330
24E21
100
AcDbXrecord
280
     1
290
     1
  0
XRECORD
  5
24E24
102
{ACAD_REACTORS
330
24E23
102
}
330
24E23
100
AcDbXrecord
280
     1
290
     1
  0
XRECORD
  5
24E26
102
{ACAD_REACTORS
330
24E25
102
}
330
24E25
100
AcDbXrecord
280
     1
290
     1
  0
SORTENTSTABLE
  5
2D99
102
{ACAD_REACTORS
330
2D98
102
}
330
2D98
100
AcDbSortentsTable
330
1F
331
2A733
  5
2A73B
331
2ABB4
  5
2ABC0
331
2AB3E
  5
2AB4A
331
29B8C
  5
29B90
331
2A7D4
  5
2AAA6
331
2A73B
  5
2A743
331
2A743
  5
2A74B
331
2AF33
  5
2AF74
331
2B052
  5
2B05D
331
2AC16
  5
2AC22
331
2AC55
  5
2AC61
331
2AD44
  5
2AE8D
331
2AD4C
  5
2AEA2
331
2AF3B
  5
2B031
331
2AC1E
  5
2AC2A
331
2AC5D
  5
2AD20
331
2AC26
  5
2AC32
331
2AE94
  5
2AEA9
331
2AC2E
  5
2AC3A
331
2AAC8
  5
2AAD4
331
2A78A
  5
2A792
331
2A7C1
  5
2A7CD
331
2A74B
  5
2A753
331
2AB7D
  5
2AB89
331
2ABBC
  5
2ABC8
331
2AAD0
  5
2AADC
331
2AB07
  5
2AB13
331
2A753
  5
2A75B
331
2A792
  5
2A79E
331
2A7C9
  5
2A7D5
331
2AB46
  5
2AB52
331
2AB4E
  5
2AB5A
331
2AB85
  5
2AB91
331
2A75B
  5
2A763
331
2AAD8
  5
2AAE4
331
2AB0F
  5
2AB1B
331
2ABC4
  5
2ABD0
331
2ABCC
  5
2ABD8
331
2B05C
  5
2B168
331
2AB17
  5
2AB23
331
2AB56
  5
2AB62
331
2A79A
  5
2A7A6
331
2AAA1
  5
2AAAD
331
2A763
  5
2A76B
331
2AAE0
  5
2AAEC
331
2AB8D
  5
2AB99
331
29B3D
  5
24DB4
331
2AB95
  5
2ABA1
331
2ABD4
  5
2ABE0
331
2AC65
  5
2AD28
331
2AB1F
  5
2AB2B
331
2AB5E
  5
2AB6A
331
2B03C
  5
2B047
331
2A704
  5
2A71B
331
2A71C
  5
2A735
331
29B75
  5
29B58
331
29B85
  5
29B89
331
2B00B
  5
2B03A
331
2AC36
  5
2AC42
331
2AD25
  5
2AD31
331
2ABF7
  5
2AC03
331
2B033
  5
2B03E
331
2AC3E
  5
2AC4A
331
2AD2D
  5
2AD3B
331
2ABFF
  5
2AC0B
331
2AEA4
  5
2AF2D
331
2B043
  5
2B04F
331
2AC07
  5
2AC13
331
2AC46
  5
2AC52
331
2AD35
  5
2AD42
331
2AD3D
  5
2AD49
331
2AF2C
  5
2AF3A
331
2AC0F
  5
2AC1B
331
2AC4E
  5
2AC5A
331
2B04B
  5
2B056
331
2A7A2
  5
2A7B3
331
2AAA9
  5
2AAB5
331
2A76B
  5
2A773
331
2AAE8
  5
2AAF4
331
2AB9D
  5
2ABA9
331
2ABDC
  5
2ABE8
331
2AAF0
  5
2AAFC
331
2AB27
  5
2AB33
331
2A773
  5
2A77B
331
2A7B2
  5
2A7BE
331
2AAB1
  5
2AABD
331
2AB66
  5
2AB72
331
2AB6E
  5
2AB7A
331
2ABA5
  5
2ABB1
331
2AAB9
  5
2AAC5
331
2AAF8
  5
2AB04
331
2A77B
  5
2A783
331
2A7BA
  5
2A7C6
331
2AB2F
  5
2AB3B
331
2ABE4
  5
2ABF0
331
2ABEC
  5
2ABF8
331
2AB37
  5
2AB43
331
2AAC1
  5
2AACD
331
2AB76
  5
2AB82
331
2A783
  5
2A78B
331
2ABAD
  5
2ABB9
331
29B8D
  5
29B91
331
2A734
  5
2A73C
331
2AB3F
  5
2AB4B
331
2ABB5
  5
2ABC1
331
2A73C
  5
2A744
331
2A7D5
  5
2AAA7
331
2A744
  5
2A74C
331
2B053
  5
2B05E
331
2AD45
  5
2AE93
331
2AF34
  5
2AF75
331
2AC17
  5
2AC23
331
2AC56
  5
2AC62
331
2AC5E
  5
2AD21
331
2AD4D
  5
2AEA3
331
2AC1F
  5
2AC2B
331
2AF3C
  5
2B032
331
2AC27
  5
2AC33
331
2AE8D
  5
2AEA6
331
2AE95
  5
2AEAA
331
2AC2F
  5
2AC3B
331
2A7C2
  5
2A7CE
331
2AAC9
  5
2AAD5
331
2A74C
  5
2A754
331
2A78B
  5
2A793
331
2AB00
  5
2AB0C
331
2ABBD
  5
2ABC9
331
2AB08
  5
2AB14
331
2AB47
  5
2AB53
331
2A793
  5
2A79F
331
2A7CA
  5
2A7D6
331
2A754
  5
2A75C
331
2AAD1
  5
2AADD
331
2AB7E
  5
2AB8A
331
2AB86
  5
2AB92
331
2ABC5
  5
2ABD1
331
2AAD9
  5
2AAE5
331
2AB10
  5
2AB1C
331
2AB4F
  5
2AB5B
331
2A75C
  5
2A764
331
2B05D
  5
2B169
331
2AB8E
  5
2AB9A
331
2ABCD
  5
2ABD9
331
2AAE1
  5
2AAED
331
2AB18
  5
2AB24
331
2A764
  5
2A76C
331
2A79B
  5
2A7A7
331
2AAA2
  5
2AAAE
331
2AB57
  5
2AB63
331
29B3E
  5
24DC2
331
2AC66
  5
2AD29
331
2B03D
  5
2B048
331
2A705
  5
2A71C
331
2AB5F
  5
2AB6B
331
2AB96
  5
2ABA2
331
2ABD5
  5
2ABE1
331
2A70D
  5
2A732
331
27C67
  5
29B3F
331
29B76
  5
29B81
331
29B86
  5
29B8A
331
2ABF0
  5
2ABFC
331
2AE9D
  5
2AF29
331
2ABF8
  5
2AC04
331
2AC37
  5
2AC43
331
2AD26
  5
2AD32
331
2AD2E
  5
2AD3C
331
2AEA5
  5
2AF2E
331
2AC00
  5
2AC0C
331
2AC3F
  5
2AC4B
331
2B034
  5
2B03F
331
2AC47
  5
2AC53
331
2B044
  5
2B050
331
2AC08
  5
2AC14
331
2B04C
  5
2B057
331
2AC4F
  5
2AC5B
331
2AD3E
  5
2AD4A
331
2AF2D
  5
2AF3B
331
2AAAA
  5
2AAB6
331
2AAE9
  5
2AAF5
331
2A76C
  5
2A774
331
2A7A3
  5
2A7B4
331
2AB20
  5
2AB2C
331
2ABDD
  5
2ABE9
331
2AB28
  5
2AB34
331
2AB67
  5
2AB73
331
2A7B3
  5
2A7BF
331
2AAB2
  5
2AABE
331
2A774
  5
2A77C
331
2AAF1
  5
2AAFD
331
2AB9E
  5
2ABAA
331
2ABA6
  5
2ABB2
331
2ABE5
  5
2ABF1
331
2AB30
  5
2AB3C
331
2AB6F
  5
2AB7B
331
2A7BB
  5
2A7C7
331
2AABA
  5
2AAC6
331
2A77C
  5
2A784
331
2AAF9
  5
2AB05
331
2ABAE
  5
2ABBA
331
2ABED
  5
2ABF9
331
2AB38
  5
2AB44
331
2A784
  5
2A78C
331
2AAC2
  5
2AACE
331
2AB77
  5
2AB83
331
2A735
  5
2A73D
331
2ABB6
  5
2ABC2
331
29B27
  5
29B83
331
29B8E
  5
2A50A
331
2A7D6
  5
2AAA8
331
2A73D
  5
2A745
331
2A745
  5
2A74D
331
2AC10
  5
2AC1C
331
2AF35
  5
2AF76
331
2B054
  5
2B0AB
331
2AC18
  5
2AC24
331
2AC57
  5
2AC63
331
2AD46
  5
2AE94
331
2AD4E
  5
2AEA4
331
2AF3D
  5
2B033
331
2AC20
  5
2AC2C
331
2AC5F
  5
2AD22
331
2B104
  5
2B16B
331
2AC28
  5
2AC34
331
2AD1F
  5
2AD2B
331
2AE96
  5
2AEAB
331
2AACA
  5
2AAD6
331
2AB01
  5
2AB0D
331
2A74D
  5
2A755
331
2A78C
  5
2A798
331
2A7C3
  5
2A7CF
331
2AB40
  5
2AB4C
331
2AB48
  5
2AB54
331
2AB7F
  5
2AB8B
331
2AAD2
  5
2AADE
331
2AB09
  5
2AB15
331
2ABBE
  5
2ABCA
331
2A755
  5
2A75D
331
2A794
  5
2A7A0
331
2A7CB
  5
2A7D7
331
2ACB6
  5
2AD2A
331
2B168
  5
108F
331
2AB50
  5
2AB5C
331
2AB87
  5
2AB93
331
2A75D
  5
2A765
331
2AADA
  5
2AAE6
331
2AB11
  5
2AB1D
331
2ABC6
  5
2ABD2
331
2ABCE
  5
2ABDA
331
2B05E
  5
2B16A
331
2AB19
  5
2AB25
331
2AB58
  5
2AB64
331
2A79C
  5
2A7A8
331
2AAA3
  5
2AAAF
331
2A765
  5
2A76D
331
2AAE2
  5
2AAEE
331
2AB8F
  5
2AB9B
331
29B3F
  5
24DBB
331
2AB97
  5
2ABA3
331
2ABD6
  5
2ABE2
331
2B03E
  5
2B049
331
2A706
  5
2A720
331
29B77
  5
29B76
331
29B87
  5
29B8B
331
2ABF1
  5
2ABFD
331
2AC30
  5
2AC3C
331
2AC38
  5
2AC44
331
2AD27
  5
2AD33
331
2ABF9
  5
2AC05
331
2AEA6
  5
2AF2F
331
2B035
  5
2B040
331
2AC40
  5
2AC4C
331
2AD2F
  5
2AD3D
331
2AC01
  5
2AC0D
331
2B045
  5
2B051
331
2AC09
  5
2AC15
331
2AC48
  5
2AC54
331
2AD37
  5
2AD43
331
2AD3F
  5
2AD4B
331
2AF2E
  5
2AF3C
331
2B04D
  5
2B058
331
2AAEA
  5
2AAF6
331
2AB21
  5
2AB2D
331
2A7A4
  5
2A7B5
331
2AAAB
  5
2AAB7
331
2AB60
  5
2AB6C
331
2A76D
  5
2A775
331
2AB9F
  5
2ABAB
331
2ABDE
  5
2ABEA
331
2AAF2
  5
2AAFE
331
2AB29
  5
2AB35
331
2A775
  5
2A77D
331
2A7B4
  5
2A7C0
331
2AAB3
  5
2AABF
331
2AB68
  5
2AB74
331
2AB70
  5
2AB7C
331
2ABA7
  5
2ABB3
331
2AABB
  5
2AAC7
331
2AAFA
  5
2AB06
331
2A77D
  5
2A785
331
2A7BC
  5
2A7C8
331
2AB31
  5
2AB3D
331
2ABE6
  5
2ABF2
331
2ABEE
  5
2ABFA
331
2AB39
  5
2AB45
331
2AAC3
  5
2AACF
331
2A785
  5
2A78D
331
2ABAF
  5
2ABBB
331
2ABB7
  5
2ABC3
331
29B8F
  5
2A510
331
2A736
  5
2A73E
331
2A73E
  5
2A746
331
2A7D7
  5
2AAA9
331
2A746
  5
2A74E
331
2AC11
  5
2AC1D
331
2AC50
  5
2AC5C
331
2B055
  5
2B0AC
331
2AC58
  5
2AC64
331
2AD47
  5
2AE95
331
2AC19
  5
2AC25
331
2AF36
  5
2B008
331
2B105
  5
2B195
331
2AC21
  5
2AC2D
331
2AF3E
  5
2B034
331
2AC29
  5
2AC35
331
2AB41
  5
2AB4D
331
2AB78
  5
2AB84
331
2AACB
  5
2AAD7
331
2A74E
  5
2A756
331
2A78D
  5
2A799
331
2AB02
  5
2AB0E
331
2ABBF
  5
2ABCB
331
2AB0A
  5
2AB16
331
2AB49
  5
2AB55
331
2A795
  5
2A7A1
331
2A7CC
  5
2A7F1
331
2A756
  5
2A75E
331
2AAD3
  5
2AADF
331
2AB80
  5
2AB8C
331
2B169
  5
24DC1
331
2AB88
  5
2AB94
331
2ABC7
  5
2ABD3
331
2A75E
  5
2A766
331
2AADB
  5
2AAE7
331
2AB12
  5
2AB1E
331
2AB51
  5
2AB5D
331
2AB59
  5
2AB65
331
2AB90
  5
2AB9C
331
2AAE3
  5
2AAEF
331
2AB1A
  5
2AB26
331
2ABCF
  5
2ABDB
331
2AC60
  5
2AD23
331
2A766
  5
2A76E
331
2A79D
  5
2A7A9
331
2AAA4
  5
2AAB0
331
29B58
  5
29B85
331
108D
  5
29564
331
2B03F
  5
2B04A
331
2A707
  5
2A721
331
2ABD7
  5
2ABE3
331
2A70F
  5
2A733
331
2ABF2
  5
2ABFE
331
2AC31
  5
2AC3D
331
2AD20
  5
2AD2C
331
2ABFA
  5
2AC06
331
2AC39
  5
2AC45
331
2AD28
  5
2AD34
331
2AD30
  5
2AD3E
331
2AC02
  5
2AC0E
331
2AC41
  5
2AC4D
331
2B036
  5
2B041
331
2B046
  5
2B052
331
2AC49
  5
2AC55
331
2AD38
  5
2AD44
331
2AC0A
  5
2AC16
331
2AF2F
  5
2AF3D
331
2B04E
  5
2B059
331
2AB61
  5
2AB6D
331
2AB98
  5
2ABA4
331
2AAAC
  5
2AAB8
331
2AAEB
  5
2AAF7
331
2A76E
  5
2A776
331
2A7A5
  5
2A7B6
331
2AB22
  5
2AB2E
331
2ABDF
  5
2ABEB
331
2AB2A
  5
2AB36
331
2AB69
  5
2AB75
331
2A7B5
  5
2A7C1
331
2AAB4
  5
2AAC0
331
2A776
  5
2A77E
331
2AAF3
  5
2AAFF
331
2ABA0
  5
2ABAC
331
2ABA8
  5
2ABB4
331
2ABE7
  5
2ABF3
331
2AAFB
  5
2AB07
331
2AB32
  5
2AB3E
331
2A7BD
  5
2A7C9
331
2AABC
  5
2AAC8
331
2AB71
  5
2AB7D
331
2A77E
  5
2A786
331
2ABB0
  5
2ABBC
331
2AB3A
  5
2AB46
331
2ABEF
  5
2ABFB
331
2A7A8
  5
2A7B9
331
29B88
  5
29B8C
331
2A786
  5
2A78E
331
2AAC4
  5
2AAD0
331
2A7D0
  5
2AAA2
331
29B90
  5
2A705
331
2A737
  5
2A73F
331
2A73F
  5
2A747
331
2A510
  5
2A70D
331
2A747
  5
2A74F
331
2AC51
  5
2AC5D
331
2AD40
  5
2AD4C
331
2AC12
  5
2AC1E
331
2AF37
  5
2B009
331
2B056
  5
2B0C3
331
2AC1A
  5
2AC26
331
2AC59
  5
2AC65
331
2AD48
  5
2AE96
331
2AE88
  5
2AEA5
331
2AC22
  5
2AC2E
331
2AF3F
  5
2B035
331
2B106
  5
2B196
331
2B136
  5
2B1B7
331
2AC2A
  5
2AC36
331
2AB79
  5
2AB85
331
2ABB8
  5
2ABC4
331
2AACC
  5
2AAD8
331
2AB03
  5
2AB0F
331
2A74F
  5
2A757
331
2A78E
  5
2A79A
331
2A7C5
  5
2A7D1
331
2AB42
  5
2AB4E
331
2AB4A
  5
2AB56
331
2AB81
  5
2AB8D
331
2A7CD
  5
2AA9F
331
2AAD4
  5
2AAE0
331
2A757
  5
2A75F
331
2A796
  5
2A7A2
331
2AB0B
  5
2AB17
331
2ABC0
  5
2ABCC
331
2B058
  5
2B105
331
2ABC8
  5
2ABD4
331
2AB52
  5
2AB5E
331
2AB89
  5
2AB95
331
2B16A
  5
24DBD
331
2AA9D
  5
2AAAA
331
2A75F
  5
2A767
331
2AADC
  5
2AAE8
331
2AB13
  5
2AB1F
331
2ABD0
  5
2ABDC
331
2AC61
  5
2AD24
331
2B038
  5
2B043
331
2AB1B
  5
2AB27
331
2AB5A
  5
2AB66
331
2A79E
  5
2A7AA
331
2AAA5
  5
2AAB1
331
2A767
  5
2A76F
331
2AAE4
  5
2AAF0
331
2AB91
  5
2AB9D
331
29B59
  5
29B84
331
2A708
  5
2A731
331
29B81
  5
29B86
331
2A720
  5
2A737
331
2AD21
  5
2AD2D
331
2ABF3
  5
2ABFF
331
2AC32
  5
2AC3E
331
2AC3A
  5
2AC46
331
2AD29
  5
2AD35
331
2ABFB
  5
2AC07
331
2AEA0
  5
2AF2A
331
2AEA8
  5
2AF30
331
2B037
  5
2B042
331
2AC03
  5
2AC0F
331
2AC42
  5
2AC4E
331
2AD31
  5
2AD3F
331
2AF28
  5
2AF36
331
2B047
  5
2B053
331
2AC0B
  5
2AC17
331
2AC4A
  5
2AC56
331
2AD39
  5
2AD45
331
2B04F
  5
2B05A
331
2AB99
  5
2ABA5
331
2ABD8
  5
2ABE4
331
2AAEC
  5
2AAF8
331
2AB23
  5
2AB2F
331
2A76F
  5
2A777
331
2A7A6
  5
2A7B7
331
2AAAD
  5
2AAB9
331
2AB62
  5
2AB6E
331
2AB6A
  5
2AB76
331
2ABA1
  5
2ABAD
331
2AAF4
  5
2AB00
331
2AB2B
  5
2AB37
331
2ABE0
  5
2ABEC
331
2A777
  5
2A77F
331
2A7B6
  5
2A7C2
331
2AAB5
  5
2AAC1
331
2AB72
  5
2AB7E
331
2ABA9
  5
2ABB5
331
2AABD
  5
2AAC9
331
2AAFC
  5
2AB08
331
2A77F
  5
2A787
331
2A7BE
  5
2A7CA
331
2AB33
  5
2AB3F
331
2ABE8
  5
2ABF4
331
2A7A9
  5
2A7BA
331
29B89
  5
29B8D
331
2AB3B
  5
2AB47
331
2AAC5
  5
2AAD1
331
2A787
  5
2A78F
331
2ABB1
  5
2ABBD
331
2A7D1
  5
2AAA3
331
29B91
  5
2A706
331
2A738
  5
2A740
331
2A740
  5
2A748
331
2AD41
  5
2AD4D
331
2AF30
  5
2AF3E
331
2AC13
  5
2AC1F
331
2AC52
  5
2AC5E
331
2B057
  5
2B104
331
2AC5A
  5
2AC66
331
2AD49
  5
2AE99
331
2AC1B
  5
2AC27
331
2AF38
  5
2B00A
331
2AF40
  5
2B036
331
2AC23
  5
2AC2F
331
2AC2B
  5
2AC37
331
2B14F
  5
2B1B8
331
2A748
  5
2A750
331
2ABB9
  5
2ABC5
331
2AB04
  5
2AB10
331
2AB43
  5
2AB4F
331
2A7C6
  5
2A7D2
331
2AACD
  5
2AAD9
331
2AB7A
  5
2AB86
331
2A750
  5
2A758
331
2A78F
  5
2A79B
331
2ABC1
  5
2ABCD
331
2AB0C
  5
2AB18
331
2AB4B
  5
2AB57
331
2A797
  5
2A7A3
331
2A7CE
  5
2AAA0
331
2A758
  5
2A760
331
2AAD5
  5
2AAE1
331
2AB82
  5
2AB8E
331
2B059
  5
2B106
331
2B16B
  5
24DB9
331
2AB8A
  5
2AB96
331
2ABC9
  5
2ABD5
331
2A760
  5
2A768
331
2AADD
  5
2AAE9
331
2AB14
  5
2AB20
331
2AB53
  5
2AB5F
331
2B039
  5
2B044
331
2AB5B
  5
2AB67
331
2AB92
  5
2AB9E
331
2AAA6
  5
2AAB2
331
2AAE5
  5
2AAF1
331
2A79F
  5
2A7AB
331
2AB1C
  5
2AB28
331
2ABD1
  5
2ABDD
331
2AC62
  5
2AD25
331
29B5A
  5
29B74
331
108F
  5
29B3C
331
2A721
  5
2A738
331
2AE99
  5
2AF28
331
2B008
  5
2B037
331
2ABF4
  5
2AC00
331
2AC33
  5
2AC3F
331
2AD22
  5
2AD2E
331
2AD2A
  5
2AD36
331
2ABFC
  5
2AC08
331
2AC3B
  5
2AC47
331
2B030
  5
2B03B
331
2AD32
  5
2AD40
331
2AEA9
  5
2AF33
331
2AC04
  5
2AC10
331
2AC43
  5
2AC4F
331
2B048
  5
2B054
331
2AC4B
  5
2AC57
331
2AD3A
  5
2AD46
331
2AC0C
  5
2AC18
331
2AF29
  5
2AF37
331
2A768
  5
2A770
331
2ABD9
  5
2ABE5
331
2AB63
  5
2AB6F
331
2AB9A
  5
2ABA6
331
2AAAE
  5
2AABA
331
2AAED
  5
2AAF9
331
2A770
  5
2A778
331
2A7A7
  5
2A7B8
331
2AB24
  5
2AB30
331
29A83
  5
29B40
331
2ABE1
  5
2ABED
331
2AB2C
  5
2AB38
331
2AB6B
  5
2AB77
331
2A7B7
  5
2A7C3
331
2AAB6
  5
2AAC2
331
2A778
  5
2A780
331
2AAF5
  5
2AB01
331
2ABA2
  5
2ABAE
331
29ABB
  5
29B5A
331
2ABAA
  5
2ABB6
331
2ABE9
  5
2ABF5
331
2AAFD
  5
2AB09
331
2AB34
  5
2AB40
331
2A780
  5
2A788
331
2A7BF
  5
2A7CB
331
2AABE
  5
2AACA
331
2AB73
  5
2AB7F
331
2AF74
  5
2AF32
331
2A731
  5
2A739
331
2ABB2
  5
2ABBE
331
2AB3C
  5
2AB48
331
2A7AA
  5
2A7BB
331
29B8A
  5
29B8E
331
2AAC6
  5
2AAD2
331
2A7D2
  5
2AAA4
331
2A739
  5
2A741
331
2A50A
  5
2A707
331
2A741
  5
2A749
331
2AF31
  5
2AF3F
331
2B050
  5
2B05B
331
2AC14
  5
2AC20
331
2AC53
  5
2AC5F
331
2AD42
  5
2AD4E
331
2AF39
  5
2B00B
331
2AC1C
  5
2AC28
331
2AC5B
  5
2ACB6
331
2AD4A
  5
2AE9D
331
2AC24
  5
2AC30
331
2AC2C
  5
2AC38
331
2A788
  5
2A790
331
2A749
  5
2A751
331
2AB7B
  5
2AB87
331
2ABBA
  5
2ABC6
331
2AACE
  5
2AADA
331
2AB05
  5
2AB11
331
2A751
  5
2A759
331
2A790
  5
2A79C
331
2A7C7
  5
2A7D3
331
2AB44
  5
2AB50
331
2AB4C
  5
2AB58
331
2AB83
  5
2AB8F
331
2A7CF
  5
2AAA1
331
2A759
  5
2A761
331
2AAD6
  5
2AAE2
331
2AB0D
  5
2AB19
331
2ABC2
  5
2ABCE
331
2ABCA
  5
2ABD6
331
2B05A
  5
2B136
331
2AB15
  5
2AB21
331
2AB54
  5
2AB60
331
2AA9F
  5
2AAAB
331
2AADE
  5
2AAEA
331
2AB8B
  5
2AB97
331
2A761
  5
2A769
331
2A798
  5
2A7A4
331
1581D
  5
29B3E
331
2ABD2
  5
2ABDE
331
2AC63
  5
2AD26
331
2B03A
  5
2B045
331
2AB1D
  5
2AB29
331
2AB5C
  5
2AB68
331
2AAA7
  5
2AAB3
331
2AAE6
  5
2AAF2
331
2AB93
  5
2AB9F
331
29B5B
  5
29B5C
331
1090
  5
29B3D
331
29B83
  5
29B87
331
2B009
  5
2B038
331
2AD23
  5
2AD2F
331
2ABF5
  5
2AC01
331
2AC34
  5
2AC40
331
2B031
  5
2B03C
331
2AC3C
  5
2AC48
331
2AD2B
  5
2AD37
331
2ABFD
  5
2AC09
331
2AEA2
  5
2AF2B
331
2AEAA
  5
2AF34
331
2B041
  5
2B04D
331
2AC05
  5
2AC11
331
2AC44
  5
2AC50
331
2AD33
  5
2AD41
331
2AD3B
  5
2AD47
331
2AF2A
  5
2AF38
331
2AC0D
  5
2AC19
331
2AC4C
  5
2AC58
331
2B049
  5
2B055
331
2A7A0
  5
2A7B1
331
2A769
  5
2A771
331
2AB9B
  5
2ABA7
331
2ABDA
  5
2ABE6
331
2AAEE
  5
2AAFA
331
2AB25
  5
2AB31
331
2A771
  5
2A779
331
2AAAF
  5
2AABB
331
2AB64
  5
2AB70
331
2AB6C
  5
2AB78
331
2ABA3
  5
2ABAF
331
2AAB7
  5
2AAC3
331
2AAF6
  5
2AB02
331
2A779
  5
2A781
331
2A7B8
  5
2A7C4
331
2AB2D
  5
2AB39
331
2ABE2
  5
2ABEE
331
2ABEA
  5
2ABF6
331
2AF75
  5
2AF31
331
2AB74
  5
2AB80
331
2ABAB
  5
2ABB7
331
2AABF
  5
2AACB
331
2A781
  5
2A789
331
2AAFE
  5
2AB0A
331
2AB35
  5
2AB41
331
29B24
  5
29B75
331
2A7AB
  5
2A7BC
331
29B8B
  5
29B8F
331
2A732
  5
2A73A
331
2AB3D
  5
2AB49
331
2AAC7
  5
2AAD3
331
2ABB3
  5
2ABBF
331
2A7D3
  5
2AAA5
331
2A73A
  5
2A742
331
2A742
  5
2A74A
331
2A50B
  5
2A708
331
2AD43
  5
2AE88
331
2AF32
  5
2AF40
331
2AC15
  5
2AC21
331
2AC54
  5
2AC60
331
2B051
  5
2B05C
331
2AC5C
  5
2AD1F
331
2AD4B
  5
2AEA0
331
2AC1D
  5
2AC29
331
2AF3A
  5
2B030
331
2AC25
  5
2AC31
331
2AC2D
  5
2AC39
331
2AE93
  5
2AEA8
331
2A7C0
  5
2A7CC
331
2A74A
  5
2A752
331
2A789
  5
2A791
331
2ABBB
  5
2ABC7
331
2AB06
  5
2AB12
331
2AB45
  5
2AB51
331
2A791
  5
2A79D
331
2A7C8
  5
2A7D4
331
2A752
  5
2A75A
331
2AACF
  5
2AADB
331
2AB7C
  5
2AB88
331
2AB84
  5
2AB90
331
2ABC3
  5
2ABCF
331
2AB0E
  5
2AB1A
331
2AB4D
  5
2AB59
331
2A75A
  5
2A762
331
2AAD7
  5
2AAE3
331
2B05B
  5
2B14F
331
2AB8C
  5
2AB98
331
2ABCB
  5
2ABD7
331
2AADF
  5
2AAEB
331
2AB16
  5
2AB22
331
2A762
  5
2A76A
331
2A799
  5
2A7A5
331
2AAA0
  5
2AAAC
331
2AB55
  5
2AB61
331
2A703
  5
2A70F
331
2B03B
  5
2B046
331
2AB5D
  5
2AB69
331
2AB94
  5
2ABA0
331
2AAE7
  5
2AAF3
331
2AB1E
  5
2AB2A
331
2ABD3
  5
2ABDF
331
2AC64
  5
2AD27
331
29B3C
  5
24DBE
331
29B74
  5
29B59
331
2A71B
  5
2A734
331
29B84
  5
29B88
331
2B00A
  5
2B039
331
2ABF6
  5
2AC02
331
2AC35
  5
2AC41
331
2AD24
  5
2AD30
331
2AD2C
  5
2AD39
331
2AEA3
  5
2AF2C
331
2ABFE
  5
2AC0A
331
2AC3D
  5
2AC49
331
2B032
  5
2B03D
331
2B042
  5
2B04E
331
2AEAB
  5
2AF35
331
2AC06
  5
2AC12
331
2AC45
  5
2AC51
331
2AC4D
  5
2AC59
331
2AD3C
  5
2AD48
331
2AC0E
  5
2AC1A
331
2AF2B
  5
2AF39
331
2AAA8
  5
2AAB4
331
2A76A
  5
2A772
331
2A7A1
  5
2A7B2
331
2ABDB
  5
2ABE7
331
2AB26
  5
2AB32
331
2AB65
  5
2AB71
331
2AAB0
  5
2AABC
331
2AAEF
  5
2AAFB
331
2AB9C
  5
2ABA8
331
2A772
  5
2A77A
331
2A7B1
  5
2A7BD
331
2ABE3
  5
2ABEF
331
2AB2E
  5
2AB3A
331
2AB6D
  5
2AB79
331
2A7B9
  5
2A7C5
331
2AAB8
  5
2AAC4
331
2A77A
  5
2A782
331
2AAF7
  5
2AB03
331
2ABA4
  5
2ABB0
331
2ABAC
  5
2ABB8
331
2ABEB
  5
2ABF7
331
2AAFF
  5
2AB0B
331
2AB36
  5
2AB42
331
2A782
  5
2A78A
331
2AAC0
  5
2AACC
331
2AB75
  5
2AB81
331
2AF76
  5
2A736
  0
SORTENTSTABLE
  5
29D1
102
{ACAD_REACTORS
330
29CF
102
}
330
29CF
100
AcDbSortentsTable
330
341
  0
DIMASSOC
  5
2A7AD
102
{ACAD_REACTORS
330
2A7AC
102
}
330
2A7AC
100
AcDbDimAssoc
330
2A7AB
 90
        3
 70
     0
 71
     0
  1
AcDbOsnapPointRef
 72
     1
331
2A76E
 73
     2
 91
        0
 40
1.0
 10
0.0
 20
0.0
 30
2.000000000000000E+50
 75
     0
  1
AcDbOsnapPointRef
 72
    13
331
2A785
 73
     2
 91
        0
 40
0.0
 10
0.0
 20
0.0
 30
2.000000000000000E+50
 75
     0
  0
DIMASSOC
  5
2A7D9
102
{ACAD_REACTORS
330
2A7D8
102
}
330
2A7D8
100
AcDbDimAssoc
330
2A7D7
 90
        1
 70
     0
 71
     0
  1
AcDbOsnapPointRef
 72
     6
331
2A792
 73
     2
 91
        0
 40
0.0
 10
0.0
 20
0.0
 30
0.0
332
2A794
 74
     2
 92
        0
 75
     0
  0
DIMASSOC
  5
2ACCD
102
{ACAD_REACTORS
330
2ACC3
102
}
330
2ACC3
100
AcDbDimAssoc
330
2ACB6
 90
        3
 70
     0
 71
     0
  1
AcDbOsnapPointRef
 72
    13
331
2A792
 73
     2
 91
        0
 40
0.0
 10
0.0
 20
0.0
 30
2.000000000000000E+50
 75
     0
  1
AcDbOsnapPointRef
 72
     1
331
2A78B
 73
     2
 91
        0
 40
1.0
 10
0.0
 20
0.0
 30
2.000000000000000E+50
 75
     0
  0
DIMASSOC
  5
2B060
102
{ACAD_REACTORS
330
2B05F
102
}
330
2B05F
100
AcDbDimAssoc
330
2B05E
 90
        3
 70
     0
 71
     0
  1
AcDbOsnapPointRef
 72
     1
331
2B031
 73
     2
 91
        0
 40
1.0
 10
0.0
 20
0.0
 30
2.000000000000000E+50
 75
     0
  1
AcDbOsnapPointRef
 72
    13
331
2B035
 73
     2
 91
        0
 40
0.0
 10
0.0
 20
0.0
 30
2.000000000000000E+50
 75
     0
  0
ACDBDETAILVIEWSTYLE
  5
2B1DB
102
{ACAD_XDICTIONARY
360
2B1F5
102
}
102
{ACAD_REACTORS
330
2B1DA
102
}
330
2B1DA
100
AcDbModelDocViewStyle
 70
     0
  3
Metric50
290
     0
100
AcDbDetailViewStyle
 70
     0
 71
     0
 90
        3
 71
     1
340
11
 62
   256
 40
5.0
340
0
 62
   256
 40
5.0
300

 40
0.0
280
     1
 71
     2
340
16
 90
       25
 62
   256
 71
     3
340
11
 62
   256
 40
5.0
 90
        0
 40
15.0
 90
        1
300
%<\AcVar ViewDetailId>% (%<\AcVar ViewScale \f "%sn">%)
 71
     4
340
16
 90
       25
 62
   256
340
16
 90
       25
 62
   256
280
     0
  0
GROUP
  5
29F6
102
{ACAD_REACTORS
330
D
102
}
330
D
100
AcDbGroup
300

 70
     1
 71
     1
340
29CE
340
29CD
340
29CC
340
29CB
340
29CA
340
29C9
340
29C8
340
29C7
340
29C6
340
29C5
340
29C4
340
29C3
340
29C2
340
29C1
340
29C0
340
29BF
340
29BE
340
29BD
340
29BC
340
29BB
340
29BA
340
29B9
340
29B8
340
29B7
  0
LAYOUT
  5
22
102
{ACAD_XDICTIONARY
360
24E2E
102
}
102
{ACAD_REACTORS
330
1A
102
}
330
1A
100
AcDbPlotSettings
  1

  2
Canon TS8130 series
  4
A4
  6

 40
4.180416584014891
 41
5.831417560577392
 42
4.180404663085936
 43
3.757080078125
 44
209.9733276367186
 45
296.9683227539062
 46
-0.0062006872036022
 47
1.756521382387688
 48
4.0
 49
2.0
140
82.0
141
57.4
142
1.0
143
1.374
 70
  3748
 72
     1
 73
     1
 74
     1
  7
monochrome.ctb
 75
     0
147
0.7277572728131228
 76
     1
 77
     2
 78
   300
148
-19.98230080583869
149
-9.983689057621743
100
AcDbLayout
  1
Model
 70
     1
 71
     0
 10
0.0
 20
0.0
 11
12.0
 21
9.0
 12
0.0
 22
0.0
 32
0.0
 14
0.0
 24
0.0
 34
0.0
 15
0.0
 25
0.0
 35
0.0
146
0.0
 13
0.0
 23
0.0
 33
0.0
 16
1.0
 26
0.0
 36
0.0
 17
0.0
 27
1.0
 37
0.0
 76
     0
330
1F
331
275F
1001
ACAD_PSEXT
1000
Canon TS8130 series
1000
Canon TS8130 series
1000
USB001
1000

1070
     0
  0
LAYOUT
  5
51
102
{ACAD_XDICTIONARY
360
2E30
102
}
102
{ACAD_REACTORS
330
1A
102
}
330
1A
100
AcDbPlotSettings
  1

  2
\\KASHIKEI2\EPSON PX-1001
  4
A3
  6

 40
3.757083415985106
 41
3.757076740264892
 42
3.757080078125
 43
3.757080078125
 44
296.9683227539062
 45
420.0172119140622
 46
0.0
 47
0.0
 48
0.0
 49
0.0
140
0.0
141
0.0
142
1.0
143
1.0
 70
   672
 72
     1
 73
     1
 74
     5
  7
monochrome.ctb
 75
    16
147
1.0
 76
     1
 77
     2
 78
   300
148
0.0
149
0.0
100
AcDbLayout
  1
ﾚｲｱｳﾄ1
 70
     1
 71
     1
 10
-3.757080078125
 20
-3.757083415985106
 11
416.2601318359373
 21
293.2112393379211
 12
0.0
 22
0.0
 32
0.0
 14
-58.82240024691737
 24
-86.72323328256494
 34
0.0
 15
448.1718497119468
 25
324.5569721112054
 35
0.0
146
0.0
 13
0.0
 23
0.0
 33
0.0
 16
1.0
 26
0.0
 36
0.0
 17
0.0
 27
1.0
 37
0.0
 76
     0
330
50
331
6B
1001
ACAD_PSEXT
1000
\\KASHIKEI2\EPSON PX-1001
1000
EPSON PX-1001
1000
\\KASHIKEI2
1000

1070
     0
  0
LAYOUT
  5
56
102
{ACAD_REACTORS
330
1A
102
}
330
1A
100
AcDbPlotSettings
  1

  2
none_device
  4
Letter_(8.50_x_11.00_Inches)
  6

 40
6.349999904632567
 41
6.349999904632567
 42
6.350006103515625
 43
6.350006103515625
 44
215.8999938964843
 45
279.3999938964843
 46
0.0
 47
0.0
 48
0.0
 49
0.0
140
0.0
141
0.0
142
1.0
143
1.0
 70
   688
 72
     1
 73
     1
 74
     5
  7
monochrome.ctb
 75
    16
147
1.0
 76
     0
 77
     2
 78
   300
148
0.0
149
0.0
100
AcDbLayout
  1
ﾚｲｱｳﾄ2
 70
     1
 71
     2
 10
-6.350006103515625
 20
-6.349999904632567
 11
273.0499877929687
 21
209.5499939918517
 12
0.0
 22
0.0
 32
0.0
 14
26.66076962115562
 24
20.31135699206657
 34
-0.0015258207003583
 15
240.039213369355
 25
182.8886381005154
 35
0.0000000349246037
146
0.0
 13
0.0
 23
0.0
 33
0.0
 16
1.0
 26
0.0
 36
0.0
 17
0.0
 27
1.0
 37
0.0
 76
     0
330
55
331
71
  0
MATERIAL
  5
2763
102
{ACAD_REACTORS
330
2761
102
}
330
2761
100
AcDbMaterial
  1
ByBlock
 73
     1
 78
     1
172
     1
176
     1
270
     1
274
     1
 94
       63
  0
MATERIAL
  5
2762
102
{ACAD_REACTORS
330
2761
102
}
330
2761
100
AcDbMaterial
  1
ByLayer
 73
     1
 78
     1
172
     1
176
     1
270
     1
274
     1
 94
       63
  0
MATERIAL
  5
2764
102
{ACAD_REACTORS
330
2761
102
}
330
2761
100
AcDbMaterial
  1
Global
 73
     1
 78
     1
172
     1
176
     1
270
     1
274
     1
 94
       63
  0
MLEADERSTYLE
  5
247F2
102
{ACAD_REACTORS
330
247F1
102
}
330
247F1
100
AcDbMLeaderStyle
179
     2
170
     2
171
     1
172
     0
 90
        2
 40
0.0
 41
0.0
173
     1
 91
-1056964608
340
14
 92
       -2
290
     1
 42
2.0
291
     1
 43
0.36
  3
Standard
 44
4.0
300

342
11
174
     1
178
     6
175
     1
176
     0
 93
-1056964608
 45
4.0
292
     0
297
     0
 46
4.0
 94
-1056964608
 47
1.0
 49
1.0
140
1.0
293
     1
141
0.0
294
     1
177
     0
142
1.0
295
     0
296
     0
143
0.125
271
     0
272
     9
273
     9
298
     0
  0
MLINESTYLE
  5
18
102
{ACAD_REACTORS
330
17
102
}
330
17
100
AcDbMlineStyle
  2
STANDARD
 70
     0
  3

 62
   256
 51
90.0
 52
90.0
 71
     2
 49
0.5
 62
   256
  6
BYLAYER
 49
-0.5
 62
   256
  6
BYLAYER
  0
PLOTSETTINGS
  5
E74
102
{ACAD_REACTORS
330
19
102
}
330
19
100
AcDbPlotSettings
  1
印刷
  2
EPSON PM-930C.pc3
  4
A4
  6

 40
3.757083177566528
 41
14.7637300491333
 42
3.757080078125
 43
3.757080078125
 44
209.9733276367186
 45
296.9683227539062
 46
-3.77
 47
-9.279999999999999
 48
0.0
 49
0.0
140
0.0
141
0.0
142
1.0
143
1.0
 70
  1716
 72
     1
 73
     0
 74
     2
  7
黒.ctb
 75
    16
147
1.0
 76
     0
 77
     2
 78
   300
148
0.0
149
0.0
  0
ACDBPLACEHOLDER
  5
F
102
{ACAD_REACTORS
330
E
102
}
330
E
  0
SCALE
  5
247E0
102
{ACAD_REACTORS
330
247DF
102
}
330
247DF
100
AcDbScale
 70
     0
300
1:1
140
1.0
141
1.0
290
     1
  0
SCALE
  5
247E1
102
{ACAD_REACTORS
330
247DF
102
}
330
247DF
100
AcDbScale
 70
     0
300
1:2
140
1.0
141
2.0
290
     0
  0
SCALE
  5
247E2
102
{ACAD_REACTORS
330
247DF
102
}
330
247DF
100
AcDbScale
 70
     0
300
1:4
140
1.0
141
4.0
290
     0
  0
SCALE
  5
247E3
102
{ACAD_REACTORS
330
247DF
102
}
330
247DF
100
AcDbScale
 70
     0
300
1:5
140
1.0
141
5.0
290
     0
  0
SCALE
  5
247E4
102
{ACAD_REACTORS
330
247DF
102
}
330
247DF
100
AcDbScale
 70
     0
300
1:8
140
1.0
141
8.0
290
     0
  0
SCALE
  5
247E5
102
{ACAD_REACTORS
330
247DF
102
}
330
247DF
100
AcDbScale
 70
     0
300
1:10
140
1.0
141
10.0
290
     0
  0
SCALE
  5
247E6
102
{ACAD_REACTORS
330
247DF
102
}
330
247DF
100
AcDbScale
 70
     0
300
1:16
140
1.0
141
16.0
290
     0
  0
SCALE
  5
247E7
102
{ACAD_REACTORS
330
247DF
102
}
330
247DF
100
AcDbScale
 70
     0
300
1:20
140
1.0
141
20.0
290
     0
  0
SCALE
  5
247E8
102
{ACAD_REACTORS
330
247DF
102
}
330
247DF
100
AcDbScale
 70
     0
300
1:30
140
1.0
141
30.0
290
     0
  0
SCALE
  5
247E9
102
{ACAD_REACTORS
330
247DF
102
}
330
247DF
100
AcDbScale
 70
     0
300
1:40
140
1.0
141
40.0
290
     0
  0
SCALE
  5
247EA
102
{ACAD_REACTORS
330
247DF
102
}
330
247DF
100
AcDbScale
 70
     0
300
1:50
140
1.0
141
50.0
290
     0
  0
SCALE
  5
247EB
102
{ACAD_REACTORS
330
247DF
102
}
330
247DF
100
AcDbScale
 70
     0
300
1:100
140
1.0
141
100.0
290
     0
  0
SCALE
  5
247EC
102
{ACAD_REACTORS
330
247DF
102
}
330
247DF
100
AcDbScale
 70
     0
300
2:1
140
2.0
141
1.0
290
     0
  0
SCALE
  5
247ED
102
{ACAD_REACTORS
330
247DF
102
}
330
247DF
100
AcDbScale
 70
     0
300
4:1
140
4.0
141
1.0
290
     0
  0
SCALE
  5
247EE
102
{ACAD_REACTORS
330
247DF
102
}
330
247DF
100
AcDbScale
 70
     0
300
8:1
140
8.0
141
1.0
290
     0
  0
SCALE
  5
247EF
102
{ACAD_REACTORS
330
247DF
102
}
330
247DF
100
AcDbScale
 70
     0
300
10:1
140
10.0
141
1.0
290
     0
  0
SCALE
  5
247F0
102
{ACAD_REACTORS
330
247DF
102
}
330
247DF
100
AcDbScale
 70
     0
300
100:1
140
100.0
141
1.0
290
     0
  0
ACDBSECTIONVIEWSTYLE
  5
2B1D9
102
{ACAD_XDICTIONARY
360
2B1F3
102
}
102
{ACAD_REACTORS
330
2B1D8
102
}
330
2B1D8
100
AcDbModelDocViewStyle
 70
     0
  3
Metric50
290
     0
100
AcDbSectionViewStyle
 70
     0
 71
     0
 90
      102
 71
     1
340
11
 62
   256
 40
5.0
340
0
340
0
 62
   256
 40
5.0
300
I, O, Q, S, X, Z
 40
10.0
 90
        0
 40
2.5
 90
        0
 71
     2
340
16
 90
       25
 62
   256
340
16
 90
       50
 62
   256
 40
5.0
 40
2.5
 40
5.0
 71
     3
340
11
 62
   256
 40
5.0
 90
        0
 40
15.0
 90
        1
300
%<\AcVar ViewSectionStartId>%-%<\AcVar ViewSectionEndId>% (%<\AcVar ViewScale \f "%sn">%)
 71
     4
 62
   256
 62
   257
300
ANSI31
 40
1.0
 90
        0
290
     0
290
     0
 90
        6
 40
0.0
 40
1.570796326794896
 40
0.2617993877991494
 40
1.308996938995747
 40
-0.2617993877991494
 40
1.832595714594045
  0
TABLESTYLE
  5
2778
102
{ACAD_XDICTIONARY
360
2B1EF
102
}
102
{ACAD_REACTORS
330
2777
102
}
330
2777
100
AcDbTableStyle
280
     0
  3
Standard
 70
     0
 71
     0
 40
1.5
 41
1.5
280
     0
281
     0
  7
Standard
140
4.5
170
     2
 62
     0
 63
     7
283
     0
 90
      512
 91
        0
  1

274
    -2
284
     1
 64
     0
275
    -2
285
     1
 65
     0
276
    -2
286
     1
 66
     0
277
    -2
287
     1
 67
     0
278
    -2
288
     1
 68
     0
279
    -2
289
     1
 69
     0
  7
Standard
140
6.0
170
     5
 62
     0
 63
     7
283
     0
 90
      512
 91
        0
  1

274
    -2
284
     1
 64
     0
275
    -2
285
     1
 65
     0
276
    -2
286
     1
 66
     0
277
    -2
287
     1
 67
     0
278
    -2
288
     1
 68
     0
279
    -2
289
     1
 69
     0
  7
Standard
140
4.5
170
     5
 62
     0
 63
     7
283
     0
 90
      512
 91
        0
  1

274
    -2
284
     1
 64
     0
275
    -2
285
     1
 65
     0
276
    -2
286
     1
 66
     0
277
    -2
287
     1
 67
     0
278
    -2
288
     1
 68
     0
279
    -2
289
     1
 69
     0
  0
TABLESTYLE
  5
2688B
102
{ACAD_XDICTIONARY
360
2B1F1
102
}
102
{ACAD_REACTORS
330
2777
102
}
330
2777
100
AcDbTableStyle
280
     0
  3
Standard
 70
     0
 71
     0
 40
1.5
 41
1.5
280
     0
281
     0
  7
ｽﾀｲﾙ1
140
4.5
170
     2
 62
     2
 63
     7
283
     0
 90
      512
 91
        0
  1

274
    -2
284
     1
 64
     0
275
    -2
285
     1
 65
     0
276
    -2
286
     1
 66
     0
277
    -2
287
     1
 67
     0
278
    -2
288
     1
 68
     0
279
    -2
289
     1
 69
     0
  7
Standard
140
6.0
170
     5
 62
     0
 63
     7
283
     0
 90
      512
 91
        0
  1

274
    -2
284
     1
 64
     0
275
    -2
285
     1
 65
     0
276
    -2
286
     1
 66
     0
277
    -2
287
     1
 67
     0
278
    -2
288
     1
 68
     0
279
    -2
289
     1
 69
     0
  7
ｽﾀｲﾙ1
140
4.5
170
     5
 62
     2
 63
     7
283
     0
 90
      512
 91
        0
  1

274
    -2
284
     1
 64
     0
275
    -2
285
     1
 65
     0
276
    -2
286
     1
 66
     0
277
    -2
287
     1
 67
     0
278
    -2
288
     1
 68
     0
279
    -2
289
     1
 69
     0
  0
VISUALSTYLE
  5
276B
102
{ACAD_REACTORS
330
2765
102
}
330
2765
100
AcDbVisualStyle
  2
2dWireframe
 70
     4
177
     3
291
     0
 70
    58
 90
        0
176
     1
 90
        2
176
     1
 90
        0
176
     1
 90
        0
176
     1
 40
0.6
176
     1
 40
30.0
176
     1
 62
     7
420
 16777215
176
     1
 90
        1
176
     1
 90
        4
176
     1
 62
     7
176
     1
 62
   257
176
     1
 90
        1
176
     1
 90
        1
176
     1
 40
1.0
176
     1
 90
        0
176
     1
 62
   257
176
     1
 40
1.0
176
     1
 90
        1
176
     1
 90
        6
176
     1
 90
        2
176
     1
 62
     7
176
     1
 90
        5
176
     1
 90
        0
176
     1
 90
        0
176
     1
290
     0
176
     1
 90
        1
176
     1
 40
0.0
176
     1
 90
        0
176
     1
290
     1
176
     1
290
     1
176
     1
290
     0
176
     1
290
     0
176
     1
290
     0
176
     1
290
     0
176
     1
290
     0
176
     1
290
     0
176
     1
290
     0
176
     1
 90
       50
176
     1
 40
0.0
176
     1
 40
1.0
176
     1
 90
        0
176
     1
 62
    18
176
     1
 90
       50
176
     1
 90
        3
176
     1
 62
     5
420
      255
176
     1
290
     0
176
     1
 90
       50
176
     1
 90
       50
176
     1
 90
       50
176
     1
290
     0
176
     1
 90
       50
176
     1
 62
   256
176
     0
 40
1.0
176
     0
 90
        2
176
     1
  1
strokes_ogs.tif
176
     1
290
     0
176
     1
 40
1.0
176
     1
 40
1.0
176
     1
  0
VISUALSTYLE
  5
276D
102
{ACAD_REACTORS
330
2765
102
}
330
2765
100
AcDbVisualStyle
  2
3D Hidden
 70
     6
177
     3
291
     0
 70
    58
 90
        1
176
     1
 90
        2
176
     1
 90
        2
176
     1
 90
        0
176
     1
 40
0.6
176
     1
 40
30.0
176
     1
 62
     7
420
 16777215
176
     1
 90
        2
176
     1
 90
        2
176
     1
 62
     7
176
     1
 62
   257
176
     1
 90
        2
176
     1
 90
        1
176
     1
 40
40.0
176
     1
 90
        0
176
     1
 62
   257
176
     1
 40
1.0
176
     1
 90
        1
176
     1
 90
        6
176
     1
 90
        2
176
     1
 62
     7
176
     1
 90
        3
176
     1
 90
        0
176
     1
 90
        0
176
     1
290
     0
176
     1
 90
        1
176
     1
 40
0.0
176
     1
 90
        0
176
     1
290
     0
176
     1
290
     1
176
     1
290
     1
176
     1
290
     0
176
     1
290
     0
176
     1
290
     0
176
     1
290
     0
176
     1
290
     0
176
     1
290
     0
176
     1
 90
       50
176
     1
 40
0.0
176
     1
 40
1.0
176
     1
 90
        0
176
     1
 62
    18
176
     1
 90
       50
176
     1
 90
        3
176
     1
 62
     5
420
      255
176
     1
290
     0
176
     1
 90
       50
176
     1
 90
       50
176
     1
 90
       50
176
     1
290
     0
176
     1
 90
       50
176
     1
 62
   256
176
     0
 40
1.0
176
     0
 90
        2
176
     1
  1
strokes_ogs.tif
176
     1
290
     0
176
     1
 40
1.0
176
     1
 40
1.0
176
     1
  0
VISUALSTYLE
  5
276C
102
{ACAD_REACTORS
330
2765
102
}
330
2765
100
AcDbVisualStyle
  2
3dWireframe
 70
     5
177
     3
291
     0
 70
    58
 90
        0
176
     1
 90
        2
176
     1
 90
        0
176
     1
 90
        0
176
     1
 40
0.6
176
     1
 40
30.0
176
     1
 62
     7
420
 16777215
176
     1
 90
        1
176
     1
 90
        4
176
     1
 62
     7
176
     1
 62
   257
176
     1
 90
        1
176
     1
 90
        1
176
     1
 40
1.0
176
     1
 90
        0
176
     1
 62
   257
176
     1
 40
1.0
176
     1
 90
        1
176
     1
 90
        6
176
     1
 90
        2
176
     1
 62
     7
176
     1
 90
        5
176
     1
 90
        0
176
     1
 90
        0
176
     1
290
     0
176
     1
 90
        1
176
     1
 40
0.0
176
     1
 90
        0
176
     1
290
     0
176
     1
290
     1
176
     1
290
     1
176
     1
290
     0
176
     1
290
     0
176
     1
290
     0
176
     1
290
     0
176
     1
290
     0
176
     1
290
     0
176
     1
 90
       50
176
     1
 40
0.0
176
     1
 40
1.0
176
     1
 90
        0
176
     1
 62
    18
176
     1
 90
       50
176
     1
 90
        3
176
     1
 62
     5
420
      255
176
     1
290
     0
176
     1
 90
       50
176
     1
 90
       50
176
     1
 90
       50
176
     1
290
     0
176
     1
 90
       50
176
     1
 62
   256
176
     0
 40
1.0
176
     0
 90
        2
176
     1
  1
strokes_ogs.tif
176
     1
290
     0
176
     1
 40
1.0
176
     1
 40
1.0
176
     1
  0
VISUALSTYLE
  5
276A
102
{ACAD_REACTORS
330
2765
102
}
330
2765
100
AcDbVisualStyle
  2
Basic
 70
     7
177
     3
291
     1
 70
    58
 90
        1
176
     1
 90
        0
176
     1
 90
        1
176
     1
 90
        0
176
     1
 40
0.6
176
     1
 40
30.0
176
     1
 62
     7
420
 16777215
176
     1
 90
        0
176
     1
 90
        4
176
     1
 62
     7
176
     1
 62
   257
176
     1
 90
        1
176
     1
 90
        1
176
     1
 40
1.0
176
     1
 90
        8
176
     1
 62
     7
176
     1
 40
1.0
176
     1
 90
        1
176
     1
 90
        6
176
     1
 90
        2
176
     1
 62
     7
176
     1
 90
        5
176
     1
 90
        0
176
     1
 90
        0
176
     1
290
     0
176
     1
 90
        1
176
     1
 40
0.0
176
     1
 90
        0
176
     1
290
     0
176
     1
290
     1
176
     1
290
     1
176
     1
290
     0
176
     1
290
     0
176
     1
290
     0
176
     1
290
     0
176
     1
290
     0
176
     1
290
     0
176
     1
 90
       50
176
     1
 40
0.0
176
     1
 40
1.0
176
     1
 90
        0
176
     1
 62
    18
176
     1
 90
       50
176
     1
 90
        3
176
     1
 62
     5
420
      255
176
     1
290
     0
176
     1
 90
       50
176
     1
 90
       50
176
     1
 90
       50
176
     1
290
     0
176
     1
 90
       50
176
     1
 62
   256
176
     0
 40
1.0
176
     0
 90
        2
176
     1
  1
strokes_ogs.tif
176
     1
290
     0
176
     1
 40
1.0
176
     1
 40
1.0
176
     1
  0
VISUALSTYLE
  5
2771
102
{ACAD_REACTORS
330
2765
102
}
330
2765
100
AcDbVisualStyle
  2
Brighten
 70
    12
177
     3
291
     1
 70
    58
 90
        2
176
     1
 90
        2
176
     1
 90
        0
176
     1
 90
        0
176
     1
 40
0.6
176
     1
 40
30.0
176
     1
 62
     7
420
 16777215
176
     1
 90
        1
176
     1
 90
        4
176
     1
 62
     7
176
     1
 62
   257
176
     1
 90
        1
176
     1
 90
        1
176
     1
 40
1.0
176
     1
 90
        8
176
     1
 62
     7
176
     1
 40
1.0
176
     1
 90
        1
176
     1
 90
        6
176
     1
 90
        2
176
     1
 62
     7
176
     1
 90
        5
176
     1
 90
        0
176
     1
 90
        0
176
     1
290
     0
176
     1
 90
        1
176
     1
 40
50.0
176
     1
 90
        0
176
     1
290
     0
176
     1
290
     1
176
     1
290
     1
176
     1
290
     0
176
     1
290
     0
176
     1
290
     0
176
     1
290
     0
176
     1
290
     0
176
     1
290
     0
176
     1
 90
       50
176
     1
 40
0.0
176
     1
 40
1.0
176
     1
 90
        0
176
     1
 62
    18
176
     1
 90
       50
176
     1
 90
        3
176
     1
 62
     5
420
      255
176
     1
290
     0
176
     1
 90
       50
176
     1
 90
       50
176
     1
 90
       50
176
     1
290
     0
176
     1
 90
       50
176
     1
 62
   256
176
     0
 40
1.0
176
     0
 90
        2
176
     1
  1
strokes_ogs.tif
176
     1
290
     0
176
     1
 40
1.0
176
     1
 40
1.0
176
     1
  0
VISUALSTYLE
  5
2775
102
{ACAD_REACTORS
330
2765
102
}
330
2765
100
AcDbVisualStyle
  2
ColorChange
 70
    16
177
     3
291
     1
 70
    58
 90
        2
176
     1
 90
        2
176
     1
 90
        3
176
     1
 90
        0
176
     1
 40
0.6
176
     1
 40
30.0
176
     1
 62
     8
420
  8421504
176
     1
 90
        1
176
     1
 90
        4
176
     1
 62
     7
176
     1
 62
   257
176
     1
 90
        1
176
     1
 90
        1
176
     1
 40
1.0
176
     1
 90
        8
176
     1
 62
     8
420
  8421504
176
     1
 40
1.0
176
     1
 90
        1
176
     1
 90
        6
176
     1
 90
        2
176
     1
 62
     7
176
     1
 90
        5
176
     1
 90
        0
176
     1
 90
        0
176
     1
290
     0
176
     1
 90
        1
176
     1
 40
0.0
176
     1
 90
        0
176
     1
290
     0
176
     1
290
     1
176
     1
290
     1
176
     1
290
     0
176
     1
290
     0
176
     1
290
     0
176
     1
290
     0
176
     1
290
     0
176
     1
290
     0
176
     1
 90
       50
176
     1
 40
0.0
176
     1
 40
1.0
176
     1
 90
        0
176
     1
 62
    18
176
     1
 90
       50
176
     1
 90
        3
176
     1
 62
     5
420
      255
176
     1
290
     0
176
     1
 90
       50
176
     1
 90
       50
176
     1
 90
       50
176
     1
290
     0
176
     1
 90
       50
176
     1
 62
   256
176
     0
 40
1.0
176
     0
 90
        2
176
     1
  1
strokes_ogs.tif
176
     1
290
     0
176
     1
 40
1.0
176
     1
 40
1.0
176
     1
  0
VISUALSTYLE
  5
276E
102
{ACAD_REACTORS
330
2765
102
}
330
2765
100
AcDbVisualStyle
  2
Conceptual
 70
     9
177
     3
291
     0
 70
    58
 90
        3
176
     1
 90
        2
176
     1
 90
        0
176
     1
 90
        0
176
     1
 40
0.6
176
     1
 40
30.0
176
     1
 62
     7
420
 16777215
176
     1
 90
        2
176
     1
 90
        2
176
     1
 62
     7
176
     1
 62
   257
176
     1
 90
        1
176
     1
 90
        1
176
     1
 40
40.0
176
     1
 90
        8
176
     1
 62
     7
176
     1
 40
1.0
176
     1
 90
        1
176
     1
 90
        6
176
     1
 90
        2
176
     1
 62
     7
176
     1
 90
        3
176
     1
 90
        0
176
     1
 90
        0
176
     1
290
     0
176
     1
 90
        1
176
     1
 40
0.0
176
     1
 90
        0
176
     1
290
     0
176
     1
290
     1
176
     1
290
     1
176
     1
290
     0
176
     1
290
     0
176
     1
290
     0
176
     1
290
     0
176
     1
290
     0
176
     1
290
     0
176
     1
 90
       50
176
     1
 40
0.0
176
     1
 40
1.0
176
     1
 90
        0
176
     1
 62
    18
176
     1
 90
       50
176
     1
 90
        3
176
     1
 62
     5
420
      255
176
     1
290
     0
176
     1
 90
       50
176
     1
 90
       50
176
     1
 90
       50
176
     1
290
     0
176
     1
 90
       50
176
     1
 62
   256
176
     0
 40
1.0
176
     0
 90
        2
176
     1
  1
strokes_ogs.tif
176
     1
290
     0
176
     1
 40
1.0
176
     1
 40
1.0
176
     1
  0
VISUALSTYLE
  5
2770
102
{ACAD_REACTORS
330
2765
102
}
330
2765
100
AcDbVisualStyle
  2
Dim
 70
    11
177
     3
291
     1
 70
    58
 90
        2
176
     1
 90
        2
176
     1
 90
        0
176
     1
 90
        0
176
     1
 40
0.6
176
     1
 40
30.0
176
     1
 62
     7
420
 16777215
176
     1
 90
        1
176
     1
 90
        4
176
     1
 62
     7
176
     1
 62
   257
176
     1
 90
        1
176
     1
 90
        1
176
     1
 40
1.0
176
     1
 90
        8
176
     1
 62
     7
176
     1
 40
1.0
176
     1
 90
        1
176
     1
 90
        6
176
     1
 90
        2
176
     1
 62
     7
176
     1
 90
        5
176
     1
 90
        0
176
     1
 90
        0
176
     1
290
     0
176
     1
 90
        1
176
     1
 40
-50.0
176
     1
 90
        0
176
     1
290
     0
176
     1
290
     1
176
     1
290
     1
176
     1
290
     0
176
     1
290
     0
176
     1
290
     0
176
     1
290
     0
176
     1
290
     0
176
     1
290
     0
176
     1
 90
       50
176
     1
 40
0.0
176
     1
 40
1.0
176
     1
 90
        0
176
     1
 62
    18
176
     1
 90
       50
176
     1
 90
        3
176
     1
 62
     5
420
      255
176
     1
290
     0
176
     1
 90
       50
176
     1
 90
       50
176
     1
 90
       50
176
     1
290
     0
176
     1
 90
       50
176
     1
 62
   256
176
     0
 40
1.0
176
     0
 90
        2
176
     1
  1
strokes_ogs.tif
176
     1
290
     0
176
     1
 40
1.0
176
     1
 40
1.0
176
     1
  0
VISUALSTYLE
  5
247DE
102
{ACAD_REACTORS
330
2765
102
}
330
2765
100
AcDbVisualStyle
  2
EdgeColorOff
 70
    22
177
     3
291
     1
 70
    58
 90
        2
176
     0
 90
        2
176
     0
 90
        0
176
     0
 90
        0
176
     0
 40
0.6
176
     0
 40
30.0
176
     0
 62
     7
420
 16777215
176
     0
 90
        1
176
     0
 90
        4
176
     0
 62
     7
176
     0
 62
   257
176
     0
 90
        1
176
     0
 90
        1
176
     0
 40
1.0
176
     0
 90
        8
176
     2
 62
     7
176
     0
 40
1.0
176
     0
 90
        1
176
     0
 90
        6
176
     0
 90
        2
176
     0
 62
     7
176
     0
 90
        5
176
     0
 90
        0
176
     0
 90
        0
176
     0
290
     0
176
     0
 90
        1
176
     0
 40
0.0
176
     0
 90
        0
176
     0
290
     0
176
     1
290
     1
176
     1
290
     1
176
     1
290
     0
176
     1
290
     0
176
     1
290
     0
176
     1
290
     0
176
     1
290
     0
176
     1
290
     0
176
     1
 90
       50
176
     1
 40
0.0
176
     1
 40
1.0
176
     1
 90
        0
176
     1
 62
    18
176
     1
 90
       50
176
     1
 90
        3
176
     1
 62
     5
420
      255
176
     1
290
     0
176
     1
 90
       50
176
     1
 90
       50
176
     1
 90
       50
176
     1
290
     0
176
     1
 90
       50
176
     1
 62
   256
176
     0
 40
1.0
176
     0
 90
        2
176
     1
  1
strokes_ogs.tif
176
     1
290
     0
176
     1
 40
1.0
176
     1
 40
1.0
176
     1
  0
VISUALSTYLE
  5
2774
102
{ACAD_REACTORS
330
2765
102
}
330
2765
100
AcDbVisualStyle
  2
Facepattern
 70
    15
177
     3
291
     1
 70
    58
 90
        2
176
     1
 90
        2
176
     1
 90
        0
176
     1
 90
        0
176
     1
 40
0.6
176
     1
 40
30.0
176
     1
 62
     7
420
 16777215
176
     1
 90
        1
176
     1
 90
        4
176
     1
 62
     7
176
     1
 62
   257
176
     1
 90
        1
176
     1
 90
        1
176
     1
 40
1.0
176
     1
 90
        8
176
     1
 62
     7
176
     1
 40
1.0
176
     1
 90
        1
176
     1
 90
        6
176
     1
 90
        2
176
     1
 62
     7
176
     1
 90
        5
176
     1
 90
        0
176
     1
 90
        0
176
     1
290
     0
176
     1
 90
        1
176
     1
 40
0.0
176
     1
 90
        0
176
     1
290
     0
176
     1
290
     1
176
     1
290
     1
176
     1
290
     0
176
     1
290
     0
176
     1
290
     0
176
     1
290
     0
176
     1
290
     0
176
     1
290
     0
176
     1
 90
       50
176
     1
 40
0.0
176
     1
 40
1.0
176
     1
 90
        0
176
     1
 62
    18
176
     1
 90
       50
176
     1
 90
        3
176
     1
 62
     5
420
      255
176
     1
290
     0
176
     1
 90
       50
176
     1
 90
       50
176
     1
 90
       50
176
     1
290
     0
176
     1
 90
       50
176
     1
 62
   256
176
     0
 40
1.0
176
     0
 90
        2
176
     1
  1
strokes_ogs.tif
176
     1
290
     0
176
     1
 40
1.0
176
     1
 40
1.0
176
     1
  0
VISUALSTYLE
  5
2766
102
{ACAD_REACTORS
330
2765
102
}
330
2765
100
AcDbVisualStyle
  2
Flat
 70
     0
177
     3
291
     1
 70
    58
 90
        2
176
     1
 90
        1
176
     1
 90
        1
176
     1
 90
        2
176
     1
 40
0.6
176
     1
 40
30.0
176
     1
 62
     7
420
 16777215
176
     1
 90
        0
176
     1
 90
        4
176
     1
 62
     7
176
     1
 62
   257
176
     1
 90
        1
176
     1
 90
        1
176
     1
 40
1.0
176
     1
 90
        8
176
     1
 62
     7
176
     1
 40
1.0
176
     1
 90
        1
176
     1
 90
        6
176
     1
 90
        2
176
     1
 62
     7
176
     1
 90
        5
176
     1
 90
        0
176
     1
 90
        0
176
     1
290
     0
176
     1
 90
       13
176
     1
 40
0.0
176
     1
 90
        0
176
     1
290
     0
176
     1
290
     1
176
     1
290
     1
176
     1
290
     0
176
     1
290
     0
176
     1
290
     0
176
     1
290
     0
176
     1
290
     0
176
     1
290
     0
176
     1
 90
       50
176
     1
 40
0.0
176
     1
 40
1.0
176
     1
 90
        0
176
     1
 62
    18
176
     1
 90
       50
176
     1
 90
        3
176
     1
 62
     5
420
      255
176
     1
290
     0
176
     1
 90
       50
176
     1
 90
       50
176
     1
 90
       50
176
     1
290
     0
176
     1
 90
       50
176
     1
 62
   256
176
     0
 40
1.0
176
     0
 90
        2
176
     1
  1
strokes_ogs.tif
176
     1
290
     0
176
     1
 40
1.0
176
     1
 40
1.0
176
     1
  0
VISUALSTYLE
  5
2767
102
{ACAD_REACTORS
330
2765
102
}
330
2765
100
AcDbVisualStyle
  2
FlatWithEdges
 70
     1
177
     3
291
     1
 70
    58
 90
        2
176
     1
 90
        1
176
     1
 90
        1
176
     1
 90
        2
176
     1
 40
0.6
176
     1
 40
30.0
176
     1
 62
     7
420
 16777215
176
     1
 90
        1
176
     1
 90
        4
176
     1
 62
     7
176
     1
 62
   257
176
     1
 90
        1
176
     1
 90
        1
176
     1
 40
1.0
176
     1
 90
        0
176
     1
 62
   257
176
     1
 40
1.0
176
     1
 90
        1
176
     1
 90
        6
176
     1
 90
        2
176
     1
 62
     7
176
     1
 90
        5
176
     1
 90
        0
176
     1
 90
        0
176
     1
290
     0
176
     1
 90
       13
176
     1
 40
0.0
176
     1
 90
        0
176
     1
290
     0
176
     1
290
     1
176
     1
290
     1
176
     1
290
     0
176
     1
290
     0
176
     1
290
     0
176
     1
290
     0
176
     1
290
     0
176
     1
290
     0
176
     1
 90
       50
176
     1
 40
0.0
176
     1
 40
1.0
176
     1
 90
        0
176
     1
 62
    18
176
     1
 90
       50
176
     1
 90
        3
176
     1
 62
     5
420
      255
176
     1
290
     0
176
     1
 90
       50
176
     1
 90
       50
176
     1
 90
       50
176
     1
290
     0
176
     1
 90
       50
176
     1
 62
   256
176
     0
 40
1.0
176
     0
 90
        2
176
     1
  1
strokes_ogs.tif
176
     1
290
     0
176
     1
 40
1.0
176
     1
 40
1.0
176
     1
  0
VISUALSTYLE
  5
2768
102
{ACAD_REACTORS
330
2765
102
}
330
2765
100
AcDbVisualStyle
  2
Gouraud
 70
     2
177
     3
291
     1
 70
    58
 90
        2
176
     1
 90
        2
176
     1
 90
        1
176
     1
 90
        2
176
     1
 40
0.6
176
     1
 40
30.0
176
     1
 62
     7
420
 16777215
176
     1
 90
        0
176
     1
 90
        4
176
     1
 62
     7
176
     1
 62
   257
176
     1
 90
        1
176
     1
 90
        1
176
     1
 40
1.0
176
     1
 90
        0
176
     1
 62
     7
176
     1
 40
1.0
176
     1
 90
        1
176
     1
 90
        6
176
     1
 90
        2
176
     1
 62
     7
176
     1
 90
        5
176
     1
 90
        0
176
     1
 90
        0
176
     1
290
     0
176
     1
 90
       13
176
     1
 40
0.0
176
     1
 90
        0
176
     1
290
     0
176
     1
290
     1
176
     1
290
     1
176
     1
290
     0
176
     1
290
     0
176
     1
290
     0
176
     1
290
     0
176
     1
290
     0
176
     1
290
     0
176
     1
 90
       50
176
     1
 40
0.0
176
     1
 40
1.0
176
     1
 90
        0
176
     1
 62
    18
176
     1
 90
       50
176
     1
 90
        3
176
     1
 62
     5
420
      255
176
     1
290
     0
176
     1
 90
       50
176
     1
 90
       50
176
     1
 90
       50
176
     1
290
     0
176
     1
 90
       50
176
     1
 62
   256
176
     0
 40
1.0
176
     0
 90
        2
176
     1
  1
strokes_ogs.tif
176
     1
290
     0
176
     1
 40
1.0
176
     1
 40
1.0
176
     1
  0
VISUALSTYLE
  5
2769
102
{ACAD_REACTORS
330
2765
102
}
330
2765
100
AcDbVisualStyle
  2
GouraudWithEdges
 70
     3
177
     3
291
     1
 70
    58
 90
        2
176
     1
 90
        2
176
     1
 90
        1
176
     1
 90
        2
176
     1
 40
0.6
176
     1
 40
30.0
176
     1
 62
     7
420
 16777215
176
     1
 90
        1
176
     1
 90
        4
176
     1
 62
     7
176
     1
 62
   257
176
     1
 90
        1
176
     1
 90
        1
176
     1
 40
1.0
176
     1
 90
        0
176
     1
 62
   257
176
     1
 40
1.0
176
     1
 90
        1
176
     1
 90
        6
176
     1
 90
        2
176
     1
 62
     7
176
     1
 90
        5
176
     1
 90
        0
176
     1
 90
        0
176
     1
290
     0
176
     1
 90
       13
176
     1
 40
0.0
176
     1
 90
        0
176
     1
290
     0
176
     1
290
     1
176
     1
290
     1
176
     1
290
     0
176
     1
290
     0
176
     1
290
     0
176
     1
290
     0
176
     1
290
     0
176
     1
290
     0
176
     1
 90
       50
176
     1
 40
0.0
176
     1
 40
1.0
176
     1
 90
        0
176
     1
 62
    18
176
     1
 90
       50
176
     1
 90
        3
176
     1
 62
     5
420
      255
176
     1
290
     0
176
     1
 90
       50
176
     1
 90
       50
176
     1
 90
       50
176
     1
290
     0
176
     1
 90
       50
176
     1
 62
   256
176
     0
 40
1.0
176
     0
 90
        2
176
     1
  1
strokes_ogs.tif
176
     1
290
     0
176
     1
 40
1.0
176
     1
 40
1.0
176
     1
  0
VISUALSTYLE
  5
2B1D2
102
{ACAD_REACTORS
330
2765
102
}
330
2765
100
AcDbVisualStyle
  2
Hidden
 70
     6
177
     3
291
     0
 70
    58
 90
        1
176
     1
 90
        2
176
     1
 90
        2
176
     1
 90
        0
176
     1
 40
0.6
176
     1
 40
30.0
176
     1
 62
     7
420
 16777215
176
     1
 90
        2
176
     1
 90
        2
176
     1
 62
     7
176
     1
 62
   257
176
     1
 90
        2
176
     1
 90
        1
176
     1
 40
40.0
176
     1
 90
        0
176
     1
 62
   257
176
     1
 40
1.0
176
     1
 90
        1
176
     1
 90
        6
176
     1
 90
        2
176
     1
 62
     7
176
     1
 90
        3
176
     1
 90
        0
176
     1
 90
        0
176
     1
290
     0
176
     1
 90
        1
176
     1
 40
0.0
176
     1
 90
        0
176
     1
290
     0
176
     1
290
     1
176
     1
290
     1
176
     1
290
     0
176
     1
290
     0
176
     1
290
     0
176
     1
290
     0
176
     1
290
     0
176
     1
290
     0
176
     1
 90
       50
176
     1
 40
0.0
176
     1
 40
1.0
176
     1
 90
        0
176
     1
 62
    18
176
     1
 90
       50
176
     1
 90
        3
176
     1
 62
     5
420
      255
176
     1
290
     0
176
     1
 90
       50
176
     1
 90
       50
176
     1
 90
       50
176
     1
290
     0
176
     1
 90
       50
176
     1
 62
   256
176
     0
 40
1.0
176
     0
 90
        2
176
     1
  1
strokes_ogs.tif
176
     1
290
     0
176
     1
 40
1.0
176
     1
 40
1.0
176
     1
  0
VISUALSTYLE
  5
247DC
102
{ACAD_REACTORS
330
2765
102
}
330
2765
100
AcDbVisualStyle
  2
JitterOff
 70
    20
177
     3
291
     1
 70
    58
 90
        2
176
     0
 90
        2
176
     0
 90
        0
176
     0
 90
        0
176
     0
 40
0.6
176
     0
 40
30.0
176
     0
 62
     7
420
 16777215
176
     0
 90
        1
176
     0
 90
        4
176
     0
 62
     7
176
     0
 62
   257
176
     0
 90
        1
176
     0
 90
        1
176
     0
 40
1.0
176
     0
 90
       10
176
     2
 62
     7
176
     0
 40
1.0
176
     0
 90
        1
176
     0
 90
        6
176
     0
 90
        2
176
     0
 62
     7
176
     0
 90
        5
176
     0
 90
        0
176
     0
 90
        0
176
     0
290
     0
176
     0
 90
        1
176
     0
 40
0.0
176
     0
 90
        0
176
     0
290
     0
176
     1
290
     1
176
     1
290
     1
176
     1
290
     0
176
     1
290
     0
176
     1
290
     0
176
     1
290
     0
176
     1
290
     0
176
     1
290
     0
176
     1
 90
       50
176
     1
 40
0.0
176
     1
 40
1.0
176
     1
 90
        0
176
     1
 62
    18
176
     1
 90
       50
176
     1
 90
        3
176
     1
 62
     5
420
      255
176
     1
290
     0
176
     1
 90
       50
176
     1
 90
       50
176
     1
 90
       50
176
     1
290
     0
176
     1
 90
       50
176
     1
 62
   256
176
     0
 40
1.0
176
     0
 90
        2
176
     1
  1
strokes_ogs.tif
176
     1
290
     0
176
     1
 40
1.0
176
     1
 40
1.0
176
     1
  0
VISUALSTYLE
  5
2773
102
{ACAD_REACTORS
330
2765
102
}
330
2765
100
AcDbVisualStyle
  2
Linepattern
 70
    14
177
     3
291
     1
 70
    58
 90
        2
176
     1
 90
        2
176
     1
 90
        0
176
     1
 90
        0
176
     1
 40
0.6
176
     1
 40
30.0
176
     1
 62
     7
420
 16777215
176
     1
 90
        1
176
     1
 90
        4
176
     1
 62
     7
176
     1
 62
   257
176
     1
 90
        7
176
     1
 90
        7
176
     1
 40
1.0
176
     1
 90
        8
176
     1
 62
     7
176
     1
 40
1.0
176
     1
 90
        1
176
     1
 90
        6
176
     1
 90
        2
176
     1
 62
     7
176
     1
 90
        5
176
     1
 90
        0
176
     1
 90
        0
176
     1
290
     0
176
     1
 90
        1
176
     1
 40
0.0
176
     1
 90
        0
176
     1
290
     0
176
     1
290
     1
176
     1
290
     1
176
     1
290
     0
176
     1
290
     0
176
     1
290
     0
176
     1
290
     0
176
     1
290
     0
176
     1
290
     0
176
     1
 90
       50
176
     1
 40
0.0
176
     1
 40
1.0
176
     1
 90
        0
176
     1
 62
    18
176
     1
 90
       50
176
     1
 90
        3
176
     1
 62
     5
420
      255
176
     1
290
     0
176
     1
 90
       50
176
     1
 90
       50
176
     1
 90
       50
176
     1
290
     0
176
     1
 90
       50
176
     1
 62
   256
176
     0
 40
1.0
176
     0
 90
        2
176
     1
  1
strokes_ogs.tif
176
     1
290
     0
176
     1
 40
1.0
176
     1
 40
1.0
176
     1
  0
VISUALSTYLE
  5
247DD
102
{ACAD_REACTORS
330
2765
102
}
330
2765
100
AcDbVisualStyle
  2
OverhangOff
 70
    21
177
     3
291
     1
 70
    58
 90
        2
176
     0
 90
        2
176
     0
 90
        0
176
     0
 90
        0
176
     0
 40
0.6
176
     0
 40
30.0
176
     0
 62
     7
420
 16777215
176
     0
 90
        1
176
     0
 90
        4
176
     0
 62
     7
176
     0
 62
   257
176
     0
 90
        1
176
     0
 90
        1
176
     0
 40
1.0
176
     0
 90
        9
176
     2
 62
     7
176
     0
 40
1.0
176
     0
 90
        1
176
     0
 90
        6
176
     0
 90
        2
176
     0
 62
     7
176
     0
 90
        5
176
     0
 90
        0
176
     0
 90
        0
176
     0
290
     0
176
     0
 90
        1
176
     0
 40
0.0
176
     0
 90
        0
176
     0
290
     0
176
     1
290
     1
176
     1
290
     1
176
     1
290
     0
176
     1
290
     0
176
     1
290
     0
176
     1
290
     0
176
     1
290
     0
176
     1
290
     0
176
     1
 90
       50
176
     1
 40
0.0
176
     1
 40
1.0
176
     1
 90
        0
176
     1
 62
    18
176
     1
 90
       50
176
     1
 90
        3
176
     1
 62
     5
420
      255
176
     1
290
     0
176
     1
 90
       50
176
     1
 90
       50
176
     1
 90
       50
176
     1
290
     0
176
     1
 90
       50
176
     1
 62
   256
176
     0
 40
1.0
176
     0
 90
        2
176
     1
  1
strokes_ogs.tif
176
     1
290
     0
176
     1
 40
1.0
176
     1
 40
1.0
176
     1
  0
VISUALSTYLE
  5
276F
102
{ACAD_REACTORS
330
2765
102
}
330
2765
100
AcDbVisualStyle
  2
Realistic
 70
     8
177
     3
291
     0
 70
    58
 90
        2
176
     1
 90
        2
176
     1
 90
        0
176
     1
 90
        0
176
     1
 40
0.6
176
     1
 40
30.0
176
     1
 62
     7
420
 16777215
176
     1
 90
        1
176
     1
 90
        0
176
     1
 62
     7
176
     1
 62
   257
176
     1
 90
        1
176
     1
 90
        1
176
     1
 40
1.0
176
     1
 90
        8
176
     1
 62
     8
420
  7895160
176
     1
 40
1.0
176
     1
 90
        1
176
     1
 90
        6
176
     1
 90
        2
176
     1
 62
     7
176
     1
 90
        5
176
     1
 90
        0
176
     1
 90
        0
176
     1
290
     0
176
     1
 90
       13
176
     1
 40
0.0
176
     1
 90
        0
176
     1
290
     0
176
     1
290
     1
176
     1
290
     1
176
     1
290
     0
176
     1
290
     0
176
     1
290
     0
176
     1
290
     0
176
     1
290
     0
176
     1
290
     0
176
     1
 90
       50
176
     1
 40
0.0
176
     1
 40
1.0
176
     1
 90
        0
176
     1
 62
    18
176
     1
 90
       50
176
     1
 90
        3
176
     1
 62
     5
420
      255
176
     1
290
     0
176
     1
 90
       50
176
     1
 90
       50
176
     1
 90
       50
176
     1
290
     0
176
     1
 90
       50
176
     1
 62
   256
176
     0
 40
1.0
176
     0
 90
        2
176
     1
  1
strokes_ogs.tif
176
     1
290
     0
176
     1
 40
1.0
176
     1
 40
1.0
176
     1
  0
VISUALSTYLE
  5
2B1D7
102
{ACAD_REACTORS
330
2765
102
}
330
2765
100
AcDbVisualStyle
  2
Shaded
 70
    27
177
     3
291
     0
 70
    58
 90
        2
176
     1
 90
        2
176
     1
 90
        1
176
     1
 90
        2
176
     1
 40
0.6
176
     1
 40
30.0
176
     1
 62
     7
420
 16777215
176
     1
 90
        0
176
     1
 90
        4
176
     1
 62
     7
176
     1
 62
   257
176
     1
 90
        1
176
     1
 90
        1
176
     1
 40
1.0
176
     1
 90
        8
176
     1
 62
   257
176
     1
 40
1.0
176
     1
 90
        1
176
     1
 90
        6
176
     1
 90
        2
176
     1
 62
     8
420
  7895160
176
     1
 90
        3
176
     1
 90
        0
176
     1
 90
        0
176
     1
290
     0
176
     1
 90
        5
176
     1
 40
0.0
176
     1
 90
        0
176
     1
290
     0
176
     1
290
     1
176
     1
290
     1
176
     1
290
     0
176
     1
290
     0
176
     1
290
     0
176
     1
290
     0
176
     1
290
     0
176
     1
290
     0
176
     1
 90
       50
176
     1
 40
0.0
176
     1
 40
1.0
176
     1
 90
        0
176
     1
 62
    18
176
     1
 90
       50
176
     1
 90
        3
176
     1
 62
     5
420
      255
176
     1
290
     0
176
     1
 90
       50
176
     1
 90
       50
176
     1
 90
       50
176
     1
290
     0
176
     1
 90
       50
176
     1
 62
   256
176
     0
 40
1.0
176
     0
 90
        2
176
     1
  1
strokes_ogs.tif
176
     1
290
     0
176
     1
 40
1.0
176
     1
 40
1.0
176
     1
  0
VISUALSTYLE
  5
2B1D6
102
{ACAD_REACTORS
330
2765
102
}
330
2765
100
AcDbVisualStyle
  2
Shaded with edges
 70
    26
177
     3
291
     0
 70
    58
 90
        2
176
     1
 90
        2
176
     1
 90
        1
176
     1
 90
        2
176
     1
 40
0.6
176
     1
 40
30.0
176
     1
 62
     7
420
 16777215
176
     1
 90
        1
176
     1
 90
       10
176
     1
 62
     7
176
     1
 62
   257
176
     1
 90
        2
176
     1
 90
        1
176
     1
 40
1.0
176
     1
 90
        8
176
     1
 62
   257
176
     1
 40
1.0
176
     1
 90
        1
176
     1
 90
        6
176
     1
 90
        2
176
     1
 62
     7
176
     1
 90
        3
176
     1
 90
        0
176
     1
 90
        0
176
     1
290
     0
176
     1
 90
        5
176
     1
 40
0.0
176
     1
 90
        0
176
     1
290
     0
176
     1
290
     1
176
     1
290
     1
176
     1
290
     0
176
     1
290
     0
176
     1
290
     0
176
     1
290
     0
176
     1
290
     0
176
     1
290
     0
176
     1
 90
       50
176
     1
 40
0.0
176
     1
 40
1.0
176
     1
 90
        0
176
     1
 62
    18
176
     1
 90
       50
176
     1
 90
        3
176
     1
 62
     5
420
      255
176
     1
290
     0
176
     1
 90
       50
176
     1
 90
       50
176
     1
 90
       50
176
     1
290
     0
176
     1
 90
       50
176
     1
 62
   256
176
     0
 40
1.0
176
     0
 90
        2
176
     1
  1
strokes_ogs.tif
176
     1
290
     0
176
     1
 40
1.0
176
     1
 40
1.0
176
     1
  0
VISUALSTYLE
  5
2B1D3
102
{ACAD_REACTORS
330
2765
102
}
330
2765
100
AcDbVisualStyle
  2
Shades of Gray
 70
    23
177
     3
291
     0
 70
    58
 90
        2
176
     1
 90
        2
176
     1
 90
        3
176
     1
 90
        0
176
     1
 40
0.6
176
     1
 40
30.0
176
     1
 62
     7
420
 16777215
176
     1
 90
        2
176
     1
 90
        2
176
     1
 62
     7
176
     1
 62
     7
176
     1
 90
        1
176
     1
 90
        1
176
     1
 40
40.0
176
     1
 90
        8
176
     1
 62
     7
176
     1
 40
1.0
176
     1
 90
        1
176
     1
 90
        6
176
     1
 90
        2
176
     1
 62
     7
176
     1
 90
        3
176
     1
 90
        0
176
     1
 90
        0
176
     1
290
     0
176
     1
 90
        1
176
     1
 40
0.0
176
     1
 90
        0
176
     1
290
     0
176
     1
290
     1
176
     1
290
     1
176
     1
290
     0
176
     1
290
     0
176
     1
290
     0
176
     1
290
     0
176
     1
290
     0
176
     1
290
     0
176
     1
 90
       50
176
     1
 40
0.0
176
     1
 40
1.0
176
     1
 90
        0
176
     1
 62
    18
176
     1
 90
       50
176
     1
 90
        3
176
     1
 62
     5
420
      255
176
     1
290
     0
176
     1
 90
       50
176
     1
 90
       50
176
     1
 90
       50
176
     1
290
     0
176
     1
 90
       50
176
     1
 62
   256
176
     0
 40
1.0
176
     0
 90
        2
176
     1
  1
strokes_ogs.tif
176
     1
290
     0
176
     1
 40
1.0
176
     1
 40
1.0
176
     1
  0
VISUALSTYLE
  5
2B1D4
102
{ACAD_REACTORS
330
2765
102
}
330
2765
100
AcDbVisualStyle
  2
Sketchy
 70
    24
177
     3
291
     0
 70
    58
 90
        1
176
     1
 90
        2
176
     1
 90
        2
176
     1
 90
        0
176
     1
 40
0.6
176
     1
 40
30.0
176
     1
 62
     7
420
 16777215
176
     1
 90
        2
176
     1
 90
        2
176
     1
 62
     7
176
     1
 62
     7
176
     1
 90
        1
176
     1
 90
        1
176
     1
 40
40.0
176
     1
 90
       11
176
     1
 62
     7
176
     1
 40
1.0
176
     1
 90
        1
176
     1
 90
        6
176
     1
 90
        2
176
     1
 62
     7
176
     1
 90
        6
176
     1
 90
        0
176
     1
 90
        0
176
     1
290
     0
176
     1
 90
        1
176
     1
 40
0.0
176
     1
 90
        0
176
     1
290
     0
176
     1
290
     1
176
     1
290
     1
176
     1
290
     0
176
     1
290
     0
176
     1
290
     0
176
     1
290
     0
176
     1
290
     0
176
     1
290
     0
176
     1
 90
       50
176
     1
 40
0.0
176
     1
 40
1.0
176
     1
 90
        0
176
     1
 62
    18
176
     1
 90
       50
176
     1
 90
        3
176
     1
 62
     5
420
      255
176
     1
290
     0
176
     1
 90
       50
176
     1
 90
       50
176
     1
 90
       50
176
     1
290
     0
176
     1
 90
       50
176
     1
 62
   256
176
     0
 40
1.0
176
     0
 90
        2
176
     1
  1
strokes_ogs.tif
176
     1
290
     0
176
     1
 40
1.0
176
     1
 40
1.0
176
     1
  0
VISUALSTYLE
  5
2772
102
{ACAD_REACTORS
330
2765
102
}
330
2765
100
AcDbVisualStyle
  2
Thicken
 70
    13
177
     3
291
     1
 70
    58
 90
        2
176
     1
 90
        2
176
     1
 90
        0
176
     1
 90
        0
176
     1
 40
0.6
176
     1
 40
30.0
176
     1
 62
     7
420
 16777215
176
     1
 90
        1
176
     1
 90
        4
176
     1
 62
     7
176
     1
 62
   257
176
     1
 90
        1
176
     1
 90
        1
176
     1
 40
1.0
176
     1
 90
       12
176
     1
 62
     7
176
     1
 40
1.0
176
     1
 90
        1
176
     1
 90
        6
176
     1
 90
        2
176
     1
 62
     7
176
     1
 90
        5
176
     1
 90
        0
176
     1
 90
        0
176
     1
290
     0
176
     1
 90
        1
176
     1
 40
0.0
176
     1
 90
        0
176
     1
290
     0
176
     1
290
     1
176
     1
290
     1
176
     1
290
     0
176
     1
290
     0
176
     1
290
     0
176
     1
290
     0
176
     1
290
     0
176
     1
290
     0
176
     1
 90
       50
176
     1
 40
0.0
176
     1
 40
1.0
176
     1
 90
        0
176
     1
 62
    18
176
     1
 90
       50
176
     1
 90
        3
176
     1
 62
     5
420
      255
176
     1
290
     0
176
     1
 90
       50
176
     1
 90
       50
176
     1
 90
       50
176
     1
290
     0
176
     1
 90
       50
176
     1
 62
   256
176
     0
 40
1.0
176
     0
 90
        2
176
     1
  1
strokes_ogs.tif
176
     1
290
     0
176
     1
 40
1.0
176
     1
 40
1.0
176
     1
  0
VISUALSTYLE
  5
2B1D1
102
{ACAD_REACTORS
330
2765
102
}
330
2765
100
AcDbVisualStyle
  2
Wireframe
 70
     5
177
     3
291
     0
 70
    58
 90
        0
176
     1
 90
        2
176
     1
 90
        0
176
     1
 90
        0
176
     1
 40
0.6
176
     1
 40
30.0
176
     1
 62
     7
420
 16777215
176
     1
 90
        1
176
     1
 90
        4
176
     1
 62
     7
176
     1
 62
   257
176
     1
 90
        1
176
     1
 90
        1
176
     1
 40
1.0
176
     1
 90
        0
176
     1
 62
   257
176
     1
 40
1.0
176
     1
 90
        1
176
     1
 90
        6
176
     1
 90
        2
176
     1
 62
     7
176
     1
 90
        3
176
     1
 90
        0
176
     1
 90
        0
176
     1
290
     0
176
     1
 90
        1
176
     1
 40
0.0
176
     1
 90
        0
176
     1
290
     0
176
     1
290
     1
176
     1
290
     1
176
     1
290
     0
176
     1
290
     0
176
     1
290
     0
176
     1
290
     0
176
     1
290
     0
176
     1
290
     0
176
     1
 90
       50
176
     1
 40
0.0
176
     1
 40
1.0
176
     1
 90
        0
176
     1
 62
    18
176
     1
 90
       50
176
     1
 90
        3
176
     1
 62
     5
420
      255
176
     1
290
     0
176
     1
 90
       50
176
     1
 90
       50
176
     1
 90
       50
176
     1
290
     0
176
     1
 90
       50
176
     1
 62
   256
176
     0
 40
1.0
176
     0
 90
        2
176
     1
  1
strokes_ogs.tif
176
     1
290
     0
176
     1
 40
1.0
176
     1
 40
1.0
176
     1
  0
VISUALSTYLE
  5
2B1D5
102
{ACAD_REACTORS
330
2765
102
}
330
2765
100
AcDbVisualStyle
  2
X-Ray
 70
    25
177
     3
291
     0
 70
    58
 90
        2
176
     1
 90
        2
176
     1
 90
        1
176
     1
 90
        1
176
     1
 40
0.5
176
     1
 40
30.0
176
     1
 62
     7
420
 16777215
176
     1
 90
        1
176
     1
 90
        0
176
     1
 62
     7
176
     1
 62
   257
176
     1
 90
        1
176
     1
 90
        1
176
     1
 40
1.0
176
     1
 90
        8
176
     1
 62
     7
176
     1
 40
1.0
176
     1
 90
        1
176
     1
 90
        6
176
     1
 90
        2
176
     1
 62
     7
176
     1
 90
        3
176
     1
 90
        0
176
     1
 90
        0
176
     1
290
     0
176
     1
 90
       13
176
     1
 40
0.0
176
     1
 90
        0
176
     1
290
     0
176
     1
290
     1
176
     1
290
     1
176
     1
290
     0
176
     1
290
     0
176
     1
290
     0
176
     1
290
     0
176
     1
290
     0
176
     1
290
     0
176
     1
 90
       50
176
     1
 40
0.0
176
     1
 40
1.0
176
     1
 90
        0
176
     1
 62
    18
176
     1
 90
       50
176
     1
 90
        3
176
     1
 62
     5
420
      255
176
     1
290
     0
176
     1
 90
       50
176
     1
 90
       50
176
     1
 90
       50
176
     1
290
     0
176
     1
 90
       50
176
     1
 62
   256
176
     0
 40
1.0
176
     0
 90
        2
176
     1
  1
strokes_ogs.tif
176
     1
290
     0
176
     1
 40
1.0
176
     1
 40
1.0
176
     1
  0
DICTIONARYVAR
  5
24E32
102
{ACAD_REACTORS
330
5E
102
}
330
5E
100
DictionaryVariables
280
     0
  1
1:1
  0
DICTIONARYVAR
  5
24E30
102
{ACAD_REACTORS
330
5E
102
}
330
5E
100
DictionaryVariables
280
     0
  1
STANDARD
  0
DICTIONARYVAR
  5
2792
102
{ACAD_REACTORS
330
5E
102
}
330
5E
100
DictionaryVariables
280
     0
  1
STANDARD
  0
DICTIONARYVAR
  5
2B1EC
102
{ACAD_REACTORS
330
5E
102
}
330
5E
100
DictionaryVariables
280
     0
  1
Metric50
  0
DICTIONARYVAR
  5
2B1ED
102
{ACAD_REACTORS
330
5E
102
}
330
5E
100
DictionaryVariables
280
     0
  1
Metric50
  0
DICTIONARYVAR
  5
5F
102
{ACAD_REACTORS
330
5E
102
}
330
5E
100
DictionaryVariables
280
     0
  1
2
  0
DICTIONARYVAR
  5
63
102
{ACAD_REACTORS
330
5E
102
}
330
5E
100
DictionaryVariables
280
     0
  1
1
  0
DICTIONARYVAR
  5
24E34
102
{ACAD_REACTORS
330
5E
102
}
330
5E
100
DictionaryVariables
280
     0
  1
1
  0
DICTIONARYVAR
  5
24E35
102
{ACAD_REACTORS
330
5E
102
}
330
5E
100
DictionaryVariables
280
     0
  1
15
  0
DICTIONARYVAR
  5
24E33
102
{ACAD_REACTORS
330
5E
102
}
330
5E
100
DictionaryVariables
280
     0
  1
0
  0
DICTIONARYVAR
  5
24E31
102
{ACAD_REACTORS
330
5E
102
}
330
5E
100
DictionaryVariables
280
     0
  1
0
  0
DICTIONARY
  5
2B1F5
330
2B1DB
100
AcDbDictionary
280
     1
281
     1
  3
ACAD_XREC_ROUNDTRIP
360
2B21A
  0
DICTIONARY
  5
24E2E
330
22
100
AcDbDictionary
280
     1
281
     1
  0
DICTIONARY
  5
2E30
330
51
100
AcDbDictionary
280
     1
281
     1
  0
DICTIONARY
  5
2B1F3
330
2B1D9
100
AcDbDictionary
280
     1
281
     1
  3
ACAD_XREC_ROUNDTRIP
360
2B219
  0
DICTIONARY
  5
2B1EF
330
2778
100
AcDbDictionary
280
     1
281
     1
  3
ACAD_ROUNDTRIP_2008_TABLESTYLE_CELLSTYLEMAP
360
2B217
  0
DICTIONARY
  5
2B1F1
330
2688B
100
AcDbDictionary
280
     1
281
     1
  3
ACAD_ROUNDTRIP_2008_TABLESTYLE_CELLSTYLEMAP
360
2B218
  0
XRECORD
  5
2B21A
102
{ACAD_REACTORS
330
2B1F5
102
}
330
2B1F5
100
AcDbXrecord
280
     1
102
DISPLAYNAME
  1
Metric50
102
FLAGS
 90
        0
  0
XRECORD
  5
2B219
102
{ACAD_REACTORS
330
2B1F3
102
}
330
2B1F3
100
AcDbXrecord
280
     1
102
DISPLAYNAME
  1
Metric50
102
FLAGS
 90
        0
  0
CELLSTYLEMAP
  5
2B217
102
{ACAD_REACTORS
330
2B1EF
102
}
330
2B1EF
100
AcDbCellStyleMap
 90
        3
300
CELLSTYLE
  1
TABLEFORMAT_BEGIN
 90
        5
170
     1
 91
        0
 92
    32768
 62
   257
 93
        1
300
CONTENTFORMAT
  1
CONTENTFORMAT_BEGIN
 90
        0
 91
        0
 92
      512
 93
        0
300

 40
0.0
140
1.0
 94
        5
 62
     0
340
11
144
6.0
309
CONTENTFORMAT_END
171
     1
301
MARGIN
  1
CELLMARGIN_BEGIN
 40
1.5
 40
1.5
 40
1.5
 40
1.5
 40
0.18
 40
0.18
309
CELLMARGIN_END
 94
        6
 95
        1
302
GRIDFORMAT
  1
GRIDFORMAT_BEGIN
 90
        0
 91
        1
 62
     0
 92
       -2
340
0
 93
        0
 40
0.045
309
GRIDFORMAT_END
 95
        2
302
GRIDFORMAT
  1
GRIDFORMAT_BEGIN
 90
        0
 91
        1
 62
     0
 92
       -2
340
0
 93
        0
 40
0.045
309
GRIDFORMAT_END
 95
        4
302
GRIDFORMAT
  1
GRIDFORMAT_BEGIN
 90
        0
 91
        1
 62
     0
 92
       -2
340
0
 93
        0
 40
0.045
309
GRIDFORMAT_END
 95
        8
302
GRIDFORMAT
  1
GRIDFORMAT_BEGIN
 90
        0
 91
        1
 62
     0
 92
       -2
340
0
 93
        0
 40
0.045
309
GRIDFORMAT_END
 95
       16
302
GRIDFORMAT
  1
GRIDFORMAT_BEGIN
 90
        0
 91
        1
 62
     0
 92
       -2
340
0
 93
        0
 40
0.045
309
GRIDFORMAT_END
 95
       32
302
GRIDFORMAT
  1
GRIDFORMAT_BEGIN
 90
        0
 91
        1
 62
     0
 92
       -2
340
0
 93
        0
 40
0.045
309
GRIDFORMAT_END
309
TABLEFORMAT_END
  1
CELLSTYLE_BEGIN
 90
        1
 91
        1
300
_TITLE
309
CELLSTYLE_END
300
CELLSTYLE
  1
TABLEFORMAT_BEGIN
 90
        5
170
     1
 91
        0
 92
        0
 62
   257
 93
        1
300
CONTENTFORMAT
  1
CONTENTFORMAT_BEGIN
 90
        0
 91
        0
 92
      512
 93
        0
300

 40
0.0
140
1.0
 94
        5
 62
     0
340
11
144
4.5
309
CONTENTFORMAT_END
171
     1
301
MARGIN
  1
CELLMARGIN_BEGIN
 40
1.5
 40
1.5
 40
1.5
 40
1.5
 40
0.18
 40
0.18
309
CELLMARGIN_END
 94
        6
 95
        1
302
GRIDFORMAT
  1
GRIDFORMAT_BEGIN
 90
        0
 91
        1
 62
     0
 92
       -2
340
0
 93
        0
 40
0.045
309
GRIDFORMAT_END
 95
        2
302
GRIDFORMAT
  1
GRIDFORMAT_BEGIN
 90
        0
 91
        1
 62
     0
 92
       -2
340
0
 93
        0
 40
0.045
309
GRIDFORMAT_END
 95
        4
302
GRIDFORMAT
  1
GRIDFORMAT_BEGIN
 90
        0
 91
        1
 62
     0
 92
       -2
340
0
 93
        0
 40
0.045
309
GRIDFORMAT_END
 95
        8
302
GRIDFORMAT
  1
GRIDFORMAT_BEGIN
 90
        0
 91
        1
 62
     0
 92
       -2
340
0
 93
        0
 40
0.045
309
GRIDFORMAT_END
 95
       16
302
GRIDFORMAT
  1
GRIDFORMAT_BEGIN
 90
        0
 91
        1
 62
     0
 92
       -2
340
0
 93
        0
 40
0.045
309
GRIDFORMAT_END
 95
       32
302
GRIDFORMAT
  1
GRIDFORMAT_BEGIN
 90
        0
 91
        1
 62
     0
 92
       -2
340
0
 93
        0
 40
0.045
309
GRIDFORMAT_END
309
TABLEFORMAT_END
  1
CELLSTYLE_BEGIN
 90
        2
 91
        1
300
_HEADER
309
CELLSTYLE_END
300
CELLSTYLE
  1
TABLEFORMAT_BEGIN
 90
        5
170
     1
 91
        0
 92
        0
 62
   257
 93
        1
300
CONTENTFORMAT
  1
CONTENTFORMAT_BEGIN
 90
        0
 91
        0
 92
      512
 93
        0
300

 40
0.0
140
1.0
 94
        2
 62
     0
340
11
144
4.5
309
CONTENTFORMAT_END
171
     1
301
MARGIN
  1
CELLMARGIN_BEGIN
 40
1.5
 40
1.5
 40
1.5
 40
1.5
 40
0.18
 40
0.18
309
CELLMARGIN_END
 94
        6
 95
        1
302
GRIDFORMAT
  1
GRIDFORMAT_BEGIN
 90
        0
 91
        1
 62
     0
 92
       -2
340
0
 93
        0
 40
0.045
309
GRIDFORMAT_END
 95
        2
302
GRIDFORMAT
  1
GRIDFORMAT_BEGIN
 90
        0
 91
        1
 62
     0
 92
       -2
340
0
 93
        0
 40
0.045
309
GRIDFORMAT_END
 95
        4
302
GRIDFORMAT
  1
GRIDFORMAT_BEGIN
 90
        0
 91
        1
 62
     0
 92
       -2
340
0
 93
        0
 40
0.045
309
GRIDFORMAT_END
 95
        8
302
GRIDFORMAT
  1
GRIDFORMAT_BEGIN
 90
        0
 91
        1
 62
     0
 92
       -2
340
0
 93
        0
 40
0.045
309
GRIDFORMAT_END
 95
       16
302
GRIDFORMAT
  1
GRIDFORMAT_BEGIN
 90
        0
 91
        1
 62
     0
 92
       -2
340
0
 93
        0
 40
0.045
309
GRIDFORMAT_END
 95
       32
302
GRIDFORMAT
  1
GRIDFORMAT_BEGIN
 90
        0
 91
        1
 62
     0
 92
       -2
340
0
 93
        0
 40
0.045
309
GRIDFORMAT_END
309
TABLEFORMAT_END
  1
CELLSTYLE_BEGIN
 90
        3
 91
        2
300
_DATA
309
CELLSTYLE_END
  0
CELLSTYLEMAP
  5
2B218
102
{ACAD_REACTORS
330
2B1F1
102
}
330
2B1F1
100
AcDbCellStyleMap
 90
        3
300
CELLSTYLE
  1
TABLEFORMAT_BEGIN
 90
        5
170
     1
 91
        0
 92
    32768
 62
   257
 93
        1
300
CONTENTFORMAT
  1
CONTENTFORMAT_BEGIN
 90
        0
 91
        0
 92
      512
 93
        0
300

 40
0.0
140
1.0
 94
        5
 62
     0
340
11
144
6.0
309
CONTENTFORMAT_END
171
     1
301
MARGIN
  1
CELLMARGIN_BEGIN
 40
1.5
 40
1.5
 40
1.5
 40
1.5
 40
0.18
 40
0.18
309
CELLMARGIN_END
 94
        6
 95
        1
302
GRIDFORMAT
  1
GRIDFORMAT_BEGIN
 90
        0
 91
        1
 62
     0
 92
       -2
340
0
 93
        0
 40
0.045
309
GRIDFORMAT_END
 95
        2
302
GRIDFORMAT
  1
GRIDFORMAT_BEGIN
 90
        0
 91
        1
 62
     0
 92
       -2
340
0
 93
        0
 40
0.045
309
GRIDFORMAT_END
 95
        4
302
GRIDFORMAT
  1
GRIDFORMAT_BEGIN
 90
        0
 91
        1
 62
     0
 92
       -2
340
0
 93
        0
 40
0.045
309
GRIDFORMAT_END
 95
        8
302
GRIDFORMAT
  1
GRIDFORMAT_BEGIN
 90
        0
 91
        1
 62
     0
 92
       -2
340
0
 93
        0
 40
0.045
309
GRIDFORMAT_END
 95
       16
302
GRIDFORMAT
  1
GRIDFORMAT_BEGIN
 90
        0
 91
        1
 62
     0
 92
       -2
340
0
 93
        0
 40
0.045
309
GRIDFORMAT_END
 95
       32
302
GRIDFORMAT
  1
GRIDFORMAT_BEGIN
 90
        0
 91
        1
 62
     0
 92
       -2
340
0
 93
        0
 40
0.045
309
GRIDFORMAT_END
309
TABLEFORMAT_END
  1
CELLSTYLE_BEGIN
 90
        1
 91
        1
300
_TITLE
309
CELLSTYLE_END
300
CELLSTYLE
  1
TABLEFORMAT_BEGIN
 90
        5
170
     1
 91
        0
 92
        0
 62
   257
 93
        1
300
CONTENTFORMAT
  1
CONTENTFORMAT_BEGIN
 90
        0
 91
        0
 92
      512
 93
        0
300

 40
0.0
140
1.0
 94
        5
 62
     2
340
10EC
144
4.5
309
CONTENTFORMAT_END
171
     1
301
MARGIN
  1
CELLMARGIN_BEGIN
 40
1.5
 40
1.5
 40
1.5
 40
1.5
 40
0.18
 40
0.18
309
CELLMARGIN_END
 94
        6
 95
        1
302
GRIDFORMAT
  1
GRIDFORMAT_BEGIN
 90
        0
 91
        1
 62
     0
 92
       -2
340
0
 93
        0
 40
0.045
309
GRIDFORMAT_END
 95
        2
302
GRIDFORMAT
  1
GRIDFORMAT_BEGIN
 90
        0
 91
        1
 62
     0
 92
       -2
340
0
 93
        0
 40
0.045
309
GRIDFORMAT_END
 95
        4
302
GRIDFORMAT
  1
GRIDFORMAT_BEGIN
 90
        0
 91
        1
 62
     0
 92
       -2
340
0
 93
        0
 40
0.045
309
GRIDFORMAT_END
 95
        8
302
GRIDFORMAT
  1
GRIDFORMAT_BEGIN
 90
        0
 91
        1
 62
     0
 92
       -2
340
0
 93
        0
 40
0.045
309
GRIDFORMAT_END
 95
       16
302
GRIDFORMAT
  1
GRIDFORMAT_BEGIN
 90
        0
 91
        1
 62
     0
 92
       -2
340
0
 93
        0
 40
0.045
309
GRIDFORMAT_END
 95
       32
302
GRIDFORMAT
  1
GRIDFORMAT_BEGIN
 90
        0
 91
        1
 62
     0
 92
       -2
340
0
 93
        0
 40
0.045
309
GRIDFORMAT_END
309
TABLEFORMAT_END
  1
CELLSTYLE_BEGIN
 90
        2
 91
        1
300
_HEADER
309
CELLSTYLE_END
300
CELLSTYLE
  1
TABLEFORMAT_BEGIN
 90
        5
170
     1
 91
        0
 92
        0
 62
   257
 93
        1
300
CONTENTFORMAT
  1
CONTENTFORMAT_BEGIN
 90
        0
 91
        0
 92
      512
 93
        0
300

 40
0.0
140
1.0
 94
        2
 62
     2
340
10EC
144
4.5
309
CONTENTFORMAT_END
171
     1
301
MARGIN
  1
CELLMARGIN_BEGIN
 40
1.5
 40
1.5
 40
1.5
 40
1.5
 40
0.18
 40
0.18
309
CELLMARGIN_END
 94
        6
 95
        1
302
GRIDFORMAT
  1
GRIDFORMAT_BEGIN
 90
        0
 91
        1
 62
     0
 92
       -2
340
0
 93
        0
 40
0.045
309
GRIDFORMAT_END
 95
        2
302
GRIDFORMAT
  1
GRIDFORMAT_BEGIN
 90
        0
 91
        1
 62
     0
 92
       -2
340
0
 93
        0
 40
0.045
309
GRIDFORMAT_END
 95
        4
302
GRIDFORMAT
  1
GRIDFORMAT_BEGIN
 90
        0
 91
        1
 62
     0
 92
       -2
340
0
 93
        0
 40
0.045
309
GRIDFORMAT_END
 95
        8
302
GRIDFORMAT
  1
GRIDFORMAT_BEGIN
 90
        0
 91
        1
 62
     0
 92
       -2
340
0
 93
        0
 40
0.045
309
GRIDFORMAT_END
 95
       16
302
GRIDFORMAT
  1
GRIDFORMAT_BEGIN
 90
        0
 91
        1
 62
     0
 92
       -2
340
0
 93
        0
 40
0.045
309
GRIDFORMAT_END
 95
       32
302
GRIDFORMAT
  1
GRIDFORMAT_BEGIN
 90
        0
 91
        1
 62
     0
 92
       -2
340
0
 93
        0
 40
0.045
309
GRIDFORMAT_END
309
TABLEFORMAT_END
  1
CELLSTYLE_BEGIN
 90
        3
 91
        2
300
_DATA
309
CELLSTYLE_END
  0
ENDSEC
  0
SECTION
  2
ACDSDATA
 70
     2
 71
     6
  0
ACDSSCHEMA
 90
        0
  1
AcDb_Thumbnail_Schema
  2
AcDbDs::ID
280
    10
 91
        8
  2
Thumbnail_Data
280
    15
 91
        0
101
ACDSRECORD
 95
        0
 90
        1
  2
AcDbDs::TreatedAsObjectData
280
     1
291
     1
101
ACDSRECORD
 95
        0
 90
        2
  2
AcDbDs::Legacy
280
     1
291
     1
101
ACDSRECORD
  1
AcDbDs::ID
 90
        3
  2
AcDs:Indexable
280
     1
291
     1
101
ACDSRECORD
  1
AcDbDs::ID
 90
        4
  2
AcDbDs::HandleAttribute
280
     7
282
     1
  0
ACDSSCHEMA
 90
        1
  1
AcDbDs::TreatedAsObjectDataSchema
  2
AcDbDs::TreatedAsObjectData
280
     1
 91
        0
  0
ACDSSCHEMA
 90
        2
  1
AcDbDs::LegacySchema
  2
AcDbDs::Legacy
280
     1
 91
        0
  0
ACDSSCHEMA
 90
        3
  1
AcDbDs::IndexedPropertySchema
  2
AcDs:Indexable
280
     1
 91
        0
  0
ACDSSCHEMA
 90
        4
  1
AcDbDs::HandleAttributeSchema
  2
AcDbDs::HandleAttribute
280
     7
 91
        1
284
     1
  0
ACDSRECORD
 90
        0
  2
AcDbDs::ID
280
    10
320
22
  2
Thumbnail_Data
280
    15
 94
     2238
310
89504E470D0A1A0A0000000D49484452000001000000007F080300000037AFECF400000300504C5445000000000000FFFFFF0000000000000000000000000000000000000000000000000000330000660000990000CC0000FF0033000033330033660033990033CC0033FF0066000066330066660066990066CC0066FF0099
310
000099330099660099990099CC0099FF00CC0000CC3300CC6600CC9900CCCC00CCFF00FF0000FF3300FF6600FF9900FFCC00FFFF3300003300333300663300993300CC3300FF3333003333333333663333993333CC3333FF3366003366333366663366993366CC3366FF3399003399333399663399993399CC3399FF33CC00
310
33CC3333CC6633CC9933CCCC33CCFF33FF0033FF3333FF6633FF9933FFCC33FFFF6600006600336600666600996600CC6600FF6633006633336633666633996633CC6633FF6666006666336666666666996666CC6666FF6699006699336699666699996699CC6699FF66CC0066CC3366CC6666CC9966CCCC66CCFF66FF0066
310
FF3366FF6666FF9966FFCC66FFFF9900009900339900669900999900CC9900FF9933009933339933669933999933CC9933FF9966009966339966669966999966CC9966FF9999009999339999669999999999CC9999FF99CC0099CC3399CC6699CC9999CCCC99CCFF99FF0099FF3399FF6699FF9999FFCC99FFFFCC0000CC00
310
33CC0066CC0099CC00CCCC00FFCC3300CC3333CC3366CC3399CC33CCCC33FFCC6600CC6633CC6666CC6699CC66CCCC66FFCC9900CC9933CC9966CC9999CC99CCCC99FFCCCC00CCCC33CCCC66CCCC99CCCCCCCCCCFFCCFF00CCFF33CCFF66CCFF99CCFFCCCCFFFFFF0000FF0033FF0066FF0099FF00CCFF00FFFF3300FF3333
310
FF3366FF3399FF33CCFF33FFFF6600FF6633FF6666FF6699FF66CCFF66FFFF9900FF9933FF9966FF9999FF99CCFF99FFFFCC00FFCC33FFCC66FFCC99FFCCCCFFCCFFFFFF00FFFF33FFFF66FFFF99FFFFCCFFFFFF0000000D0D0D1A1A1A2828283535354343435050505D5D5D6B6B6B787878868686939393A1A1A1AEAEAEBB
310
BBBBC9C9C9D6D6D6E4E4E4F1F1F1FFFFFF000000000000000000000000000000000000000000000000000000000000C11FEF66000005794944415478DAED9D4B96A5200C866B076CC3FDAFC751C63DFDE75D25880179049F41A5CFE9BAE71EF4CA471292F0F0875E5E7EA415FF75578E06D05BD77E003E007702C01955A110
310
00207DD65CCD54D5DD352F940031003A0500FA01209700E89600A82F670368306F38DEB4C9EFA702005E0EE0F0C67D007A021058A45702586A9B0FC0CB55E04100D018BB60769C8686B21700CE04804600F01220BEF459000215905DBC1700A0C3067800DC47C71512A0C308DA164F0DC7FC592604CF00006B006DE3CD4C42
310
74834700709D1D0E83B324BC0780AD3B8E26D28BE703F0DA3E8E16C06205EB041E02C0B5DF163624D609F40F00F0EE480E001E0C60B2F67FFFACF8FFFD6F188099009E0380C7FDB0BDEF00FC367EB4A3000740AE0ABF88F3E80F808F7D5D33660DB0DDCF014C5F3846CB050F01B074E8D47EA7FC0180D1010844666516FB04
310
E07B7F2E73FBAD2718005874608912FA0090CEF2F1A0C7FF3C9C01987A3805206AFC8100DC5DAF92006360A61206BCB04E500A803502BEA6BD1AC6F46F04899B7A9E17430240EE06E33864B26BD00FC07871B026E0F7AF2DD3D730F6BBDF2F23B12903E006B31F09603630AD02B91BAC540099CFBA015030CC390063380A24
310
3DA91840D4EB0221B8C9135C0D83CE08F2613009002B051F8A5D0EA500BC2F00EE08457E004D9E317CE2965D9806804203750643B3C9770428F00447E60952DEAC0F95B6427B388C1900255D61047EF31301F068300C86461E0DD601C8D70A69CB08311D5885C3D5F63300955540AA01106C34305130DB52624832B8570280
310
D6A4A84B896D498A824DAE36008086B94137BA8D2E2D163E9C342D0E1E66B388A00700CBDCF8322F80D689914002C294DB6D001AE60697B8D7CD0B101AA7C6120088D0C328B0546429E045963701506204DB57B7230A15A80D003A06B0188CAD0B249004A0DF138C6383CD4B64E0E7D6BA05E09560DB22298CACB88C918E68
310
30FBF0495775F332B9D90A30004AC2E1A16EFB8F00305B010640494264A8FC3C0E0240009B64579412AB4980785F8704816F3FF424452B006A36A06D19F9A404680943B403387511FD07E044008BFA0EC541FF3803E0C67E9A975B8D22A7E382C9D16B25C0365E0440830A1C2F03BD0120812788A6F6C7FEF0CB00F4360ABC
310
1C404ABFDF04E0AC91B02B00020938D115EA4402E893804F023E09E811007A0070C5DCA06600B81DC0CD36E092C9D1A1FE00959418FAB4011200240070A2127C00F401580B7CEF008A89890400431F800FC0AB6DC0CB004060049FEC07885CC1F31C410D00682300BB3C645E25B2F53C1D0D00E268C7C802A17985CCBE0385
310
FA0570D0994AD7EC1C15027093392698D7C96E14E19D3F6C57817B2747370318BC0C4C1F7AB701D804E031A3807786D2005283C061EDD7E107D45400E7B5FF0600F1C06E4F902AAB00426043DA33507CAE70BCBB93350044F182DEC430C82FC8EEA2F06BED912442489DC87213002AF97AA6D8AD5402102C90CFF478F88B77
310
01287942A6EC071525807F883047489501088E12647B4573353BB40193D7E2CE4C70E721F092F8CAE46BC218538AAC23A54AEC26BB410206B904803F718B0484C29000B0EA792D0010AB00D13900AE950048019446812D00AA49A6D545A7CF0DFAD34E903457053F2055F7402378398021D51DC103192AA683A63D45650940
310
78F6502401E08A7032001202E063F8941546C10F1001580DFD7949B9D8080EE5A024028086683804209100F6436A01D016006523B80C33500480F5B921A09610ECCD13149586098156007E6B3A58C414381CD7ED1CAD263324CBDC87AC0C81C7D0EC8CF21C99E70360DD1E84C391CB7921805AF903B0E9AD0A32006E7CB851
310
02F625F490BF4751056ECB09BEFD5D63C9FC7F311F54AEF9BD6F70D7EBF6BEF70DDE0E809AB8ECABAAF19DA38ACB07E003703080B7BF7BFCA9E53FCE983B3A6CA313820000000049454E44AE426082
  0
ACDSRECORD
 90
        0
  2
AcDbDs::ID
280
    10
320
51
  2
Thumbnail_Data
280
    15
 94
     4181
310
89504E470D0A1A0A0000000D4948445200000100000000B5080300000087DCD12600000300504C5445000000000000FFFFFF0000000000000000000000000000000000000000000000000000330000660000990000CC0000FF0033000033330033660033990033CC0033FF0066000066330066660066990066CC0066FF0099
310
000099330099660099990099CC0099FF00CC0000CC3300CC6600CC9900CCCC00CCFF00FF0000FF3300FF6600FF9900FFCC00FFFF3300003300333300663300993300CC3300FF3333003333333333663333993333CC3333FF3366003366333366663366993366CC3366FF3399003399333399663399993399CC3399FF33CC00
310
33CC3333CC6633CC9933CCCC33CCFF33FF0033FF3333FF6633FF9933FFCC33FFFF6600006600336600666600996600CC6600FF6633006633336633666633996633CC6633FF6666006666336666666666996666CC6666FF6699006699336699666699996699CC6699FF66CC0066CC3366CC6666CC9966CCCC66CCFF66FF0066
310
FF3366FF6666FF9966FFCC66FFFF9900009900339900669900999900CC9900FF9933009933339933669933999933CC9933FF9966009966339966669966999966CC9966FF9999009999339999669999999999CC9999FF99CC0099CC3399CC6699CC9999CCCC99CCFF99FF0099FF3399FF6699FF9999FFCC99FFFFCC0000CC00
310
33CC0066CC0099CC00CCCC00FFCC3300CC3333CC3366CC3399CC33CCCC33FFCC6600CC6633CC6666CC6699CC66CCCC66FFCC9900CC9933CC9966CC9999CC99CCCC99FFCCCC00CCCC33CCCC66CCCC99CCCCCCCCCCFFCCFF00CCFF33CCFF66CCFF99CCFFCCCCFFFFFF0000FF0033FF0066FF0099FF00CCFF00FFFF3300FF3333
310
FF3366FF3399FF33CCFF33FFFF6600FF6633FF6666FF6699FF66CCFF66FFFF9900FF9933FF9966FF9999FF99CCFF99FFFFCC00FFCC33FFCC66FFCC99FFCCCCFFCCFFFFFF00FFFF33FFFF66FFFF99FFFFCCFFFFFF0000000D0D0D1A1A1A2828283535354343435050505D5D5D6B6B6B787878868686939393A1A1A1AEAEAEBB
310
BBBBC9C9C9D6D6D6E4E4E4F1F1F1FFFFFF000000000000000000000000000000000000000000000000000000000000C11FEF6600000D104944415478DAED9D4992B33A0C80FF1B700D367DFF03F81A5E694DD55B69FFF02CD93218830319A8EAA44348823E24599207FEE1776FFFFD43F8E6ED07C00088EA907667DBC7BEE1
310
017CEFF5FF01E000BEC9FBCB00BEE9DAFF007C10800E03F830004085B2FFD85D51A6D80026DBA700E0E300F8D86617007C0C80FAE957767E18805E1FF0411A80083C9EC9B58305C39F680214007C23809F0FF8F900F78448F27B62172C1FFE70007814007EAD0FF8E5029FA3014CDB6D6C4C6512EA00D70228F0324FFB7200
310
DCDCF9090E01B05F7A7935004103BC8F7C8106D02AF34BE4BFDB0734D6DF5E170AB35FA4F131AD048D7082ECCA23DEE7040B1F30DC09CABEF0AE64E88656809177AAF66A00F7074237B500439DE04B2FE3653E204FFD37728106006F81400000570040CC3E77E3A6A56DB40F2061CDC3018C0B845E1AD06D6CB3BC6D1445B1
310
AC09D2CE82F68E11DECD701B802381106C2543D8531112110C8562F57BFDD32201A6FF4D3EA01208ED00C83F55D4DB8655104A3BBF054030808A93516E1B6EF10580D90298EFD1003ECEC8887F3182D2CD1704E65C0FC695C5F31C5F3EE72B09CC0CC02C019819A9866CB08CCF8F39C1FDC05E8DF5FEB308809B00C21800C8
310
E3CA0701980F67835846827B009CF8F37E73F74A02A5029CF6017BB9C03CC3E300CCD540C87BAC54FD1253C4C650387C669EF3F0FB050092FED98719C90EFF5801C05BBC130088EAE7E177F2C2E64F85E88DFC69FABA3BC94D00564564F253AF9785C252B5A8AB1ED01CADA9D82CB356BCCCDB8E030804C002002B7A01E096
310
B23891522974AFA5AC15FAE5AF86A180750DF0DDC4909B00F4F8801D02609315BD4684F6939AFD4DEC752F00AAB748DBE51A80B2C93FE304F71038D9561340FFFA6A001BEEB1AA0162BAE635E0800F98F7375CAFBD1550270009C2445F9E28F68BF31DB2D06F48496CDE3FC3695501732E5A231015180F00A4D8F76A27D806
310
C010C060025EDE6B008034E82539335601F2E14F2517E8F401FB00D64D1B33209BF6BB747C81D9117816401AFB8395925866EEE300C0DAFC192330AD00251001D81642739F3408C0581FA02B1AA050398557AC65D0D63626E21184D0B289C0769FFB89A93EC700F048860639A211440D20D690E5609700C09DAE31E432F101
310
C4470108BD114E038CC6E7C10168A701CE1F6A210B3FD010D4CA65F05A00D2E9FDFDA9BF3F63E905010AA06A010D1132B3ED3CD1C0A30591BA0F804E27A82665BC9F330562045A1313D05213E072046822103E5828E07505913E00F1BBB4FD42A5D646415500D8FAB976EF05299A7224AC02C07ACF507B1C701280EB165825
310
53A997C0FE443401E70202804C647DC411E600B0C4340E807CAD56B140F98BAE54DE1278632016E08FE9890793E5FFFDFD09963D66BEC02CFB5ED661B87A016E8053103CDA822600265431686E2E131823CB0060B507678C0F20A7CA5BC42070BE1100C4336E74F0EF22A0A7556A515E0FA01591FEF9020D9160E040D2A304
310
805F196D32A689DAC0914211E99E9BB1E62ACB82C86500EA6735A16C025AD40C06E06896182BD415004103E07A0DA85C2B0A20B345AB15DCD65697B9360C570C2998E1B23142D01409D64CD688376539EE943FF10BA0A8027456CB2500AF4A863217E84514184F85FF3AE3040B02C218A157A7C3986442DCB90AB1841C4B47
310
18C3E18BFA905E5F130C15390C00B0A20140E76FAF7E8001803701209C2AE669A70C005B0EBEAA1771980FD0DB1B0A05FC893980543DA100DE4903A0A601C6A6950880951F6CB3ACB8FB7C271F209B80114405B346316EA300DCA1884CA7DED409C64E4F8C8E3D2B3C4DF9D11ED42813785DC748B86EC9049206908868AAE4
310
732145E8098577CB26BB6385BBFB05FCB85521F6B2971F4BAD2F007813D0472B428F00A02BFECAE5F8152728F5F2814A61D15BF980DA996626B003201C7A3A17B8C107E88D8A1D3402880D466F3ABC67026C9418101985E97CD7F40D5AB17C91ABD5040669C0CE28B1A10000B67201A20199095CEC031A4789C900A017801D
310
1CA4845EDFA9A8E8211FA774A90FBCA963C4EA3431ECED99D3B609304A902EFDB6FC470835CC193A5E16D7FBE363516145F3A6323132AC42F2D4920DA2AE5516A5C1DFBB71C061005A370C904067DB9B0068CB6FEDA515C05E5B9E79D83B00142B58C996E064B7A0FC5962BB5A036065D1D3BCE47271CF503B80BCC7CB7806
310
D3610418AF3B19D07144033600F0E9F13739C150E5320364E897D8FAB7423F8AC1FD9A390AB9605779766E029571343D93A6CAA939420C60474A190474B886520680F3F20E003DC406D0D8A6016C4D1A69BC30E63E80CDEB236B66F402881305E68A1D19D956E18827B41A106B1FAE3B806B49130284431A30AC6364DED07F
310
FFDB668C0091C8751728121D38F9156669149E0700451FE4E5C9D05CCD03431E6CC5B302C64BC27ACD272F7F3EA6416D23909B4171D870EBE4E9BE7AC02C5F7DE525C2287F7C5E3562726A61F778FD2FA71E9B6FC0EB003415448ED7038A09534EA54335C8696A90DB3F00DBE3FE13A6DEA13BF49A56604C41249F34E70C5A
310
01C9A842690CA8260415890FC612FEA4710DC179940389E900313E4E1ACB4911837C006F4F9DF02AADC7A5BC09A8861358ADE20F6BB6549B12C001486B75D138A0AAEDFD3E009365FB8B5C8EB6C4DCBD21B045ABA2B64B00BC41117BA90090E383F833DC0788ABC87402609EAD98B1105A01D5A0721500BEF148C6F3281FB0
310
A7D658E85B1973C57D35001142610245E05E29340CF401324429D22C5434DF075B0040F8298452D62A00960B40889EF1021FC0CF0E451FC0BF5E74CF5D00BAEA01B549052300280A800E8570A3E5D2D9F501389A0DB21972500E97A7C1D8000D60F861E215D8F5E9AF430342DBBF1F098EF001D33C85CD8E475A9F7D6CEF37
310
9C26360430EEC7F4384D2B0B7B9801403E9C6FF48D0E00B419F43E80BB273C6D0273A901180303B5A701CA6A40DE3574A90F48424933464E039825002E08F249CDB609A8BF09F39C78900FC8D6F46C01007D1A90BE366980D789C945374C03FCAED65AB010096E3583971745250020B528BC0D021980F501E03A8837579E6C
310
0500D704427B00C83697D56E1EFC9B5120E86BC4AE4723247ABE1924E5131A6267E9D0D9A22854678D756980CFF1FD9A15BC842302705758E71A403AC9E5CC215695C4A48A4C0440CC123E09005C0540A5CACF9CAD589D08F061902A4FA1D999AAAC8B3C2D7CA9A0282EF3981B2A9633D207CCE487E604B7001007BE00B3F1
310
242BE91751955BA1044B1300C03E80413E608ED58C541667B3FF421F7918F8C6D6EF20B2B2017258484FC49B1FE50366B1A34CA511E0B11F40816402B44E9C7AC6A01C4E207547895D634D45517959DDEB00A4C290F640BC2BD7DE65BA0268A871D845765C59340DABAC4603DD0086748CCCF59E423F679455C9759C160271
310
4581150B907E136B165BDD012D00E035C9D0360023914EA140DB0AFB886A6FD2D0153EE0C0F880130056041A9566F3E0CABC9BEF4D03259B34405C298094C92F1820710A0068656703C69F4BB32B5398E8E70E87B868B753781B00D60748ECDD6C6D08000866EF82591DDA4C304B6878303A268D4DA302E6BE74F8061F1009
310
C431224E1D20AD1C6383488D52717F840F60992F40B69658368BF13080790B407CE94128A3015EEF75D3656CF5012D2650594A0B3A3A471B340034144ED09A00163E10CE03C076008082065CBD965858522C2D21149F75BE138F033854121BD033B43F4C2A1BEFA9A5DD0787C376FA80410B2A1E0340FF992E0070AC244684
310
3A900C7D2C002856951D024056760D04C0D101E1DDCDE02D3E60288023DB5D3EC08BA7EF07D05B0F38EB03B48E8FFC698A6FE97700007D00FC625805004DDF7A15800145D1260D88730AD374481720BE16C0A01B2CF49B00BCD604FA95E61C8001DB0FC00FC02700383125F04334E06300F46E668649E7760B00FC5A1FF029
310
F71EFF01F801F801F801787300CB82576E4BDA369735780E005C119C3C0B22F442BE28EC126F52F92400EBA9A6BB07D6026C722F232FF4FA1F13BA5A0BD1FCC82702D09B00A495FC96EDC5488A550CA8813C1480393114D5BB5C8E54132ED05C0D73DFF6480D88EEB066D31D5F4A0A7681D2434DA074E1A257AF797C797F09
310
803BC8476A40E9B3E8492FD451109B61FB21ED8F355AFF7D8F6E0598DAEBCA4AAE4110844510DAED5FC8A287CCF01F1D08659A5C5B45C8EF77C79263E8FEB8846B4DFA1C003C440388C68BBE1D9917378FBAB23F3FBEB322749B0F088D5E76E6482EA6FB5F2FF2FEF2FFF702903480B9C1F2EAEA8DABCEF73F1D8033DD30DD
310
C6FA31DA9EAD0FBA9ADA48BBED473633ACC76940B87B94BF89127F5AC2AD959AA22273DCDE91CF04A06B00D8BDA57663C31518C623DFC504B8362FC22BF4C2847C7009B921A40E79DF2A90DB9EBC8D136411EA820B7F455FB27430BFC9710900E8714F368125F800084A1FDA311BD2423481CAAD9DF51600BD0DE019A1B068
310
FCE0627A7B0D330050BD674709005201E1B1B980DC0A2C91CEA2B74F8F264D0C4071D48393A1A530FE94044170ED7B148CD16C4AB26C14446EDF968D57B8B456845B0E12017CDDF603F003E000EC4EDEFFD837B240E81B75E007E01F7EF7F6DFFFC74965CB58BC5AB50000000049454E44AE426082
  0
ENDSEC
  0
EOF
