  0
SECTION
  2
HEADER
  9
$ACADVER
  1
AC1027
  9
$ACADMAINTVER
 70
    57
  9
$DWGCODEPAGE
  3
ANSI_932
  9
$LASTSAVEDBY
  1
kashikeiQC
  9
$REQUIREDVERSIONS
160
                 0
  9
$INSBASE
 10
0.0
 20
0.0
 30
0.0
  9
$EXTMIN
 10
5.0
 20
0.0
 30
-0.000000000000001
  9
$EXTMAX
 10
425.0
 20
297.0
 30
0.0000000000000008
  9
$LIMMIN
 10
0.0
 20
0.0
  9
$LIMMAX
 10
420.0
 20
297.0
  9
$ORTHOMODE
 70
     0
  9
$REGENMODE
 70
     1
  9
$FILLMODE
 70
     1
  9
$QTEXTMODE
 70
     0
  9
$MIRRTEXT
 70
     1
  9
$LTSCALE
 40
0.3
  9
$ATTMODE
 70
     1
  9
$TEXTSIZE
 40
2.5
  9
$TRACEWID
 40
1.0
  9
$TEXTSTYLE
  7
Standard
  9
$CLAYER
  8
寸法
  9
$CELTYPE
  6
ByLayer
  9
$CECOLOR
 62
   256
  9
$CELTSCALE
 40
1.0
  9
$DISPSILH
 70
     0
  9
$DIMSCALE
 40
1.0
  9
$DIMASZ
 40
2.5
  9
$DIMEXO
 40
0.625
  9
$DIMDLI
 40
3.75
  9
$DIMRND
 40
0.0
  9
$DIMDLE
 40
0.0
  9
$DIMEXE
 40
1.25
  9
$DIMTP
 40
0.0
  9
$DIMTM
 40
0.0
  9
$DIMTXT
 40
3.5
  9
$DIMCEN
 40
2.5
  9
$DIMTSZ
 40
0.0
  9
$DIMTOL
 70
     0
  9
$DIMLIM
 70
     0
  9
$DIMTIH
 70
     0
  9
$DIMTOH
 70
     0
  9
$DIMSE1
 70
     0
  9
$DIMSE2
 70
     0
  9
$DIMTAD
 70
     1
  9
$DIMZIN
 70
     8
  9
$DIMBLK
  1

  9
$DIMASO
 70
     1
  9
$DIMSHO
 70
     1
  9
$DIMPOST
  1

  9
$DIMAPOST
  1

  9
$DIMALT
 70
     0
  9
$DIMALTD
 70
     3
  9
$DIMALTF
 40
0.03937007874016
  9
$DIMLFAC
 40
1.0
  9
$DIMTOFL
 70
     1
  9
$DIMTVP
 40
0.0
  9
$DIMTIX
 70
     0
  9
$DIMSOXD
 70
     0
  9
$DIMSAH
 70
     0
  9
$DIMBLK1
  1

  9
$DIMBLK2
  1

  9
$DIMSTYLE
  2
ｺﾋﾟｰ - ISO-25
  9
$DIMCLRD
 70
     0
  9
$DIMCLRE
 70
     0
  9
$DIMCLRT
 70
     2
  9
$DIMTFAC
 40
1.0
  9
$DIMGAP
 40
1.0
  9
$DIMJUST
 70
     0
  9
$DIMSD1
 70
     0
  9
$DIMSD2
 70
     0
  9
$DIMTOLJ
 70
     0
  9
$DIMTZIN
 70
     8
  9
$DIMALTZ
 70
     0
  9
$DIMALTTZ
 70
     0
  9
$DIMUPT
 70
     0
  9
$DIMDEC
 70
     1
  9
$DIMTDEC
 70
     1
  9
$DIMALTU
 70
     2
  9
$DIMALTTD
 70
     3
  9
$DIMTXSTY
  7
寸法
  9
$DIMAUNIT
 70
     0
  9
$DIMADEC
 70
     0
  9
$DIMALTRND
 40
0.0
  9
$DIMAZIN
 70
     0
  9
$DIMDSEP
 70
    46
  9
$DIMATFIT
 70
     3
  9
$DIMFRAC
 70
     0
  9
$DIMLDRBLK
  1

  9
$DIMLUNIT
 70
     2
  9
$DIMLWD
 70
    -2
  9
$DIMLWE
 70
    -2
  9
$DIMTMOVE
 70
     0
  9
$DIMFXL
 40
1.0
  9
$DIMFXLON
 70
     0
  9
$DIMJOGANG
 40
0.7853981633974483
  9
$DIMTFILL
 70
     0
  9
$DIMTFILLCLR
 70
     0
  9
$DIMARCSYM
 70
     0
  9
$DIMLTYPE
  6

  9
$DIMLTEX1
  6

  9
$DIMLTEX2
  6

  9
$DIMTXTDIRECTION
 70
     0
  9
$LUNITS
 70
     2
  9
$LUPREC
 70
     4
  9
$SKETCHINC
 40
1.0
  9
$FILLETRAD
 40
1.0
  9
$AUNITS
 70
     0
  9
$AUPREC
 70
     0
  9
$MENU
  1
.
  9
$ELEVATION
 40
0.0
  9
$PELEVATION
 40
0.0
  9
$THICKNESS
 40
0.0
  9
$LIMCHECK
 70
     0
  9
$CHAMFERA
 40
0.0
  9
$CHAMFERB
 40
0.0
  9
$CHAMFERC
 40
20.0
  9
$CHAMFERD
 40
0.0
  9
$SKPOLY
 70
     0
  9
$TDCREATE
 40
2452970.700528056
  9
$TDUCREATE
 40
2452970.325528056
  9
$TDUPDATE
 40
2458814.715453577
  9
$TDUUPDATE
 40
2458814.340453577
  9
$TDINDWG
 40
1.8934400116
  9
$TDUSRTIMER
 40
1.8934390741
  9
$USRTIMER
 70
     1
  9
$ANGBASE
 50
0.0
  9
$ANGDIR
 70
     0
  9
$PDMODE
 70
     3
  9
$PDSIZE
 40
-3.0
  9
$PLINEWID
 40
0.0
  9
$SPLFRAME
 70
     0
  9
$SPLINETYPE
 70
     6
  9
$SPLINESEGS
 70
     8
  9
$HANDSEED
  5
2BD3C
  9
$SURFTAB1
 70
     6
  9
$SURFTAB2
 70
     6
  9
$SURFTYPE
 70
     6
  9
$SURFU
 70
     6
  9
$SURFV
 70
     6
  9
$UCSBASE
  2

  9
$UCSNAME
  2

  9
$UCSORG
 10
0.0
 20
0.0
 30
0.0
  9
$UCSXDIR
 10
1.0
 20
0.0
 30
0.0
  9
$UCSYDIR
 10
0.0
 20
1.0
 30
0.0
  9
$UCSORTHOREF
  2

  9
$UCSORTHOVIEW
 70
     0
  9
$UCSORGTOP
 10
0.0
 20
0.0
 30
0.0
  9
$UCSORGBOTTOM
 10
0.0
 20
0.0
 30
0.0
  9
$UCSORGLEFT
 10
0.0
 20
0.0
 30
0.0
  9
$UCSORGRIGHT
 10
0.0
 20
0.0
 30
0.0
  9
$UCSORGFRONT
 10
0.0
 20
0.0
 30
0.0
  9
$UCSORGBACK
 10
0.0
 20
0.0
 30
0.0
  9
$PUCSBASE
  2

  9
$PUCSNAME
  2

  9
$PUCSORG
 10
0.0
 20
0.0
 30
0.0
  9
$PUCSXDIR
 10
1.0
 20
0.0
 30
0.0
  9
$PUCSYDIR
 10
0.0
 20
1.0
 30
0.0
  9
$PUCSORTHOREF
  2

  9
$PUCSORTHOVIEW
 70
     0
  9
$PUCSORGTOP
 10
0.0
 20
0.0
 30
0.0
  9
$PUCSORGBOTTOM
 10
0.0
 20
0.0
 30
0.0
  9
$PUCSORGLEFT
 10
0.0
 20
0.0
 30
0.0
  9
$PUCSORGRIGHT
 10
0.0
 20
0.0
 30
0.0
  9
$PUCSORGFRONT
 10
0.0
 20
0.0
 30
0.0
  9
$PUCSORGBACK
 10
0.0
 20
0.0
 30
0.0
  9
$USERI1
 70
     0
  9
$USERI2
 70
     0
  9
$USERI3
 70
     0
  9
$USERI4
 70
     0
  9
$USERI5
 70
     0
  9
$USERR1
 40
0.0
  9
$USERR2
 40
0.0
  9
$USERR3
 40
0.0
  9
$USERR4
 40
0.0
  9
$USERR5
 40
0.0
  9
$WORLDVIEW
 70
     1
  9
$SHADEDGE
 70
     3
  9
$SHADEDIF
 70
    70
  9
$TILEMODE
 70
     1
  9
$MAXACTVP
 70
    64
  9
$PINSBASE
 10
0.0
 20
0.0
 30
0.0
  9
$PLIMCHECK
 70
     0
  9
$PEXTMIN
 10
-58.82240024691737
 20
-86.72323328256494
 30
0.0
  9
$PEXTMAX
 10
448.1718497119468
 20
324.5569721112054
 30
0.0
  9
$PLIMMIN
 10
-3.757080078125
 20
-3.757083415985107
  9
$PLIMMAX
 10
416.2601318359374
 20
293.2112393379211
  9
$UNITMODE
 70
     0
  9
$VISRETAIN
 70
     1
  9
$PLINEGEN
 70
     0
  9
$PSLTSCALE
 70
     1
  9
$TREEDEPTH
 70
  3020
  9
$CMLSTYLE
  2
Standard
  9
$CMLJUST
 70
     0
  9
$CMLSCALE
 40
20.0
  9
$PROXYGRAPHICS
 70
     1
  9
$MEASUREMENT
 70
     1
  9
$CELWEIGHT
370
    -1
  9
$ENDCAPS
280
     0
  9
$JOINSTYLE
280
     0
  9
$LWDISPLAY
290
     0
  9
$INSUNITS
 70
     4
  9
$HYPERLINKBASE
  1

  9
$STYLESHEET
  1
monochrome.ctb
  9
$XEDIT
290
     1
  9
$CEPSNTYPE
380
     0
  9
$PSTYLEMODE
290
     1
  9
$FINGERPRINTGUID
  2
{FDEAD578-A652-11D2-9A35-0060089B3A3F}
  9
$VERSIONGUID
  2
{14F66924-C752-4ACC-A806-A431A29B592B}
  9
$EXTNAMES
290
     1
  9
$PSVPSCALE
 40
0.0
  9
$OLESTARTUP
290
     0
  9
$SORTENTS
280
   127
  9
$INDEXCTL
280
     0
  9
$HIDETEXT
280
     1
  9
$XCLIPFRAME
280
     0
  9
$HALOGAP
280
     0
  9
$OBSCOLOR
 70
   257
  9
$OBSLTYPE
280
     0
  9
$INTERSECTIONDISPLAY
280
     0
  9
$INTERSECTIONCOLOR
 70
   257
  9
$DIMASSOC
280
     2
  9
$PROJECTNAME
  1

  9
$CAMERADISPLAY
290
     0
  9
$LENSLENGTH
 40
50.0
  9
$CAMERAHEIGHT
 40
0.0
  9
$STEPSPERSEC
 40
2.0
  9
$STEPSIZE
 40
6.0
  9
$3DDWFPREC
 40
2.0
  9
$PSOLWIDTH
 40
0.25
  9
$PSOLHEIGHT
 40
4.0
  9
$LOFTANG1
 40
1.570796326794896
  9
$LOFTANG2
 40
1.570796326794896
  9
$LOFTMAG1
 40
0.0
  9
$LOFTMAG2
 40
0.0
  9
$LOFTPARAM
 70
     7
  9
$LOFTNORMALS
280
     1
  9
$LATITUDE
 40
37.795
  9
$LONGITUDE
 40
-122.394
  9
$NORTHDIRECTION
 40
0.0
  9
$TIMEZONE
 70
 -8000
  9
$LIGHTGLYPHDISPLAY
280
     1
  9
$TILEMODELIGHTSYNCH
280
     1
  9
$CMATERIAL
347
2762
  9
$SOLIDHIST
280
     1
  9
$SHOWHIST
280
     1
  9
$DWFFRAME
280
     2
  9
$DGNFRAME
280
     0
  9
$REALWORLDSCALE
290
     1
  9
$INTERFERECOLOR
 62
     1
  9
$INTERFEREOBJVS
345
276F
  9
$INTERFEREVPVS
346
276C
  9
$CSHADOW
280
     0
  9
$SHADOWPLANELOCATION
 40
0.0
  0
ENDSEC
  0
SECTION
  2
CLASSES
  0
CLASS
  1
ACDBDICTIONARYWDFLT
  2
AcDbDictionaryWithDefault
  3
ObjectDBX Classes
 90
        0
 91
        1
280
     0
281
     0
  0
CLASS
  1
DICTIONARYVAR
  2
AcDbDictionaryVar
  3
ObjectDBX Classes
 90
        0
 91
       11
280
     0
281
     0
  0
CLASS
  1
DIMASSOC
  2
AcDbDimAssoc
  3
"AcDbDimAssoc|Product Desc:     AcDim ARX App For Dimension|Company:          Autodesk, Inc.|WEB Address:      www.autodesk.com"
 90
        0
 91
        4
280
     0
281
     0
  0
CLASS
  1
PLOTSETTINGS
  2
AcDbPlotSettings
  3
ObjectDBX Classes
 90
        0
 91
        2
280
     0
281
     0
  0
CLASS
  1
MATERIAL
  2
AcDbMaterial
  3
ObjectDBX Classes
 90
     1153
 91
        3
280
     0
281
     0
  0
CLASS
  1
VISUALSTYLE
  2
AcDbVisualStyle
  3
ObjectDBX Classes
 90
     4095
 91
       26
280
     0
281
     0
  0
CLASS
  1
TABLESTYLE
  2
AcDbTableStyle
  3
ObjectDBX Classes
 90
     4095
 91
        2
280
     0
281
     0
  0
CLASS
  1
SORTENTSTABLE
  2
AcDbSortentsTable
  3
ObjectDBX Classes
 90
        0
 91
        2
280
     0
281
     0
  0
CLASS
  1
ACAD_EVALUATION_GRAPH
  2
AcDbEvalGraph
  3
ObjectDBX Classes
 90
     1153
 91
        0
280
     0
281
     0
  0
CLASS
  1
ACAECUSTOBJ
  2
AcAeEditorObj
  3
AcAeEditorObj
 90
     1024
 91
        0
280
     0
281
     0
  0
CLASS
  1
ACDB_DYNAMICBLOCKPURGEPREVENTER_VERSION
  2
AcDbDynamicBlockPurgePreventer
  3
ObjectDBX Classes
 90
     1153
 91
        0
280
     0
281
     0
  0
CLASS
  1
ACAD_TABLE
  2
AcDbTable
  3
ObjectDBX Classes
 90
     1025
 91
        0
280
     0
281
     1
  0
CLASS
  1
SCALE
  2
AcDbScale
  3
ObjectDBX Classes
 90
     1153
 91
       17
280
     0
281
     0
  0
CLASS
  1
MLEADERSTYLE
  2
AcDbMLeaderStyle
  3
ACDB_MLEADERSTYLE_CLASS
 90
     4095
 91
        1
280
     0
281
     0
  0
CLASS
  1
TABLECONTENT
  2
AcDbTableContent
  3
ObjectDBX Classes
 90
     1152
 91
        0
280
     0
281
     0
  0
CLASS
  1
TABLEGEOMETRY
  2
AcDbTableGeometry
  3
ObjectDBX Classes
 90
     1152
 91
        0
280
     0
281
     0
  0
CLASS
  1
ACDBSECTIONVIEWSTYLE
  2
AcDbSectionViewStyle
  3
ObjectDBX Classes
 90
     1025
 91
        1
280
     0
281
     0
  0
CLASS
  1
ACDBDETAILVIEWSTYLE
  2
AcDbDetailViewStyle
  3
ObjectDBX Classes
 90
     1025
 91
        1
280
     0
281
     0
  0
CLASS
  1
CELLSTYLEMAP
  2
AcDbCellStyleMap
  3
ObjectDBX Classes
 90
     1152
 91
        2
280
     0
281
     0
  0
ENDSEC
  0
SECTION
  2
TABLES
  0
TABLE
  2
VPORT
  5
8
330
0
100
AcDbSymbolTable
 70
     1
  0
VPORT
  5
275F
330
8
100
AcDbSymbolTableRecord
100
AcDbViewportTableRecord
  2
*Active
 70
     0
 10
0.0
 20
0.0
 11
1.0
 21
1.0
 12
219.5737363944017
 22
148.5000053595538
 13
0.0
 23
0.0
 14
10.0
 24
10.0
 15
10.0
 25
10.0
 16
0.0
 26
0.0
 36
1.0
 17
0.0
 27
0.0
 37
0.0
 40
260.9319195601542
 41
2.367088607594936
 42
50.0
 43
0.0
 44
0.0
 50
0.0
 51
0.0
 71
     0
 72
   100
 73
     1
 74
     3
 75
     0
 76
     0
 77
     0
 78
     0
281
     0
 65
     1
110
0.0
120
0.0
130
0.0
111
1.0
121
0.0
131
0.0
112
0.0
122
1.0
132
0.0
 79
     0
146
0.0
348
276B
 60
     3
 61
     5
292
     1
282
     1
141
0.0
142
0.0
 63
   250
421
  3355443
1001
ACAD_NAV_VCDISPLAY
1070
     3
  0
ENDTAB
  0
TABLE
  2
LTYPE
  5
5
330
0
100
AcDbSymbolTable
 70
     4
  0
LTYPE
  5
14
330
5
100
AcDbSymbolTableRecord
100
AcDbLinetypeTableRecord
  2
ByBlock
 70
     0
  3

 72
    65
 73
     0
 40
0.0
  0
LTYPE
  5
15
330
5
100
AcDbSymbolTableRecord
100
AcDbLinetypeTableRecord
  2
ByLayer
 70
     0
  3

 72
    65
 73
     0
 40
0.0
  0
LTYPE
  5
16
330
5
100
AcDbSymbolTableRecord
100
AcDbLinetypeTableRecord
  2
Continuous
 70
     0
  3
Solid line
 72
    65
 73
     0
 40
0.0
  0
LTYPE
  5
A5
330
5
100
AcDbSymbolTableRecord
100
AcDbLinetypeTableRecord
  2
CENTER
 70
     0
  3
Center ____ _ ____ _ ____ _ ____ _ ____ _ ____
 72
    65
 73
     4
 40
50.8
 49
31.75
 74
     0
 49
-6.349999999999998
 74
     0
 49
6.349999999999998
 74
     0
 49
-6.349999999999998
 74
     0
  0
LTYPE
  5
A6
330
5
100
AcDbSymbolTableRecord
100
AcDbLinetypeTableRecord
  2
HIDDEN
 70
     0
  3
Hidden __ __ __ __ __ __ __ __ __ __ __ __ __ _
 72
    65
 73
     2
 40
9.524999999999996
 49
6.349999999999998
 74
     0
 49
-3.174999999999998
 74
     0
  0
LTYPE
  5
2365
330
5
100
AcDbSymbolTableRecord
100
AcDbLinetypeTableRecord
  2
DIVIDE
 70
     0
  3
Divide ____ . . ____ . . ____ . . ____ . . ____
 72
    65
 73
     6
 40
31.74999999999999
 49
12.7
 74
     0
 49
-6.349999999999998
 74
     0
 49
0.0
 74
     0
 49
-6.349999999999998
 74
     0
 49
0.0
 74
     0
 49
-6.349999999999998
 74
     0
  0
ENDTAB
  0
TABLE
  2
LAYER
  5
2
102
{ACAD_XDICTIONARY
360
279F
102
}
330
0
100
AcDbSymbolTable
 70
    11
  0
LAYER
  5
10
102
{ACAD_XDICTIONARY
360
24E13
102
}
330
2
100
AcDbSymbolTableRecord
100
AcDbLayerTableRecord
  2
0
 70
     0
 62
     7
  6
Continuous
370
    -3
390
F
347
2764
348
0
  0
LAYER
  5
A7
102
{ACAD_XDICTIONARY
360
24E15
102
}
330
2
100
AcDbSymbolTableRecord
100
AcDbLayerTableRecord
  2
破線
 70
     0
 62
     4
  6
HIDDEN
370
    20
390
F
347
2764
348
0
  0
LAYER
  5
A8
102
{ACAD_XDICTIONARY
360
24E17
102
}
330
2
100
AcDbSymbolTableRecord
100
AcDbLayerTableRecord
  2
一点鎖線
 70
     0
 62
     5
  6
CENTER
370
    15
390
F
347
2764
348
0
  0
LAYER
  5
A9
102
{ACAD_XDICTIONARY
360
24E19
102
}
330
2
100
AcDbSymbolTableRecord
100
AcDbLayerTableRecord
  2
補助線
 70
     0
 62
     8
  6
Continuous
290
     0
370
    -3
390
F
347
2764
348
0
  0
LAYER
  5
AA
102
{ACAD_XDICTIONARY
360
24E1B
102
}
330
2
100
AcDbSymbolTableRecord
100
AcDbLayerTableRecord
  2
実線
 70
     0
 62
     7
  6
Continuous
370
    -3
390
F
347
2764
348
0
  0
LAYER
  5
AB
102
{ACAD_XDICTIONARY
360
24E1D
102
}
330
2
100
AcDbSymbolTableRecord
100
AcDbLayerTableRecord
  2
寸法
 70
     0
 62
     3
  6
Continuous
370
    15
390
F
347
2764
348
0
  0
LAYER
  5
AC
102
{ACAD_XDICTIONARY
360
24E1F
102
}
330
2
100
AcDbSymbolTableRecord
100
AcDbLayerTableRecord
  2
文字
 70
     0
 62
     2
  6
Continuous
370
    15
390
F
347
2764
348
0
  0
LAYER
  5
185
330
2
100
AcDbSymbolTableRecord
100
AcDbLayerTableRecord
  2
Defpoints
 70
     0
 62
     7
  6
Continuous
290
     0
370
    -3
390
F
347
2764
348
0
  0
LAYER
  5
58C
102
{ACAD_XDICTIONARY
360
24E21
102
}
330
2
100
AcDbSymbolTableRecord
100
AcDbLayerTableRecord
  2
細線
 70
     0
 62
     6
  6
Continuous
370
     9
390
F
347
2764
348
0
  0
LAYER
  5
1023
102
{ACAD_XDICTIONARY
360
24E23
102
}
330
2
100
AcDbSymbolTableRecord
100
AcDbLayerTableRecord
  2
太線
 70
     0
 62
     3
  6
Continuous
370
    40
390
F
347
2764
348
0
  0
LAYER
  5
2366
102
{ACAD_XDICTIONARY
360
24E25
102
}
330
2
100
AcDbSymbolTableRecord
100
AcDbLayerTableRecord
  2
二点鎖線
 70
     0
 62
     1
  6
DIVIDE
370
    20
390
F
347
2764
348
0
  0
ENDTAB
  0
TABLE
  2
STYLE
  5
3
330
0
100
AcDbSymbolTable
 70
    17
  0
STYLE
  5
11
330
3
100
AcDbSymbolTableRecord
100
AcDbTextStyleTableRecord
  2
Standard
 70
     0
 40
2.5
 41
0.8
 50
0.0
 71
     0
 42
2.5
  3
romans.shx
  4
bigfont.shx
  0
STYLE
  5
A4
330
3
100
AcDbSymbolTableRecord
100
AcDbTextStyleTableRecord
  2

 70
     1
 40
0.0
 41
1.0
 50
0.0
 71
     0
 42
2.5
  3
ltypeshp.shx
  4

  0
STYLE
  5
2A5
330
3
100
AcDbSymbolTableRecord
100
AcDbTextStyleTableRecord
  2
寸法
 70
     0
 40
0.0
 41
0.75
 50
0.0
 71
     0
 42
2.5
  3
romans.shx
  4
bigfont.shx
  0
STYLE
  5
109D
330
3
100
AcDbSymbolTableRecord
100
AcDbTextStyleTableRecord
  2
縦書き
 70
     4
 40
3.0
 41
0.8
 50
0.0
 71
     0
 42
3.0
  3
romans.shx
  4
bigfont.shx
  0
STYLE
  5
10EC
330
3
100
AcDbSymbolTableRecord
100
AcDbTextStyleTableRecord
  2
ｽﾀｲﾙ1
 70
     0
 40
3.0
 41
0.8
 50
0.0
 71
     0
 42
3.0
  3
romans.shx
  4
bigfont.shx
  0
STYLE
  5
114D
330
3
100
AcDbSymbolTableRecord
100
AcDbTextStyleTableRecord
  2
ｽﾀｲﾙ2
 70
     0
 40
9.0
 41
1.0
 50
0.0
 71
     0
 42
9.0
  3
swisscbo.ttf
  4

1001
ACAD
1000
Swis721 BdCnOul BT
1071
       82
  0
STYLE
  5
2367
330
3
100
AcDbSymbolTableRecord
100
AcDbTextStyleTableRecord
  2
ｽﾀｲﾙ3
 70
     0
 40
2.0
 41
1.0
 50
0.0
 71
     0
 42
2.0
  3
isocp.shx
  4
bigfont.shx
  0
STYLE
  5
2368
330
3
100
AcDbSymbolTableRecord
100
AcDbTextStyleTableRecord
  2
ｽﾀｲﾙ4
 70
     0
 40
4.5
 41
1.0
 50
0.0
 71
     0
 42
4.5
  3
swisscbo.ttf
  4

1001
ACAD
1000
Swis721 BdCnOul BT
1071
       82
  0
STYLE
  5
3AB5
330
3
100
AcDbSymbolTableRecord
100
AcDbTextStyleTableRecord
  2
スタイル1
 70
     0
 40
3.0
 41
0.8
 50
0.0
 71
     0
 42
3.0
  3
romans.shx
  4
bigfont.shx
  0
STYLE
  5
3E4F
330
3
100
AcDbSymbolTableRecord
100
AcDbTextStyleTableRecord
  2
hhhhhhhhhhhhhhhhhh
 70
     0
 40
1.5
 41
0.8
 50
0.0
 71
     0
 42
1.0
  3
bold.shx
  4
bigfont.shx
  0
STYLE
  5
3E50
330
3
100
AcDbSymbolTableRecord
100
AcDbTextStyleTableRecord
  2
書き込み
 70
     0
 40
2.5
 41
0.75
 50
0.0
 71
     0
 42
1.0
  3
romand.shx
  4
bigfont.shx
  0
STYLE
  5
24822
330
3
100
AcDbSymbolTableRecord
100
AcDbTextStyleTableRecord
  2
ﾛｺﾞ
 70
     0
 40
14.0
 41
0.7
 50
0.0
 71
     0
 42
2.5
  3
swisscbo.ttf
  4

1001
ACAD
1000
Swis721 BdCnOul BT
1071
       82
  0
STYLE
  5
264FC
330
3
100
AcDbSymbolTableRecord
100
AcDbTextStyleTableRecord
  2
寸法２
 70
     0
 40
1.8
 41
0.8
 50
0.0
 71
     0
 42
1.8
  3
romans.shx
  4
bigfont.shx
  0
STYLE
  5
264FD
330
3
100
AcDbSymbolTableRecord
100
AcDbTextStyleTableRecord
  2
カシケイ
 70
     0
 40
3.0
 41
0.8
 50
0.0
 71
     0
 42
2.5
  3
swisscbo.ttf
  4

1001
ACAD
1000
Swis721 BdCnOul BT
1071
       82
  0
STYLE
  5
29418
330
3
100
AcDbSymbolTableRecord
100
AcDbTextStyleTableRecord
  2
スタイル6
 70
     0
 40
3.0
 41
1.0
 50
0.0
 71
     0
 42
3.0
  3
swissc.ttf
  4

1001
ACAD
1000
Swis721 Cn BT
1071
       34
  0
STYLE
  5
29419
330
3
100
AcDbSymbolTableRecord
100
AcDbTextStyleTableRecord
  2
スタイル3
 70
     0
 40
9.0
 41
1.0
 50
0.0
 71
     0
 42
2.5
  3
swisscbo.ttf
  4

1001
ACAD
1000
Swis721 BdCnOul BT
1071
       82
  0
STYLE
  5
2A7F0
330
3
100
AcDbSymbolTableRecord
100
AcDbTextStyleTableRecord
  2
BIGFONT
 70
     0
 40
0.0
 41
1.0
 50
0.0
 71
     0
 42
20.0
  3
txt.shx
  4
bigfont
  0
ENDTAB
  0
TABLE
  2
VIEW
  5
6
330
0
100
AcDbSymbolTable
 70
     0
  0
ENDTAB
  0
TABLE
  2
UCS
  5
7
330
0
100
AcDbSymbolTable
 70
     0
  0
ENDTAB
  0
TABLE
  2
APPID
  5
9
330
0
100
AcDbSymbolTable
 70
    12
  0
APPID
  5
12
330
9
100
AcDbSymbolTableRecord
100
AcDbRegAppTableRecord
  2
ACAD
 70
     0
  0
APPID
  5
2789
330
9
100
AcDbSymbolTableRecord
100
AcDbRegAppTableRecord
  2
ACAD_PSEXT
 70
     0
  0
APPID
  5
28B6
330
9
100
AcDbSymbolTableRecord
100
AcDbRegAppTableRecord
  2
ACAD_EXEMPT_FROM_CAD_STANDARDS
 70
     0
  0
APPID
  5
2977
330
9
100
AcDbSymbolTableRecord
100
AcDbRegAppTableRecord
  2
ACAUTHENVIRON
 70
     0
  0
APPID
  5
29B0
330
9
100
AcDbSymbolTableRecord
100
AcDbRegAppTableRecord
  2
AcDbDynamicBlockTrueName
 70
     0
  0
APPID
  5
29B1
330
9
100
AcDbSymbolTableRecord
100
AcDbRegAppTableRecord
  2
AcDbDynamicBlockGUID
 70
     0
  0
APPID
  5
29B3
330
9
100
AcDbSymbolTableRecord
100
AcDbRegAppTableRecord
  2
AcDbBlockRepETag
 70
     0
  0
APPID
  5
24823
330
9
100
AcDbSymbolTableRecord
100
AcDbRegAppTableRecord
  2
ACAD_DSTYLE_DIMJAG
 70
     0
  0
APPID
  5
24824
330
9
100
AcDbSymbolTableRecord
100
AcDbRegAppTableRecord
  2
ACAD_DSTYLE_DIMTALN
 70
     0
  0
APPID
  5
2867E
330
9
100
AcDbSymbolTableRecord
100
AcDbRegAppTableRecord
  2
ACAD_DSTYLE_DIMRADIAL_EXTENSION
 70
     0
  0
APPID
  5
2A28D
330
9
100
AcDbSymbolTableRecord
100
AcDbRegAppTableRecord
  2
AcadAnnoPO
 70
     0
  0
APPID
  5
2BD32
330
9
100
AcDbSymbolTableRecord
100
AcDbRegAppTableRecord
  2
ACAD_NAV_VCDISPLAY
 70
     0
  0
ENDTAB
  0
TABLE
  2
DIMSTYLE
  5
A
330
0
100
AcDbSymbolTable
 70
     2
100
AcDbDimStyleTable
 71
     2
340
FF
340
27
  0
DIMSTYLE
105
27
330
A
100
AcDbSymbolTableRecord
100
AcDbDimStyleTableRecord
  2
ISO-25
 70
     0
 41
2.5
 42
0.625
 43
3.75
 44
1.25
 73
     0
 74
     0
 77
     1
 78
     8
140
2.5
141
2.5
143
0.03937007874016
147
0.625
171
     3
172
     1
271
     2
272
     2
274
     3
278
    44
283
     0
284
     8
340
11
  0
DIMSTYLE
105
FF
102
{ACAD_REACTORS
330
2BAFC
330
2BB26
330
2BB3E
330
2BB6D
102
}
330
A
100
AcDbSymbolTableRecord
100
AcDbDimStyleTableRecord
  2
ｺﾋﾟｰ - ISO-25
 70
     0
 41
2.5
 42
0.625
 43
3.75
 44
1.25
 73
     0
 74
     0
 77
     1
 78
     8
140
3.5
141
2.5
143
0.03937007874016
147
1.0
171
     3
172
     1
178
     2
271
     1
272
     1
274
     3
283
     0
284
     8
340
2A5
1001
ACAD_DSTYLE_DIMJAG
1070
   388
1040
1.5
1001
ACAD_DSTYLE_DIMTALN
1070
   392
1070
     0
  0
ENDTAB
  0
TABLE
  2
BLOCK_RECORD
  5
1
330
0
100
AcDbSymbolTable
 70
    13
  0
BLOCK_RECORD
  5
1F
102
{ACAD_XDICTIONARY
360
2D98
102
}
330
1
100
AcDbSymbolTableRecord
100
AcDbBlockTableRecord
  2
*Model_Space
340
22
 70
     0
280
     1
281
     0
  0
BLOCK_RECORD
  5
50
330
1
100
AcDbSymbolTableRecord
100
AcDbBlockTableRecord
  2
*Paper_Space
340
51
 70
     0
280
     1
281
     0
  0
BLOCK_RECORD
  5
55
330
1
100
AcDbSymbolTableRecord
100
AcDbBlockTableRecord
  2
*Paper_Space0
340
56
 70
     0
280
     1
281
     0
  0
BLOCK_RECORD
  5
341
102
{ACAD_XDICTIONARY
360
29CF
102
}
330
1
100
AcDbSymbolTableRecord
100
AcDbBlockTableRecord
  2
_None
340
0
 70
     0
280
     1
281
     0
1001
AcDbDynamicBlockGUID
1000
{FDCFC2F5-9095-49BF-99B6-274B4C3B84BC}
1001
AcDbBlockRepETag
1070
     1
1071
       24
  0
BLOCK_RECORD
  5
429
330
1
100
AcDbSymbolTableRecord
100
AcDbBlockTableRecord
  2
_DotSmall
340
0
 70
     0
280
     1
281
     0
  0
BLOCK_RECORD
  5
10CB
330
1
100
AcDbSymbolTableRecord
100
AcDbBlockTableRecord
  2
mark
340
0
310
2800000020000000200000000100080000000000000400000000000000000000000000000000000000000000000080000080000000808000800000008000800080800000C0C0C000C0DCC000F0CAA6000020400000206000002080000020A0000020C0000020E00000400000004020000040400000406000004080000040A0
310
000040C0000040E00000600000006020000060400000606000006080000060A0000060C0000060E00000800000008020000080400000806000008080000080A0000080C0000080E00000A0000000A0200000A0400000A0600000A0800000A0A00000A0C00000A0E00000C0000000C0200000C0400000C0600000C0800000C0
310
A00000C0C00000C0E00000E0000000E0200000E0400000E0600000E0800000E0A00000E0C00000E0E00040000000400020004000400040006000400080004000A0004000C0004000E00040200000402020004020400040206000402080004020A0004020C0004020E000404000004040200040404000404060004040800040
310
40A0004040C0004040E00040600000406020004060400040606000406080004060A0004060C0004060E00040800000408020004080400040806000408080004080A0004080C0004080E00040A0000040A0200040A0400040A0600040A0800040A0A00040A0C00040A0E00040C0000040C0200040C0400040C0600040C08000
310
40C0A00040C0C00040C0E00040E0000040E0200040E0400040E0600040E0800040E0A00040E0C00040E0E00080000000800020008000400080006000800080008000A0008000C0008000E00080200000802020008020400080206000802080008020A0008020C0008020E00080400000804020008040400080406000804080
310
008040A0008040C0008040E00080600000806020008060400080606000806080008060A0008060C0008060E00080800000808020008080400080806000808080008080A0008080C0008080E00080A0000080A0200080A0400080A0600080A0800080A0A00080A0C00080A0E00080C0000080C0200080C0400080C0600080C0
310
800080C0A00080C0C00080C0E00080E0000080E0200080E0400080E0600080E0800080E0A00080E0C00080E0E000C0000000C0002000C0004000C0006000C0008000C000A000C000C000C000E000C0200000C0202000C0204000C0206000C0208000C020A000C020C000C020E000C0400000C0402000C0404000C0406000C0
310
408000C040A000C040C000C040E000C0600000C0602000C0604000C0606000C0608000C060A000C060C000C060E000C0800000C0802000C0804000C0806000C0808000C080A000C080C000C080E000C0A00000C0A02000C0A04000C0A06000C0A08000C0A0A000C0A0C000C0A0E000C0C00000C0C02000C0C04000C0C06000
310
C0C08000C0C0A000F0FBFF00A4A0A000808080000000FF0000FF000000FFFF00FF000000FF00FF00FFFF0000FFFFFF0000000000000000000000000000000000000000000000000000000000000000000000000000000000000000000000000000000000000000000000000000000000000000000000000000000000000000
310
00000000000000000000000000000000000000000000000000000000000000000000000000000000000000000000000000000000000000000000000000000000000000000000000000000000000000000000000000000000000000000000000000000000000000000000000000000000000000000000000000000000000000
310
FF0000FF0000000000000000000000000000000000000000000000000000FFFFFF0000FFFFFF0000000000000000000000000000000000000000000000FF0000FF0000FF0000FF0000000000000000000000000000000000000000FFFF0000FF00000000FF0000FFFF0000000000000000000000000000000000FF0000FFFF
310
000000FF0000FFFF0000FF000000000000000000FFFFFFFF0000FF0000FF000000FFFF00FF000000FF0000FF0000FFFFFFFF0000FF0000FFFFFF0000FF000000FF00000000FF000000FF0000FFFFFF0000FF0000FF0000FF000000FF000000FF00FFFFFFFF00FF000000FF000000FF0000FF0000FF00000000FFFF00000000
310
FF00FF0000FF00FF00000000FFFF00000000FF0000FF000000FF000000000000FF00FF0000FF00FF000000000000FF000000FF0000FF0000FF00000000000000FF00FF0000FF00FF00000000000000FF0000FF0000FF000000FFFF0000000000FF00FF0000FF00FF0000000000FFFF000000FF0000FF0000FF0000FF000000
310
00FF00FFFFFFFF00FF00000000FF0000FF0000FF0000FF0000FFFFFF00FF00000000FFFF000000FF00000000FF00FFFFFF0000FF0000FFFFFFFF0000FF00FFFF00000000FF00FF000000FFFF00FF0000FFFFFFFF000000000000000000FF0000FF00000000FF000000FF0000FF0000000000000000000000000000000000FF
310
FF00FFFF00000000FFFF00FFFF0000000000000000000000000000000000000000FF0000FF0000FF0000FF0000000000000000000000000000000000000000000000FFFFFF0000FFFFFF0000000000000000000000000000000000000000000000000000FF0000FF0000000000000000000000000000000000000000000000
310
00000000000000000000000000000000000000000000000000000000000000000000000000000000000000000000000000000000000000000000000000000000000000000000000000000000000000000000000000000000000000000000000000000000000000000000000000000000000000000000000000000000000000
310
0000000000000000000000000000000000000000000000000000000000000000000000000000000000000000000000000000000000000000
102
{BLKREFS
331
2B9BB
102
}
 70
     4
280
     1
281
     0
  0
BLOCK_RECORD
  5
2D20
330
1
100
AcDbSymbolTableRecord
100
AcDbBlockTableRecord
  2
A$C34DA08B7
340
0
 70
     4
280
     1
281
     0
  0
BLOCK_RECORD
  5
2D24
330
1
100
AcDbSymbolTableRecord
100
AcDbBlockTableRecord
  2
A$C04A47E41
340
0
 70
     4
280
     1
281
     0
  0
BLOCK_RECORD
  5
2D46
330
1
100
AcDbSymbolTableRecord
100
AcDbBlockTableRecord
  2
A$C2FFA21FC
340
0
 70
     4
280
     1
281
     0
  0
BLOCK_RECORD
  5
2BAFD
330
1
100
AcDbSymbolTableRecord
100
AcDbBlockTableRecord
  2
*D7
340
0
 70
     0
280
     1
281
     0
  0
BLOCK_RECORD
  5
2BB27
330
1
100
AcDbSymbolTableRecord
100
AcDbBlockTableRecord
  2
*D8
340
0
 70
     0
280
     1
281
     0
  0
BLOCK_RECORD
  5
2BB3F
330
1
100
AcDbSymbolTableRecord
100
AcDbBlockTableRecord
  2
*D9
340
0
 70
     0
280
     1
281
     0
  0
BLOCK_RECORD
  5
2BB6E
330
1
100
AcDbSymbolTableRecord
100
AcDbBlockTableRecord
  2
*D10
340
0
 70
     0
280
     1
281
     0
  0
ENDTAB
  0
ENDSEC
  0
SECTION
  2
BLOCKS
  0
BLOCK
  5
20
330
1F
100
AcDbEntity
  8
0
100
AcDbBlockBegin
  2
*Model_Space
 70
     0
 10
0.0
 20
0.0
 30
0.0
  3
*Model_Space
  1

  0
ENDBLK
  5
21
330
1F
100
AcDbEntity
  8
0
100
AcDbBlockEnd
  0
BLOCK
  5
52
330
50
100
AcDbEntity
 67
     1
  8
0
100
AcDbBlockBegin
  2
*Paper_Space
 70
     0
 10
0.0
 20
0.0
 30
0.0
  3
*Paper_Space
  1

  0
ENDBLK
  5
53
330
50
100
AcDbEntity
 67
     1
  8
0
100
AcDbBlockEnd
  0
BLOCK
  5
57
330
55
100
AcDbEntity
 67
     1
  8
0
100
AcDbBlockBegin
  2
*Paper_Space0
 70
     0
 10
0.0
 20
0.0
 30
0.0
  3
*Paper_Space0
  1

  0
VIEWPORT
  5
71
330
55
100
AcDbEntity
 67
     1
  8
0
100
AcDbViewport
 10
133.3499908447265
 20
101.5999970436096
 30
0.0
 40
381.3957395593834
 41
218.2856291881582
 68
     0
 69
     0
 12
133.3499908447265
 22
101.5999970436096
 13
0.0
 23
0.0
 14
10.0
 24
10.0
 15
10.0
 25
10.0
 16
0.0
 26
0.0
 36
1.0
 17
0.0
 27
0.0
 37
0.0
 42
50.0
 43
0.0
 44
0.0
 45
218.2856291881582
 50
0.0
 51
0.0
 72
   100
 90
    32800
  1

281
     0
 71
     1
 74
     0
110
0.0
120
0.0
130
0.0
111
1.0
121
0.0
131
0.0
112
0.0
122
1.0
132
0.0
 79
     0
146
0.0
170
     0
 61
     5
348
276B
292
     1
282
     1
141
0.0
142
0.0
 63
   250
421
  3355443
  0
VIEWPORT
  5
73
330
55
100
AcDbEntity
 67
     1
  8
0
100
AcDbViewport
 10
133.349993944168
 20
101.599993944168
 30
0.0
 40
213.3599903106689
 41
162.5599903106689
 68
     0
 69
     0
 12
210.0
 22
148.5
 13
0.0
 23
0.0
 14
10.0
 24
10.0
 15
10.0
 25
10.0
 16
0.0
 26
0.0
 36
1.0
 17
0.0
 27
0.0
 37
0.0
 42
50.0
 43
0.0
 44
0.0
 45
324.0677920111345
 50
0.0
 51
0.0
 72
   100
 90
    32864
  1

281
     0
 71
     1
 74
     0
110
0.0
120
0.0
130
0.0
111
1.0
121
0.0
131
0.0
112
0.0
122
1.0
132
0.0
 79
     0
146
0.0
170
     0
 61
     5
348
276B
292
     1
282
     1
141
0.0
142
0.0
 63
   250
421
  3355443
  0
ENDBLK
  5
58
330
55
100
AcDbEntity
 67
     1
  8
0
100
AcDbBlockEnd
  0
BLOCK
  5
342
330
341
100
AcDbEntity
  8
0
100
AcDbBlockBegin
  2
_None
 70
     0
 10
0.0
 20
0.0
 30
0.0
  3
_None
  1

  0
LINE
  5
29B7
102
{ACAD_REACTORS
330
29F6
102
}
330
341
100
AcDbEntity
  8
0
100
AcDbLine
 10
7.618927466172911
 20
14.9090276980656
 30
0.0
 11
13.53608213148402
 21
23.35960033891454
 31
0.0
1001
AcDbBlockRepETag
1070
     1
1071
        0
1005
29B7
  0
LINE
  5
29B8
102
{ACAD_REACTORS
330
29F6
102
}
330
341
100
AcDbEntity
  8
0
100
AcDbLine
 10
7.618927466172911
 20
14.9090276980656
 30
0.0
 11
8.516181951946554
 21
13.62761549266754
 31
0.0
1001
AcDbBlockRepETag
1070
     1
1071
        1
1005
29B8
  0
LINE
  5
29B9
102
{ACAD_REACTORS
330
29F6
102
}
330
341
100
AcDbEntity
  8
0
100
AcDbLine
 10
21.97323679679512
 20
14.90902769806559
 30
0.0
 11
21.07598231102148
 21
16.19043990346365
 31
0.0
1001
AcDbBlockRepETag
1070
     1
1071
        2
1005
29B9
  0
LINE
  5
29BA
102
{ACAD_REACTORS
330
29F6
102
}
330
341
100
AcDbEntity
  8
0
100
AcDbLine
 10
21.97323679679512
 20
14.90902769806559
 30
0.0
 11
16.056082131484
 21
6.458455057216698
 31
0.0
1001
AcDbBlockRepETag
1070
     1
1071
        3
1005
29BA
  0
LINE
  5
29BB
102
{ACAD_REACTORS
330
29F6
102
}
330
341
100
AcDbEntity
  8
0
100
AcDbLine
 10
15.556082131484
 20
21.42363521294153
 30
0.0
 11
19.54408298552672
 21
15.72817974235458
 31
0.0
1001
AcDbBlockRepETag
1070
     1
1071
        4
1005
29BB
  0
LINE
  5
29BC
102
{ACAD_REACTORS
330
29F6
102
}
330
341
100
AcDbEntity
  8
0
100
AcDbLine
 10
9.761293059265803
 20
14.49945167592111
 30
0.0
 11
8.516181951946544
 21
13.62761549266753
 31
0.0
1001
AcDbBlockRepETag
1070
     1
1071
        5
1005
29BC
  0
LINE
  5
29BD
102
{ACAD_REACTORS
330
29F6
102
}
330
341
100
AcDbEntity
  8
0
100
AcDbLine
 10
10.04808127744132
 20
14.08987565377662
 30
0.0
 11
8.802970170122067
 21
13.21803947052303
 31
0.0
1001
AcDbBlockRepETag
1070
     1
1071
        6
1005
29BD
  0
LINE
  5
29BE
102
{ACAD_REACTORS
330
29F6
102
}
330
341
100
AcDbEntity
  8
0
100
AcDbLine
 10
14.03608213148402
 20
5.744381053845643
 30
0.0
 11
14.03608213148402
 21
24.07367434228561
 31
0.0
1001
AcDbBlockRepETag
1070
     1
1071
        7
1005
29BE
  0
LINE
  5
29BF
102
{ACAD_REACTORS
330
29F6
102
}
330
341
100
AcDbEntity
  8
0
100
AcDbLine
 10
15.556082131484
 20
5.744381053845648
 30
0.0
 11
15.556082131484
 21
21.42363521294153
 31
0.0
1001
AcDbBlockRepETag
1070
     1
1071
        8
1005
29BF
  0
LINE
  5
29C0
102
{ACAD_REACTORS
330
29F6
102
}
330
341
100
AcDbEntity
  8
0
100
AcDbLine
 10
13.53608213148402
 20
6.458455057216702
 30
0.0
 11
13.53608213148402
 21
9.108494186560758
 31
0.0
1001
AcDbBlockRepETag
1070
     1
1071
        9
1005
29C0
  0
LINE
  5
29C1
102
{ACAD_REACTORS
330
29F6
102
}
330
341
100
AcDbEntity
  8
0
100
AcDbLine
 10
16.056082131484
 20
6.458455057216702
 30
0.0
 11
16.056082131484
 21
9.108494186560749
 31
0.0
1001
AcDbBlockRepETag
1070
     1
1071
       10
1005
29C1
  0
LINE
  5
29C2
102
{ACAD_REACTORS
330
29F6
102
}
330
341
100
AcDbEntity
  8
0
100
AcDbLine
 10
14.03608213148402
 20
24.0736743422856
 30
0.0
 11
14.79608213148402
 21
25.15906682740961
 31
0.0
1001
AcDbBlockRepETag
1070
     1
1071
       11
1005
29C2
  0
LINE
  5
29C3
102
{ACAD_REACTORS
330
29F6
102
}
330
341
100
AcDbEntity
  8
0
100
AcDbLine
 10
13.53608213148402
 20
20.70956120957047
 30
0.0
 11
9.474504841090279
 21
14.90902769806561
 31
0.0
1001
AcDbBlockRepETag
1070
     1
1071
       12
1005
29C3
  0
LINE
  5
29C4
102
{ACAD_REACTORS
330
29F6
102
}
330
341
100
AcDbEntity
  8
0
100
AcDbLine
 10
16.056082131484
 20
9.108494186560754
 30
0.0
 11
20.11765942187774
 21
14.90902769806561
 31
0.0
1001
AcDbBlockRepETag
1070
     1
1071
       13
1005
29C4
  0
LINE
  5
29C5
102
{ACAD_REACTORS
330
29F6
102
}
330
341
100
AcDbEntity
  8
0
100
AcDbLine
 10
15.556082131484
 20
5.744381053845644
 30
0.0
 11
14.79608213148401
 21
4.658988568721649
 31
0.0
1001
AcDbBlockRepETag
1070
     1
1071
       14
1005
29C5
  0
LINE
  5
29C6
102
{ACAD_REACTORS
330
29F6
102
}
330
341
100
AcDbEntity
  8
0
100
AcDbLine
 10
14.03608213148402
 20
5.744381053845645
 30
0.0
 11
14.79608213148401
 21
4.658988568721649
 31
0.0
1001
AcDbBlockRepETag
1070
     1
1071
       15
1005
29C6
  0
LINE
  5
29C7
102
{ACAD_REACTORS
330
29F6
102
}
330
341
100
AcDbEntity
  8
0
100
AcDbLine
 10
8.802970170122078
 20
13.21803947052304
 30
0.0
 11
13.53608213148402
 21
6.458455057216703
 31
0.0
1001
AcDbBlockRepETag
1070
     1
1071
       16
1005
29C7
  0
LINE
  5
29C8
102
{ACAD_REACTORS
330
29F6
102
}
330
341
100
AcDbEntity
  8
0
100
AcDbLine
 10
10.04808127744132
 20
14.08987565377662
 30
0.0
 11
13.53608213148402
 21
9.10849418656076
 31
0.0
1001
AcDbBlockRepETag
1070
     1
1071
       17
1005
29C8
  0
LINE
  5
29C9
102
{ACAD_REACTORS
330
29F6
102
}
330
341
100
AcDbEntity
  8
0
100
AcDbLine
 10
13.53608213148402
 20
20.70956120957048
 30
0.0
 11
13.53608213148402
 21
23.35960033891454
 31
0.0
1001
AcDbBlockRepETag
1070
     1
1071
       18
1005
29C9
  0
LINE
  5
29CA
102
{ACAD_REACTORS
330
29F6
102
}
330
341
100
AcDbEntity
  8
0
100
AcDbLine
 10
19.83087120370222
 20
15.31860372021007
 30
0.0
 11
21.07598231102148
 21
16.19043990346365
 31
0.0
1001
AcDbBlockRepETag
1070
     1
1071
       19
1005
29CA
  0
LINE
  5
29CB
102
{ACAD_REACTORS
330
29F6
102
}
330
341
100
AcDbEntity
  8
0
100
AcDbLine
 10
19.54408298552669
 20
15.72817974235456
 30
0.0
 11
20.78919409284595
 21
16.60001592560815
 31
0.0
1001
AcDbBlockRepETag
1070
     1
1071
       20
1005
29CB
  0
LINE
  5
29CC
102
{ACAD_REACTORS
330
29F6
102
}
330
341
100
AcDbEntity
  8
0
100
AcDbLine
 10
19.83087120370224
 20
15.31860372021007
 30
0.0
 11
20.11765942187774
 21
14.90902769806561
 31
0.0
1001
AcDbBlockRepETag
1070
     1
1071
       21
1005
29CC
  0
LINE
  5
29CD
102
{ACAD_REACTORS
330
29F6
102
}
330
341
100
AcDbEntity
  8
0
100
AcDbLine
 10
20.78919409284596
 20
16.60001592560815
 30
0.0
 11
14.79608213148402
 21
25.15906682740961
 31
0.0
1001
AcDbBlockRepETag
1070
     1
1071
       22
1005
29CD
  0
LINE
  5
29CE
102
{ACAD_REACTORS
330
29F6
102
}
330
341
100
AcDbEntity
  8
0
100
AcDbLine
 10
9.761293059265803
 20
14.49945167592111
 30
0.0
 11
9.474504841090279
 21
14.90902769806561
 31
0.0
1001
AcDbBlockRepETag
1070
     1
1071
       23
1005
29CE
  0
ENDBLK
  5
343
330
341
100
AcDbEntity
  8
0
100
AcDbBlockEnd
  0
BLOCK
  5
42B
330
429
100
AcDbEntity
  8
0
100
AcDbBlockBegin
  2
_DotSmall
 70
     0
 10
0.0
 20
0.0
 30
0.0
  3
_DotSmall
  1

  0
LWPOLYLINE
  5
42A
330
429
100
AcDbEntity
  8
0
  6
ByBlock
 62
     0
100
AcDbPolyline
 90
        2
 70
     1
 43
0.5
 10
-0.0625
 20
0.0
 42
1.0
 10
0.0625
 20
0.0
 42
1.0
  0
ENDBLK
  5
42C
330
429
100
AcDbEntity
  8
0
100
AcDbBlockEnd
  0
BLOCK
  5
10EA
330
10CB
100
AcDbEntity
  8
0
100
AcDbBlockBegin
  2
mark
 70
     0
 10
0.0
 20
0.0
 30
0.0
  3
mark
  1

  4
柏原計器(株)マーク
  0
LINE
  5
10CC
330
10CB
100
AcDbEntity
  8
実線
100
AcDbLine
 10
45.0
 20
-8.5
 30
0.0
 11
27.0
 21
-21.10373568777475
 31
0.0
  0
LINE
  5
10CD
330
10CB
100
AcDbEntity
  8
実線
100
AcDbLine
 10
45.0
 20
-8.5
 30
0.0
 11
27.0
 21
4.103735687774785
 31
0.0
  0
LINE
  5
10CE
330
10CB
100
AcDbEntity
  8
実線
100
AcDbLine
 10
46.0
 20
-4.317109183163836
 30
0.0
 11
27.0
 21
8.986834042820532
 31
0.0
  0
LINE
  5
10CF
330
10CB
100
AcDbEntity
  8
実線
100
AcDbLine
 10
46.0
 20
-12.6828908168361
 30
0.0
 11
27.0
 21
-25.9868340428206
 31
0.0
  0
LINE
  5
10D0
330
10CB
100
AcDbEntity
  8
実線
100
AcDbLine
 10
5.0
 20
-8.5
 30
0.0
 11
23.0
 21
-21.10373568777475
 31
0.0
  0
LINE
  5
10D1
330
10CB
100
AcDbEntity
  8
実線
100
AcDbLine
 10
4.0
 20
-12.6828908168361
 30
0.0
 11
22.99999999999994
 21
-25.98683404282056
 31
0.0
  0
LINE
  5
10D2
330
10CB
100
AcDbEntity
  8
実線
100
AcDbLine
 10
5.0
 20
-8.5
 30
0.0
 11
23.0
 21
4.103735687774785
 31
0.0
  0
LINE
  5
10D3
330
10CB
100
AcDbEntity
  8
実線
100
AcDbLine
 10
4.0
 20
-4.317109183163863
 30
0.0
 11
23.0
 21
8.986834042820587
 31
0.0
  0
LINE
  5
10D4
330
10CB
100
AcDbEntity
  8
実線
100
AcDbLine
 10
4.0
 20
-4.317109183163863
 30
0.0
 11
4.0
 21
0.0
 31
0.0
  0
LINE
  5
10D5
330
10CB
100
AcDbEntity
  8
実線
100
AcDbLine
 10
0.0
 20
0.0
 30
0.0
 11
0.0
 21
-17.0
 31
0.0
  0
LINE
  5
10D6
330
10CB
100
AcDbEntity
  8
実線
100
AcDbLine
 10
0.0
 20
-17.0
 30
0.0
 11
4.0
 21
-17.0
 31
0.0
  0
LINE
  5
10D7
330
10CB
100
AcDbEntity
  8
実線
100
AcDbLine
 10
4.0
 20
-17.0
 30
0.0
 11
4.0
 21
-12.6828908168361
 31
0.0
  0
LINE
  5
10D8
330
10CB
100
AcDbEntity
  8
実線
100
AcDbLine
 10
4.0
 20
0.0
 30
0.0
 11
0.0
 21
0.0
 31
0.0
  0
LINE
  5
10D9
330
10CB
100
AcDbEntity
  8
実線
100
AcDbLine
 10
27.0
 20
-21.10373568777475
 30
0.0
 11
27.0
 21
-25.9868340428206
 31
0.0
  0
LINE
  5
10DA
330
10CB
100
AcDbEntity
  8
実線
100
AcDbLine
 10
23.0
 20
-21.1037356877747
 30
0.0
 11
22.99999999999994
 21
-25.98683404282056
 31
0.0
  0
ARC
  5
10DB
330
10CB
100
AcDbEntity
  8
実線
100
AcDbCircle
 10
25.0
 20
-12.5
 30
0.0
 40
6.0
100
AcDbArc
 50
180.0
 51
0.0
  0
ARC
  5
10DC
330
10CB
100
AcDbEntity
  8
実線
100
AcDbCircle
 10
25.0
 20
-12.5
 30
0.0
 40
3.0
100
AcDbArc
 50
180.0
 51
0.0
  0
ARC
  5
10DD
330
10CB
100
AcDbEntity
  8
実線
100
AcDbCircle
 10
25.0
 20
-4.5
 30
0.0
 40
6.0
100
AcDbArc
 50
0.0
 51
180.0
  0
ARC
  5
10DE
330
10CB
100
AcDbEntity
  8
実線
100
AcDbCircle
 10
25.0
 20
-4.5
 30
0.0
 40
3.0
100
AcDbArc
 50
0.0
 51
180.0
  0
LINE
  5
10DF
330
10CB
100
AcDbEntity
  8
実線
100
AcDbLine
 10
22.0
 20
-4.499999999999943
 30
0.0
 11
22.0
 21
-12.50000000000005
 31
0.0
  0
LINE
  5
10E0
330
10CB
100
AcDbEntity
  8
実線
100
AcDbLine
 10
19.0
 20
-4.499999999999943
 30
0.0
 11
19.0
 21
-12.50000000000005
 31
0.0
  0
LINE
  5
10E1
330
10CB
100
AcDbEntity
  8
実線
100
AcDbLine
 10
23.0
 20
8.986834042820587
 30
0.0
 11
23.0
 21
4.103735687774785
 31
0.0
  0
LINE
  5
10E2
330
10CB
100
AcDbEntity
  8
実線
100
AcDbLine
 10
28.0
 20
-4.499999999999971
 30
0.0
 11
28.0
 21
-12.50000000000005
 31
0.0
  0
LINE
  5
10E3
330
10CB
100
AcDbEntity
  8
実線
100
AcDbLine
 10
31.0
 20
-4.499999999999943
 30
0.0
 11
31.0
 21
-12.50000000000005
 31
0.0
  0
LINE
  5
10E4
330
10CB
100
AcDbEntity
  8
実線
100
AcDbLine
 10
27.0
 20
8.986834042820532
 30
0.0
 11
27.0
 21
4.103735687774785
 31
0.0
  0
LINE
  5
10E5
330
10CB
100
AcDbEntity
  8
実線
100
AcDbLine
 10
50.0
 20
0.0
 30
0.0
 11
50.0
 21
-17.0
 31
0.0
  0
LINE
  5
10E6
330
10CB
100
AcDbEntity
  8
実線
100
AcDbLine
 10
46.0
 20
0.0
 30
0.0
 11
46.0
 21
-4.317109183163836
 31
0.0
  0
LINE
  5
10E7
330
10CB
100
AcDbEntity
  8
実線
100
AcDbLine
 10
46.0
 20
-17.0
 30
0.0
 11
50.0
 21
-17.0
 31
0.0
  0
LINE
  5
10E8
330
10CB
100
AcDbEntity
  8
実線
100
AcDbLine
 10
46.0
 20
-12.6828908168361
 30
0.0
 11
46.0
 21
-17.0
 31
0.0
  0
LINE
  5
10E9
330
10CB
100
AcDbEntity
  8
実線
100
AcDbLine
 10
50.0
 20
0.0
 30
0.0
 11
46.0
 21
0.0
 31
0.0
  0
ENDBLK
  5
10EB
330
10CB
100
AcDbEntity
  8
0
100
AcDbBlockEnd
  0
BLOCK
  5
2D22
330
2D20
100
AcDbEntity
  8
0
100
AcDbBlockBegin
  2
A$C34DA08B7
 70
     0
 10
0.0
 20
0.0
 30
0.0
  3
A$C34DA08B7
  1

  0
LINE
  5
2D21
330
2D20
100
AcDbEntity
  8
実線
100
AcDbLine
 10
3.443694327872606
 20
-0.000000348593062
 30
0.0
 11
0.0000000833857712
 21
3.443693895893829
 31
0.0
  0
ENDBLK
  5
2D23
330
2D20
100
AcDbEntity
  8
0
100
AcDbBlockEnd
  0
BLOCK
  5
2D26
330
2D24
100
AcDbEntity
  8
0
100
AcDbBlockBegin
  2
A$C04A47E41
 70
     0
 10
0.0
 20
0.0
 30
0.0
  3
A$C04A47E41
  1

  0
LINE
  5
2D25
330
2D24
100
AcDbEntity
  8
実線
100
AcDbLine
 10
0.0
 20
0.0
 30
0.0
 11
-3.443694244486835
 21
3.443694244486891
 31
0.0
  0
ENDBLK
  5
2D27
330
2D24
100
AcDbEntity
  8
0
100
AcDbBlockEnd
  0
BLOCK
  5
2D4F
330
2D46
100
AcDbEntity
  8
0
100
AcDbBlockBegin
  2
A$C2FFA21FC
 70
     0
 10
0.0
 20
0.0
 30
0.0
  3
A$C2FFA21FC
  1

  0
LINE
  5
2D47
330
2D46
100
AcDbEntity
  8
実線
100
AcDbLine
 10
1.673649195882092
 20
5.714196736163046
 30
0.0
 11
4.040546862123335
 21
5.714196736163046
 31
0.0
  0
LINE
  5
2D48
330
2D46
100
AcDbEntity
  8
実線
100
AcDbLine
 10
-0.0000001942917152
 20
1.673649679747882
 30
0.0
 11
-0.0000001942917152
 21
4.040547345989125
 31
0.0
  0
LINE
  5
2D49
330
2D46
100
AcDbEntity
  8
実線
100
AcDbLine
 10
-0.0000001942917152
 20
4.040547345989239
 30
0.0
 11
1.673649195882092
 21
5.714196736162989
 31
0.0
  0
LINE
  5
2D4A
330
2D46
100
AcDbEntity
  8
実線
100
AcDbLine
 10
1.673649195882092
 20
0.0000002895740749
 30
0.0
 11
4.040546862123335
 21
0.0000002895740749
 31
0.0
  0
LINE
  5
2D4B
330
2D46
100
AcDbEntity
  8
実線
100
AcDbLine
 10
-0.0000001942917152
 20
1.673649679747882
 30
0.0
 11
1.673649195882035
 21
0.0000002895740749
 31
0.0
  0
LINE
  5
2D4C
330
2D46
100
AcDbEntity
  8
実線
100
AcDbLine
 10
5.714196252297256
 20
1.673649679747882
 30
0.0
 11
5.714196252297256
 21
4.040547345989125
 31
0.0
  0
LINE
  5
2D4D
330
2D46
100
AcDbEntity
  8
実線
100
AcDbLine
 10
5.714196252297256
 20
4.040547345989239
 30
0.0
 11
4.040546862123449
 21
5.714196736162989
 31
0.0
  0
LINE
  5
2D4E
330
2D46
100
AcDbEntity
  8
実線
100
AcDbLine
 10
5.714196252297256
 20
1.673649679747882
 30
0.0
 11
4.040546862123505
 21
0.0000002895740749
 31
0.0
  0
ENDBLK
  5
2D50
330
2D46
100
AcDbEntity
  8
0
100
AcDbBlockEnd
  0
BLOCK
  5
2BAFE
330
2BAFD
100
AcDbEntity
  8
0
100
AcDbBlockBegin
  2
*D7
 70
     1
 10
0.0
 20
0.0
 30
0.0
  3
*D7
  1

  0
LINE
  5
2BBDA
330
2BAFD
100
AcDbEntity
  8
寸法
 62
     0
440
 16777216
370
    -2
100
AcDbLine
 10
133.3945675458223
 20
153.723202056238
 30
0.0
 11
226.7400530648601
 21
153.723202056238
 31
0.0
  0
LINE
  5
2BBDB
330
2BAFD
100
AcDbEntity
  8
寸法
 62
     0
440
 16777216
370
    -2
100
AcDbLine
 10
133.3945675458224
 20
242.7232020562381
 30
0.0
 11
226.7400530648601
 21
242.723202056238
 31
0.0
  0
LINE
  5
2BBDC
330
2BAFD
100
AcDbEntity
  8
寸法
 62
     0
440
 16777216
370
    -2
100
AcDbLine
 10
225.4900530648601
 20
156.223202056238
 30
0.0
 11
225.4900530648602
 21
240.223202056238
 31
0.0
  0
SOLID
  5
2BBDD
330
2BAFD
100
AcDbEntity
  8
寸法
 62
     0
440
 16777216
100
AcDbTrace
 10
225.0733863981935
 20
156.223202056238
 30
0.0
 11
225.9067197315268
 21
156.223202056238
 31
0.0
 12
225.4900530648601
 22
153.723202056238
 32
0.0
 13
225.4900530648601
 23
153.723202056238
 33
0.0
  0
SOLID
  5
2BBDE
330
2BAFD
100
AcDbEntity
  8
寸法
 62
     0
440
 16777216
100
AcDbTrace
 10
225.0733863981935
 20
240.223202056238
 30
0.0
 11
225.9067197315268
 21
240.223202056238
 31
0.0
 12
225.4900530648602
 22
242.723202056238
 32
0.0
 13
225.4900530648602
 23
242.723202056238
 33
0.0
  0
MTEXT
  5
2BBDF
330
2BAFD
100
AcDbEntity
  8
寸法
 62
     2
440
 16777216
100
AcDbMText
 10
222.7400530648601
 20
198.2232020562381
 30
0.0
 40
3.5
 41
0.0
 46
0.0
 71
     5
 72
     1
  1
89
  7
寸法
 11
0.0000000000000001
 21
1.0
 31
0.0
 73
     1
 44
1.0
  0
POINT
  5
2BBE0
330
2BAFD
100
AcDbEntity
  8
Defpoints
 62
     0
440
 16777216
100
AcDbPoint
 10
132.7695675458223
 20
153.723202056238
 30
0.0
  0
POINT
  5
2BBE1
330
2BAFD
100
AcDbEntity
  8
Defpoints
 62
     0
440
 16777216
100
AcDbPoint
 10
132.7695675458224
 20
242.7232020562381
 30
0.0
  0
POINT
  5
2BBE2
330
2BAFD
100
AcDbEntity
  8
Defpoints
 62
     0
440
 16777216
100
AcDbPoint
 10
225.4900530648602
 20
242.723202056238
 30
0.0
  0
ENDBLK
  5
2BAFF
330
2BAFD
100
AcDbEntity
  8
0
100
AcDbBlockEnd
  0
BLOCK
  5
2BB28
330
2BB27
100
AcDbEntity
  8
0
100
AcDbBlockBegin
  2
*D8
 70
     1
 10
0.0
 20
0.0
 30
0.0
  3
*D8
  1

  0
LINE
  5
2BCE4
330
2BB27
100
AcDbEntity
  8
寸法
 62
     0
440
 16777216
370
    -2
100
AcDbLine
 10
80.94332351965432
 20
56.25859573996308
 30
0.0
 11
80.94332351965432
 21
26.14596049758927
 31
0.0
  0
LINE
  5
2BCE5
330
2BB27
100
AcDbEntity
  8
寸法
 62
     0
440
 16777216
370
    -2
100
AcDbLine
 10
180.9433235196543
 20
56.25859573996303
 30
0.0
 11
180.9433235196543
 21
26.14596049758927
 31
0.0
  0
LINE
  5
2BCE6
330
2BB27
100
AcDbEntity
  8
寸法
 62
     0
440
 16777216
370
    -2
100
AcDbLine
 10
83.44332351965432
 20
27.39596049758927
 30
0.0
 11
178.4433235196543
 21
27.39596049758927
 31
0.0
  0
SOLID
  5
2BCE7
330
2BB27
100
AcDbEntity
  8
寸法
 62
     0
440
 16777216
100
AcDbTrace
 10
83.44332351965432
 20
27.81262716425594
 30
0.0
 11
83.44332351965432
 21
26.9792938309226
 31
0.0
 12
80.94332351965432
 22
27.39596049758927
 32
0.0
 13
80.94332351965432
 23
27.39596049758927
 33
0.0
  0
SOLID
  5
2BCE8
330
2BB27
100
AcDbEntity
  8
寸法
 62
     0
440
 16777216
100
AcDbTrace
 10
178.4433235196543
 20
27.81262716425594
 30
0.0
 11
178.4433235196543
 21
26.9792938309226
 31
0.0
 12
180.9433235196543
 22
27.39596049758927
 32
0.0
 13
180.9433235196543
 23
27.39596049758927
 33
0.0
  0
MTEXT
  5
2BCE9
330
2BB27
100
AcDbEntity
  8
寸法
 62
     2
440
 16777216
100
AcDbMText
 10
130.9433235196543
 20
30.14596049758927
 30
0.0
 40
3.5
 41
0.0
 46
0.0
 71
     5
 72
     1
  1
100
  7
寸法
 73
     1
 44
1.0
  0
POINT
  5
2BCEA
330
2BB27
100
AcDbEntity
  8
Defpoints
 62
     0
440
 16777216
100
AcDbPoint
 10
80.94332351965432
 20
56.88359573996308
 30
0.0
  0
POINT
  5
2BCEB
330
2BB27
100
AcDbEntity
  8
Defpoints
 62
     0
440
 16777216
100
AcDbPoint
 10
180.9433235196543
 20
56.88359573996303
 30
0.0
  0
POINT
  5
2BCEC
330
2BB27
100
AcDbEntity
  8
Defpoints
 62
     0
440
 16777216
100
AcDbPoint
 10
180.9433235196543
 20
27.39596049758927
 30
0.0
  0
ENDBLK
  5
2BB29
330
2BB27
100
AcDbEntity
  8
0
100
AcDbBlockEnd
  0
BLOCK
  5
2BB40
330
2BB3F
100
AcDbEntity
  8
0
100
AcDbBlockBegin
  2
*D9
 70
     1
 10
0.0
 20
0.0
 30
0.0
  3
*D9
  1

  0
LINE
  5
2BBEC
330
2BB3F
100
AcDbEntity
  8
寸法
 62
     0
440
 16777216
370
    -2
100
AcDbLine
 10
107.2013391447793
 20
45.28359573996309
 30
0.0
 11
59.4309915671381
 21
45.2835957399631
 31
0.0
  0
LINE
  5
2BBED
330
2BB3F
100
AcDbEntity
  8
寸法
 62
     0
440
 16777216
370
    -2
100
AcDbLine
 10
74.18538520645461
 20
68.28359573996315
 30
0.0
 11
59.43099156713811
 21
68.28359573996315
 31
0.0
  0
LINE
  5
2BBEE
330
2BB3F
100
AcDbEntity
  8
寸法
 62
     0
440
 16777216
370
    -2
100
AcDbLine
 10
60.6809915671381
 20
47.7835957399631
 30
0.0
 11
60.68099156713811
 21
65.78359573996315
 31
0.0
  0
SOLID
  5
2BBEF
330
2BB3F
100
AcDbEntity
  8
寸法
 62
     0
440
 16777216
100
AcDbTrace
 10
60.26432490047144
 20
47.7835957399631
 30
0.0
 11
61.09765823380477
 21
47.7835957399631
 31
0.0
 12
60.6809915671381
 22
45.2835957399631
 32
0.0
 13
60.6809915671381
 23
45.2835957399631
 33
0.0
  0
SOLID
  5
2BBF0
330
2BB3F
100
AcDbEntity
  8
寸法
 62
     0
440
 16777216
100
AcDbTrace
 10
60.26432490047145
 20
65.78359573996315
 30
0.0
 11
61.09765823380477
 21
65.78359573996315
 31
0.0
 12
60.68099156713811
 22
68.28359573996315
 32
0.0
 13
60.68099156713811
 23
68.28359573996315
 33
0.0
  0
MTEXT
  5
2BBF1
330
2BB3F
100
AcDbEntity
  8
寸法
 62
     2
440
 16777216
100
AcDbMText
 10
57.9309915671381
 20
56.78359573996313
 30
0.0
 40
3.5
 41
0.0
 46
0.0
 71
     5
 72
     1
  1
23
  7
寸法
 11
0.0000000000000001
 21
1.0
 31
0.0
 73
     1
 44
1.0
  0
POINT
  5
2BBF2
330
2BB3F
100
AcDbEntity
  8
Defpoints
 62
     0
440
 16777216
100
AcDbPoint
 10
107.8263391447793
 20
45.28359573996309
 30
0.0
  0
POINT
  5
2BBF3
330
2BB3F
100
AcDbEntity
  8
Defpoints
 62
     0
440
 16777216
100
AcDbPoint
 10
74.81038520645461
 20
68.28359573996315
 30
0.0
  0
POINT
  5
2BBF4
330
2BB3F
100
AcDbEntity
  8
Defpoints
 62
     0
440
 16777216
100
AcDbPoint
 10
60.68099156713811
 20
68.28359573996315
 30
0.0
  0
ENDBLK
  5
2BB41
330
2BB3F
100
AcDbEntity
  8
0
100
AcDbBlockEnd
  0
BLOCK
  5
2BB6F
330
2BB6E
100
AcDbEntity
  8
0
100
AcDbBlockBegin
  2
*D10
 70
     1
 10
0.0
 20
0.0
 30
0.0
  3
*D10
  1

  0
LINE
  5
2BBF5
330
2BB6E
100
AcDbEntity
  8
寸法
 62
     0
440
 16777216
370
    -2
100
AcDbLine
 10
107.2013391447793
 20
45.28359573996309
 30
0.0
 11
47.52825454354203
 21
45.2835957399631
 31
0.0
  0
LINE
  5
2BBF6
330
2BB6E
100
AcDbEntity
  8
寸法
 62
     0
440
 16777216
370
    -2
100
AcDbLine
 10
86.61832351965427
 20
145.2835957399631
 30
0.0
 11
47.52825454354206
 21
145.2835957399631
 31
0.0
  0
LINE
  5
2BBF7
330
2BB6E
100
AcDbEntity
  8
寸法
 62
     0
440
 16777216
370
    -2
100
AcDbLine
 10
48.77825454354203
 20
47.7835957399631
 30
0.0
 11
48.77825454354205
 21
142.7835957399631
 31
0.0
  0
SOLID
  5
2BBF8
330
2BB6E
100
AcDbEntity
  8
寸法
 62
     0
440
 16777216
100
AcDbTrace
 10
48.36158787687537
 20
47.7835957399631
 30
0.0
 11
49.19492121020869
 21
47.7835957399631
 31
0.0
 12
48.77825454354203
 22
45.2835957399631
 32
0.0
 13
48.77825454354203
 23
45.2835957399631
 33
0.0
  0
SOLID
  5
2BBF9
330
2BB6E
100
AcDbEntity
  8
寸法
 62
     0
440
 16777216
100
AcDbTrace
 10
48.36158787687539
 20
142.7835957399631
 30
0.0
 11
49.19492121020872
 21
142.7835957399631
 31
0.0
 12
48.77825454354206
 22
145.2835957399631
 32
0.0
 13
48.77825454354206
 23
145.2835957399631
 33
0.0
  0
MTEXT
  5
2BBFA
330
2BB6E
100
AcDbEntity
  8
寸法
 62
     2
440
 16777216
100
AcDbMText
 10
46.02825454354203
 20
95.28359573996311
 30
0.0
 40
3.5
 41
0.0
 46
0.0
 71
     5
 72
     1
  1
100
  7
寸法
 11
0.0000000000000001
 21
1.0
 31
0.0
 73
     1
 44
1.0
  0
POINT
  5
2BBFB
330
2BB6E
100
AcDbEntity
  8
Defpoints
 62
     0
440
 16777216
100
AcDbPoint
 10
107.8263391447793
 20
45.28359573996309
 30
0.0
  0
POINT
  5
2BBFC
330
2BB6E
100
AcDbEntity
  8
Defpoints
 62
     0
440
 16777216
100
AcDbPoint
 10
87.24332351965427
 20
145.2835957399631
 30
0.0
  0
POINT
  5
2BBFD
330
2BB6E
100
AcDbEntity
  8
Defpoints
 62
     0
440
 16777216
100
AcDbPoint
 10
48.77825454354206
 20
145.2835957399631
 30
0.0
  0
ENDBLK
  5
2BB70
330
2BB6E
100
AcDbEntity
  8
0
100
AcDbBlockEnd
  0
ENDSEC
  0
SECTION
  2
ENTITIES
  0
TEXT
  5
108D
330
1F
100
AcDbEntity
  8
文字
100
AcDbText
 10
293.0
 20
27.25
 30
0.0
 40
3.0
  1

 41
0.8
 72
     1
 11
293.0
 21
28.75
 31
0.0
100
AcDbText
 73
     2
  0
TEXT
  5
108F
330
1F
100
AcDbEntity
  8
文字
100
AcDbText
 10
333.0
 20
27.5
 30
0.0
 40
3.0
  1

 41
0.8
 72
     1
 11
333.0
 21
29.0
 31
0.0
100
AcDbText
 73
     2
  0
TEXT
  5
1090
330
1F
100
AcDbEntity
  8
文字
100
AcDbText
 10
353.0
 20
27.5
 30
0.0
 40
3.0
  1

 41
0.8
 72
     1
 11
353.0
 21
29.0
 31
0.0
100
AcDbText
 73
     2
  0
MTEXT
  5
1581D
330
1F
100
AcDbEntity
  8
実線
 62
     2
100
AcDbMText
 10
196.5671900572592
 20
248.2436849630891
 30
0.0
 40
2.5
 41
0.0
 46
0.0
 71
     9
 72
     1
  1

  7
寸法
 73
     1
 44
1.0
  0
LINE
  5
29A83
330
1F
100
AcDbEntity
  8
0
100
AcDbLine
 10
215.0
 20
272.0
 30
0.0
 11
215.0
 21
287.0
 31
0.0
  0
LINE
  5
29ABB
330
1F
100
AcDbEntity
  8
0
100
AcDbLine
 10
400.0
 20
148.5
 30
0.0
 11
415.0
 21
148.5
 31
0.0
  0
LINE
  5
29B24
330
1F
100
AcDbEntity
  8
0
100
AcDbLine
 10
215.0
 20
25.0
 30
0.0
 11
215.0
 21
10.0
 31
0.0
  0
LINE
  5
29B27
330
1F
100
AcDbEntity
  8
0
100
AcDbLine
 10
29.99999999999926
 20
148.4999999999989
 30
0.0
 11
15.0
 21
148.4999999999988
 31
0.0
  0
LINE
  5
29B3C
330
1F
100
AcDbEntity
  8
補助線
100
AcDbLine
 10
5.0
 20
297.0
 30
0.0
 11
5.0
 21
0.0
 31
0.0
  0
LINE
  5
29B3D
330
1F
100
AcDbEntity
  8
補助線
100
AcDbLine
 10
425.0
 20
297.0
 30
0.0
 11
5.0
 21
297.0
 31
0.0
  0
LINE
  5
29B3E
330
1F
100
AcDbEntity
  8
補助線
100
AcDbLine
 10
425.0
 20
0.0
 30
0.0
 11
425.0
 21
297.0
 31
0.0
  0
LINE
  5
29B3F
330
1F
100
AcDbEntity
  8
補助線
100
AcDbLine
 10
5.0
 20
0.0
 30
0.0
 11
425.0
 21
0.0
 31
0.0
  0
LINE
  5
29B58
330
1F
100
AcDbEntity
  8
0
100
AcDbLine
 10
24.99999999999926
 20
217.7499999999989
 30
0.0
 11
14.9999999999996
 21
217.7499999999988
 31
0.0
  0
LINE
  5
29B59
330
1F
100
AcDbEntity
  8
0
100
AcDbLine
 10
24.99999999999926
 20
79.24999999999887
 30
0.0
 11
15.00000000000039
 21
79.24999999999883
 31
0.0
  0
LINE
  5
29B5A
330
1F
100
AcDbEntity
  8
0
100
AcDbLine
 10
405.0
 20
217.75
 30
0.0
 11
415.0
 21
217.75
 31
0.0
  0
LINE
  5
29B5B
330
1F
100
AcDbEntity
  8
0
100
AcDbLine
 10
405.0
 20
79.25
 30
0.0
 11
415.0
 21
79.25
 31
0.0
  0
LINE
  5
29B74
330
1F
100
AcDbEntity
  8
0
100
AcDbLine
 10
115.0
 20
277.0
 30
0.0
 11
114.9999999999999
 21
286.9999999999998
 31
0.0
  0
LINE
  5
29B75
330
1F
100
AcDbEntity
  8
0
100
AcDbLine
 10
315.0
 20
277.0
 30
0.0
 11
315.0
 21
287.0000000000002
 31
0.0
  0
LINE
  5
29B76
330
1F
100
AcDbEntity
  8
0
100
AcDbLine
 10
114.9999999999999
 20
20.0
 30
0.0
 11
114.9999999999999
 21
10.0
 31
0.0
  0
LINE
  5
29B77
330
1F
100
AcDbEntity
  8
0
100
AcDbLine
 10
315.0
 20
20.0
 30
0.0
 11
315.0
 21
10.0
 31
0.0
  0
TEXT
  5
29B81
330
1F
100
AcDbEntity
  8
0
100
AcDbText
 10
56.87381033117557
 20
279.47215302696
 30
0.0
 40
5.0
  1
1
 41
0.8
 72
     1
 11
58.4928579502232
 21
281.97215302696
 31
0.0
100
AcDbText
 73
     2
  0
TEXT
  5
29B83
330
1F
100
AcDbEntity
  8
0
100
AcDbText
 10
156.5880960454613
 20
279.4721530269602
 30
0.0
 40
5.0
  1
2
 41
0.8
 72
     1
 11
158.4928579502232
 21
281.9721530269601
 31
0.0
100
AcDbText
 73
     2
  0
TEXT
  5
29B84
330
1F
100
AcDbEntity
  8
0
100
AcDbText
 10
256.5880960454613
 20
279.47215302696
 30
0.0
 40
5.0
  1
3
 41
0.8
 72
     1
 11
258.4928579502232
 21
281.97215302696
 31
0.0
100
AcDbText
 73
     2
  0
TEXT
  5
29B85
330
1F
100
AcDbEntity
  8
0
100
AcDbText
 10
356.4928579502232
 20
279.47215302696
 30
0.0
 40
5.0
  1
4
 41
0.8
 72
     1
 11
358.4928579502232
 21
281.97215302696
 31
0.0
100
AcDbText
 73
     2
  0
TEXT
  5
29B86
330
1F
100
AcDbEntity
  8
0
100
AcDbText
 10
56.87381033117557
 20
12.84246760572546
 30
0.0
 40
5.0
  1
1
 41
0.8
 72
     1
 11
58.4928579502232
 21
15.34246760572546
 31
0.0
100
AcDbText
 73
     2
  0
TEXT
  5
29B87
330
1F
100
AcDbEntity
  8
0
100
AcDbText
 10
156.5880960454613
 20
12.84246760572563
 30
0.0
 40
5.0
  1
2
 41
0.8
 72
     1
 11
158.4928579502232
 21
15.34246760572563
 31
0.0
100
AcDbText
 73
     2
  0
TEXT
  5
29B88
330
1F
100
AcDbEntity
  8
0
100
AcDbText
 10
256.5880960454613
 20
12.84246760572546
 30
0.0
 40
5.0
  1
3
 41
0.8
 72
     1
 11
258.4928579502232
 21
15.34246760572546
 31
0.0
100
AcDbText
 73
     2
  0
TEXT
  5
29B89
330
1F
100
AcDbEntity
  8
0
100
AcDbText
 10
356.4928579502232
 20
12.84246760572546
 30
0.0
 40
5.0
  1
4
 41
0.8
 72
     1
 11
358.4928579502232
 21
15.34246760572546
 31
0.0
100
AcDbText
 73
     2
  0
TEXT
  5
29B8A
330
1F
100
AcDbEntity
  8
0
100
AcDbText
 10
18.58632463146319
 20
250.0319149255158
 30
0.0
 40
5.0
  1
A
 41
0.8
 72
     1
 11
20.30061034574891
 21
252.5319149255158
 31
0.0
100
AcDbText
 73
     2
  0
TEXT
  5
29B8B
330
1F
100
AcDbEntity
  8
0
100
AcDbText
 10
18.2053722505112
 20
180.7819149255158
 30
0.0
 40
5.0
  1
B
 41
0.8
 72
     1
 11
20.3006103457493
 21
183.2819149255158
 31
0.0
100
AcDbText
 73
     2
  0
TEXT
  5
29B8C
330
1F
100
AcDbEntity
  8
0
100
AcDbText
 10
18.30061034574891
 20
111.5319149255158
 30
0.0
 40
5.0
  1
C
 41
0.8
 72
     1
 11
20.30061034574891
 21
114.0319149255158
 31
0.0
100
AcDbText
 73
     2
  0
TEXT
  5
29B8D
330
1F
100
AcDbEntity
  8
0
100
AcDbText
 10
18.20537225051081
 20
42.28191492551693
 30
0.0
 40
5.0
  1
D
 41
0.8
 72
     1
 11
20.30061034574891
 21
44.78191492551693
 31
0.0
100
AcDbText
 73
     2
  0
TEXT
  5
29B8E
330
1F
100
AcDbEntity
  8
0
100
AcDbText
 10
408.0524664877939
 20
250.0319149255158
 30
0.0
 40
5.0
  1
A
 41
0.8
 72
     1
 11
409.7667522020797
 21
252.5319149255158
 31
0.0
100
AcDbText
 73
     2
  0
TEXT
  5
29B8F
330
1F
100
AcDbEntity
  8
0
100
AcDbText
 10
407.671514106842
 20
180.7819149255158
 30
0.0
 40
5.0
  1
B
 41
0.8
 72
     1
 11
409.7667522020801
 21
183.2819149255158
 31
0.0
100
AcDbText
 73
     2
  0
TEXT
  5
29B90
330
1F
100
AcDbEntity
  8
0
100
AcDbText
 10
407.7667522020797
 20
111.5319149255158
 30
0.0
 40
5.0
  1
C
 41
0.8
 72
     1
 11
409.7667522020797
 21
114.0319149255158
 31
0.0
100
AcDbText
 73
     2
  0
TEXT
  5
29B91
330
1F
100
AcDbEntity
  8
0
100
AcDbText
 10
407.6715141068416
 20
42.28191492551693
 30
0.0
 40
5.0
  1
D
 41
0.8
 72
     1
 11
409.7667522020797
 21
44.78191492551693
 31
0.0
100
AcDbText
 73
     2
  0
TEXT
  5
2A158
330
1F
100
AcDbEntity
  8
寸法
100
AcDbText
 10
186.7363010126649
 20
101.4670923572145
 30
0.0
 40
3.5
  1
φ26.4～山14　上水
 41
0.9
  7
寸法
100
AcDbText
  0
SOLID
  5
2A159
330
1F
100
AcDbEntity
  8
寸法
100
AcDbTrace
 10
175.821426040234
 20
83.4531762770168
 30
0.0
 11
174.6933235196543
 21
81.18359573996313
 31
0.0
 12
176.4965276997876
 22
82.9646251602313
 32
0.0
 13
176.4965276997876
 23
82.9646251602313
 33
0.0
1001
ACAD
1000
DSTYLE
1002
{
1070
   147
1040
1.0
1070
    77
1070
     0
1002
}
  0
LWPOLYLINE
  5
2A15A
330
1F
100
AcDbEntity
  8
寸法
100
AcDbPolyline
 90
        3
 70
     0
 43
0.0
 10
174.6933235196543
 20
81.18359573996313
 10
184.1223215699697
 20
94.21300456329975
 10
229.9100798352346
 20
94.21300456329975
1001
ACAD
1000
DSTYLE
1002
{
1070
   147
1040
1.0
1070
    77
1070
     0
1002
}
  0
TEXT
  5
2A15B
330
1F
100
AcDbEntity
  8
寸法
100
AcDbText
 10
186.8959732580305
 20
95.72461820873916
 30
0.0
 40
3.5
  1
φ25.8～山14　金門
 41
0.9
  7
寸法
100
AcDbText
  0
LINE
  5
2A351
330
1F
100
AcDbEntity
  8
0
100
AcDbLine
 10
280.0
 20
20.0
 30
0.0
 11
280.0
 21
68.0
 31
0.0
  0
LINE
  5
2A352
330
1F
100
AcDbEntity
  8
0
100
AcDbLine
 10
280.0
 20
35.0
 30
0.0
 11
405.0
 21
35.0
 31
0.0
  0
LINE
  5
2A353
330
1F
100
AcDbEntity
  8
0
100
AcDbLine
 10
280.0
 20
58.0
 30
0.0
 11
405.0
 21
58.0
 31
0.0
  0
LINE
  5
2A354
330
1F
100
AcDbEntity
  8
0
100
AcDbLine
 10
280.0
 20
68.0
 30
0.0
 11
405.0
 21
68.0
 31
0.0
  0
LINE
  5
2A355
330
1F
100
AcDbEntity
  8
0
100
AcDbLine
 10
292.5
 20
35.0
 30
0.0
 11
292.5
 21
20.0
 31
0.0
  0
LINE
  5
2A356
330
1F
100
AcDbEntity
  8
0
100
AcDbLine
 10
305.0
 20
35.0
 30
0.0
 11
305.0
 21
20.0
 31
0.0
  0
LINE
  5
2A357
330
1F
100
AcDbEntity
  8
0
100
AcDbLine
 10
317.5
 20
35.0
 30
0.0
 11
317.5
 21
20.0
 31
0.0
  0
LINE
  5
2A358
330
1F
100
AcDbEntity
  8
0
100
AcDbLine
 10
330.0
 20
35.0
 30
0.0
 11
330.0
 21
20.0
 31
0.0
  0
LINE
  5
2A359
330
1F
100
AcDbEntity
  8
0
100
AcDbLine
 10
342.5
 20
58.0
 30
0.0
 11
342.5
 21
20.0
 31
0.0
  0
LINE
  5
2A35A
330
1F
100
AcDbEntity
  8
0
100
AcDbLine
 10
373.7499999999999
 20
46.49999999999999
 30
0.0
 11
373.7499999999999
 21
35.0
 31
0.0
  0
LINE
  5
2A35B
330
1F
100
AcDbEntity
  8
0
100
AcDbLine
 10
301.5
 20
68.0
 30
0.0
 11
301.5
 21
58.0
 31
0.0
  0
LINE
  5
2A35C
330
1F
100
AcDbEntity
  8
0
100
AcDbLine
 10
280.0
 20
31.0
 30
0.0
 11
342.5
 21
31.0
 31
0.0
  0
TEXT
  5
2A35D
330
1F
100
AcDbEntity
  8
0
100
AcDbText
 10
287.96
 20
61.5
 30
0.0
 40
3.0
  1
品名
 41
0.9
 72
     1
 11
290.75
 21
63.0
 31
0.0
100
AcDbText
 73
     2
  0
TEXT
  5
2A35E
330
1F
100
AcDbEntity
  8
0
100
AcDbText
 10
283.37
 20
31.5
 30
0.0
 40
3.0
  1
承認
 41
0.9
 72
     1
 11
286.25
 21
33.0
 31
0.0
100
AcDbText
 73
     2
  0
TEXT
  5
2A35F
330
1F
100
AcDbEntity
  8
0
100
AcDbText
 10
295.96
 20
31.5
 30
0.0
 40
3.0
  1
検図
 41
0.9
 72
     1
 11
298.75
 21
33.0
 31
0.0
100
AcDbText
 73
     2
  0
TEXT
  5
2A360
330
1F
100
AcDbEntity
  8
0
100
AcDbText
 10
308.46
 20
31.5
 30
0.0
 40
3.0
  1
製図
 41
0.9
 72
     1
 11
311.25
 21
33.0
 31
0.0
100
AcDbText
 73
     2
  0
TEXT
  5
2A361
330
1F
100
AcDbEntity
  8
0
100
AcDbText
 10
319.43
 20
31.5
 30
0.0
 40
3.0
  1
年月日
 41
0.9
 72
     1
 11
323.75
 21
33.0
 31
0.0
100
AcDbText
 73
     2
  0
TEXT
  5
2A362
330
1F
100
AcDbEntity
  8
0
100
AcDbText
 10
333.37
 20
31.5
 30
0.0
 40
3.0
  1
尺度
 41
0.9
 72
     1
 11
336.25
 21
33.0
 31
0.0
100
AcDbText
 73
     2
  0
TEXT
  5
2A363
330
1F
100
AcDbEntity
  8
0
100
AcDbText
 10
347.5141191097013
 20
25.47732717604083
 30
0.0
 40
5.0
  1
柏原計器工業株式会社
 41
0.9
 72
     1
 11
373.9141191097012
 21
27.97732717604083
 31
0.0
100
AcDbText
 73
     2
  0
TEXT
  5
2A364
330
1F
100
AcDbEntity
  8
0
100
AcDbText
 10
331.75
 20
23.75
 30
0.0
 40
3.5
  1
free
 41
0.9
 72
     1
 11
336.25
 21
25.5
 31
0.0
100
AcDbText
 73
     2
  0
TEXT
  5
2A365
330
1F
100
AcDbEntity
  8
0
100
AcDbText
 10
306.5860329945233
 20
50.90516497261692
 30
0.0
 40
3.5
  1
外観図
 41
0.9
 72
     1
 11
311.7310329945233
 21
52.65516497261692
 31
0.0
100
AcDbText
 73
     2
  0
TEXT
  5
2A366
330
1F
100
AcDbEntity
  8
0
100
AcDbText
 10
318.7335983023971
 20
61.25
 30
0.0
 40
3.5
  1
ハイブリッド式水道メーター　13mm
 41
0.9
 72
     1
 11
352.3935983023971
 21
63.0
 31
0.0
100
AcDbText
 73
     2
  0
LINE
  5
2A367
330
1F
100
AcDbEntity
  8
0
100
AcDbLine
 10
404.9999999999998
 20
46.49999999999999
 30
0.0
 11
280.0
 21
46.5
 31
0.0
  0
LINE
  5
2A369
330
1F
100
AcDbEntity
  8
0
100
AcDbLine
 10
347.5
 20
57.99999999999999
 30
0.0
 11
347.5
 21
46.5
 31
0.0
  0
TEXT
  5
2A36A
330
1F
100
AcDbEntity
  8
0
100
AcDbText
 10
343.8012444219987
 20
53.78915733104803
 30
0.0
 40
3.0
  1
図
 41
0.9
 72
     1
 11
345.0612444219987
 21
55.28915733104803
 31
0.0
100
AcDbText
 73
     2
  0
TEXT
  5
2A36B
330
1F
100
AcDbEntity
  8
0
100
AcDbText
 10
343.74
 20
48.125
 30
0.0
 40
3.0
  1
番
 41
0.9
 72
     1
 11
345.0
 21
49.62499999999999
 31
0.0
100
AcDbText
 73
     2
  0
LINE
  5
2A36C
330
1F
100
AcDbEntity
  8
0
100
AcDbLine
 10
285.0
 20
46.49999999999999
 30
0.0
 11
285.0
 21
35.0
 31
0.0
  0
TEXT
  5
2A36D
330
1F
100
AcDbEntity
  8
0
100
AcDbText
 10
281.3012444219987
 20
42.28915733104803
 30
0.0
 40
3.0
  1
摘
 41
0.9
 72
     1
 11
282.5612444219987
 21
43.78915733104803
 31
0.0
100
AcDbText
 73
     2
  0
TEXT
  5
2A36E
330
1F
100
AcDbEntity
  8
0
100
AcDbText
 10
281.24
 20
36.625
 30
0.0
 40
3.0
  1
要
 41
0.9
 72
     1
 11
282.5
 21
38.125
 31
0.0
100
AcDbText
 73
     2
  0
LINE
  5
2A36F
330
1F
100
AcDbEntity
  8
0
100
AcDbLine
 10
285.0
 20
57.99999999999999
 30
0.0
 11
285.0
 21
46.5
 31
0.0
  0
TEXT
  5
2A370
330
1F
100
AcDbEntity
  8
0
100
AcDbText
 10
281.3912444219987
 20
53.78915733104803
 30
0.0
 40
3.0
  1
名
 41
0.9
 72
     1
 11
282.5612444219987
 21
55.28915733104803
 31
0.0
100
AcDbText
 73
     2
  0
TEXT
  5
2A371
330
1F
100
AcDbEntity
  8
0
100
AcDbText
 10
281.24
 20
48.125
 30
0.0
 40
3.0
  1
称
 41
0.9
 72
     1
 11
282.5
 21
49.62499999999999
 31
0.0
100
AcDbText
 73
     2
  0
LINE
  5
2A372
330
1F
100
AcDbEntity
  8
0
  6
CENTER
 48
0.2
370
    15
100
AcDbLine
 10
380.3743237194039
 20
40.70717840942182
 30
0.0
 11
402.3661932218493
 21
40.70717840942182
 31
0.0
  0
LINE
  5
2A373
330
1F
100
AcDbEntity
  8
0
  6
CENTER
 48
0.2
370
    15
100
AcDbLine
 10
385.6829979138538
 20
45.02275052681983
 30
0.0
 11
385.6829979138538
 21
36.39160629202382
 31
0.0
  0
CIRCLE
  5
2A374
330
1F
100
AcDbEntity
  8
0
100
AcDbCircle
 10
385.6829979138538
 20
40.70717840942182
 30
0.0
 40
3.616483184024218
  0
CIRCLE
  5
2A375
330
1F
100
AcDbEntity
  8
0
100
AcDbCircle
 10
385.6829979138538
 20
40.70717840942182
 30
0.0
 40
2.153012167676263
  0
LINE
  5
2A376
330
1F
100
AcDbEntity
  8
0
100
AcDbLine
 10
391.435352056124
 20
42.86019057709808
 30
0.0
 11
391.435352056124
 21
38.5377720924151
 31
0.0
  0
LINE
  5
2A377
330
1F
100
AcDbEntity
  8
0
100
AcDbLine
 10
391.435352056124
 20
38.5377720924151
 30
0.0
 11
400.8293035353753
 21
37.0906952253976
 31
0.0
  0
LINE
  5
2A378
330
1F
100
AcDbEntity
  8
0
100
AcDbLine
 10
400.8293035353753
 20
37.0906952253976
 30
0.0
 11
400.8293035353753
 21
44.32366159344604
 31
0.0
  0
LINE
  5
2A379
330
1F
100
AcDbEntity
  8
0
100
AcDbLine
 10
400.8293035353753
 20
44.32366159344604
 30
0.0
 11
391.435352056124
 21
42.86019057709808
 31
0.0
  0
TEXT
  5
2A37A
330
1F
100
AcDbEntity
  8
0
100
AcDbText
 10
343.8012444219987
 20
42.28915733104803
 30
0.0
 40
3.0
  1
材
 41
0.9
 72
     1
 11
345.0612444219987
 21
43.78915733104803
 31
0.0
100
AcDbText
 73
     2
  0
TEXT
  5
2A37B
330
1F
100
AcDbEntity
  8
0
100
AcDbText
 10
343.74
 20
36.625
 30
0.0
 40
3.0
  1
質
 41
0.9
 72
     1
 11
345.0
 21
38.125
 31
0.0
100
AcDbText
 73
     2
  0
LINE
  5
2A37C
330
1F
100
AcDbEntity
  8
0
100
AcDbLine
 10
347.5
 20
46.49999999999999
 30
0.0
 11
347.5
 21
35.0
 31
0.0
  0
TEXT
  5
2A37D
330
1F
100
AcDbEntity
  8
0
100
AcDbText
 10
375.0512444219985
 20
42.72828299788964
 30
0.0
 40
3.0
  1
投
 41
0.9
 72
     1
 11
376.3112444219985
 21
44.22828299788965
 31
0.0
100
AcDbText
 73
     2
  0
TEXT
  5
2A37E
330
1F
100
AcDbEntity
  8
0
100
AcDbText
 10
374.9899999999998
 20
35.74674936600604
 30
0.0
 40
3.0
  1
法
 41
0.9
 72
     1
 11
376.2499999999998
 21
37.24674936600604
 31
0.0
100
AcDbText
 73
     2
  0
LINE
  5
2A37F
330
1F
100
AcDbEntity
  8
0
100
AcDbLine
 10
378.7499999999998
 20
46.49999999999999
 30
0.0
 11
378.7499999999998
 21
35.0
 31
0.0
  0
TEXT
  5
2A380
330
1F
100
AcDbEntity
  8
0
100
AcDbText
 10
375.0512444219985
 20
39.32506030432352
 30
0.0
 40
3.0
  1
影
 41
0.9
 72
     1
 11
376.3112444219985
 21
40.82506030432351
 31
0.0
100
AcDbText
 73
     2
  0
TEXT
  5
2A77A
330
1F
100
AcDbEntity
  8
0
100
AcDbText
 10
317.8166666666667
 20
26.58703627890884
 30
0.0
 40
3.5
  1
2019.
 41
0.8
 72
     1
 11
323.75
 21
28.33703627890884
 31
0.0
100
AcDbText
 73
     2
  0
TEXT
  5
2A77B
330
1F
100
AcDbEntity
  8
0
100
AcDbText
 10
317.55
 20
21.53356531963254
 30
0.0
 40
3.5
  1
11.20
 41
0.8
 72
     1
 11
323.75
 21
23.28356531963255
 31
0.0
100
AcDbText
 73
     2
  0
TEXT
  5
2B123
330
1F
100
AcDbEntity
  8
0
100
AcDbText
 10
301.9060329945233
 20
39.40516497261692
 30
0.0
 40
3.5
  1
PDH-13
 41
0.9
 72
     1
 11
311.7310329945233
 21
41.15516497261692
 31
0.0
100
AcDbText
 73
     2
  0
LINE
  5
2B884
330
1F
100
AcDbEntity
  8
一点鎖線
100
AcDbLine
 10
130.9433235196543
 20
141.3067769831848
 30
0.0
 11
130.9433235196543
 21
41.68087607299873
 31
0.0
  0
LINE
  5
2B885
330
1F
100
AcDbEntity
  8
実線
100
AcDbLine
 10
94.94332351965431
 20
59.78359573996312
 30
0.0
 11
97.06030789452917
 21
59.78359573996312
 31
0.0
  0
LINE
  5
2B886
330
1F
100
AcDbEntity
  8
実線
100
AcDbLine
 10
94.94332351965431
 20
76.78359573996309
 30
0.0
 11
95.94332351965432
 21
76.78359573996309
 31
0.0
  0
LINE
  5
2B887
330
1F
100
AcDbEntity
  8
実線
100
AcDbLine
 10
80.94332351965432
 20
79.68359573996309
 30
0.0
 11
82.44332351965431
 21
81.18359573996309
 31
0.0
  0
LINE
  5
2B888
330
1F
100
AcDbEntity
  8
実線
100
AcDbLine
 10
80.94332351965432
 20
56.88359573996308
 30
0.0
 11
82.44332351965431
 21
55.38359573996308
 31
0.0
  0
LINE
  5
2B88B
102
{ACAD_REACTORS
330
2BB3D
102
}
330
1F
100
AcDbEntity
  8
実線
100
AcDbLine
 10
80.94332351965432
 20
79.68359573996309
 30
0.0
 11
80.94332351965432
 21
56.88359573996308
 31
0.0
  0
ARC
  5
2B88C
330
1F
100
AcDbEntity
  8
実線
100
AcDbCircle
 10
94.94332351965431
 20
56.78359573996312
 30
0.0
 40
3.0
100
AcDbArc
 50
90.0
 51
180.0
  0
LINE
  5
2B88D
330
1F
100
AcDbEntity
  8
実線
100
AcDbLine
 10
82.44332351965431
 20
55.38359573996308
 30
0.0
 11
91.94332351965419
 21
55.38359573996308
 31
0.0
  0
LINE
  5
2B88E
330
1F
100
AcDbEntity
  8
実線
100
AcDbLine
 10
91.94332351965419
 20
55.38359573996308
 30
0.0
 11
91.94332351965419
 21
56.78359573996312
 31
0.0
  0
LINE
  5
2B88F
330
1F
100
AcDbEntity
  8
実線
100
AcDbLine
 10
91.94332351965419
 20
81.18359573996309
 30
0.0
 11
91.94332351965419
 21
79.78359573996312
 31
0.0
  0
ARC
  5
2B890
330
1F
100
AcDbEntity
  8
実線
100
AcDbCircle
 10
94.94332351965431
 20
79.78359573996312
 30
0.0
 40
3.0
100
AcDbArc
 50
180.0
 51
270.0
  0
LINE
  5
2B891
330
1F
100
AcDbEntity
  8
実線
100
AcDbLine
 10
82.44332351965431
 20
81.18359573996309
 30
0.0
 11
91.94332351965419
 21
81.18359573996309
 31
0.0
  0
LINE
  5
2B892
330
1F
100
AcDbEntity
  8
実線
100
AcDbLine
 10
137.8273817295801
 20
48.48194533625932
 30
0.0
 11
132.4433235196543
 21
45.68223506709791
 31
0.0
  0
LINE
  5
2B893
330
1F
100
AcDbEntity
  8
実線
100
AcDbLine
 10
124.0592653097284
 20
48.48194533625932
 30
0.0
 11
129.4433235196543
 21
45.68223506709776
 31
0.0
  0
ARC
  5
2B894
330
1F
100
AcDbEntity
  8
実線
100
AcDbCircle
 10
154.0603078945291
 20
48.28359573996312
 30
0.0
 40
3.0
100
AcDbArc
 50
270.0
 51
334.2306723756585
  0
ARC
  5
2B895
330
1F
100
AcDbEntity
  8
実線
100
AcDbCircle
 10
107.8263391447793
 20
48.28359573996312
 30
0.0
 40
3.0
100
AcDbArc
 50
205.7693276243415
 51
270.0
  0
LINE
  5
2B896
330
1F
100
AcDbEntity
  8
実線
100
AcDbLine
 10
154.0603078945291
 20
45.28359573996309
 30
0.0
 11
130.9433235196543
 21
45.28359573996309
 31
0.0
  0
LINE
  5
2B897
102
{ACAD_REACTORS
330
2BB55
330
2BB84
102
}
330
1F
100
AcDbEntity
  8
実線
100
AcDbLine
 10
107.8263391447793
 20
45.28359573996309
 30
0.0
 11
130.9433235196543
 21
45.28359573996309
 31
0.0
  0
LINE
  5
2B898
330
1F
100
AcDbEntity
  8
実線
100
AcDbLine
 10
160.3542031897798
 20
57.78359573996309
 30
0.0
 11
130.9433235196543
 21
57.78359573996309
 31
0.0
  0
LINE
  5
2B899
330
1F
100
AcDbEntity
  8
実線
100
AcDbLine
 10
98.94332351965431
 20
97.28359573996312
 30
0.0
 11
98.94332351965431
 21
79.78359573996309
 31
0.0
  0
LINE
  5
2B89A
330
1F
100
AcDbEntity
  8
実線
100
AcDbLine
 10
101.5324438495288
 20
57.78359573996309
 30
0.0
 11
130.9433235196543
 21
57.78359573996309
 31
0.0
  0
ARC
  5
2B89B
330
1F
100
AcDbEntity
  8
実線
100
AcDbCircle
 10
97.06030789452917
 20
56.78359573996312
 30
0.0
 40
3.0
100
AcDbArc
 50
25.76932762434129
 51
90.0
  0
LINE
  5
2B89C
330
1F
100
AcDbEntity
  8
実線
100
AcDbLine
 10
105.1246842356855
 20
46.97934854246955
 30
0.0
 11
99.76196280362296
 21
58.08784293745666
 31
0.0
  0
ARC
  5
2B89D
330
1F
100
AcDbEntity
  8
実線
100
AcDbCircle
 10
101.5324438495288
 20
60.78359573996308
 30
0.0
 40
3.0
100
AcDbArc
 50
221.8103148957836
 51
270.0
  0
ARC
  5
2B89E
330
1F
100
AcDbEntity
  8
実線
100
AcDbCircle
 10
95.94332351965432
 20
79.78359573996309
 30
0.0
 40
3.0
100
AcDbArc
 50
270.0
 51
0.0
  0
ARC
  5
2B89F
330
1F
100
AcDbEntity
  8
実線
100
AcDbCircle
 10
117.4433235196543
 20
52.78359573996309
 30
0.0
 40
5.0
100
AcDbArc
 50
0.0
 51
90.0
  0
ARC
  5
2B8A0
330
1F
100
AcDbEntity
  8
実線
100
AcDbCircle
 10
125.4433235196543
 20
51.1435957399631
 30
0.0
 40
3.0
100
AcDbArc
 50
180.0
 51
242.5255683737241
  0
LINE
  5
2B8A1
330
1F
100
AcDbEntity
  8
実線
100
AcDbLine
 10
122.4433235196543
 20
52.78359573996309
 30
0.0
 11
122.4433235196543
 21
51.14359573996313
 31
0.0
  0
ARC
  5
2B8A2
330
1F
100
AcDbEntity
  8
実線
100
AcDbCircle
 10
144.4433235196543
 20
52.78359573996309
 30
0.0
 40
5.0
100
AcDbArc
 50
90.0
 51
180.0
  0
ARC
  5
2B8A3
330
1F
100
AcDbEntity
  8
実線
100
AcDbCircle
 10
136.4433235196543
 20
51.1435957399631
 30
0.0
 40
3.0
100
AcDbArc
 50
297.4744316262759
 51
0.0
  0
LINE
  5
2B8A4
330
1F
100
AcDbEntity
  8
実線
100
AcDbLine
 10
139.4433235196543
 20
52.78359573996309
 30
0.0
 11
139.4433235196543
 21
51.1435957399631
 31
0.0
  0
ARC
  5
2B8A5
330
1F
100
AcDbEntity
  8
実線
100
AcDbCircle
 10
95.94332351965432
 20
97.28359573996312
 30
0.0
 40
3.0
100
AcDbArc
 50
0.0
 51
90.0
  0
LINE
  5
2B8A6
330
1F
100
AcDbEntity
  8
実線
100
AcDbLine
 10
94.94332351965431
 20
100.2835957399631
 30
0.0
 11
95.94332351965432
 21
100.2835957399631
 31
0.0
  0
LINE
  5
2B8A7
330
1F
100
AcDbEntity
  8
実線
100
AcDbLine
 10
162.9433235196543
 20
97.28359573996312
 30
0.0
 11
162.9433235196543
 21
80.08359573996306
 31
0.0
  0
LINE
  5
2B8A8
330
1F
100
AcDbEntity
  8
実線
100
AcDbLine
 10
166.9433235196543
 20
77.08359573996306
 30
0.0
 11
165.9433235196543
 21
77.08359573996306
 31
0.0
  0
LINE
  5
2B8A9
330
1F
100
AcDbEntity
  8
実線
100
AcDbLine
 10
166.9433235196543
 20
59.78359573996312
 30
0.0
 11
164.8263391447793
 21
59.78359573996312
 31
0.0
  0
ARC
  5
2B8AA
330
1F
100
AcDbEntity
  8
実線
100
AcDbCircle
 10
164.8263391447793
 20
56.78359573996312
 30
0.0
 40
3.0
100
AcDbArc
 50
90.0
 51
154.2306723756587
  0
LINE
  5
2B8AB
330
1F
100
AcDbEntity
  8
実線
100
AcDbLine
 10
156.7619628036228
 20
46.97934854246955
 30
0.0
 11
162.1246842356855
 21
58.08784293745666
 31
0.0
  0
ARC
  5
2B8AC
330
1F
100
AcDbEntity
  8
実線
100
AcDbCircle
 10
160.3542031897798
 20
60.78359573996308
 30
0.0
 40
3.0
100
AcDbArc
 50
270.0
 51
318.1896851042164
  0
ARC
  5
2B8AD
330
1F
100
AcDbEntity
  8
実線
100
AcDbCircle
 10
165.9433235196543
 20
80.08359573996306
 30
0.0
 40
3.0
100
AcDbArc
 50
180.0
 51
270.0
  0
LINE
  5
2B8AE
330
1F
100
AcDbEntity
  8
実線
100
AcDbLine
 10
180.9433235196543
 20
79.68359573996306
 30
0.0
 11
180.9433235196543
 21
56.88359573996303
 31
0.0
  0
ARC
  5
2B8AF
330
1F
100
AcDbEntity
  8
実線
100
AcDbCircle
 10
166.6747264060223
 20
56.52578018211585
 30
0.0
 40
3.268869318036935
100
AcDbArc
 50
359.2605829867967
 51
85.28679502539068
  0
LINE
  5
2B8B0
330
1F
100
AcDbEntity
  8
実線
100
AcDbLine
 10
179.4433235196543
 20
55.38359573996307
 30
0.0
 11
169.9433235196543
 21
55.38359573996307
 31
0.0
  0
LINE
  5
2B8B2
330
1F
100
AcDbEntity
  8
実線
100
AcDbLine
 10
169.9433235196543
 20
55.38359573996308
 30
0.0
 11
169.9433235196543
 21
56.48359573996311
 31
0.0
  0
LINE
  5
2B8B3
330
1F
100
AcDbEntity
  8
実線
100
AcDbLine
 10
180.9433235196543
 20
56.88359573996307
 30
0.0
 11
179.4433235196543
 21
55.38359573996307
 31
0.0
  0
LINE
  5
2B8B4
330
1F
100
AcDbEntity
  8
実線
100
AcDbLine
 10
169.9433235196543
 20
81.18359573996308
 30
0.0
 11
169.9433235196543
 21
80.08359573996308
 31
0.0
  0
LINE
  5
2B8B5
330
1F
100
AcDbEntity
  8
実線
100
AcDbLine
 10
180.9433235196543
 20
79.68359573996308
 30
0.0
 11
179.4433235196543
 21
81.18359573996308
 31
0.0
  0
ARC
  5
2B8B7
330
1F
100
AcDbEntity
  8
実線
100
AcDbCircle
 10
166.9433235196543
 20
80.08359573996308
 30
0.0
 40
3.0
100
AcDbArc
 50
270.0
 51
0.0
  0
LINE
  5
2B8B8
330
1F
100
AcDbEntity
  8
実線
100
AcDbLine
 10
179.4433235196543
 20
81.18359573996308
 30
0.0
 11
169.9433235196543
 21
81.18359573996308
 31
0.0
  0
ARC
  5
2B8B9
330
1F
100
AcDbEntity
  8
実線
100
AcDbCircle
 10
165.9433235196543
 20
97.28359573996312
 30
0.0
 40
3.0
100
AcDbArc
 50
90.0
 51
180.0
  0
LINE
  5
2B8BA
330
1F
100
AcDbEntity
  8
実線
100
AcDbLine
 10
166.9433235196543
 20
100.2835957399631
 30
0.0
 11
165.9433235196543
 21
100.2835957399631
 31
0.0
  0
LINE
  5
2B8BB
330
1F
100
AcDbEntity
  8
実線
100
AcDbLine
 10
94.94332351965431
 20
103.7835957399631
 30
0.0
 11
94.94332351965431
 21
100.2835957399631
 31
0.0
  0
LINE
  5
2B8BC
330
1F
100
AcDbEntity
  8
実線
100
AcDbLine
 10
166.9433235196544
 20
103.7835957399631
 30
0.0
 11
166.9433235196543
 21
100.2835957399631
 31
0.0
  0
LINE
  5
2B8BD
102
{ACAD_REACTORS
330
2BB55
102
}
330
1F
100
AcDbEntity
  8
一点鎖線
100
AcDbLine
 10
187.076261832854
 20
68.28359573996306
 30
0.0
 11
74.81038520645461
 21
68.28359573996315
 31
0.0
  0
CIRCLE
  5
2B8C4
330
1F
100
AcDbEntity
  8
実線
100
AcDbCircle
 10
89.94332351965431
 20
126.2835957400267
 30
0.0
 40
1.35
  0
LINE
  5
2B8C5
330
1F
100
AcDbEntity
  8
実線
100
AcDbLine
 10
175.4433235196543
 20
126.2835957400267
 30
0.0
 11
175.4433235196543
 21
106.7835957399631
 31
0.0
  0
LINE
  5
2B8C6
330
1F
100
AcDbEntity
  8
実線
100
AcDbLine
 10
86.44332351965431
 20
126.2835957400267
 30
0.0
 11
86.44332351965431
 21
106.7835957399631
 31
0.0
  0
LINE
  5
2B8C7
330
1F
100
AcDbEntity
  8
実線
100
AcDbLine
 10
93.44332351965432
 20
103.7835957399631
 30
0.0
 11
168.4433235196543
 21
103.7835957399631
 31
0.0
  0
LINE
  5
2B8C8
330
1F
100
AcDbEntity
  8
実線
100
AcDbLine
 10
89.94332351965431
 20
129.7835957400267
 30
0.0
 11
130.9433235196543
 21
129.7835957400267
 31
0.0
  0
LINE
  5
2B8C9
330
1F
100
AcDbEntity
  8
実線
100
AcDbLine
 10
87.44332351965431
 20
105.7835957399631
 30
0.0
 11
91.44332351965431
 21
105.7835957399631
 31
0.0
  0
LINE
  5
2B8CA
330
1F
100
AcDbEntity
  8
実線
100
AcDbLine
 10
93.44332351965432
 20
122.2835957400267
 30
0.0
 11
167.9433235196542
 21
122.2835957400267
 31
0.0
  0
LINE
  5
2B8CB
330
1F
100
AcDbEntity
  8
実線
100
AcDbLine
 10
130.9433235196543
 20
129.7835957400267
 30
0.0
 11
171.9433235196543
 21
129.7835957400267
 31
0.0
  0
LINE
  5
2B8CC
330
1F
100
AcDbEntity
  8
実線
100
AcDbLine
 10
170.4433235196543
 20
105.7835957399631
 30
0.0
 11
174.4433235196543
 21
105.7835957399631
 31
0.0
  0
LINE
  5
2B8CD
330
1F
100
AcDbEntity
  8
実線
100
AcDbLine
 10
167.9433235196543
 20
129.7835957400267
 30
0.0
 11
167.9433235196543
 21
122.2835957400267
 31
0.0
  0
LINE
  5
2B8CE
330
1F
100
AcDbEntity
  8
実線
100
AcDbLine
 10
93.94332351965431
 20
126.0335957400267
 30
0.0
 11
93.94332351965431
 21
122.2835957400267
 31
0.0
  0
LINE
  5
2B8CF
330
1F
100
AcDbEntity
  8
実線
100
AcDbLine
 10
167.9433235196543
 20
122.2835957400267
 30
0.0
 11
168.4433235196543
 21
122.2835957400267
 31
0.0
  0
LINE
  5
2B8D0
330
1F
100
AcDbEntity
  8
実線
100
AcDbLine
 10
169.4433235196543
 20
104.9835957399631
 30
0.0
 11
169.4433235196543
 21
104.7835957399631
 31
0.0
  0
ARC
  5
2B8D1
330
1F
100
AcDbEntity
  8
実線
100
AcDbCircle
 10
89.94332351965431
 20
126.2835957400267
 30
0.0
 40
3.5
100
AcDbArc
 50
90.0
 51
180.0
  0
ARC
  5
2B8D2
330
1F
100
AcDbEntity
  8
実線
100
AcDbCircle
 10
171.9433235196543
 20
126.2835957400267
 30
0.0
 40
3.5
100
AcDbArc
 50
0.0
 51
90.0
  0
LINE
  5
2B8D3
330
1F
100
AcDbEntity
  8
実線
100
AcDbLine
 10
92.44332351965431
 20
104.7835957399631
 30
0.0
 11
92.44332351965431
 21
104.7835957399631
 31
0.0
  0
LINE
  5
2B8D4
330
1F
100
AcDbEntity
  8
実線
100
AcDbLine
 10
127.9433235196543
 20
120.2835957400267
 30
0.0
 11
130.9433235196543
 21
120.2835957400267
 31
0.0
  0
LINE
  5
2B8D5
330
1F
100
AcDbEntity
  8
実線
100
AcDbLine
 10
169.4433235196543
 20
104.7835957399631
 30
0.0
 11
169.4433235196543
 21
104.7835957399631
 31
0.0
  0
ARC
  5
2B8D6
330
1F
100
AcDbEntity
  8
実線
100
AcDbCircle
 10
93.44332351965432
 20
121.2835957400267
 30
0.0
 40
1.0
100
AcDbArc
 50
90.0
 51
180.0
  0
ARC
  5
2B8D7
330
1F
100
AcDbEntity
  8
実線
100
AcDbCircle
 10
64.66489481181213
 20
132.573749591413
 30
0.0
 40
30.0
100
AcDbArc
 50
316.5477361277676
 51
354.6634862983414
  0
LINE
  5
2B8D8
330
1F
100
AcDbEntity
  8
実線
100
AcDbLine
 10
127.9433235196543
 20
105.7835957399631
 30
0.0
 11
130.9433235196543
 21
105.7835957399631
 31
0.0
  0
ARC
  5
2B8D9
330
1F
100
AcDbEntity
  8
実線
100
AcDbCircle
 10
168.4433235196543
 20
121.2835957400267
 30
0.0
 40
1.0
100
AcDbArc
 50
0.0
 51
90.0
  0
ARC
  5
2B8DA
330
1F
100
AcDbEntity
  8
実線
100
AcDbCircle
 10
168.4433235196543
 20
104.7835957399631
 30
0.0
 40
1.0
100
AcDbArc
 50
270.0
 51
0.0
  0
ARC
  5
2B8DB
330
1F
100
AcDbEntity
  8
実線
100
AcDbCircle
 10
170.4433235196543
 20
104.7835957399631
 30
0.0
 40
1.0
100
AcDbArc
 50
90.0
 51
180.0
  0
LINE
  5
2B8DC
330
1F
100
AcDbEntity
  8
実線
100
AcDbLine
 10
169.4433235196543
 20
104.7835957399631
 30
0.0
 11
169.4433235196543
 21
121.2835957400267
 31
0.0
  0
ARC
  5
2B8DD
330
1F
100
AcDbEntity
  8
実線
100
AcDbCircle
 10
174.4433235196543
 20
106.7835957399631
 30
0.0
 40
1.0
100
AcDbArc
 50
270.0
 51
0.0
  0
ARC
  5
2B8DE
330
1F
100
AcDbEntity
  8
実線
100
AcDbCircle
 10
93.44332351965432
 20
104.7835957399631
 30
0.0
 40
1.0
100
AcDbArc
 50
180.0
 51
270.0
  0
ARC
  5
2B8DF
330
1F
100
AcDbEntity
  8
実線
100
AcDbCircle
 10
91.44332351965431
 20
104.7835957399631
 30
0.0
 40
1.0
100
AcDbArc
 50
0.0
 51
90.0
  0
LINE
  5
2B8E0
330
1F
100
AcDbEntity
  8
実線
100
AcDbLine
 10
92.44332351965431
 20
121.2835957400267
 30
0.0
 11
92.44332351965431
 21
104.7835957399631
 31
0.0
  0
ARC
  5
2B8E1
330
1F
100
AcDbEntity
  8
実線
100
AcDbCircle
 10
87.44332351965431
 20
106.7835957399631
 30
0.0
 40
1.0
100
AcDbArc
 50
180.0
 51
270.0
  0
LINE
  5
2B8E2
330
1F
100
AcDbEntity
  8
実線
100
AcDbLine
 10
127.9433235196543
 20
120.2835957400267
 30
0.0
 11
127.9433235196543
 21
105.7835957399631
 31
0.0
  0
LINE
  5
2B8E3
330
1F
100
AcDbEntity
  8
実線
100
AcDbLine
 10
133.9433235196543
 20
120.2835957400267
 30
0.0
 11
130.9433235196543
 21
120.2835957400267
 31
0.0
  0
LINE
  5
2B8E4
330
1F
100
AcDbEntity
  8
実線
100
AcDbLine
 10
133.9433235196543
 20
105.7835957399631
 30
0.0
 11
130.9433235196543
 21
105.7835957399631
 31
0.0
  0
LINE
  5
2B8E5
330
1F
100
AcDbEntity
  8
実線
100
AcDbLine
 10
133.9433235196543
 20
120.2835957400267
 30
0.0
 11
133.9433235196543
 21
105.7835957399631
 31
0.0
  0
LINE
  5
2B8E6
330
1F
100
AcDbEntity
  8
実線
100
AcDbLine
 10
129.4433235196543
 20
56.78359573996309
 30
0.0
 11
129.4433235196543
 21
45.68223506709782
 31
0.0
  0
LINE
  5
2B8E7
330
1F
100
AcDbEntity
  8
実線
100
AcDbLine
 10
132.4433235196543
 20
56.78359573996309
 30
0.0
 11
132.4433235196543
 21
45.68223506709784
 31
0.0
  0
ARC
  5
2B8E8
330
1F
100
AcDbEntity
  8
実線
100
AcDbCircle
 10
128.4433235196543
 20
56.78359573996309
 30
0.0
 40
1.0
100
AcDbArc
 50
0.0
 51
90.0
  0
ARC
  5
2B8E9
330
1F
100
AcDbEntity
  8
実線
100
AcDbCircle
 10
133.4433235196543
 20
56.78359573996309
 30
0.0
 40
1.0
100
AcDbArc
 50
90.0
 51
180.0
  0
TEXT
  5
2B8EA
330
1F
100
AcDbEntity
  8
文字
100
AcDbText
 10
107.6160507923816
 20
48.4035857014606
 30
0.0
 40
7.0
  1
1
  7
ﾛｺﾞ
 72
     1
 11
109.9433235196543
 21
51.90358570146059
 31
0.0
100
AcDbText
 73
     2
  0
TEXT
  5
2B8EB
330
1F
100
AcDbEntity
  8
文字
100
AcDbText
 10
113.6160507923816
 20
48.4035857014606
 30
0.0
 40
7.0
  1
9
  7
ﾛｺﾞ
 72
     1
 11
115.9433235196543
 21
51.90358570146059
 31
0.0
100
AcDbText
 73
     2
  0
TEXT
  5
2B8EC
330
1F
100
AcDbEntity
  8
文字
 48
0.5
370
     5
100
AcDbText
 10
115.2939728703036
 20
79.95834440717596
 30
0.0
 40
10.0
  1
13
  7
ｽﾀｲﾙ2
 72
     1
 11
121.9433235196543
 21
84.95834440717596
 31
0.0
100
AcDbText
 73
     2
  0
TEXT
  5
2B8ED
330
1F
100
AcDbEntity
  8
文字
100
AcDbText
 10
132.6478689741998
 20
80.02412102115437
 30
0.0
 40
7.0
  1
m
  7
ﾛｺﾞ
 72
     1
 11
136.1433235196543
 21
83.52412102115437
 31
0.0
100
AcDbText
 73
     2
  0
TEXT
  5
2B8EE
330
1F
100
AcDbEntity
  8
文字
100
AcDbText
 10
142.0478689741998
 20
80.02412102115437
 30
0.0
 40
7.0
  1
m
  7
ﾛｺﾞ
 72
     1
 11
145.5433235196543
 21
83.52412102115437
 31
0.0
100
AcDbText
 73
     2
  0
LINE
  5
2B8EF
330
1F
100
AcDbEntity
  8
実線
100
AcDbLine
 10
140.3433235196541
 20
71.28359573996317
 30
0.0
 11
147.3433235196543
 21
68.28359573996315
 31
0.0
  0
LINE
  5
2B8F0
330
1F
100
AcDbEntity
  8
実線
100
AcDbLine
 10
140.3433235196541
 20
65.28359573996311
 30
0.0
 11
147.3433235196543
 21
68.28359573996315
 31
0.0
  0
LINE
  5
2B8F1
330
1F
100
AcDbEntity
  8
実線
100
AcDbLine
 10
113.3433235196543
 20
65.28359573996318
 30
0.0
 11
115.3433235196541
 21
67.28359573996318
 31
0.0
  0
LINE
  5
2B8F2
330
1F
100
AcDbEntity
  8
実線
100
AcDbLine
 10
131.3433235196543
 20
65.28359573996315
 30
0.0
 11
133.3433235196543
 21
67.28359573996314
 31
0.0
  0
LINE
  5
2B8F3
330
1F
100
AcDbEntity
  8
実線
100
AcDbLine
 10
140.3433235196543
 20
67.28359573996314
 30
0.0
 11
140.3433235196541
 21
65.28359573996311
 31
0.0
  0
LINE
  5
2B8F4
330
1F
100
AcDbEntity
  8
実線
100
AcDbLine
 10
113.3433235196544
 20
71.28359573996317
 30
0.0
 11
131.3433235196543
 21
71.28359573996315
 31
0.0
  0
LINE
  5
2B8F5
330
1F
100
AcDbEntity
  8
実線
100
AcDbLine
 10
113.3433235196543
 20
69.28359573996314
 30
0.0
 11
140.3433235196543
 21
69.28359573996314
 31
0.0
  0
LINE
  5
2B8F6
330
1F
100
AcDbEntity
  8
実線
100
AcDbLine
 10
113.3433235196544
 20
67.28359573996318
 30
0.0
 11
140.3433235196543
 21
67.28359573996314
 31
0.0
  0
LINE
  5
2B8F7
330
1F
100
AcDbEntity
  8
実線
100
AcDbLine
 10
140.3433235196543
 20
69.28359573996314
 30
0.0
 11
140.3433235196541
 21
71.28359573996317
 31
0.0
  0
LINE
  5
2B8F8
330
1F
100
AcDbEntity
  8
実線
100
AcDbLine
 10
131.3433235196543
 20
71.28359573996315
 30
0.0
 11
133.3433235196543
 21
69.28359573996314
 31
0.0
  0
LINE
  5
2B8F9
330
1F
100
AcDbEntity
  8
実線
100
AcDbLine
 10
113.3433235196544
 20
71.28359573996317
 30
0.0
 11
115.3433235196541
 21
69.28359573996317
 31
0.0
  0
LINE
  5
2B8FA
330
1F
100
AcDbEntity
  8
実線
100
AcDbLine
 10
113.3433235196544
 20
67.28359573996318
 30
0.0
 11
113.3433235196543
 21
69.28359573996314
 31
0.0
  0
LINE
  5
2B8FB
330
1F
100
AcDbEntity
  8
実線
100
AcDbLine
 10
113.3433235196543
 20
65.28359573996318
 30
0.0
 11
131.3433235196543
 21
65.28359573996315
 31
0.0
  0
TEXT
  5
2B8FC
330
1F
100
AcDbEntity
  8
文字
100
AcDbText
 10
145.1035013383074
 20
48.4035857014606
 30
0.0
 40
7.0
  1
E
  7
ﾛｺﾞ
 72
     1
 11
147.4080467928529
 21
51.90358570146059
 31
0.0
100
AcDbText
 73
     2
  0
LINE
  5
2B8FD
330
1F
100
AcDbEntity
  8
実線
100
AcDbLine
 10
82.44332351965431
 20
81.18359573996309
 30
0.0
 11
82.44332351965431
 21
55.38359573996308
 31
0.0
  0
LINE
  5
2B8FE
330
1F
100
AcDbEntity
  8
実線
100
AcDbLine
 10
179.4433235196543
 20
81.18359573996306
 30
0.0
 11
179.4433235196543
 21
55.38359573996306
 31
0.0
  0
LINE
  5
2B956
330
1F
100
AcDbEntity
  8
一点鎖線
100
AcDbLine
 10
130.9433235196542
 20
147.4394797385973
 30
0.0
 11
130.9433235196542
 21
255.9612926707542
 31
0.0
  0
LINE
  5
2B957
330
1F
100
AcDbEntity
  8
一点鎖線
100
AcDbLine
 10
52.86909889402034
 20
198.223202056238
 30
0.0
 11
209.0175481452883
 21
198.223202056238
 31
0.0
  0
LINE
  5
2B958
330
1F
100
AcDbEntity
  8
実線
100
AcDbLine
 10
157.6291455980538
 20
224.8532020562381
 30
0.0
 11
188.9433235196542
 21
224.8532020562381
 31
0.0
  0
LINE
  5
2B959
330
1F
100
AcDbEntity
  8
実線
100
AcDbLine
 10
158.6925505359153
 20
223.7432020562382
 30
0.0
 11
188.9433235196542
 21
223.743202056238
 31
0.0
  0
ARC
  5
2B95C
330
1F
100
AcDbEntity
  8
実線
100
AcDbCircle
 10
130.9433235196542
 20
198.223202056238
 30
0.0
 40
37.7
100
AcDbArc
 50
15.58079630158679
 51
168.1475503057374
  0
ARC
  5
2B95D
330
1F
100
AcDbEntity
  8
実線
100
AcDbCircle
 10
130.9433235196542
 20
198.223202056238
 30
0.0
 40
37.7
100
AcDbArc
 50
191.8524496940581
 51
343.5955950602309
  0
LINE
  5
2B95E
330
1F
100
AcDbEntity
  8
実線
100
AcDbLine
 10
89.7434578552245
 20
165.5086177660471
 30
0.0
 11
92.57188497997061
 21
168.3370448907931
 31
0.0
  0
LINE
  5
2B95F
330
1F
100
AcDbEntity
  8
実線
100
AcDbLine
 10
98.22873922946303
 20
157.0233363918083
 30
0.0
 11
101.0571663542092
 21
159.8517635165545
 31
0.0
  0
LINE
  5
2B960
330
1F
100
AcDbEntity
  8
実線
100
AcDbLine
 10
85.85437055869864
 20
165.8621711566401
 30
0.0
 11
98.69220351005299
 21
178.7000041079946
 31
0.0
  0
LINE
  5
2B961
330
1F
100
AcDbEntity
  8
実線
100
AcDbLine
 10
98.58229262005659
 20
153.1342490952822
 30
0.0
 11
111.4201255714109
 21
165.9720820466367
 31
0.0
  0
LINE
  5
2B962
330
1F
100
AcDbEntity
  8
一点鎖線
100
AcDbLine
 10
114.8599360441713
 20
214.3065895317212
 30
0.0
 11
67.17508142242763
 21
261.9914441534651
 31
0.0
  0
LINE
  5
2B963
330
1F
100
AcDbEntity
  8
実線
100
AcDbLine
 10
104.592700260142
 20
256.3936304691455
 30
0.0
 11
89.03635107403761
 21
271.9499796552495
 31
0.0
  0
ARC
  5
2B964
330
1F
100
AcDbEntity
  8
実線
100
AcDbCircle
 10
86.91503073047796
 20
269.8286593116898
 30
0.0
 40
3.0
100
AcDbArc
 50
44.99999999999987
 51
135.0000000000004
  0
LINE
  5
2B965
330
1F
100
AcDbEntity
  8
実線
100
AcDbLine
 10
72.77289510674734
 20
224.5738253157507
 30
0.0
 11
57.21654592064329
 21
240.1301745018547
 31
0.0
  0
LINE
  5
2B966
330
1F
100
AcDbEntity
  8
実線
100
AcDbLine
 10
106.3604672131084
 20
251.0903296102461
 30
0.0
 11
102.8249333071755
 21
254.6258635161791
 31
0.0
  0
LINE
  5
2B967
330
1F
100
AcDbEntity
  8
実線
100
AcDbLine
 10
78.07619596564655
 20
222.8060583627841
 30
0.0
 11
74.54066205971378
 21
226.341592268717
 31
0.0
  0
LINE
  5
2B968
330
1F
100
AcDbEntity
  8
実線
100
AcDbLine
 10
99.96115084337009
 20
236.9128386474558
 30
0.0
 11
96.07206354684411
 21
240.8019259439818
 31
0.0
  0
LINE
  5
2B969
330
1F
100
AcDbEntity
  8
実線
100
AcDbLine
 10
92.25368692843677
 20
229.2053747325224
 30
0.0
 11
88.36459963191089
 21
233.0944620290485
 31
0.0
  0
LINE
  5
2B96A
330
1F
100
AcDbEntity
  8
実線
100
AcDbLine
 10
108.8353409472613
 20
253.5652033443989
 30
0.0
 11
105.2998070413282
 21
257.1007372503318
 31
0.0
  0
LINE
  5
2B96B
330
1F
100
AcDbEntity
  8
実線
100
AcDbLine
 10
75.60132223149356
 20
220.3311846286313
 30
0.0
 11
72.06578832556079
 21
223.8667185345639
 31
0.0
  0
LINE
  5
2B96C
330
1F
100
AcDbEntity
  8
実線
100
AcDbLine
 10
85.85437055869864
 20
165.8621711566401
 30
0.0
 11
98.58229262005659
 21
153.1342490952822
 31
0.0
  0
LINE
  5
2B96D
330
1F
100
AcDbEntity
  8
実線
100
AcDbLine
 10
89.7434578552245
 20
165.5086177660471
 30
0.0
 11
98.22873922946314
 21
157.0233363918084
 31
0.0
  0
LINE
  5
2B96E
330
1F
100
AcDbEntity
  8
実線
100
AcDbLine
 10
92.57188497997061
 20
168.3370448907932
 30
0.0
 11
101.0571663542092
 21
159.8517635165545
 31
0.0
  0
LINE
  5
2B96F
330
1F
100
AcDbEntity
  8
実線
100
AcDbLine
 10
163.3043544192522
 20
153.1342490952827
 30
0.0
 11
150.4665214678979
 21
165.972082046637
 31
0.0
  0
LINE
  5
2B970
330
1F
100
AcDbEntity
  8
実線
100
AcDbLine
 10
176.0322764806102
 20
165.8621711566405
 30
0.0
 11
163.1944435292556
 21
178.700004107995
 31
0.0
  0
LINE
  5
2B971
330
1F
100
AcDbEntity
  8
実線
100
AcDbLine
 10
163.3043544192522
 20
153.1342490952827
 30
0.0
 11
176.0322764806102
 21
165.8621711566405
 31
0.0
  0
LINE
  5
2B972
330
1F
100
AcDbEntity
  8
実線
100
AcDbLine
 10
98.58229262005615
 20
243.3121550171938
 30
0.0
 11
111.4201255714105
 21
230.4743220658395
 31
0.0
  0
LINE
  5
2B973
330
1F
100
AcDbEntity
  8
実線
100
AcDbLine
 10
85.85437055869817
 20
230.5842329558359
 30
0.0
 11
98.69220351005276
 21
217.7464000044815
 31
0.0
  0
LINE
  5
2B974
330
1F
100
AcDbEntity
  8
実線
100
AcDbLine
 10
108.8353409472612
 20
253.5652033443989
 30
0.0
 11
75.60132223149356
 21
220.3311846286313
 31
0.0
  0
LINE
  5
2B975
330
1F
100
AcDbEntity
  8
実線
100
AcDbLine
 10
99.9611508433702
 20
236.9128386474559
 30
0.0
 11
92.25368692843687
 21
229.2053747325225
 31
0.0
  0
LINE
  5
2B976
330
1F
100
AcDbEntity
  8
実線
100
AcDbLine
 10
163.6579078098453
 20
157.0233363918086
 30
0.0
 11
160.8294806850994
 21
159.8517635165547
 31
0.0
  0
LINE
  5
2B977
330
1F
100
AcDbEntity
  8
実線
100
AcDbLine
 10
172.143189184084
 20
165.5086177660471
 30
0.0
 11
169.3147620593378
 21
168.3370448907933
 31
0.0
  0
LINE
  5
2B978
330
1F
100
AcDbEntity
  8
実線
100
AcDbLine
 10
163.6579078098453
 20
157.0233363918086
 30
0.0
 11
172.143189184084
 21
165.5086177660471
 31
0.0
  0
LINE
  5
2B979
330
1F
100
AcDbEntity
  8
実線
100
AcDbLine
 10
160.8294806850991
 20
159.8517635165547
 30
0.0
 11
169.3147620593378
 21
168.3370448907933
 31
0.0
  0
LINE
  5
2B97A
330
1F
100
AcDbEntity
  8
実線
100
AcDbLine
 10
98.22873922946303
 20
239.423067720668
 30
0.0
 11
101.057166354209
 21
236.5946405959219
 31
0.0
  0
LINE
  5
2B97B
330
1F
100
AcDbEntity
  8
実線
100
AcDbLine
 10
89.74345785522439
 20
230.9377863464295
 30
0.0
 11
92.57188497997061
 21
228.1093592216832
 31
0.0
  0
LINE
  5
2B97C
330
1F
100
AcDbEntity
  8
実線
100
AcDbLine
 10
98.22873922946303
 20
239.423067720668
 30
0.0
 11
97.83983049981054
 21
239.0341589910154
 31
0.0
  0
LINE
  5
2B97D
330
1F
100
AcDbEntity
  8
実線
100
AcDbLine
 10
90.13236658487722
 20
231.3266950760822
 30
0.0
 11
89.74345785522439
 21
230.9377863464293
 31
0.0
  0
LINE
  5
2B97E
330
1F
100
AcDbEntity
  8
実線
100
AcDbLine
 10
105.2998070413283
 20
257.1007372503318
 30
0.0
 11
72.0657883255609
 21
223.866718534564
 31
0.0
  0
LINE
  5
2B97F
330
1F
100
AcDbEntity
  8
実線
100
AcDbLine
 10
84.79371038691828
 20
271.9499796552494
 30
0.0
 11
57.21654592064339
 21
244.372815188974
 31
0.0
  0
ARC
  5
2B980
330
1F
100
AcDbEntity
  8
実線
100
AcDbCircle
 10
59.33786626420306
 20
242.2514948454144
 30
0.0
 40
3.0
100
AcDbArc
 50
135.0000000000004
 51
224.9999999999997
  0
LINE
  5
2B981
330
1F
100
AcDbEntity
  8
実線
100
AcDbLine
 10
101.0571663542092
 20
236.5946405959219
 30
0.0
 11
92.57188497997061
 21
228.1093592216832
 31
0.0
  0
LINE
  5
2B982
330
1F
100
AcDbEntity
  8
実線
100
AcDbLine
 10
86.44332351965408
 20
195.5732020562379
 30
0.0
 11
86.44332351965408
 21
200.8732020562379
 31
0.0
  0
ARC
  5
2B983
330
1F
100
AcDbEntity
  8
実線
100
AcDbCircle
 10
188.9433235196542
 20
217.223202056238
 30
0.0
 40
7.629999999999999
100
AcDbArc
 50
314.7985754463334
 51
90.0
  0
ARC
  5
2B984
330
1F
100
AcDbEntity
  8
実線
100
AcDbCircle
 10
188.9433235196542
 20
217.223202056238
 30
0.0
 40
6.519999999999999
100
AcDbArc
 50
314.7985754463334
 51
90.0
  0
ARC
  5
2B985
330
1F
100
AcDbEntity
  8
実線
100
AcDbCircle
 10
161.9433235196542
 20
204.223202056238
 30
0.0
 40
17.43
100
AcDbArc
 50
287.2382931899556
 51
293.3707079853942
  0
ARC
  5
2B986
330
1F
100
AcDbEntity
  8
実線
100
AcDbCircle
 10
161.9433235196542
 20
204.223202056238
 30
0.0
 40
17.43
100
AcDbArc
 50
308.289365243244
 51
314.7985754463334
  0
ARC
  5
2B987
330
1F
100
AcDbEntity
  8
実線
100
AcDbCircle
 10
161.9433235196542
 20
204.223202056238
 30
0.0
 40
16.32
100
AcDbArc
 50
312.7421233077112
 51
314.7985754463334
  0
LINE
  5
2B988
330
1F
100
AcDbEntity
  8
実線
100
AcDbLine
 10
194.3195479302954
 20
211.8090436649064
 30
0.0
 11
174.2247902925868
 21
191.855078758609
 31
0.0
  0
LINE
  5
2B989
330
1F
100
AcDbEntity
  8
実線
100
AcDbLine
 10
193.5374235402808
 20
212.596686628783
 30
0.0
 11
173.4426659025721
 21
192.6427217224856
 31
0.0
  0
ARC
  5
2B98B
330
1F
100
AcDbEntity
  8
実線
100
AcDbCircle
 10
130.9433235196543
 20
198.2232020562921
 30
0.0
 40
34.0
100
AcDbArc
 50
84.93790703571344
 51
168.0031764585318
  0
ARC
  5
2B98C
330
1F
100
AcDbEntity
  8
実線
100
AcDbCircle
 10
130.9433235196543
 20
198.2232020562921
 30
0.0
 40
42.5
100
AcDbArc
 50
347.2543431517063
 51
12.74565684829286
  0
LINE
  5
2B98D
330
1F
100
AcDbEntity
  8
実線
100
AcDbLine
 10
167.6890715730005
 20
208.2232020562922
 30
0.0
 11
171.6157957828448
 21
208.2232020562922
 31
0.0
  0
LINE
  5
2B98E
330
1F
100
AcDbEntity
  8
実線
100
AcDbLine
 10
167.0854042566566
 20
188.2232020562921
 30
0.0
 11
171.6157957828448
 21
188.2232020562923
 31
0.0
  0
LINE
  5
2B98F
330
1F
100
AcDbEntity
  8
実線
100
AcDbLine
 10
86.44332351965431
 20
202.5232020562922
 30
0.0
 11
86.44332351965431
 21
204.9232020562922
 31
0.0
  0
LINE
  5
2B990
330
1F
100
AcDbEntity
  8
実線
100
AcDbLine
 10
93.39335680861712
 20
205.7232020562923
 30
0.0
 11
87.24332351965427
 21
205.7232020562921
 31
0.0
  0
LINE
  5
2B991
330
1F
100
AcDbEntity
  8
実線
100
AcDbLine
 10
93.39335680861712
 20
190.7232020562921
 30
0.0
 11
87.24332351965427
 21
190.7232020562921
 31
0.0
  0
ARC
  5
2B992
330
1F
100
AcDbEntity
  8
実線
100
AcDbCircle
 10
167.6890715730005
 20
209.0232020562922
 30
0.0
 40
0.8
100
AcDbArc
 50
196.3786717381387
 51
270.0
  0
ARC
  5
2B993
330
1F
100
AcDbEntity
  8
実線
100
AcDbCircle
 10
171.6157957828448
 20
207.4232020562922
 30
0.0
 40
0.8
100
AcDbArc
 50
12.74565684829286
 51
90.0
  0
ARC
  5
2B994
330
1F
100
AcDbEntity
  8
実線
100
AcDbCircle
 10
171.6157957828448
 20
189.0232020562922
 30
0.0
 40
0.8
100
AcDbArc
 50
270.0
 51
347.2543431517063
  0
LINE
  5
2B995
330
1F
100
AcDbEntity
  8
実線
100
AcDbLine
 10
133.9433235196543
 20
164.35581361254
 30
0.0
 11
133.9433235196543
 21
232.0905905000444
 31
0.0
  0
LINE
  5
2B996
330
1F
100
AcDbEntity
  8
実線
100
AcDbLine
 10
143.9433235196543
 20
166.8066459114822
 30
0.0
 11
143.9433235196543
 21
229.6397582011023
 31
0.0
  0
ARC
  5
2B997
330
1F
100
AcDbEntity
  8
実線
100
AcDbCircle
 10
130.9433235196543
 20
198.2232020562921
 30
0.0
 40
34.0
100
AcDbArc
 50
292.4795056094037
 51
67.52049439059643
  0
ARC
  5
2B99A
330
1F
100
AcDbEntity
  8
実線
100
AcDbCircle
 10
130.9433235196543
 20
198.2232020562921
 30
0.0
 40
33.0
100
AcDbArc
 50
171.7912936032788
 51
189.9070698605131
  0
ARC
  5
2B99B
330
1F
100
AcDbEntity
  8
実線
100
AcDbCircle
 10
130.9433235196543
 20
198.2232020562921
 30
0.0
 40
34.0
100
AcDbArc
 50
191.9968235414682
 51
275.0620929642866
  0
ARC
  5
2B99D
330
1F
100
AcDbEntity
  8
実線
100
AcDbCircle
 10
130.9433235196543
 20
198.2232020562921
 30
0.0
 40
37.5
100
AcDbArc
 50
192.7548044908006
 51
344.533990046579
  0
ARC
  5
2B99E
330
1F
100
AcDbEntity
  8
実線
100
AcDbCircle
 10
93.39335680861712
 20
189.7232020562921
 30
0.0
 40
1.0
100
AcDbArc
 50
12.75480449080071
 51
90.0
  0
ARC
  5
2B99F
330
1F
100
AcDbEntity
  8
実線
100
AcDbCircle
 10
93.39335680861712
 20
206.7232020562923
 30
0.0
 40
1.0
100
AcDbArc
 50
270.0
 51
347.2451955092024
  0
LINE
  5
2B9A0
330
1F
100
AcDbEntity
  8
実線
100
AcDbLine
 10
96.44332351965431
 20
205.7232020562921
 30
0.0
 11
93.39335680861712
 21
205.7232020562921
 31
0.0
  0
LINE
  5
2B9A1
330
1F
100
AcDbEntity
  8
実線
100
AcDbLine
 10
96.44332351965431
 20
190.7232020562921
 30
0.0
 11
93.39335680861712
 21
190.7232020562921
 31
0.0
  0
ARC
  5
2B9A2
330
1F
100
AcDbEntity
  8
実線
100
AcDbCircle
 10
87.24332351965427
 20
191.5232020562921
 30
0.0
 40
0.8
100
AcDbArc
 50
180.0
 51
270.0
  0
ARC
  5
2B9A3
330
1F
100
AcDbEntity
  8
実線
100
AcDbCircle
 10
87.24332351965427
 20
204.9232020562922
 30
0.0
 40
0.8
100
AcDbArc
 50
90.0
 51
180.0
  0
LINE
  5
2B9A4
330
1F
100
AcDbEntity
  8
実線
100
AcDbLine
 10
86.44332351965431
 20
191.5232020562921
 30
0.0
 11
86.44332351965431
 21
193.9232020562922
 31
0.0
  0
LINE
  5
2B9A5
330
1F
100
AcDbEntity
  8
実線
100
AcDbLine
 10
96.44332351965431
 20
194.7232020562921
 30
0.0
 11
87.24332351965427
 21
194.7232020562921
 31
0.0
  0
LINE
  5
2B9A6
330
1F
100
AcDbEntity
  8
実線
100
AcDbLine
 10
96.44332351965431
 20
201.7232020562923
 30
0.0
 11
87.24332351965427
 21
201.7232020562923
 31
0.0
  0
ARC
  5
2B9A7
330
1F
100
AcDbEntity
  8
実線
100
AcDbCircle
 10
96.44332351965431
 20
203.7232020562923
 30
0.0
 40
2.0
100
AcDbArc
 50
270.0
 51
90.0
  0
ARC
  5
2B9A8
330
1F
100
AcDbEntity
  8
実線
100
AcDbCircle
 10
96.44332351965431
 20
192.7232020562921
 30
0.0
 40
2.0
100
AcDbArc
 50
270.0
 51
90.0
  0
ARC
  5
2B9A9
330
1F
100
AcDbEntity
  8
実線
100
AcDbCircle
 10
87.24332351965427
 20
202.5232020562922
 30
0.0
 40
0.8
100
AcDbArc
 50
180.0
 51
270.0
  0
ARC
  5
2B9AA
330
1F
100
AcDbEntity
  8
実線
100
AcDbCircle
 10
87.24332351965427
 20
193.9232020562922
 30
0.0
 40
0.8
100
AcDbArc
 50
90.0
 51
180.0
  0
LINE
  5
2B9AB
330
1F
100
AcDbEntity
  8
実線
100
AcDbLine
 10
86.44332351965431
 20
202.5232020562922
 30
0.0
 11
86.44332351965431
 21
193.9232020562922
 31
0.0
  0
TEXT
  5
2B9AC
330
1F
100
AcDbEntity
  8
文字
100
AcDbText
 10
155.8009303388633
 20
185.0474214274883
 30
0.0
 40
9.0
  1
13
 50
90.0
 41
1.002604166666666
  7
ｽﾀｲﾙ2
 72
     4
 11
151.3564498193827
 21
191.0474214274883
 31
0.0
100
AcDbText
  0
TEXT
  5
2B9AD
330
1F
100
AcDbEntity
  8
文字
100
AcDbText
 10
156.0040409160799
 20
199.8822841170652
 30
0.0
 40
8.0
  1
mm
 50
90.0
 41
0.8135565669700909
  7
ｽﾀｲﾙ2
 72
     4
 11
152.9183266303656
 21
206.3822841170652
 31
0.0
100
AcDbText
  0
TEXT
  5
2B9AE
330
1F
100
AcDbEntity
  8
文字
100
AcDbText
 10
127.1772743982914
 20
177.8478351050896
 30
0.0
 40
9.0
  1
K
 50
171.04726287007
  7
ｽﾀｲﾙ2
 72
     1
 11
123.2499030299641
 21
173.9110496861699
 31
0.0
100
AcDbText
 73
     2
  0
TEXT
  5
2B9AF
330
1F
100
AcDbEntity
  8
文字
100
AcDbText
 10
121.1600003179445
 20
179.9012509412631
 30
0.0
 40
9.0
  1
A
 50
152.3076798394186
  7
ｽﾀｲﾙ2
 72
     1
 11
116.1708894236731
 21
177.4376121109321
 31
0.0
100
AcDbText
 73
     2
  0
TEXT
  5
2B9B0
330
1F
100
AcDbEntity
  8
文字
100
AcDbText
 10
115.9920466038968
 20
183.6516494756635
 30
0.0
 40
9.0
  1
S
 50
132.4166227373244
  7
ｽﾀｲﾙ2
 72
     1
 11
110.4584271881588
 21
183.0367618647848
 31
0.0
100
AcDbText
 73
     2
  0
TEXT
  5
2B9B1
330
1F
100
AcDbEntity
  8
文字
100
AcDbText
 10
112.2359428006573
 20
188.5246728905484
 30
0.0
 40
9.0
  1
H
 50
111.512425231516
  7
ｽﾀｲﾙ2
 72
     1
 11
106.7367914832168
 21
190.2046968335472
 31
0.0
100
AcDbText
 73
     2
  0
TEXT
  5
2B9B2
330
1F
100
AcDbEntity
  8
文字
100
AcDbText
 10
109.9433235196546
 20
196.6189812770714
 30
0.0
 40
9.0
  1
I
 50
89.99999999999964
  7
ｽﾀｲﾙ2
 72
     1
 11
105.4433235196546
 21
198.2232020562923
 31
0.0
100
AcDbText
 73
     2
  0
TEXT
  5
2B9B3
330
1F
100
AcDbEntity
  8
文字
100
AcDbText
 10
109.610682761653
 20
201.2613564298614
 30
0.0
 40
9.0
  1
H
 50
68.48757476848479
  7
ｽﾀｲﾙ2
 72
     1
 11
106.7367914832168
 21
206.2417072790371
 31
0.0
100
AcDbText
 73
     2
  0
TEXT
  5
2B9B4
330
1F
100
AcDbEntity
  8
文字
100
AcDbText
 10
111.5730868719481
 20
207.9581949545584
 30
0.0
 40
9.0
  1
A
 50
47.58337726267553
  7
ｽﾀｲﾙ2
 72
     1
 11
110.4584271881587
 21
213.4096422477997
 31
0.0
100
AcDbText
 73
     2
  0
TEXT
  5
2B9B5
330
1F
100
AcDbEntity
  8
文字
100
AcDbText
 10
115.203871797074
 20
213.4191341224656
 30
0.0
 40
9.0
  1
R
 50
27.69232016058144
  7
ｽﾀｲﾙ2
 72
     1
 11
116.1708894236729
 21
219.0087920016524
 31
0.0
100
AcDbText
 73
     2
  0
TEXT
  5
2B9B6
330
1F
100
AcDbEntity
  8
文字
100
AcDbText
 10
120.7173357799738
 20
217.5808769639643
 30
0.0
 40
9.0
  1
A
 50
8.952737129929943
  7
ｽﾀｲﾙ2
 72
     1
 11
123.2499030299643
 21
222.5353544264146
 31
0.0
100
AcDbText
 73
     2
  0
ARC
  5
2B9B7
330
1F
100
AcDbEntity
  8
実線
100
AcDbCircle
 10
130.9433235196543
 20
198.2232020562921
 30
0.0
 40
37.5
100
AcDbArc
 50
16.37867173814148
 51
167.2451955091992
  0
INSERT
  5
2B9BB
330
1F
100
AcDbEntity
  8
実線
100
AcDbBlockReference
  2
mark
 10
120.5370548556284
 20
188.7232020562921
 30
0.0
 41
0.38
 42
0.38
 43
0.38
 50
90.0
  0
ARC
  5
2B9BC
330
1F
100
AcDbEntity
  8
実線
100
AcDbCircle
 10
130.9433235196543
 20
198.223202056238
 30
0.0
 40
38.5
100
AcDbArc
 50
43.76390239646818
 51
96.06546458428407
  0
LINE
  5
2B9BD
330
1F
100
AcDbEntity
  8
実線
100
AcDbLine
 10
128.7695675458224
 20
242.7232020562382
 30
0.0
 11
132.7695675458224
 21
242.7232020562381
 31
0.0
  0
LINE
  5
2B9BE
102
{ACAD_REACTORS
330
2BB13
102
}
330
1F
100
AcDbEntity
  8
実線
100
AcDbLine
 10
128.7695675458224
 20
153.7232020562381
 30
0.0
 11
132.7695675458224
 21
153.723202056238
 31
0.0
  0
LINE
  5
2B9BF
330
1F
100
AcDbEntity
  8
実線
100
AcDbLine
 10
175.2695675458224
 20
199.973202056238
 30
0.0
 11
175.2695675458224
 21
196.223202056238
 31
0.0
  0
LINE
  5
2B9C0
330
1F
100
AcDbEntity
  8
実線
100
AcDbLine
 10
127.7695675458224
 20
241.7232020562382
 30
0.0
 11
127.7695675458224
 21
237.502073744092
 31
0.0
  0
LINE
  5
2B9C1
330
1F
100
AcDbEntity
  8
実線
100
AcDbLine
 10
133.7695675458224
 20
241.723202056238
 30
0.0
 11
133.7695675458224
 21
237.5374470146779
 31
0.0
  0
LINE
  5
2B9C2
330
1F
100
AcDbEntity
  8
実線
100
AcDbLine
 10
133.7695675458224
 20
158.9254318445173
 30
0.0
 11
133.7695675458224
 21
154.723202056238
 31
0.0
  0
LINE
  5
2B9C3
330
1F
100
AcDbEntity
  8
実線
100
AcDbLine
 10
127.7695675458224
 20
158.944330368384
 30
0.0
 11
127.7695675458224
 21
154.7232020562382
 31
0.0
  0
LINE
  5
2B9C4
330
1F
100
AcDbEntity
  8
実線
100
AcDbLine
 10
173.3373089421211
 20
201.2232020562382
 30
0.0
 11
174.2695675458224
 21
201.2232020562381
 31
0.0
  0
LINE
  5
2B9C5
330
1F
100
AcDbEntity
  8
実線
100
AcDbLine
 10
173.3373089421134
 20
195.223202056238
 30
0.0
 11
174.2695675458224
 21
195.223202056238
 31
0.0
  0
LINE
  5
2B9C6
330
1F
100
AcDbEntity
  8
実線
100
AcDbLine
 10
173.3542596093034
 20
200.9732020562381
 30
0.0
 11
174.2695675458224
 21
200.9732020562381
 31
0.0
  0
LINE
  5
2B9C7
330
1F
100
AcDbEntity
  8
実線
100
AcDbLine
 10
173.3542596092964
 20
195.473202056238
 30
0.0
 11
174.2695675458224
 21
195.473202056238
 31
0.0
  0
ARC
  5
2B9C8
330
1F
100
AcDbEntity
  8
実線
100
AcDbCircle
 10
130.9433235196543
 20
198.223202056238
 30
0.0
 40
38.5
100
AcDbArc
 50
96.06546458428407
 51
121.4810923601443
  0
ARC
  5
2B9C9
330
1F
100
AcDbEntity
  8
実線
100
AcDbCircle
 10
130.9433235196543
 20
198.223202056238
 30
0.0
 40
38.5
100
AcDbArc
 50
148.5189076398564
 51
168.7666561570309
  0
ARC
  5
2B9CA
330
1F
100
AcDbEntity
  8
実線
100
AcDbCircle
 10
130.9433235196543
 20
198.223202056238
 30
0.0
 40
38.5
100
AcDbArc
 50
191.2333438428045
 51
211.4810923601438
  0
ARC
  5
2B9CB
330
1F
100
AcDbEntity
  8
実線
100
AcDbCircle
 10
130.9433235196543
 20
198.223202056238
 30
0.0
 40
38.5
100
AcDbArc
 50
238.5189076398556
 51
275.2960677127838
  0
ARC
  5
2B9CC
330
1F
100
AcDbEntity
  8
実線
100
AcDbCircle
 10
130.9449429489356
 20
198.2398343796301
 30
0.0
 40
38.5
100
AcDbArc
 50
275.5564229897843
 51
301.4613375706335
  0
ARC
  5
2B9CD
330
1F
100
AcDbEntity
  8
実線
100
AcDbCircle
 10
130.9449429489356
 20
198.2398343796301
 30
0.0
 40
38.5
100
AcDbArc
 50
328.4991544878134
 51
344.4049084931025
  0
ARC
  5
2B9CE
102
{ACAD_REACTORS
330
2BB13
102
}
330
1F
100
AcDbEntity
  8
実線
100
AcDbCircle
 10
132.7695675458224
 20
241.723202056238
 30
0.0
 40
1.0
100
AcDbArc
 50
359.9999999999984
 51
90.0
  0
ARC
  5
2B9CF
330
1F
100
AcDbEntity
  8
実線
100
AcDbCircle
 10
128.7695675458224
 20
241.7232020562382
 30
0.0
 40
1.0
100
AcDbArc
 50
90.0
 51
180.0
  0
ARC
  5
2B9D0
330
1F
100
AcDbEntity
  8
実線
100
AcDbCircle
 10
126.7695675458224
 20
237.502073744092
 30
0.0
 40
1.0
100
AcDbArc
 50
276.065464584284
 51
0.0
  0
ARC
  5
2B9D1
330
1F
100
AcDbEntity
  8
実線
100
AcDbCircle
 10
134.7695675458224
 20
237.5374470146779
 30
0.0
 40
1.0
100
AcDbArc
 50
180.0
 51
264.4412168917089
  0
ARC
  5
2B9D2
330
1F
100
AcDbEntity
  8
実線
100
AcDbCircle
 10
128.7695675458224
 20
154.7232020562382
 30
0.0
 40
1.0
100
AcDbArc
 50
180.0
 51
270.0
  0
ARC
  5
2B9D3
102
{ACAD_REACTORS
330
2BB13
102
}
330
1F
100
AcDbEntity
  8
実線
100
AcDbCircle
 10
132.7695675458224
 20
154.723202056238
 30
0.0
 40
1.0
100
AcDbArc
 50
270.0
 51
0.0
  0
ARC
  5
2B9D4
330
1F
100
AcDbEntity
  8
実線
100
AcDbCircle
 10
134.7695675458224
 20
158.9254318445173
 30
0.0
 40
1.0
100
AcDbArc
 50
95.55642298978421
 51
180.0
  0
ARC
  5
2B9D5
330
1F
100
AcDbEntity
  8
実線
100
AcDbCircle
 10
126.7695675458224
 20
158.944330368384
 30
0.0
 40
1.0
100
AcDbArc
 50
0.0
 51
83.9345354157094
  0
ARC
  5
2B9D6
330
1F
100
AcDbEntity
  8
実線
100
AcDbCircle
 10
174.2695675458224
 20
200.223202056238
 30
0.0
 40
1.0
100
AcDbArc
 50
0.0
 51
90.0
  0
ARC
  5
2B9D7
330
1F
100
AcDbEntity
  8
実線
100
AcDbCircle
 10
174.2695675458224
 20
199.973202056238
 30
0.0
 40
1.0
100
AcDbArc
 50
0.0
 51
90.0
  0
ARC
  5
2B9D8
330
1F
100
AcDbEntity
  8
実線
100
AcDbCircle
 10
174.2695675458224
 20
196.473202056238
 30
0.0
 40
1.0
100
AcDbArc
 50
270.0
 51
0.0
  0
ARC
  5
2B9D9
330
1F
100
AcDbEntity
  8
実線
100
AcDbCircle
 10
174.2695675458224
 20
196.223202056238
 30
0.0
 40
1.0
100
AcDbArc
 50
270.0
 51
359.9999999999984
  0
LINE
  5
2B9DA
330
1F
100
AcDbEntity
  8
実線
100
AcDbLine
 10
82.4433235196542
 20
206.783202056238
 30
0.0
 11
86.46892735857319
 21
206.783202056238
 31
0.0
  0
LINE
  5
2B9DB
330
1F
100
AcDbEntity
  8
実線
100
AcDbLine
 10
82.4433235196542
 20
180.983202056238
 30
0.0
 11
91.9962054224452
 21
180.983202056238
 31
0.0
  0
LINE
  5
2B9DC
330
1F
100
AcDbEntity
  8
実線
100
AcDbLine
 10
81.64332351965425
 20
205.983202056238
 30
0.0
 11
86.4433235196542
 21
205.983202056238
 31
0.0
  0
LINE
  5
2B9DE
330
1F
100
AcDbEntity
  8
実線
100
AcDbLine
 10
80.9433235196542
 20
205.283202056238
 30
0.0
 11
80.9433235196542
 21
182.483202056238
 31
0.0
  0
LINE
  5
2B9DF
330
1F
100
AcDbEntity
  8
実線
100
AcDbLine
 10
80.9433235196542
 20
182.483202056238
 30
0.0
 11
82.4433235196542
 21
180.983202056238
 31
0.0
  0
LINE
  5
2B9E0
330
1F
100
AcDbEntity
  8
実線
100
AcDbLine
 10
80.9433235196542
 20
205.283202056238
 30
0.0
 11
82.4433235196542
 21
206.783202056238
 31
0.0
  0
ARC
  5
2B9E1
330
1F
100
AcDbEntity
  8
実線
100
AcDbCircle
 10
93.9433235196542
 20
180.5263310508971
 30
0.0
 40
2.0
100
AcDbArc
 50
74.00000000000521
 51
166.7950192656081
  0
LINE
  5
2B9E2
330
1F
100
AcDbEntity
  8
実線
100
AcDbLine
 10
169.9433235196543
 20
188.2232020562922
 30
0.0
 11
169.9433235196543
 21
180.983202056238
 31
0.0
  0
LINE
  5
2B9E3
330
1F
100
AcDbEntity
  8
実線
100
AcDbLine
 10
180.9433235196543
 20
198.5265389798125
 30
0.0
 11
180.9433235196543
 21
182.483202056238
 31
0.0
  0
LINE
  5
2B9E4
330
1F
100
AcDbEntity
  8
実線
100
AcDbLine
 10
179.4433235196543
 20
180.983202056238
 30
0.0
 11
169.9433235196543
 21
180.983202056238
 31
0.0
  0
LINE
  5
2B9E6
330
1F
100
AcDbEntity
  8
実線
100
AcDbLine
 10
180.9433235196543
 20
182.483202056238
 30
0.0
 11
179.4433235196543
 21
180.983202056238
 31
0.0
  0
LINE
  5
2B9E7
330
1F
100
AcDbEntity
  8
実線
100
AcDbLine
 10
94.49459823128824
 20
182.4488544427737
 30
0.0
 11
95.39056496886393
 21
182.1919401149805
 31
0.0
  0
ARC
  5
2B9E9
330
1F
100
AcDbEntity
  8
実線
100
AcDbCircle
 10
167.9433235196543
 20
183.8463310508972
 30
0.0
 40
2.0
100
AcDbArc
 50
13.20498073439182
 51
105.9999999999948
  0
LINE
  5
2B9EA
330
1F
100
AcDbEntity
  8
実線
100
AcDbLine
 10
82.4433235196542
 20
206.783202056238
 30
0.0
 11
91.9962054224452
 21
206.783202056238
 31
0.0
  0
LINE
  5
2B9EC
330
1F
100
AcDbEntity
  8
細線
 62
     7
100
AcDbLine
 10
179.4433235196543
 20
197.0370486411343
 30
0.0
 11
179.4433235196543
 21
180.983202056238
 31
0.0
  0
LINE
  5
2B9ED
330
1F
100
AcDbEntity
  8
細線
 62
     7
100
AcDbLine
 10
82.4433235196542
 20
206.783202056238
 30
0.0
 11
82.4433235196542
 21
180.983202056238
 31
0.0
  0
MTEXT
  5
2B9F0
330
1F
100
AcDbEntity
  8
文字
370
     9
100
AcDbMText
 10
129.019137118041
 20
159.073858796841
 30
0.0
 40
5.0
 41
19.85484558976438
 46
0.0
 71
     1
 72
     5
  1
{\fMS PMincho|b0|i0|c128|p18;\W1.05;E}
  7
寸法
 73
     1
 44
1.0
  0
ARC
  5
2B9F1
330
1F
100
AcDbEntity
  8
実線
100
AcDbCircle
 10
93.9433235196542
 20
207.2400730615789
 30
0.0
 40
2.0
100
AcDbArc
 50
193.2049807343918
 51
229.3264687076002
  0
LINE
  5
2B9F2
330
1F
100
AcDbEntity
  8
実線
100
AcDbLine
 10
94.49459823128837
 20
182.4488544427739
 30
0.0
 11
96.02345769953059
 21
182.0104610447817
 31
0.0
  0
LINE
  5
2B9F3
330
1F
100
AcDbEntity
  8
実線
100
AcDbLine
 10
167.3920488080202
 20
185.7688544427739
 30
0.0
 11
167.3666836410577
 21
185.7615810981884
 31
0.0
  0
LINE
  5
2B9F4
330
1F
100
AcDbEntity
  8
実線
100
AcDbLine
 10
86.44332351965431
 20
144.483595739963
 30
0.0
 11
86.44332351965431
 21
132.7835957399631
 31
0.0
  0
LINE
  5
2B9F5
330
1F
100
AcDbEntity
  8
実線
100
AcDbLine
 10
173.4433235196543
 20
142.483595739963
 30
0.0
 11
173.4433235196543
 21
141.2835957399631
 31
0.0
  0
LINE
  5
2B9F6
330
1F
100
AcDbEntity
  8
実線
100
AcDbLine
 10
93.44332351965432
 20
137.2835957399631
 30
0.0
 11
168.4433235196543
 21
137.2835957399631
 31
0.0
  0
LINE
  5
2B9F7
330
1F
100
AcDbEntity
  8
実線
100
AcDbLine
 10
94.24332351965427
 20
143.2835957399631
 30
0.0
 11
96.14332351965437
 21
143.2835957399631
 31
0.0
  0
LINE
  5
2B9F8
330
1F
100
AcDbEntity
  8
実線
100
AcDbLine
 10
94.94332351965431
 20
139.2835957399631
 30
0.0
 11
166.9433235196543
 21
139.2835957399631
 31
0.0
  0
LINE
  5
2B9F9
330
1F
100
AcDbEntity
  8
実線
100
AcDbLine
 10
94.94332351965431
 20
137.2835957399631
 30
0.0
 11
94.94332351965431
 21
139.2835957399631
 31
0.0
  0
LINE
  5
2B9FA
330
1F
100
AcDbEntity
  8
実線
100
AcDbLine
 10
166.9433235196543
 20
139.2835957399631
 30
0.0
 11
166.9433235196543
 21
137.2835957399631
 31
0.0
  0
LINE
  5
2B9FB
330
1F
100
AcDbEntity
  8
実線
100
AcDbLine
 10
96.94332351965432
 20
142.2835957399631
 30
0.0
 11
133.9433235196543
 21
142.2835957399631
 31
0.0
  0
LINE
  5
2B9FC
330
1F
100
AcDbEntity
  8
実線
100
AcDbLine
 10
168.4433235196543
 20
142.483595739963
 30
0.0
 11
168.4433235196543
 21
137.2835957399631
 31
0.0
  0
LINE
  5
2B9FD
330
1F
100
AcDbEntity
  8
実線
100
AcDbLine
 10
93.44332351965432
 20
142.483595739963
 30
0.0
 11
93.44332351965432
 21
132.7835957399631
 31
0.0
  0
LINE
  5
2B9FE
330
1F
100
AcDbEntity
  8
実線
100
AcDbLine
 10
168.4433235196543
 20
141.2835957399631
 30
0.0
 11
173.4433235196543
 21
141.2835957399631
 31
0.0
  0
ARC
  5
2B9FF
330
1F
100
AcDbEntity
  8
実線
100
AcDbCircle
 10
172.6433235196542
 20
142.483595739963
 30
0.0
 40
0.8
100
AcDbArc
 50
0.0
 51
90.0
  0
ARC
  5
2BA00
330
1F
100
AcDbEntity
  8
実線
100
AcDbCircle
 10
167.6433235196543
 20
142.483595739963
 30
0.0
 40
0.8
100
AcDbArc
 50
0.0
 51
90.0
  0
LINE
  5
2BA01
330
1F
100
AcDbEntity
  8
実線
100
AcDbLine
 10
172.6433235196542
 20
143.2835957399631
 30
0.0
 11
167.6433235196543
 21
143.2835957399631
 31
0.0
  0
LINE
  5
2BA02
330
1F
100
AcDbEntity
  8
実線
100
AcDbLine
 10
133.9433235196543
 20
143.2835957399631
 30
0.0
 11
133.9433235196543
 21
142.2835957399631
 31
0.0
  0
LINE
  5
2BA03
330
1F
100
AcDbEntity
  8
実線
100
AcDbLine
 10
143.9433235196543
 20
143.2835957399631
 30
0.0
 11
143.9433235196543
 21
142.2835957399631
 31
0.0
  0
LINE
  5
2BA04
330
1F
100
AcDbEntity
  8
実線
100
AcDbLine
 10
94.24332351965427
 20
143.2835957399631
 30
0.0
 11
86.44332351965431
 21
143.2835957399631
 31
0.0
  0
LINE
  5
2BA05
330
1F
100
AcDbEntity
  8
実線
100
AcDbLine
 10
96.14332351965437
 20
145.2835957399631
 30
0.0
 11
87.24332351965427
 21
145.2835957399631
 31
0.0
  0
LINE
  5
2BA06
330
1F
100
AcDbEntity
  8
実線
100
AcDbLine
 10
93.44332351965432
 20
139.2835957399631
 30
0.0
 11
86.44332351965431
 21
139.2835957399631
 31
0.0
  0
ARC
  5
2BA07
102
{ACAD_REACTORS
330
2BB84
102
}
330
1F
100
AcDbEntity
  8
実線
100
AcDbCircle
 10
87.24332351965427
 20
144.483595739963
 30
0.0
 40
0.8
100
AcDbArc
 50
90.0
 51
180.0
  0
LINE
  5
2BA08
330
1F
100
AcDbEntity
  8
実線
100
AcDbLine
 10
164.9433235196543
 20
142.483595739963
 30
0.0
 11
164.9433235196543
 21
142.2835957399631
 31
0.0
  0
LINE
  5
2BA09
330
1F
100
AcDbEntity
  8
実線
100
AcDbLine
 10
96.94332351965432
 20
142.483595739963
 30
0.0
 11
96.94332351965432
 21
142.2835957399631
 31
0.0
  0
ARC
  5
2BA0A
330
1F
100
AcDbEntity
  8
実線
100
AcDbCircle
 10
96.14332351965437
 20
144.483595739963
 30
0.0
 40
0.8
100
AcDbArc
 50
0.0
 51
90.0
  0
ARC
  5
2BA0B
330
1F
100
AcDbEntity
  8
実線
100
AcDbCircle
 10
89.94332351965431
 20
132.7835957399631
 30
0.0
 40
3.5
100
AcDbArc
 50
180.0
 51
0.0
  0
CIRCLE
  5
2BA0C
330
1F
100
AcDbEntity
  8
実線
100
AcDbCircle
 10
89.94332351965431
 20
132.7835957399631
 30
0.0
 40
1.35
  0
ARC
  5
2BA0D
330
1F
100
AcDbEntity
  8
実線
100
AcDbCircle
 10
94.24332351965427
 20
142.483595739963
 30
0.0
 40
0.8
100
AcDbArc
 50
90.0
 51
180.0
  0
ARC
  5
2BA0E
330
1F
100
AcDbEntity
  8
実線
100
AcDbCircle
 10
96.14332351965437
 20
142.483595739963
 30
0.0
 40
0.8
100
AcDbArc
 50
0.0
 51
90.0
  0
LINE
  5
2BA0F
330
1F
100
AcDbEntity
  8
実線
100
AcDbLine
 10
96.94332351965432
 20
144.483595739963
 30
0.0
 11
96.94332351965432
 21
142.483595739963
 31
0.0
  0
LINE
  5
2BA10
330
1F
100
AcDbEntity
  8
実線
100
AcDbLine
 10
165.7433235196542
 20
143.2835957399631
 30
0.0
 11
167.6433235196543
 21
143.2835957399631
 31
0.0
  0
ARC
  5
2BA11
330
1F
100
AcDbEntity
  8
実線
100
AcDbCircle
 10
165.7433235196542
 20
142.483595739963
 30
0.0
 40
0.8
100
AcDbArc
 50
90.0
 51
180.0
  0
LINE
  5
2BA12
330
1F
100
AcDbEntity
  8
実線
100
AcDbLine
 10
96.14332351965437
 20
143.283595739963
 30
0.0
 11
165.7433235196542
 21
143.2835957399631
 31
0.0
  0
LINE
  5
2BA13
330
1F
100
AcDbEntity
  8
実線
100
AcDbLine
 10
150.4433235196543
 20
143.2835957399631
 30
0.0
 11
150.4433235196543
 21
142.2835957399631
 31
0.0
  0
LINE
  5
2BA14
330
1F
100
AcDbEntity
  8
実線
100
AcDbLine
 10
156.4433235196543
 20
143.2835957399631
 30
0.0
 11
156.4433235196543
 21
142.2835957399631
 31
0.0
  0
LINE
  5
2BA15
330
1F
100
AcDbEntity
  8
実線
100
AcDbLine
 10
130.9433235196543
 20
143.2835957399631
 30
0.0
 11
130.9433235196543
 21
142.2835957399631
 31
0.0
  0
LINE
  5
2BA16
330
1F
100
AcDbEntity
  8
実線
100
AcDbLine
 10
118.9433235196543
 20
143.2835957399631
 30
0.0
 11
118.9433235196543
 21
142.2835957399631
 31
0.0
  0
LINE
  5
2BA17
330
1F
100
AcDbEntity
  8
実線
100
AcDbLine
 10
109.9433235196543
 20
143.2835957399631
 30
0.0
 11
109.9433235196543
 21
142.2835957399631
 31
0.0
  0
LINE
  5
2BA18
330
1F
100
AcDbEntity
  8
実線
100
AcDbLine
 10
101.9433235196543
 20
143.2835957399631
 30
0.0
 11
101.9433235196543
 21
142.2835957399631
 31
0.0
  0
LINE
  5
2BA19
330
1F
100
AcDbEntity
  8
実線
100
AcDbLine
 10
143.9433235196543
 20
142.2835957399631
 30
0.0
 11
164.9433235196543
 21
142.2835957399631
 31
0.0
  0
LINE
  5
2BA1B
330
1F
100
AcDbEntity
  8
実線
100
AcDbLine
 10
95.19334451965415
 20
139.2848500990259
 30
0.0
 11
95.15839151965428
 21
137.2823420990259
 31
0.0
  0
LINE
  5
2BA1C
330
1F
100
AcDbEntity
  8
実線
100
AcDbLine
 10
194.3731765196542
 20
125.7648890990259
 30
0.0
 11
194.5218925196541
 21
134.2848500990259
 31
0.0
  0
LINE
  5
2BA1D
330
1F
100
AcDbEntity
  8
実線
100
AcDbLine
 10
196.5742365196543
 20
134.2835960990259
 30
0.0
 11
196.5742365196543
 21
137.2835960990259
 31
0.0
  0
LINE
  5
2BA1E
330
1F
100
AcDbEntity
  8
実線
100
AcDbLine
 10
194.2371565196543
 20
134.2835960990259
 30
0.0
 11
194.2371565196543
 21
137.2835960990259
 31
0.0
  0
LINE
  5
2BA1F
330
1F
100
AcDbEntity
  8
実線
100
AcDbLine
 10
192.7102195196541
 20
125.766143099026
 30
0.0
 11
192.8133585196542
 21
134.2835960990259
 31
0.0
  0
LINE
  5
2BA20
330
1F
100
AcDbEntity
  8
実線
100
AcDbLine
 10
178.6582195196542
 20
129.7835960990259
 30
0.0
 11
183.0875875196541
 21
129.7835960990259
 31
0.0
  0
LINE
  5
2BA21
330
1F
100
AcDbEntity
  8
実線
100
AcDbLine
 10
186.3996225196542
 20
125.766143099026
 30
0.0
 11
192.7102195196541
 21
125.766143099026
 31
0.0
  0
LINE
  5
2BA22
330
1F
100
AcDbEntity
  8
実線
100
AcDbLine
 10
111.4418035196543
 20
136.279232099026
 30
0.0
 11
95.94153751965427
 21
136.279232099026
 31
0.0
  0
LINE
  5
2BA23
330
1F
100
AcDbEntity
  8
実線
100
AcDbLine
 10
165.9451085196542
 20
136.279232099026
 30
0.0
 11
150.4448425196542
 21
136.279232099026
 31
0.0
  0
SPLINE
  5
2BA24
330
1F
100
AcDbEntity
  8
実線
100
AcDbSpline
210
0.0000000000000005
220
-0.0000000000000007
230
1.0
 70
     8
 71
     3
 72
    11
 73
     7
 74
     0
 42
0.000000001
 43
0.0000000001
 40
0.0
 40
0.0
 40
0.0
 40
0.0
 40
0.2259189453175958
 40
0.4749437486470577
 40
0.7389082183377647
 40
1.0
 40
1.0
 40
1.0
 40
1.0
 10
193.2156334865358
 20
124.7835957401759
 30
-0.0000000000000008
 10
193.3475627911302
 20
124.7815271332992
 30
-0.0000000000000008
 10
193.6106096992111
 20
124.8165268444169
 30
-0.0000000000000008
 10
194.0014724845557
 20
124.996406971797
 30
-0.0000000000000008
 10
194.2966999156535
 20
125.3375244368118
 30
-0.0000000000000007
 10
194.36650834178
 20
125.6130811046036
 30
-0.0000000000000007
 10
194.3731964354438
 20
125.7661433336276
 30
-0.0000000000000007
  0
SPLINE
  5
2BA25
330
1F
100
AcDbEntity
  8
実線
100
AcDbSpline
210
0.0
220
0.0
230
1.0
 70
    24
 71
     1
 72
     4
 73
     2
 74
     0
 42
0.000000001
 43
0.0000000001
 40
0.0
 40
0.0
 40
1.0
 40
1.0
 10
179.1303521360989
 20
129.7832830211172
 30
-0.0000000000000005
 10
179.2387920756646
 20
125.7563473359329
 30
-0.0000000000000007
  0
SPLINE
  5
2BA26
330
1F
100
AcDbEntity
  8
実線
100
AcDbSpline
210
0.0000000000000006
220
0.0000000000000007
230
-1.0
 70
     8
 71
     3
 72
    13
 73
     9
 74
     0
 42
0.000000001
 43
0.0000000001
 40
0.0
 40
0.0
 40
0.0
 40
0.0
 40
0.1115201039487749
 40
0.2278635016244231
 40
0.3489508537731877
 40
0.4776140031074334
 40
0.7471369611342269
 40
1.0
 40
1.0
 40
1.0
 40
1.0
 10
179.2386411045165
 20
125.7567075983774
 30
-0.0000000000000007
 10
179.2404256375967
 20
125.6933976059769
 30
-0.0000000000000007
 10
179.2558705190781
 20
125.5667131975484
 30
-0.0000000000000007
 10
179.317675970881
 20
125.3761846904594
 30
-0.0000000000000007
 10
179.4202325231574
 20
125.1959113668739
 30
-0.0000000000000007
 10
179.6036438599451
 20
124.9913216153358
 30
-0.0000000000000008
 10
179.8988728224551
 20
124.828511617537
 30
-0.0000000000000008
 10
180.1779393789927
 20
124.7839785894461
 30
-0.0000000000000008
 10
180.325021756877
 20
124.7835957399631
 30
-0.0000000000000008
  0
SPLINE
  5
2BA27
330
1F
100
AcDbEntity
  8
実線
100
AcDbSpline
210
0.0
220
0.0
230
1.0
 70
    24
 71
     3
 72
    14
 73
    10
 74
     0
 42
0.000000001
 43
0.0000000001
 40
0.0
 40
0.0
 40
0.0
 40
0.0
 40
0.25
 40
0.25
 40
0.5
 40
0.5
 40
0.75
 40
0.75
 40
1.0
 40
1.0
 40
1.0
 40
1.0
 10
151.341047883986
 20
137.2835957399631
 30
0.0
 10
148.3201213020143
 20
137.2835957399631
 30
0.0
 10
145.0198800058888
 20
137.2835957399631
 30
0.0
 10
138.1271569011749
 20
137.2835957399631
 30
0.0
 10
134.5354390522534
 20
137.2835957399631
 30
0.0
 10
127.3512070849506
 20
137.2835957399631
 30
0.0
 10
123.7594892358195
 20
137.2835957399631
 30
0.0
 10
116.8667661302847
 20
137.2835957399631
 30
0.0
 10
113.5665248335478
 20
137.2835957399631
 30
0.0
 10
110.5455982507883
 20
137.2835957399631
 30
0.0
  0
SPLINE
  5
2BA28
330
1F
100
AcDbEntity
  8
実線
100
AcDbSpline
210
0.0
220
0.0
230
1.0
 70
    24
 71
     1
 72
     4
 73
     2
 74
     0
 42
0.000000001
 43
0.0000000001
 40
0.0
 40
0.0
 40
1.0
 40
1.0
 10
178.654621695877
 20
134.2835957399631
 30
-0.0000000000000002
 10
194.237156695877
 20
134.2835957399631
 30
-0.0000000000000002
  0
SPLINE
  5
2BA29
330
1F
100
AcDbEntity
  8
実線
100
AcDbSpline
210
0.0
220
0.0
230
1.0
 70
    24
 71
     3
 72
    10
 73
     6
 74
     0
 42
0.000000001
 43
0.0000000001
 40
0.0
 40
0.0
 40
0.0
 40
0.0
 40
0.5
 40
0.5
 40
1.0
 40
1.0
 40
1.0
 40
1.0
 10
194.237156697917
 20
134.2835957402614
 30
-0.0000000000000002
 10
194.9737450831278
 20
134.2835957402614
 30
-0.0000000000000002
 10
195.5654929487755
 20
134.2835957402614
 30
-0.0000000000000002
 10
196.365911408627
 20
134.2835957402614
 30
-0.0000000000000002
 10
196.5742470529771
 20
134.2835957402614
 30
-0.0000000000000002
 10
196.574231301402
 20
134.2835957402614
 30
-0.0000000000000002
  0
SPLINE
  5
2BA2A
330
1F
100
AcDbEntity
  8
実線
100
AcDbSpline
210
0.0
220
0.0
230
1.0
 70
     8
 71
     3
 72
    18
 73
    14
 74
     0
 42
0.000000001
 43
0.0000000001
 40
0.0
 40
0.0
 40
0.0
 40
0.0
 40
0.062470076537805
 40
0.1249495076892241
 40
0.2500641950362941
 40
0.3745810240093161
 40
0.4998099936103095
 40
0.624241027455021
 40
0.7493929959937287
 40
0.8740897937830245
 40
0.9370844937144704
 40
0.9685127315902519
 40
1.0
 40
1.0
 40
1.0
 40
1.0
 10
110.5455982507883
 20
137.2835957399631
 30
0.0
 10
110.5736308684409
 20
137.2826797368358
 30
0.0
 10
110.6297003015042
 20
137.280847593414
 30
0.0
 10
110.7413957761073
 20
137.2611966637456
 30
0.0
 10
110.8780221305048
 20
137.2144426478088
 30
0.0
 10
111.0311676439014
 20
137.1224335054664
 30
0.0
 10
111.1674783156882
 20
136.9984734816993
 30
0.0
 10
111.2819187981945
 20
136.8461722473011
 30
0.0
 10
111.3692086362357
 20
136.6714212524868
 30
0.0
 10
111.4162062756754
 20
136.5117178862782
 30
0.0
 10
111.4340467318657
 20
136.3963414505091
 30
-0.0000000000000001
 10
111.4400792283486
 20
136.3294977953113
 30
-0.0000000000000001
 10
111.4412284125133
 20
136.295998028873
 30
-0.0000000000000001
 10
111.4418035437072
 20
136.27923243006
 30
-0.0000000000000001
  0
SPLINE
  5
2BA2B
330
1F
100
AcDbEntity
  8
実線
100
AcDbSpline
210
0.0000000000000006
220
-0.0000000000000006
230
1.0
 70
     8
 71
     3
 72
    17
 73
    13
 74
     0
 42
0.000000001
 43
0.0000000001
 40
0.0
 40
0.0
 40
0.0
 40
0.0
 40
0.0624113752594375
 40
0.1249211180700301
 40
0.2500682483801164
 40
0.374600153538278
 40
0.4997707322151781
 40
0.6245569077250872
 40
0.7493767487460984
 40
0.8745050327104333
 40
0.9372725646200736
 40
1.0
 40
1.0
 40
1.0
 40
1.0
 10
150.4448425913797
 20
136.27923243006
 30
-0.0000000000000001
 10
150.4464023481428
 20
136.3124738895759
 30
-0.0000000000000001
 10
150.4495243200263
 20
136.3790092009953
 30
-0.0000000000000001
 10
150.4704601793319
 20
136.5106808205943
 30
0.0
 10
150.5168510576302
 20
136.6701294181861
 30
0.0
 10
150.6041787502342
 20
136.8452549283953
 30
0.0
 10
150.7183468955816
 20
136.9975966975591
 30
0.0
 10
150.8547736939469
 20
137.1218976748668
 30
0.0
 10
151.0077907660573
 20
137.2140694328344
 30
0.0
 10
151.1446492495054
 20
137.2610480161856
 30
0.0
 10
151.2565869892059
 20
137.2808209663937
 30
0.0
 10
151.3129002498904
 20
137.2826710126257
 30
0.0
 10
151.3410478839898
 20
137.2835957401904
 30
0.0
  0
SPLINE
  5
2BA2C
330
1F
100
AcDbEntity
  8
実線
100
AcDbSpline
210
0.0
220
0.0
230
1.0
 70
    24
 71
     1
 72
     4
 73
     2
 74
     0
 42
0.000000001
 43
0.0000000001
 40
0.0
 40
0.0
 40
1.0
 40
1.0
 10
178.6668331563241
 20
136.2792324309629
 30
-0.0000000000000001
 10
178.6267504700101
 20
129.7835957399631
 30
-0.0000000000000005
  0
SPLINE
  5
2BA2D
330
1F
100
AcDbEntity
  8
実線
100
AcDbSpline
210
0.0
220
0.0
230
1.0
 70
    24
 71
     1
 72
     4
 73
     2
 74
     0
 42
0.000000001
 43
0.0000000001
 40
0.0
 40
0.0
 40
1.0
 40
1.0
 10
95.94153740042974
 20
136.2792324309629
 30
-0.0000000000000001
 10
95.94153739674402
 20
129.7835957399631
 30
-0.0000000000000005
  0
SPLINE
  5
2BA2E
330
1F
100
AcDbEntity
  8
実線
100
AcDbSpline
210
0.0
220
0.0
230
1.0
 70
     8
 71
     3
 72
     8
 73
     4
 74
     0
 42
0.000000001
 43
0.0000000001
 40
0.0
 40
0.0
 40
0.0
 40
0.0
 40
1.0
 40
1.0
 40
1.0
 40
1.0
 10
111.4418035437072
 20
136.27923243006
 30
-0.0000000000000001
 10
111.4885849780341
 20
134.1140202000489
 30
-0.0000000000000002
 10
111.5353220854995
 20
131.9488079700378
 30
-0.0000000000000003
 10
111.5820148345456
 20
129.7835957400267
 30
-0.0000000000000005
  0
SPLINE
  5
2BA2F
330
1F
100
AcDbEntity
  8
実線
100
AcDbSpline
210
0.0
220
0.0
230
1.0
 70
    24
 71
     1
 72
     4
 73
     2
 74
     0
 42
0.000000001
 43
0.0000000001
 40
0.0
 40
0.0
 40
1.0
 40
1.0
 10
83.21981297342995
 20
136.2792324309629
 30
-0.0000000000000001
 10
83.25989565974396
 20
129.7835957399631
 30
-0.0000000000000005
  0
SPLINE
  5
2BA30
330
1F
100
AcDbEntity
  8
実線
100
AcDbSpline
210
0.0
220
0.0
230
1.0
 70
    24
 71
     1
 72
     4
 73
     2
 74
     0
 42
0.000000001
 43
0.0000000001
 40
0.0
 40
0.0
 40
1.0
 40
1.0
 10
165.9451087392463
 20
136.2792324299629
 30
-0.0000000000000001
 10
165.9451087384641
 20
129.7835957399631
 30
-0.0000000000000005
  0
SPLINE
  5
2BA31
330
1F
100
AcDbEntity
  8
実線
100
AcDbSpline
210
0.0
220
0.0
230
1.0
 70
    24
 71
     1
 72
     4
 73
     2
 74
     0
 42
0.000000001
 43
0.0000000001
 40
0.0
 40
0.0
 40
1.0
 40
1.0
 10
150.4448426046256
 20
136.2792324309631
 30
-0.0000000000000001
 10
150.3046313034329
 20
129.7835957399631
 30
-0.0000000000000005
  0
SPLINE
  5
2BA32
330
1F
100
AcDbEntity
  8
実線
100
AcDbSpline
210
0.0
220
0.0
230
1.0
 70
    24
 71
     1
 72
     4
 73
     2
 74
     0
 42
0.000000001
 43
0.0000000001
 40
0.0
 40
0.0
 40
1.0
 40
1.0
 10
83.21981297496677
 20
136.2792324299629
 30
-0.0000000000000001
 10
83.25989566446423
 20
129.7835957399631
 30
-0.0000000000000005
  0
SPLINE
  5
2BA33
330
1F
100
AcDbEntity
  8
実線
100
AcDbSpline
210
0.0
220
0.0
230
1.0
 70
    24
 71
     1
 72
     4
 73
     2
 74
     0
 42
0.000000001
 43
0.0000000001
 40
0.0
 40
0.0
 40
1.0
 40
1.0
 10
178.645375539812
 20
132.7835957397471
 30
-0.0000000000000001
 10
184.4959645398121
 20
132.7835957397471
 30
-0.0000000000000003
  0
SPLINE
  5
2BA34
330
1F
100
AcDbEntity
  8
実線
100
AcDbSpline
210
0.0
220
0.0
230
1.0
 70
    24
 71
     1
 72
     4
 73
     2
 74
     0
 42
0.000000001
 43
0.0000000001
 40
0.0
 40
0.0
 40
1.0
 40
1.0
 10
184.4959645398121
 20
132.7835957397471
 30
-0.0000000000000003
 10
184.4748466667167
 20
129.7835957393153
 30
0.0000000000000004
  0
SPLINE
  5
2BA35
330
1F
100
AcDbEntity
  8
実線
100
AcDbSpline
210
0.0
220
0.0
230
1.0
 70
    24
 71
     1
 72
     4
 73
     2
 74
     0
 42
0.000000001
 43
0.0000000001
 40
0.0
 40
0.0
 40
1.0
 40
1.0
 10
183.0875874036069
 20
129.7835957399631
 30
0.0000000000000004
 10
183.1087052684129
 20
132.7835957399631
 30
-0.0000000000000003
  0
SPLINE
  5
2BA36
330
1F
100
AcDbEntity
  8
実線
100
AcDbSpline
210
0.0
220
0.0
230
1.0
 70
    24
 71
     1
 72
     4
 73
     2
 74
     0
 42
0.000000001
 43
0.0000000001
 40
0.0
 40
0.0
 40
1.0
 40
1.0
 10
186.3551452246574
 20
129.7835957393153
 30
-0.0000000000000005
 10
186.3996222866681
 20
125.766143333963
 30
-0.0000000000000007
  0
SPLINE
  5
2BA37
330
1F
100
AcDbEntity
  8
実線
100
AcDbSpline
210
0.0
220
0.0
230
1.0
 70
     8
 71
     3
 72
    18
 73
    14
 74
     0
 42
0.000000001
 43
0.0000000001
 40
0.0
 40
0.0
 40
0.0
 40
0.0
 40
0.0909102076715635
 40
0.1818197452705851
 40
0.2727287617006676
 40
0.3636374058679873
 40
0.4545458266805398
 40
0.5454541730474335
 40
0.6363625938781203
 40
0.7272712380817115
 40
0.8181802545661994
 40
0.90908979223776
 40
1.0
 40
1.0
 40
1.0
 40
1.0
 10
183.0875874057542
 20
129.7835957403455
 30
0.0000000000000004
 10
183.1340452980628
 20
129.7835948782218
 30
0.0000000000000004
 10
183.2269607402527
 20
129.7835931539806
 30
0.0000000000000004
 10
183.3656567503048
 20
129.783583837573
 30
0.0000000000000004
 10
183.5030017365618
 20
129.7835742645647
 30
0.0000000000000004
 10
183.6383292578721
 20
129.7835662834838
 30
0.0000000000000004
 10
183.7709815860728
 20
129.7835618759694
 30
0.0000000000000004
 10
183.9003179803756
 20
129.7835618759688
 30
0.0000000000000004
 10
184.025698832427
 20
129.7835662834817
 30
0.0000000000000004
 10
184.1465595500949
 20
129.7835742645617
 30
0.0000000000000004
 10
184.2621491458656
 20
129.7835838375689
 30
0.0000000000000004
 10
184.3725197182662
 20
129.7835931539759
 30
0.0000000000000004
 10
184.4407376006445
 20
129.7835948782168
 30
0.0000000000000004
 10
184.474846667541
 20
129.7835957403405
 30
0.0000000000000004
  0
SPLINE
  5
2BA38
330
1F
100
AcDbEntity
  8
実線
100
AcDbSpline
210
0.0
220
0.0
230
1.0
 70
    24
 71
     1
 72
     4
 73
     2
 74
     0
 42
0.000000001
 43
0.0000000001
 40
0.0
 40
0.0
 40
1.0
 40
1.0
 10
184.4748466667167
 20
129.7835957393153
 30
0.0000000000000004
 10
186.3551452246574
 20
129.7835957393153
 30
-0.0000000000000005
  0
SPLINE
  5
2BA39
330
1F
100
AcDbEntity
  8
実線
100
AcDbSpline
210
0.0
220
0.0
230
1.0
 70
    24
 71
     1
 72
     4
 73
     2
 74
     0
 42
0.000000001
 43
0.0000000001
 40
0.0
 40
0.0
 40
1.0
 40
1.0
 10
150.3046313034329
 20
129.7835957399631
 30
-0.0000000000000005
 10
165.9451087330101
 20
129.7835957399631
 30
-0.0000000000000005
  0
SPLINE
  5
2BA3A
330
1F
100
AcDbEntity
  8
実線
100
AcDbSpline
210
0.0
220
0.0
230
1.0
 70
    24
 71
     1
 72
     4
 73
     2
 74
     0
 42
0.000000001
 43
0.0000000001
 40
0.0
 40
0.0
 40
1.0
 40
1.0
 10
95.94153739674402
 20
129.7835957399631
 30
-0.0000000000000005
 10
111.5820148263212
 20
129.7835957399631
 30
-0.0000000000000005
  0
SPLINE
  5
2BA3B
330
1F
100
AcDbEntity
  8
実線
100
AcDbSpline
210
0.0
220
0.0
230
1.0
 70
    24
 71
     1
 72
     4
 73
     2
 74
     0
 42
0.000000001
 43
0.0000000001
 40
0.0
 40
0.0
 40
1.0
 40
1.0
 10
83.25989566446423
 20
129.7835957399631
 30
-0.0000000000000005
 10
95.94153739129001
 20
129.7835957399631
 30
-0.0000000000000005
  0
SPLINE
  5
2BA3C
330
1F
100
AcDbEntity
  8
実線
100
AcDbSpline
210
0.0
220
0.0
230
1.0
 70
    24
 71
     1
 72
     4
 73
     2
 74
     0
 42
0.000000001
 43
0.0000000001
 40
0.0
 40
0.0
 40
1.0
 40
1.0
 10
165.9451087384641
 20
129.7835957399631
 30
-0.0000000000000005
 10
178.6267504652901
 20
129.7835957399631
 30
-0.0000000000000005
  0
SPLINE
  5
2BA3D
330
1F
100
AcDbEntity
  8
実線
100
AcDbSpline
210
0.0
220
0.0
230
1.0
 70
    24
 71
     3
 72
    14
 73
    10
 74
     0
 42
0.000000001
 43
0.0000000001
 40
0.0
 40
0.0
 40
0.0
 40
0.0
 40
0.25
 40
0.25
 40
0.5
 40
0.5
 40
0.75
 40
0.75
 40
1.0
 40
1.0
 40
1.0
 40
1.0
 10
111.5820148345456
 20
129.7835957400267
 30
-0.0000000000000005
 10
114.4846997575748
 20
129.7835957400267
 30
-0.0000000000000005
 10
117.6268978256437
 20
129.7835957400267
 30
-0.0000000000000005
 10
124.1607971434598
 20
129.7835957400267
 30
-0.0000000000000005
 10
127.5519064934947
 20
129.7835957400267
 30
-0.0000000000000005
 10
134.3347396437655
 20
129.7835957400267
 30
-0.0000000000000005
 10
137.7258489936102
 20
129.7835957400267
 30
-0.0000000000000005
 10
144.2597483106806
 20
129.7835957400267
 30
-0.0000000000000005
 10
147.4019463781937
 20
129.7835957400267
 30
-0.0000000000000005
 10
150.3046313005047
 20
129.7835957400267
 30
-0.0000000000000005
  0
SPLINE
  5
2BA3E
330
1F
100
AcDbEntity
  8
実線
100
AcDbSpline
210
0.0
220
0.0
230
1.0
 70
     8
 71
     3
 72
     8
 73
     4
 74
     0
 42
0.000000001
 43
0.0000000001
 40
0.0
 40
0.0
 40
0.0
 40
0.0
 40
1.0
 40
1.0
 40
1.0
 40
1.0
 10
179.4118683881522
 20
125.7661433389495
 30
-0.0000000000000007
 10
179.3763822889521
 20
127.1052951943506
 30
-0.0000000000000006
 10
179.3408596087633
 20
128.4444460284298
 30
-0.0000000000000005
 10
179.3053001144251
 20
129.7835957864364
 30
-0.0000000000000005
  0
SPLINE
  5
2BA3F
330
1F
100
AcDbEntity
  8
実線
100
AcDbSpline
210
0.0
220
0.0
230
1.0
 70
     8
 71
     3
 72
     8
 73
     4
 74
     0
 42
0.000000001
 43
0.0000000001
 40
0.0
 40
0.0
 40
0.0
 40
0.0
 40
1.0
 40
1.0
 40
1.0
 40
1.0
 10
183.0490079839194
 20
125.7661433339664
 30
-0.0000000000000007
 10
183.0339452006178
 20
127.1052941359866
 30
-0.0000000000000006
 10
183.0188240602758
 20
128.4444449380065
 30
-0.0000000000000005
 10
183.0036447313375
 20
129.7835957400267
 30
-0.0000000000000005
  0
SPLINE
  5
2BA40
330
1F
100
AcDbEntity
  8
実線
100
AcDbSpline
210
0.0
220
0.0
230
1.0
 70
     8
 71
     3
 72
    11
 73
     7
 74
     0
 42
0.000000001
 43
0.0000000001
 40
0.0
 40
0.0
 40
0.0
 40
0.0
 40
0.1149657792339902
 40
0.3833393396974598
 40
0.6810635366111423
 40
1.0
 40
1.0
 40
1.0
 40
1.0
 10
179.2393289070705
 20
125.7562451799848
 30
-0.0000000000000007
 10
179.2384138395041
 20
125.7565263860544
 30
-0.0000000000000007
 10
179.2383148205258
 20
125.7575019658049
 30
-0.0000000000000007
 10
179.2557661000946
 20
125.7594725993173
 30
-0.0000000000000007
 10
179.3090063636095
 20
125.762477823953
 30
-0.0000000000000007
 10
179.3768036690612
 20
125.7648937985651
 30
-0.0000000000000007
 10
179.4118683881522
 20
125.7661433389495
 30
-0.0000000000000007
  0
SPLINE
  5
2BA41
330
1F
100
AcDbEntity
  8
実線
100
AcDbSpline
210
0.0000000000000001
220
-0.0000000000000001
230
1.0
 70
    12
 71
     2
 72
     6
 73
     3
 74
     0
 42
0.000000001
 43
0.0000000001
 40
0.0
 40
0.0
 40
0.0
 40
1.0
 40
1.0
 40
1.0
 10
185.7059926648771
 20
124.7835957399631
 30
-0.0000000000000008
 41
1.0
 10
186.3877244358774
 20
124.7835957399631
 30
-0.0000000000000008
 41
0.713250449154184
 10
186.3996222958772
 20
125.766143333963
 30
-0.0000000000000007
 41
1.0
  0
SPLINE
  5
2BA42
330
1F
100
AcDbEntity
  8
実線
100
AcDbSpline
210
0.0
220
0.0
230
1.0
 70
     8
 71
     3
 72
    25
 73
    21
 74
     0
 42
0.000000001
 43
0.0000000001
 40
0.0
 40
0.0
 40
0.0
 40
0.0
 40
0.0340600320258166
 40
0.067148870438772
 40
0.0989921468915188
 40
0.1293296933274707
 40
0.1579209471848954
 40
0.1845488881889696
 40
0.2090224007097537
 40
0.2311771260611704
 40
0.2508750058897336
 40
0.3779359328408304
 40
0.5001444140740114
 40
0.6225634798598121
 40
0.74989648982634
 40
0.7870055596822624
 40
0.8316872953358613
 40
0.8829550217545103
 40
0.9395527336366795
 40
1.0
 40
1.0
 40
1.0
 40
1.0
 10
183.0490079805177
 20
125.7661433827087
 30
-0.0000000000000007
 10
183.0592592989701
 20
125.765367449966
 30
-0.0000000000000007
 10
183.0794696280172
 20
125.7638377095599
 30
-0.0000000000000007
 10
183.1218055913552
 20
125.7616820834229
 30
-0.0000000000000007
 10
183.1708026746276
 20
125.7597092803127
 30
-0.0000000000000007
 10
183.2256069131933
 20
125.7579462293787
 30
-0.0000000000000007
 10
183.2841057463799
 20
125.7564006677377
 30
-0.0000000000000007
 10
183.3444187965906
 20
125.7550699495954
 30
-0.0000000000000007
 10
183.4046262376755
 20
125.753939643041
 30
-0.0000000000000007
 10
183.4629464530917
 20
125.7529909762619
 30
-0.0000000000000007
 10
183.6197540197749
 20
125.7506931182698
 30
-0.0000000000000007
 10
183.9163567233563
 20
125.7478409511072
 30
-0.0000000000000007
 10
184.4026334783525
 20
125.7466555015882
 30
-0.0000000000000007
 10
184.9316717576446
 20
125.7478453421865
 30
-0.0000000000000007
 10
185.3454019524811
 20
125.750907230063
 30
-0.0000000000000007
 10
185.6333899033782
 20
125.7538155328872
 30
-0.0000000000000007
 10
185.8117624656227
 20
125.7559012519677
 30
-0.0000000000000007
 10
186.0070412572004
 20
125.7586713912186
 30
-0.0000000000000007
 10
186.2103187867624
 20
125.762119700218
 30
-0.0000000000000007
 10
186.3351525507955
 20
125.764773065894
 30
-0.0000000000000007
 10
186.3996222948099
 20
125.7661433827087
 30
-0.0000000000000007
  0
SPLINE
  5
2BA43
330
1F
100
AcDbEntity
  8
実線
100
AcDbSpline
210
-0.0000000000000002
220
-0.0000000000000002
230
1.0
 70
    12
 71
     3
 72
     8
 73
     4
 74
     0
 42
0.000000001
 43
0.0000000001
 40
0.0
 40
0.0
 40
0.0
 40
0.0
 40
1.0
 40
1.0
 40
1.0
 40
1.0
 10
184.0306855080206
 20
124.7835957401759
 30
-0.0000000000000008
 41
0.9570772342603667
 10
183.4634722952722
 20
124.7835957395908
 30
-0.0000000000000008
 41
0.774116256033456
 10
183.0589072157802
 20
125.1885193873503
 30
-0.0000000000000007
 41
0.7741162560334551
 10
183.0490079802784
 20
125.7661433336276
 30
-0.0000000000000007
 41
0.9570772342603628
  0
SPLINE
  5
2BA44
330
1F
100
AcDbEntity
  8
実線
100
AcDbSpline
210
-0.0000000000000001
220
-0.0000000000000001
230
1.0
 70
    12
 71
     2
 72
     6
 73
     3
 74
     0
 42
0.000000001
 43
0.0000000001
 40
0.0
 40
0.0
 40
0.0
 40
1.0
 40
1.0
 40
1.0
 10
180.325021756877
 20
124.7835957399631
 30
-0.0000000000000008
 41
1.0
 10
179.427531748877
 20
124.7835957399631
 30
-0.0000000000000008
 41
0.7132504491541753
 10
179.4118683878771
 20
125.766143333963
 30
-0.0000000000000007
 41
1.0
  0
SPLINE
  5
2BA45
330
1F
100
AcDbEntity
  8
実線
100
AcDbSpline
210
0.0
220
0.0
230
1.0
 70
    24
 71
     3
 72
     8
 73
     4
 74
     0
 42
0.000000001
 43
0.0000000001
 40
0.0
 40
0.0
 40
0.0
 40
0.0
 40
1.0
 40
1.0
 40
1.0
 40
1.0
 10
179.4118684099733
 20
125.7661433341938
 30
-0.0000000000000007
 10
181.0587303738607
 20
125.7661433341938
 30
-0.0000000000000007
 10
182.2816755944991
 20
125.7661433341938
 30
-0.0000000000000007
 10
183.049007983916
 20
125.7661433341938
 30
-0.0000000000000007
  0
SPLINE
  5
2BA46
330
1F
100
AcDbEntity
  8
実線
100
AcDbSpline
210
-0.0000000000000003
220
0.0000000000000002
230
-1.0
 70
    12
 71
     3
 72
     8
 73
     4
 74
     0
 42
0.000000001
 43
0.0000000001
 40
0.0
 40
0.0
 40
0.0
 40
0.0
 40
1.0
 40
1.0
 40
1.0
 40
1.0
 10
192.7102190447936
 20
125.7661433336276
 30
-0.0000000000000007
 41
0.9570772342603618
 10
192.7032244845592
 20
125.1885193873503
 30
-0.0000000000000007
 41
0.7741162560334463
 10
192.4173685709869
 20
124.7835957395908
 30
-0.0000000000000008
 41
0.7741162560334474
 10
192.0165894138722
 20
124.7835957401759
 30
-0.0000000000000008
 41
0.9570772342603655
  0
SPLINE
  5
2BA47
330
1F
100
AcDbEntity
  8
実線
100
AcDbSpline
210
0.0
220
0.0
230
1.0
 70
    28
 71
     3
 72
     8
 73
     4
 74
     0
 42
0.000000001
 43
0.0000000001
 40
0.0
 40
0.0
 40
0.0
 40
0.0
 40
1.0
 40
1.0
 40
1.0
 40
1.0
 10
194.3675182994707
 20
125.7661433336276
 30
-0.0000000000000007
 41
0.6766130647479553
 10
194.4443979134383
 20
125.7661433336276
 30
-0.0000000000000007
 41
0.7143040799283335
 10
193.7809742051224
 20
125.7661433336277
 30
-0.0000000000000007
 41
0.8077921364324691
 10
192.7102190447936
 20
125.7661433336277
 30
-0.0000000000000007
 41
0.9570772342603619
  0
SPLINE
  5
2BA48
330
1F
100
AcDbEntity
  8
実線
100
AcDbSpline
210
0.0
220
0.0
230
1.0
 70
    28
 71
     3
 72
     8
 73
     4
 74
     0
 42
0.000000001
 43
0.0000000001
 40
0.0
 40
0.0
 40
0.0
 40
0.0
 40
1.0
 40
1.0
 40
1.0
 40
1.0
 10
192.0165894138724
 20
124.7835957401759
 30
-0.0000000000000008
 41
0.9570772342603619
 10
192.5156996296101
 20
124.7835957401759
 30
-0.0000000000000008
 41
0.8656741225232515
 10
192.9143796021849
 20
124.7835957401759
 30
-0.0000000000000008
 41
0.7951880504034295
 10
193.1505944138723
 20
124.7835957401759
 30
-0.0000000000000008
 41
0.7456190179008955
  0
SPLINE
  5
2BA49
330
1F
100
AcDbEntity
  8
実線
100
AcDbSpline
210
0.0
220
0.0
230
1.0
 70
    28
 71
     3
 72
     8
 73
     4
 74
     0
 42
0.000000001
 43
0.0000000001
 40
0.0
 40
0.0
 40
0.0
 40
0.0
 40
1.0
 40
1.0
 40
1.0
 40
1.0
 10
180.3250217577388
 20
124.7835957401759
 30
-0.0000000000000008
 41
0.9570772342603635
 10
182.0065735127364
 20
124.7835957401759
 30
-0.0000000000000008
 41
0.9529151437572908
 10
183.2471898951344
 20
124.7835957401759
 30
-0.0000000000000008
 41
0.9529151437572908
 10
184.0306855080205
 20
124.7835957401759
 30
-0.0000000000000008
 41
0.9570772342603635
  0
SPLINE
  5
2BA4A
330
1F
100
AcDbEntity
  8
実線
100
AcDbSpline
210
0.0
220
0.0
230
1.0
 70
    24
 71
     3
 72
    36
 73
    32
 74
     0
 42
0.000000001
 43
0.0000000001
 40
0.0
 40
0.0
 40
0.0
 40
0.0
 40
0.062499999999998
 40
0.062499999999998
 40
0.1250000000000011
 40
0.1250000000000011
 40
0.1874999999999994
 40
0.1874999999999994
 40
0.218750000000001
 40
0.218750000000001
 40
0.2499999999999977
 40
0.2499999999999977
 40
0.3125000000000008
 40
0.3125000000000008
 40
0.3749999999999989
 40
0.3749999999999989
 40
0.5000000000000006
 40
0.5000000000000006
 40
0.5624999999999996
 40
0.5624999999999996
 40
0.625
 40
0.625
 40
0.6875
 40
0.6875
 40
0.7499999999999996
 40
0.7499999999999996
 40
0.8124999999999998
 40
0.8124999999999998
 40
0.875
 40
0.875
 40
1.0
 40
1.0
 40
1.0
 40
1.0
 10
184.030685507877
 20
124.7835957399631
 30
-0.0000000000000008
 10
184.039234050877
 20
124.7835957399631
 30
-0.0000000000000008
 10
184.0507971518771
 20
124.7835957399631
 30
-0.0000000000000008
 10
184.0796427028772
 20
124.7835957399631
 30
-0.0000000000000008
 10
184.0967793458771
 20
124.7835957399631
 30
-0.0000000000000008
 10
184.1362905928772
 20
124.7835957399631
 30
-0.0000000000000008
 10
184.1586656078771
 20
124.7835957399631
 30
-0.0000000000000008
 10
184.1962300558771
 20
124.7835957399631
 30
-0.0000000000000008
 10
184.209459590877
 20
124.7835957399631
 30
-0.0000000000000008
 10
184.2371179028771
 20
124.7835957399631
 30
-0.0000000000000008
 10
184.2514726058771
 20
124.7835957399631
 30
-0.0000000000000008
 10
184.296074265877
 20
124.7835957399631
 30
-0.0000000000000008
 10
184.3278521188772
 20
124.7835957399631
 30
-0.0000000000000008
 10
184.3954566008772
 20
124.7835957399631
 30
-0.0000000000000008
 10
184.431385045877
 20
124.7835957399631
 30
-0.0000000000000008
 10
184.5448723828772
 20
124.7835957399631
 30
-0.0000000000000008
 10
184.6254128898772
 20
124.7835957399631
 30
-0.0000000000000008
 10
184.7533959258771
 20
124.7835957399631
 30
-0.0000000000000008
 10
184.797478205877
 20
124.7835957399631
 30
-0.0000000000000008
 10
184.8855326538771
 20
124.7835957399631
 30
-0.0000000000000008
 10
184.9297902268772
 20
124.7835957399631
 30
-0.0000000000000008
 10
185.0187608978772
 20
124.7835957399631
 30
-0.0000000000000008
 10
185.063541063877
 20
124.7835957399631
 30
-0.0000000000000008
 10
185.153300962877
 20
124.7835957399631
 30
-0.0000000000000008
 10
185.197387896877
 20
124.7835957399631
 30
-0.0000000000000008
 10
185.284037139877
 20
124.7835957399631
 30
-0.0000000000000008
 10
185.326599275877
 20
124.7835957399631
 30
-0.0000000000000008
 10
185.4101762038772
 20
124.7835957399631
 30
-0.0000000000000008
 10
185.4513898858772
 20
124.7835957399631
 30
-0.0000000000000008
 10
185.5691478818771
 20
124.7835957399631
 30
-0.0000000000000008
 10
185.6410032658771
 20
124.7835957399631
 30
-0.0000000000000008
 10
185.7059926648771
 20
124.7835957399631
 30
-0.0000000000000008
  0
SPLINE
  5
2BA4B
330
1F
100
AcDbEntity
  8
実線
100
AcDbSpline
210
0.0
220
0.0
230
1.0
 70
    24
 71
     1
 72
     4
 73
     2
 74
     0
 42
0.000000001
 43
0.0000000001
 40
0.0
 40
0.0
 40
1.0
 40
1.0
 10
192.0165894113354
 20
124.7835957399631
 30
-0.0000000000000008
 10
185.7059926700437
 20
124.7835957399631
 30
-0.0000000000000008
  0
SPLINE
  5
2BA4C
330
1F
100
AcDbEntity
  8
実線
100
AcDbSpline
210
0.0
220
0.0
230
1.0
 70
    24
 71
     3
 72
     9
 73
     5
 74
     0
 42
0.000000001
 43
0.0000000001
 40
0.0
 40
0.0
 40
0.0
 40
0.0
 40
0.4999999999716401
 40
1.0
 40
1.0
 40
1.0
 40
1.0
 10
192.4433230656536
 20
124.7835957399176
 30
-0.0000000000000008
 10
192.3849972899893
 20
124.1169290732668
 30
-0.0000000000000008
 10
192.2683457386536
 20
122.7835957398894
 30
-0.0000000000000009
 10
192.1516941873235
 20
121.4502624065116
 30
-0.000000000000001
 10
192.0933684116553
 20
120.7835957397848
 30
-0.000000000000001
  0
SPLINE
  5
2BA4D
330
1F
100
AcDbEntity
  8
実線
100
AcDbSpline
210
0.0
220
0.0
230
1.0
 70
    24
 71
     3
 72
     8
 73
     4
 74
     0
 42
0.000000001
 43
0.0000000001
 40
0.0
 40
0.0
 40
0.0
 40
0.0
 40
1.0
 40
1.0
 40
1.0
 40
1.0
 10
185.7932776896054
 20
120.7835957375111
 30
-0.000000000000001
 10
185.6766261382747
 20
122.1169290708129
 30
-0.0000000000000009
 10
185.5599745869517
 20
123.4502624041146
 30
-0.0000000000000008
 10
185.4433230356212
 20
124.7835957374165
 30
-0.0000000000000008
  0
SPLINE
  5
2BA4E
330
1F
100
AcDbEntity
  8
実線
100
AcDbSpline
210
0.0
220
0.0
230
1.0
 70
    24
 71
     2
 72
    26
 73
    23
 74
     0
 42
0.000000001
 43
0.0000000001
 40
0.0
 40
0.0
 40
0.0
 40
0.0078125
 40
0.015625
 40
0.03125
 40
0.0625
 40
0.125
 40
0.1875
 40
0.25
 40
0.3125
 40
0.375
 40
0.4375
 40
0.5
 40
0.5625
 40
0.625
 40
0.6875
 40
0.75
 40
0.8125
 40
0.875
 40
0.9375
 40
0.96875
 40
0.98125
 40
1.0
 40
1.0
 40
1.0
 10
192.0933684091644
 20
120.7835957399631
 30
-0.000000000000001
 10
192.0933548995301
 20
120.7835957399631
 30
-0.000000000000001
 10
192.0914969565651
 20
120.7835957399631
 30
-0.000000000000001
 10
192.0858426467091
 20
120.7835957399631
 30
-0.000000000000001
 10
192.0631851699083
 20
120.7835957399631
 30
-0.000000000000001
 10
191.9724727334628
 20
120.7835957399631
 30
-0.000000000000001
 10
191.7351149783615
 20
120.7835957399631
 30
-0.000000000000001
 10
191.3904702269151
 20
120.7835957399631
 30
-0.000000000000001
 10
190.9517829788935
 20
120.7835957399631
 30
-0.000000000000001
 10
190.435911746674
 20
120.7835957399631
 30
-0.000000000000001
 10
189.8626811610506
 20
120.7835957399631
 30
0.0000000000000008
 10
189.2541201704116
 20
120.7835957399631
 30
0.0000000000000008
 10
188.6336154097578
 20
120.7835957399631
 30
0.0000000000000008
 10
188.0250125521752
 20
120.7835957399631
 30
0.0000000000000008
 10
187.4516998414933
 20
120.7835957399631
 30
-0.000000000000001
 10
186.9357093822518
 20
120.7835957399631
 30
-0.000000000000001
 10
186.496870387002
 20
120.7835957399631
 30
-0.000000000000001
 10
186.1520471996741
 20
120.7835957399631
 30
-0.000000000000001
 10
185.9144911772725
 20
120.7835957399631
 30
-0.000000000000001
 10
185.8236219102714
 20
120.7835957399631
 30
-0.000000000000001
 10
185.8023998212375
 20
120.7835957399631
 30
-0.000000000000001
 10
185.7933101966612
 20
120.7835957399631
 30
-0.000000000000001
 10
185.7932777205897
 20
120.7835957399631
 30
-0.000000000000001
  0
SPLINE
  5
2BA4F
330
1F
100
AcDbEntity
  8
実線
100
AcDbSpline
210
0.0
220
0.0
230
1.0
 70
    24
 71
     1
 72
     4
 73
     2
 74
     0
 42
0.000000001
 43
0.0000000001
 40
0.0
 40
0.0
 40
1.0
 40
1.0
 10
95.23133851834883
 20
137.2835957399631
 30
0.0
 10
110.5455982980916
 20
137.2835957399631
 30
0.0
  0
SPLINE
  5
2BA50
330
1F
100
AcDbEntity
  8
実線
100
AcDbSpline
210
0.0000000000000006
220
-0.0000000000000005
230
1.0
 70
     8
 71
     2
 72
    24
 73
    21
 74
     0
 42
0.000000001
 43
0.0000000001
 40
0.0
 40
0.0
 40
0.0
 40
0.015625
 40
0.03125
 40
0.0625
 40
0.125
 40
0.175
 40
0.25
 40
0.3
 40
0.375
 40
0.425
 40
0.5
 40
0.55
 40
0.625
 40
0.675
 40
0.75
 40
0.8
 40
0.875
 40
0.9375
 40
0.9625
 40
1.0
 40
1.0
 40
1.0
 10
166.6553076052353
 20
137.2835957399631
 30
0.0
 10
166.6463703153738
 20
137.2835819698329
 30
0.0
 10
166.6295459925984
 20
137.2830118243238
 30
0.0
 10
166.6034760652583
 20
137.2812206288035
 30
0.0
 10
166.5515780416338
 20
137.2740154994036
 30
0.0
 10
166.4898779185569
 20
137.2566739600014
 30
0.0
 10
166.4228935076821
 20
137.2299745399411
 30
0.0
 10
166.3582695925065
 20
137.1921287449992
 30
0.0
 10
166.2962155770476
 20
137.1474363520809
 30
0.0
 10
166.2380203463688
 20
137.0924755023608
 30
0.0
 10
166.1832946455117
 20
137.0315171644733
 30
0.0
 10
166.1337769028791
 20
136.9615650943114
 30
0.0
 10
166.0884942594734
 20
136.8866963986749
 30
0.0
 10
166.0495675143315
 20
136.804456226898
 30
0.0
 10
166.0154777678833
 20
136.7185702859646
 30
0.0
 10
165.9886462306413
 20
136.6272199842803
 30
0.0
 10
165.9670666892023
 20
136.5336356523136
 30
0.0
 10
165.9519971706095
 20
136.4270115528374
 30
-0.0000000000000001
 10
165.9471887270872
 20
136.3585173932021
 30
-0.0000000000000001
 10
165.9451322019285
 20
136.3096917581921
 30
-0.0000000000000001
 10
165.9451087392463
 20
136.2792324299629
 30
-0.0000000000000001
  0
SPLINE
  5
2BA51
330
1F
100
AcDbEntity
  8
実線
100
AcDbSpline
210
0.0
220
0.0
230
1.0
 70
    24
 71
     1
 72
     4
 73
     2
 74
     0
 42
0.000000001
 43
0.0000000001
 40
0.0
 40
0.0
 40
1.0
 40
1.0
 10
178.0258537414879
 20
137.2835957399631
 30
0.0
 10
194.237156741488
 20
137.2835957399631
 30
0.0
  0
SPLINE
  5
2BA52
330
1F
100
AcDbEntity
  8
実線
100
AcDbSpline
210
-0.0000000000000007
220
-0.0000000000000005
230
1.0
 70
     8
 71
     2
 72
    24
 73
    21
 74
     0
 42
0.000000001
 43
0.0000000001
 40
0.0
 40
0.0
 40
0.0
 40
0.015625
 40
0.03125
 40
0.0625
 40
0.125
 40
0.175
 40
0.25
 40
0.3
 40
0.375
 40
0.425
 40
0.5
 40
0.55
 40
0.625
 40
0.675
 40
0.75
 40
0.8
 40
0.875
 40
0.9375
 40
0.9625
 40
1.0
 40
1.0
 40
1.0
 10
95.94153739050808
 20
136.2792324299629
 30
-0.0000000000000001
 10
95.94152765465469
 20
136.2918715452171
 30
-0.0000000000000001
 10
95.94112449901013
 20
136.3156645025052
 30
-0.0000000000000001
 10
95.93985792298282
 20
136.3525325940215
 30
-0.0000000000000001
 10
95.93476308168829
 20
136.4259267805727
 30
-0.0000000000000001
 10
95.92250064376072
 20
136.5131830987131
 30
0.0
 10
95.90362112068579
 20
136.6079124599038
 30
0.0
 10
95.8768598437607
 20
136.6993036114817
 30
0.0
 10
95.84525724883723
 20
136.7870604110263
 30
0.0
 10
95.8063936953772
 20
136.8693601170352
 30
0.0
 10
95.76328923219056
 20
136.9467532071377
 30
0.0
 10
95.71382517158872
 20
137.0167811935102
 30
0.0
 10
95.66088450200505
 20
137.0808199103709
 30
0.0
 10
95.60273136818432
 20
137.1358701263035
 30
0.0
 10
95.54200026232479
 20
137.1840798519823
 30
0.0
 10
95.47740523292828
 20
137.2220250089509
 30
0.0
 10
95.41123048840768
 20
137.2525427945635
 30
0.0
 10
95.33583514538122
 20
137.2738541072541
 30
0.0
 10
95.28740199707863
 20
137.2806542125635
 30
0.0
 10
95.25287672872877
 20
137.283562554973
 30
0.0
 10
95.23133852451882
 20
137.2835957399631
 30
0.0
  0
SPLINE
  5
2BA53
330
1F
100
AcDbEntity
  8
実線
100
AcDbSpline
210
0.0000000000000006
220
-0.0000000000000005
230
1.0
 70
     8
 71
     2
 72
    24
 73
    21
 74
     0
 42
0.000000001
 43
0.0000000001
 40
0.0
 40
0.0
 40
0.0
 40
0.015625
 40
0.03125
 40
0.0625
 40
0.125
 40
0.175
 40
0.25
 40
0.3
 40
0.375
 40
0.425
 40
0.5
 40
0.55
 40
0.625
 40
0.675
 40
0.75
 40
0.8
 40
0.875
 40
0.9375
 40
0.9625
 40
1.0
 40
1.0
 40
1.0
 10
83.9238142062352
 20
137.2835957399631
 30
0.0
 10
83.91487700134531
 20
137.2835819698329
 30
0.0
 10
83.89805619677236
 20
137.2830118243238
 30
0.0
 10
83.87199732238059
 20
137.2812206288035
 30
0.0
 10
83.82014375952008
 20
137.2740154994036
 30
0.0
 10
83.75855064605365
 20
137.2566739600014
 30
0.0
 10
83.69173098955707
 20
137.2299745399411
 30
0.0
 10
83.62734060980688
 20
137.1921287449992
 30
0.0
 10
83.56556237814402
 20
137.1474363520809
 30
0.0
 10
83.50770629493013
 20
137.0924755023608
 30
0.0
 10
83.45335675029833
 20
137.0315171644733
 30
0.0
 10
83.40427066160463
 20
136.9615650943114
 30
0.0
 10
83.35945001120762
 20
136.8866963986749
 30
0.0
 10
83.32103074631618
 20
136.804456226898
 30
0.0
 10
83.28747097710266
 20
136.7185702859646
 30
0.0
 10
83.26120313608043
 20
136.6272199842803
 30
0.0
 10
83.24020107641468
 20
136.5336356523136
 30
0.0
 10
83.22578950421871
 20
136.4270115528374
 30
-0.0000000000000001
 10
83.22140371829233
 20
136.3585173932021
 30
-0.0000000000000001
 10
83.21964848196808
 20
136.3096917581921
 30
-0.0000000000000001
 10
83.21981297496677
 20
136.2792324299629
 30
-0.0000000000000001
  0
SPLINE
  5
2BA54
330
1F
100
AcDbEntity
  8
実線
100
AcDbSpline
210
0.0
220
0.0
230
1.0
 70
    24
 71
     2
 72
    16
 73
    13
 74
     0
 42
0.000000001
 43
0.0000000001
 40
0.0
 40
0.0
 40
0.0
 40
0.03125
 40
0.0625
 40
0.125
 40
0.25
 40
0.3928571428571428
 40
0.5
 40
0.6428571428571428
 40
0.75
 40
0.875
 40
0.925
 40
1.0
 40
1.0
 40
1.0
 10
194.237156741488
 20
137.2835957399631
 30
0.0
 10
194.3066346392006
 20
137.2835957399631
 30
0.0
 10
194.4409618432471
 20
137.2835957399631
 30
0.0
 10
194.6378020204895
 20
137.2835957399631
 30
0.0
 10
195.0093991318358
 20
137.2835957399631
 30
0.0
 10
195.4771607514531
 20
137.2835957399631
 30
0.0
 10
195.8363925158623
 20
137.2835957399631
 30
0.0
 10
196.1376152357754
 20
137.2835957399631
 30
0.0
 10
196.3545593078463
 20
137.2835957399631
 30
0.0
 10
196.4973131218542
 20
137.2835957399631
 30
0.0
 10
196.551139906493
 20
137.2835957399631
 30
0.0
 10
196.5742029584296
 20
137.2835957399631
 30
0.0
 10
196.5742360238409
 20
137.2835957399631
 30
0.0
  0
SPLINE
  5
2BA55
330
1F
100
AcDbEntity
  8
実線
100
AcDbSpline
210
0.0
220
0.0
230
1.0
 70
    24
 71
     1
 72
     4
 73
     2
 74
     0
 42
0.000000001
 43
0.0000000001
 40
0.0
 40
0.0
 40
1.0
 40
1.0
 10
95.23133852451882
 20
137.2835957399631
 30
0.0
 10
83.9238142062352
 20
137.2835957399631
 30
0.0
  0
SPLINE
  5
2BA56
330
1F
100
AcDbEntity
  8
実線
100
AcDbSpline
210
0.0
220
0.0
230
1.0
 70
    24
 71
     2
 72
    42
 73
    39
 74
     0
 42
0.000000001
 43
0.0000000001
 40
0.0
 40
0.0
 40
0.0
 40
0.0117105961037109
 40
0.0399474362150334
 40
0.068184276326356
 40
0.0964211164376785
 40
0.1246579565490011
 40
0.1528947966603236
 40
0.1811316367716462
 40
0.2093684768829687
 40
0.2376053169942913
 40
0.2658421571056138
 40
0.2940789972169364
 40
0.3223158373282589
 40
0.3505526774395815
 40
0.378789517550904
 40
0.4070263576622267
 40
0.4352631977735493
 40
0.4635000378848719
 40
0.4917368779961942
 40
0.5199737181075168
 40
0.5482105582188394
 40
0.5764473983301618
 40
0.6046842384414843
 40
0.6329210785528069
 40
0.6611579186641296
 40
0.6893947587754523
 40
0.7176315988867747
 40
0.7458684389980971
 40
0.7741052791094197
 40
0.8023421192207422
 40
0.8305789593320646
 40
0.8588157994433871
 40
0.8870526395547098
 40
0.9152894796660323
 40
0.9435263197773547
 40
0.9717631598886775
 40
0.9830578959332063
 40
1.0
 40
1.0
 40
1.0
 10
95.19331413397731
 20
139.2835957399631
 30
0.0
 10
95.19340888506054
 20
139.2835957399631
 30
-0.0000000000000001
 10
95.26200751121223
 20
139.2835957399631
 30
0.0000000000000001
 10
95.5912432805294
 20
139.2835957399631
 30
0.0000000000000001
 10
96.15057875222783
 20
139.2835957399631
 30
0.0000000000000001
 10
96.93637335353992
 20
139.2835957399631
 30
0.0000000000000001
 10
97.94351249230954
 20
139.2835957399631
 30
0.0000000000000001
 10
99.16544081367215
 20
139.2835957399631
 30
0.0000000000000001
 10
100.5942051010916
 20
139.2835957399631
 30
0.0000000000000001
 10
102.2205057581441
 20
139.2835957399631
 30
0.0000000000000001
 10
104.0337575798184
 20
139.2835957399631
 30
0.0000000000000001
 10
106.022158467402
 20
139.2835957399631
 30
0.0000000000000001
 10
108.1727662951646
 20
139.2835957399631
 30
0.0000000000000001
 10
110.4715831575906
 20
139.2835957399631
 30
0.0000000000000001
 10
112.9036465611314
 20
139.2835957399631
 30
0.0000000000000001
 10
115.4531265765683
 20
139.2835957399631
 30
0.0000000000000001
 10
118.1034292981626
 20
139.2835957399631
 30
0.0000000000000001
 10
120.8373042824712
 20
139.2835957399631
 30
0.0000000000000001
 10
123.6369573651957
 20
139.2835957399631
 30
0.0000000000000001
 10
126.4841661845698
 20
139.2835957399631
 30
0.0000000000000001
 10
129.3603987450499
 20
139.2835957399631
 30
0.0000000000000001
 10
132.2469342557683
 20
139.2835957399631
 30
0.0000000000000001
 10
135.1249848183868
 20
139.2835957399631
 30
0.0000000000000001
 10
137.9758177536455
 20
139.2835957399631
 30
0.0000000000000001
 10
140.7808775718024
 20
139.2835957399631
 30
0.0000000000000001
 10
143.5219066691052
 20
139.2835957399631
 30
0.0000000000000001
 10
146.1810642511438
 20
139.2835957399631
 30
0.0000000000000001
 10
148.741042419484
 20
139.2835957399631
 30
0.0000000000000001
 10
151.185178781126
 20
139.2835957399631
 30
0.0000000000000001
 10
153.497564879538
 20
139.2835957399631
 30
0.0000000000000001
 10
155.6631498705862
 20
139.2835957399631
 30
0.0000000000000001
 10
157.6678383836138
 20
139.2835957399631
 30
0.0000000000000001
 10
159.4985823573313
 20
139.2835957399631
 30
0.0000000000000001
 10
161.143465711546
 20
139.2835957399631
 30
0.0000000000000001
 10
162.5917823542379
 20
139.2835957399631
 30
0.0000000000000001
 10
163.8341054663074
 20
139.2835957399631
 30
0.0000000000000001
 10
164.5538756873425
 20
139.2835957399631
 30
0.0000000000000001
 10
165.0237534273538
 20
139.2835957399631
 30
0.0000000000000001
 10
165.2662381339773
 20
139.2835957399631
 30
0.0000000000000001
  0
SPLINE
  5
2BA57
330
1F
100
AcDbEntity
  8
実線
100
AcDbSpline
210
0.0
220
0.0
230
1.0
 70
    24
 71
     1
 72
     4
 73
     2
 74
     0
 42
0.000000001
 43
0.0000000001
 40
0.0
 40
0.0
 40
1.0
 40
1.0
 10
177.9628319235189
 20
137.2835957399631
 30
0.0
 10
166.6553076052353
 20
137.2835957399631
 30
0.0
  0
SPLINE
  5
2BA58
330
1F
100
AcDbEntity
  8
実線
100
AcDbSpline
210
-0.0000000000000007
220
-0.0000000000000005
230
1.0
 70
     8
 71
     2
 72
    24
 73
    21
 74
     0
 42
0.000000001
 43
0.0000000001
 40
0.0
 40
0.0
 40
0.0
 40
0.015625
 40
0.03125
 40
0.0625
 40
0.125
 40
0.175
 40
0.25
 40
0.3
 40
0.375
 40
0.425
 40
0.5
 40
0.55
 40
0.625
 40
0.675
 40
0.75
 40
0.8
 40
0.875
 40
0.9375
 40
0.9625
 40
1.0
 40
1.0
 40
1.0
 10
178.6668331547873
 20
136.2792324299629
 30
-0.0000000000000001
 10
178.666901411249
 20
136.2918715452171
 30
-0.0000000000000001
 10
178.666645075044
 20
136.3156645025052
 30
-0.0000000000000001
 10
178.6656060013176
 20
136.3525325940215
 30
-0.0000000000000001
 10
178.6609640542638
 20
136.4259267805727
 30
-0.0000000000000001
 10
178.6492400497711
 20
136.5131830987131
 30
0.0
 10
178.6309450741128
 20
136.6079124599038
 30
0.0
 10
178.6047477454806
 20
136.6993036114817
 30
0.0
 10
178.5736866723175
 20
136.7870604110263
 30
0.0
 10
178.5353309664763
 20
136.8693601170352
 30
0.0
 10
178.4927040736049
 20
136.9467532071377
 30
0.0
 10
178.4436721353988
 20
137.0167811935102
 30
0.0
 10
178.3911266301656
 20
137.0808199103709
 30
0.0
 10
178.3333131952627
 20
137.1358701263035
 30
0.0
 10
178.2728795776397
 20
137.1840798519823
 30
0.0
 10
178.2085186968029
 20
137.2220250089509
 30
0.0
 10
178.1425322686868
 20
137.2525427945635
 30
0.0
 10
178.0672684315909
 20
137.2738541072541
 30
0.0
 10
178.0188772447659
 20
137.2806542125635
 30
0.0
 10
177.9843699229541
 20
137.283562554973
 30
0.0
 10
177.9628319235189
 20
137.2835957399631
 30
0.0
  0
SPLINE
  5
2BA59
330
1F
100
AcDbEntity
  8
実線
100
AcDbSpline
210
0.0
220
0.0
230
1.0
 70
    24
 71
     1
 72
     4
 73
     2
 74
     0
 42
0.000000001
 43
0.0000000001
 40
0.0
 40
0.0
 40
1.0
 40
1.0
 10
151.3410479277206
 20
137.2835957399631
 30
0.0
 10
166.6553075934614
 20
137.2835957399631
 30
0.0
  0
SPLINE
  5
2BA5A
330
1F
100
AcDbEntity
  8
実線
100
AcDbSpline
210
0.0
220
0.0
230
1.0
 70
    24
 71
     1
 72
     4
 73
     2
 74
     0
 42
0.000000001
 43
0.0000000001
 40
0.0
 40
0.0
 40
1.0
 40
1.0
 10
165.2662381512466
 20
139.2835957399631
 30
0.0000000000000001
 10
165.3127393659958
 20
137.2835957399631
 30
0.0
  0
DIMENSION
  5
2BAFC
102
{ACAD_XDICTIONARY
360
2BB09
102
}
102
{ACAD_REACTORS
330
2BB13
102
}
330
1F
100
AcDbEntity
  8
寸法
100
AcDbDimension
280
     0
  2
*D7
 10
225.4900530648602
 20
242.723202056238
 30
0.0
 11
222.7400530648601
 21
198.2232020562381
 31
0.0
 70
    32
 71
     5
 42
89.0
 73
     0
 74
     0
 75
     0
  3
ｺﾋﾟｰ - ISO-25
100
AcDbAlignedDimension
 13
132.7695675458223
 23
153.723202056238
 33
0.0
 14
132.7695675458224
 24
242.7232020562381
 34
0.0
 50
90.0
100
AcDbRotatedDimension
  0
DIMENSION
  5
2BB26
102
{ACAD_XDICTIONARY
360
2BB33
102
}
102
{ACAD_REACTORS
330
2BB3D
102
}
330
1F
100
AcDbEntity
  8
寸法
100
AcDbDimension
280
     0
  2
*D8
 10
180.9433235196543
 20
27.39596049758927
 30
0.0
 11
130.9433235196543
 21
30.14596049758927
 31
0.0
 70
    32
 71
     5
 42
100.0
 73
     0
 74
     0
 75
     0
  3
ｺﾋﾟｰ - ISO-25
100
AcDbAlignedDimension
 13
80.94332351965432
 23
56.88359573996308
 33
0.0
 14
180.9433235196543
 24
56.88359573996303
 34
0.0
100
AcDbRotatedDimension
  0
DIMENSION
  5
2BB3E
102
{ACAD_XDICTIONARY
360
2BB4B
102
}
102
{ACAD_REACTORS
330
2BB55
102
}
330
1F
100
AcDbEntity
  8
寸法
100
AcDbDimension
280
     0
  2
*D9
 10
60.68099156713811
 20
68.28359573996315
 30
0.0
 11
57.9309915671381
 21
56.78359573996313
 31
0.0
 70
    32
 71
     5
 42
23.00000000000005
 73
     0
 74
     0
 75
     0
  3
ｺﾋﾟｰ - ISO-25
100
AcDbAlignedDimension
 13
107.8263391447793
 23
45.28359573996309
 33
0.0
 14
74.81038520645461
 24
68.28359573996315
 34
0.0
 50
90.0
100
AcDbRotatedDimension
  0
DIMENSION
  5
2BB6D
102
{ACAD_XDICTIONARY
360
2BB7A
102
}
102
{ACAD_REACTORS
330
2BB84
102
}
330
1F
100
AcDbEntity
  8
寸法
100
AcDbDimension
280
     0
  2
*D10
 10
48.77825454354206
 20
145.2835957399631
 30
0.0
 11
46.02825454354203
 21
95.28359573996311
 31
0.0
 70
    32
 71
     5
 42
100.0
 73
     0
 74
     0
 75
     0
  3
ｺﾋﾟｰ - ISO-25
100
AcDbAlignedDimension
 13
107.8263391447793
 23
45.28359573996309
 33
0.0
 14
87.24332351965427
 24
145.2835957399631
 34
0.0
 50
90.0
100
AcDbRotatedDimension
  0
TEXT
  5
2BBAD
330
1F
100
AcDbEntity
  8
0
100
AcDbText
 10
362.0810329945232
 20
50.90516497261692
 30
0.0
 40
3.5
  1
A-225090
 41
0.9
 72
     1
 11
374.2310329945232
 21
52.65516497261692
 31
0.0
100
AcDbText
 73
     2
  0
LINE
  5
2BBCE
330
1F
100
AcDbEntity
  8
0
100
AcDbLine
 10
25.0
 20
277.0
 30
0.0
 11
25.0
 21
20.0
 31
0.0
  0
LINE
  5
2BBCF
330
1F
100
AcDbEntity
  8
0
100
AcDbLine
 10
405.0
 20
277.0
 30
0.0
 11
25.0
 21
277.0
 31
0.0
  0
LINE
  5
2BBD0
330
1F
100
AcDbEntity
  8
0
100
AcDbLine
 10
25.0
 20
20.0
 30
0.0
 11
405.0
 21
20.0
 31
0.0
  0
LINE
  5
2BBD1
330
1F
100
AcDbEntity
  8
0
100
AcDbLine
 10
405.0
 20
20.0
 30
0.0
 11
405.0
 21
277.0
 31
0.0
  0
VIEWPORT
  5
6B
330
50
100
AcDbEntity
 67
     1
  8
0
100
AcDbViewport
 10
433.5371052199574
 20
123.3251464112375
 30
0.0
 40
833.2744282326544
 41
415.0001327249074
 68
     1
 69
     1
 12
433.5371052199574
 22
123.3251464112375
 13
0.0
 23
0.0
 14
10.0
 24
10.0
 15
10.0
 25
10.0
 16
0.0
 26
0.0
 36
1.0
 17
0.0
 27
0.0
 37
0.0
 42
50.0
 43
0.0
 44
0.0
 45
415.0001327249074
 50
0.0
 51
0.0
 72
   100
 90
    32800
  1

281
     0
 71
     1
 74
     0
110
0.0
120
0.0
130
0.0
111
1.0
121
0.0
131
0.0
112
0.0
122
1.0
132
0.0
 79
     0
146
0.0
170
     0
 61
     5
348
276B
292
     1
282
     1
141
0.0
142
0.0
 63
   250
421
  3355443
  0
VIEWPORT
  5
6D
330
50
100
AcDbEntity
 67
     1
  8
0
100
AcDbViewport
 10
194.6747247325147
 20
118.9168694143202
 30
0.0
 40
506.9942499588641
 41
411.2802053937703
 68
     2
 69
     2
 12
200.9197229890301
 22
122.5631282670758
 13
0.0
 23
0.0
 14
10.0
 24
10.0
 15
10.0
 25
10.0
 16
0.0
 26
0.0
 36
1.0
 17
0.0
 27
0.0
 37
0.0
 42
50.0
 43
0.0
 44
0.0
 45
411.2802071812528
 50
0.0
 51
0.0
 72
   100
 90
    32864
  1

281
     0
 71
     1
 74
     0
110
0.0
120
0.0
130
0.0
111
1.0
121
0.0
131
0.0
112
0.0
122
1.0
132
0.0
 79
     0
146
0.0
170
     0
 61
     5
348
276B
292
     1
282
     1
141
0.0
142
0.0
 63
   250
421
  3355443
  0
ENDSEC
  0
SECTION
  2
OBJECTS
  0
DICTIONARY
  5
C
330
0
100
AcDbDictionary
281
     1
  3
ACAD_CIP_PREVIOUS_PRODUCT_INFO
350
2BD2D
  3
ACAD_COLOR
350
2776
  3
ACAD_DETAILVIEWSTYLE
350
2BD1D
  3
ACAD_GROUP
350
D
  3
ACAD_LAYOUT
350
1A
  3
ACAD_MATERIAL
350
2761
  3
ACAD_MLEADERSTYLE
350
247F1
  3
ACAD_MLINESTYLE
350
17
  3
ACAD_PLOTSETTINGS
350
19
  3
ACAD_PLOTSTYLENAME
350
E
  3
ACAD_SCALELIST
350
247DF
  3
ACAD_SECTIONVIEWSTYLE
350
2BD1B
  3
ACAD_TABLESTYLE
350
2777
  3
ACAD_VISUALSTYLE
350
2765
  3
ACDB_RECOMPOSE_DATA
350
2BD3B
  3
AcDbVariableDictionary
350
5E
  0
DICTIONARY
  5
279F
330
2
100
AcDbDictionary
280
     1
281
     1
  3
ACAD_LAYERFILTERS
360
2DF9
  3
ACAD_LAYERSTATES
360
2E2E
  3
ACLYDICTIONARY
360
2DF8
  0
DICTIONARY
  5
24E13
330
10
100
AcDbDictionary
280
     1
281
     1
  3
ADSK_XREC_LAYER_RECONCILED
360
24E14
  0
DICTIONARY
  5
24E15
330
A7
100
AcDbDictionary
280
     1
281
     1
  3
ADSK_XREC_LAYER_RECONCILED
360
24E16
  0
DICTIONARY
  5
24E17
330
A8
100
AcDbDictionary
280
     1
281
     1
  3
ADSK_XREC_LAYER_RECONCILED
360
24E18
  0
DICTIONARY
  5
24E19
330
A9
100
AcDbDictionary
280
     1
281
     1
  3
ADSK_XREC_LAYER_RECONCILED
360
24E1A
  0
DICTIONARY
  5
24E1B
330
AA
100
AcDbDictionary
280
     1
281
     1
  3
ADSK_XREC_LAYER_RECONCILED
360
24E1C
  0
DICTIONARY
  5
24E1D
330
AB
100
AcDbDictionary
280
     1
281
     1
  3
ADSK_XREC_LAYER_RECONCILED
360
24E1E
  0
DICTIONARY
  5
24E1F
330
AC
100
AcDbDictionary
280
     1
281
     1
  3
ADSK_XREC_LAYER_RECONCILED
360
24E20
  0
DICTIONARY
  5
24E21
330
58C
100
AcDbDictionary
280
     1
281
     1
  3
ADSK_XREC_LAYER_RECONCILED
360
24E22
  0
DICTIONARY
  5
24E23
330
1023
100
AcDbDictionary
280
     1
281
     1
  3
ADSK_XREC_LAYER_RECONCILED
360
24E24
  0
DICTIONARY
  5
24E25
330
2366
100
AcDbDictionary
280
     1
281
     1
  3
ADSK_XREC_LAYER_RECONCILED
360
24E26
  0
DICTIONARY
  5
2D98
330
1F
100
AcDbDictionary
280
     1
281
     1
  3
ACAD_SORTENTS
360
2D99
  0
DICTIONARY
  5
29CF
330
341
100
AcDbDictionary
280
     1
281
     1
  3
ACAD_SORTENTS
360
29D1
  0
DICTIONARY
  5
2BB09
330
2BAFC
100
AcDbDictionary
280
     1
281
     1
  3
ACAD_DIMASSOC
360
2BB13
  0
DICTIONARY
  5
2BB33
330
2BB26
100
AcDbDictionary
280
     1
281
     1
  3
ACAD_DIMASSOC
360
2BB3D
  0
DICTIONARY
  5
2BB4B
330
2BB3E
100
AcDbDictionary
280
     1
281
     1
  3
ACAD_DIMASSOC
360
2BB55
  0
DICTIONARY
  5
2BB7A
330
2BB6D
100
AcDbDictionary
280
     1
281
     1
  3
ACAD_DIMASSOC
360
2BB84
  0
XRECORD
  5
2BD2D
102
{ACAD_REACTORS
330
C
102
}
330
C
100
AcDbXrecord
280
     1
300
ACDLT
300
2014
300
ACDLT_F_S
  0
DICTIONARY
  5
2776
102
{ACAD_REACTORS
330
C
102
}
330
C
100
AcDbDictionary
281
     1
  0
DICTIONARY
  5
2BD1D
102
{ACAD_REACTORS
330
C
102
}
330
C
100
AcDbDictionary
281
     1
  3
Metric50
350
2BD1E
  0
DICTIONARY
  5
D
102
{ACAD_REACTORS
330
C
102
}
330
C
100
AcDbDictionary
281
     1
  3
*A1
350
29F6
  0
DICTIONARY
  5
1A
102
{ACAD_REACTORS
330
C
102
}
330
C
100
AcDbDictionary
281
     1
  3
Model
350
22
  3
ﾚｲｱｳﾄ1
350
51
  3
ﾚｲｱｳﾄ2
350
56
  0
DICTIONARY
  5
2761
102
{ACAD_REACTORS
330
C
102
}
330
C
100
AcDbDictionary
281
     1
  3
ByBlock
350
2763
  3
ByLayer
350
2762
  3
Global
350
2764
  0
DICTIONARY
  5
247F1
102
{ACAD_REACTORS
330
C
102
}
330
C
100
AcDbDictionary
281
     1
  3
Standard
350
247F2
  0
DICTIONARY
  5
17
102
{ACAD_REACTORS
330
C
102
}
330
C
100
AcDbDictionary
281
     1
  3
Standard
350
18
  0
DICTIONARY
  5
19
102
{ACAD_REACTORS
330
C
102
}
330
C
100
AcDbDictionary
281
     1
  3
印刷
350
E74
  0
ACDBDICTIONARYWDFLT
  5
E
102
{ACAD_REACTORS
330
C
102
}
330
C
100
AcDbDictionary
281
     1
  3
Normal
350
F
100
AcDbDictionaryWithDefault
340
F
  0
DICTIONARY
  5
247DF
102
{ACAD_REACTORS
330
C
102
}
330
C
100
AcDbDictionary
281
     1
  3
A0
350
247E0
  3
A1
350
247E1
  3
A2
350
247E2
  3
A3
350
247E3
  3
A4
350
247E4
  3
A5
350
247E5
  3
A6
350
247E6
  3
A7
350
247E7
  3
A8
350
247E8
  3
A9
350
247E9
  3
B0
350
247EA
  3
B1
350
247EB
  3
B2
350
247EC
  3
B3
350
247ED
  3
B4
350
247EE
  3
B5
350
247EF
  3
B6
350
247F0
  0
DICTIONARY
  5
2BD1B
102
{ACAD_REACTORS
330
C
102
}
330
C
100
AcDbDictionary
281
     1
  3
Metric50
350
2BD1C
  0
DICTIONARY
  5
2777
102
{ACAD_REACTORS
330
C
102
}
330
C
100
AcDbDictionary
281
     1
  3
Standard
350
2778
  3
コピー - Standard
350
2688B
  0
DICTIONARY
  5
2765
102
{ACAD_REACTORS
330
C
102
}
330
C
100
AcDbDictionary
281
     1
  3
2dWireframe
350
276B
  3
3D Hidden
350
276D
  3
3dWireframe
350
276C
  3
Basic
350
276A
  3
Brighten
350
2771
  3
ColorChange
350
2775
  3
Conceptual
350
276E
  3
Dim
350
2770
  3
EdgeColorOff
350
247DE
  3
Facepattern
350
2774
  3
Flat
350
2766
  3
FlatWithEdges
350
2767
  3
Gouraud
350
2768
  3
GouraudWithEdges
350
2769
  3
Hidden
350
2BD15
  3
JitterOff
350
247DC
  3
Linepattern
350
2773
  3
OverhangOff
350
247DD
  3
Realistic
350
276F
  3
Shaded
350
2BD1A
  3
Shaded with edges
350
2BD19
  3
Shades of Gray
350
2BD16
  3
Sketchy
350
2BD17
  3
Thicken
350
2772
  3
Wireframe
350
2BD14
  3
X-Ray
350
2BD18
  0
XRECORD
  5
2BD3B
102
{ACAD_REACTORS
330
C
102
}
330
C
100
AcDbXrecord
280
     1
 90
        1
330
2778
330
2688B
330
2BD1C
330
2BD1E
  0
DICTIONARY
  5
5E
102
{ACAD_REACTORS
330
C
102
}
330
C
100
AcDbDictionary
281
     1
  3
CANNOSCALE
350
24E32
  3
CMLEADERSTYLE
350
24E30
  3
CTABLESTYLE
350
2792
  3
CVIEWDETAILSTYLE
350
2BD30
  3
CVIEWSECTIONSTYLE
350
2BD31
  3
DIMASSOC
350
5F
  3
HIDETEXT
350
63
  3
LAYEREVAL
350
24E34
  3
LAYERNOTIFY
350
24E35
  3
LIGHTINGUNITS
350
24E33
  3
MSLTSCALE
350
24E31
  0
DICTIONARY
  5
2DF9
102
{ACAD_REACTORS
330
279F
102
}
330
279F
100
AcDbDictionary
281
     1
  0
DICTIONARY
  5
2E2E
102
{ACAD_REACTORS
330
279F
102
}
330
279F
100
AcDbDictionary
281
     1
  0
DICTIONARY
  5
2DF8
102
{ACAD_REACTORS
330
279F
102
}
330
279F
100
AcDbDictionary
281
     1
1001
ACAD
1000
<All
  0
XRECORD
  5
24E14
102
{ACAD_REACTORS
330
24E13
102
}
330
24E13
100
AcDbXrecord
280
     1
290
     1
  0
XRECORD
  5
24E16
102
{ACAD_REACTORS
330
24E15
102
}
330
24E15
100
AcDbXrecord
280
     1
290
     1
  0
XRECORD
  5
24E18
102
{ACAD_REACTORS
330
24E17
102
}
330
24E17
100
AcDbXrecord
280
     1
290
     1
  0
XRECORD
  5
24E1A
102
{ACAD_REACTORS
330
24E19
102
}
330
24E19
100
AcDbXrecord
280
     1
290
     1
  0
XRECORD
  5
24E1C
102
{ACAD_REACTORS
330
24E1B
102
}
330
24E1B
100
AcDbXrecord
280
     1
290
     1
  0
XRECORD
  5
24E1E
102
{ACAD_REACTORS
330
24E1D
102
}
330
24E1D
100
AcDbXrecord
280
     1
290
     1
  0
XRECORD
  5
24E20
102
{ACAD_REACTORS
330
24E1F
102
}
330
24E1F
100
AcDbXrecord
280
     1
290
     1
  0
XRECORD
  5
24E22
102
{ACAD_REACTORS
330
24E21
102
}
330
24E21
100
AcDbXrecord
280
     1
290
     1
  0
XRECORD
  5
24E24
102
{ACAD_REACTORS
330
24E23
102
}
330
24E23
100
AcDbXrecord
280
     1
290
     1
  0
XRECORD
  5
24E26
102
{ACAD_REACTORS
330
24E25
102
}
330
24E25
100
AcDbXrecord
280
     1
290
     1
  0
SORTENTSTABLE
  5
2D99
102
{ACAD_REACTORS
330
2D98
102
}
330
2D98
100
AcDbSortentsTable
330
1F
331
2A376
  5
2A3F1
331
2B895
  5
2B89A
331
2A37E
  5
2A77B
331
2B89D
  5
2B8A2
331
2B8CC
  5
2B8D5
331
2B992
  5
2B99E
331
2B9D1
  5
2B9DA
331
2BA08
  5
2BA11
331
2B8A5
  5
2B8AA
331
2B8D4
  5
2B8DD
331
2B963
  5
2B96C
331
2B99A
  5
2B9A4
331
2B9D9
  5
2B9E3
331
2BA10
  5
2BA19
331
2BA4F
  5
2BA58
331
2B8DC
  5
2B8E5
331
2B96B
  5
2B974
331
2B9A2
  5
2B9AB
331
2B9E1
  5
2B9ED
331
2BA18
  5
2BA22
331
2BA57
  5
2BBAD
331
2B8E4
  5
2B8ED
331
2B9AA
  5
2B9B3
331
2BA20
  5
2BA29
331
2BB3E
  5
2BC55
331
2BBAD
  5
2BCBE
331
29B58
  5
29B85
331
1581D
  5
29B3F
331
2A357
  5
2A368
331
2A35F
  5
2A370
331
2B8AD
  5
2B8B3
331
2B8EC
  5
2B8F5
331
2B973
  5
2B97C
331
2B9B2
  5
2B9BE
331
2B9E9
  5
2B9F5
331
2BA28
  5
2BA31
331
2B886
  5
2B88C
331
29B88
  5
29B8C
331
2A367
  5
2A379
331
2B8B5
  5
2B8BB
331
2B8F4
  5
2B8FD
331
2B97B
  5
2B984
331
2B9F1
  5
2B9FA
331
2BA30
  5
2BA39
331
2A36F
  5
2A380
331
2B88E
  5
2B892
331
2B8BD
  5
2B8C8
331
2B8FC
  5
2B95E
331
2B983
  5
2B98D
331
2B9C2
  5
2B9CB
331
2B9F9
  5
2BA02
331
2BA38
  5
2BA41
331
2B8C5
  5
2B8CE
331
2B98B
  5
2B994
331
2B9CA
  5
2B9D3
331
2BA01
  5
2BA0A
331
2BA40
  5
2BA49
331
29B90
  5
2A16C
331
2B896
  5
2B89B
331
2A377
  5
2A3F2
331
2A158
  5
2A35E
331
2A37F
  5
2B123
331
2B89E
  5
2B8A3
331
2B8CD
  5
2B8D6
331
2B95C
  5
2B965
331
2B993
  5
2B99F
331
2B9D2
  5
2B9DB
331
2BA09
  5
2BA12
331
2BA48
  5
2BA51
331
2B8A6
  5
2B8AB
331
2B8D5
  5
2B8DE
331
2B964
  5
2B96D
331
2B99B
  5
2B9A5
331
2B9DA
  5
2B9E4
331
2BA11
  5
2BA1B
331
2BA50
  5
2BA59
331
2B8DD
  5
2B8E6
331
2B96C
  5
2B975
331
2B9A3
  5
2B9AC
331
2B9E2
  5
2B9F0
331
2BA19
  5
2BA23
331
2BA58
  5
2BBCE
331
2B8E5
  5
2B8EE
331
2B9AB
  5
2B9B4
331
2BA21
  5
2BA2A
331
108D
  5
29B3C
331
2BBCE
  5
24DBD
331
29B59
  5
29B84
331
2A358
  5
2A369
331
2A360
  5
2A371
331
29B81
  5
29B86
331
2B8AE
  5
2B8B4
331
2B8ED
  5
2B8F6
331
2B974
  5
2B97D
331
2B9B3
  5
2B9BF
331
2B9EA
  5
2B9F6
331
2BA29
  5
2BA32
331
2B9BB
  5
2B9C4
331
2B887
  5
2B88D
331
29B89
  5
29B8D
331
2B8F5
  5
2B8FE
331
2B97C
  5
2B985
331
2B9F2
  5
2B9FB
331
2BA31
  5
2BA3A
331
2B88F
  5
2B893
331
2B8FD
  5
2B95F
331
2B984
  5
2B98E
331
2B9C3
  5
2B9CC
331
2B9FA
  5
2BA03
331
2BA39
  5
2BA42
331
2B8C6
  5
2B8CF
331
2B98C
  5
2B995
331
2B9CB
  5
2B9D4
331
2BA02
  5
2BA0B
331
2BA41
  5
2BA4A
331
2A370
  5
2A3C7
331
29B91
  5
2A16D
331
2B897
  5
2B89C
331
2A378
  5
2A3F3
331
2A159
  5
2A35F
331
2A380
  5
2B884
331
2B89F
  5
2B8A4
331
2B8CE
  5
2B8D7
331
2B95D
  5
2B966
331
2B994
  5
2B9A0
331
2B9D3
  5
2B9DC
331
2BA0A
  5
2BA13
331
2BA49
  5
2BA52
331
2B8A7
  5
2B8AC
331
2B8D6
  5
2B8DF
331
2B965
  5
2B96E
331
2B9DB
  5
2B9E6
331
2BA12
  5
2BA1C
331
2BA51
  5
2BA5A
331
2B8DE
  5
2B8E7
331
2B96D
  5
2B976
331
2B9A4
  5
2B9AD
331
2B9E3
  5
2B9F1
331
2BA59
  5
2BBCF
331
2B8E6
  5
2B8EF
331
2B9AC
  5
2B9B5
331
2BA22
  5
2BA2B
331
2BBCF
  5
108F
331
2A351
  5
2A362
331
29B5A
  5
29B74
331
2A359
  5
2A36A
331
2A361
  5
2A372
331
2B8AF
  5
2B8B5
331
2B8EE
  5
2B8F7
331
2B975
  5
2B97E
331
2B9B4
  5
2B9C0
331
2BA2A
  5
2BA33
331
2B9BC
  5
2B9C5
331
2B8B7
  5
2B8BC
331
2A369
  5
2A37A
331
29B8A
  5
29B8E
331
2B888
  5
2B88E
331
2B8F6
  5
2B956
331
2B97D
  5
2B986
331
2B9F3
  5
2B9FC
331
2BA32
  5
2BA3B
331
2B8FE
  5
2B960
331
2B985
  5
2B98F
331
2B9C4
  5
2B9CD
331
2B9FB
  5
2BA04
331
2BA3A
  5
2BA43
331
2B8C7
  5
2B8D0
331
2B956
  5
2B961
331
2B98D
  5
2B996
331
2B9CC
  5
2B9D5
331
2BA03
  5
2BA0C
331
2BA42
  5
2BA4B
331
2B890
  5
2B894
331
2A371
  5
2A3EC
331
29A83
  5
29B40
331
2A379
  5
2A3F4
331
2A15A
  5
2A360
331
29ABB
  5
29B5A
331
2B898
  5
2B89D
331
2B8A0
  5
2B8A5
331
2B8CF
  5
2B8D8
331
2B95E
  5
2B967
331
2B995
  5
2B9A1
331
2B9D4
  5
2B9DE
331
2BA0B
  5
2BA14
331
2BA4A
  5
2BA53
331
2B8D7
  5
2B8E0
331
2B966
  5
2B96F
331
2B99D
  5
2B9A6
331
2B9DC
  5
2B9E7
331
2BA13
  5
2BA1D
331
2BA52
  5
2BAFC
331
2B8DF
  5
2B8E8
331
2B96E
  5
2B977
331
2B9A5
  5
2B9AE
331
2B9E4
  5
2B9F2
331
2BA1B
  5
2BA24
331
2BA5A
  5
2BBD0
331
2B8E7
  5
2B8F0
331
2B9AD
  5
2B9B6
331
2BA23
  5
2BA2C
331
108F
  5
29B3D
331
2BBD0
  5
24DB9
331
2A352
  5
2A363
331
29B5B
  5
29B5C
331
2A35A
  5
2A36B
331
2B8A8
  5
2B8AD
331
2A362
  5
2A373
331
29B83
  5
29B87
331
2B8B0
  5
2B8B7
331
2B8EF
  5
2B8F8
331
2B976
  5
2B97F
331
2B9B5
  5
2B9C1
331
2B9EC
  5
2B9F7
331
2BA2B
  5
2BA34
331
2B9BD
  5
2B9C6
331
2B8B8
  5
2B8BD
331
2A36A
  5
2A37B
331
29B8B
  5
29B8F
331
2B8F7
  5
2B957
331
2B97E
  5
2B987
331
2B9F4
  5
2B9FD
331
2BA33
  5
2BA3C
331
2B986
  5
2B990
331
2B9C5
  5
2B9CE
331
2B9FC
  5
2BA05
331
2BA3B
  5
2BA44
331
2B957
  5
2B962
331
2B98E
  5
2B997
331
2B9CD
  5
2B9D6
331
2BA04
  5
2BA0D
331
2BA43
  5
2BA4C
331
2B891
  5
2B895
331
2A372
  5
2A3ED
331
2A37A
  5
2A3F5
331
2A15B
  5
2A361
331
2B899
  5
2B89E
331
2B8C8
  5
2B8D1
331
2B8A1
  5
2B8A6
331
29B24
  5
29B75
331
2B8D0
  5
2B8D9
331
2B95F
  5
2B968
331
2B996
  5
2B9A2
331
2B9D5
  5
2B9DF
331
2BA0C
  5
2BA15
331
2BA4B
  5
2BA54
331
2A77A
  5
2B885
331
29B3C
  5
24DBE
331
2B8D8
  5
2B8E1
331
2B967
  5
2B970
331
2B99E
  5
2B9A7
331
2BA14
  5
2BA1E
331
2BA53
  5
2BB26
331
2B8E0
  5
2B8E9
331
2B96F
  5
2B978
331
2B9A6
  5
2B9AF
331
2BA1C
  5
2BA25
331
2B9AE
  5
2B9B7
331
2BA24
  5
2BA2D
331
1090
  5
29B3E
331
2BBD1
  5
24DC1
331
2A353
  5
2A364
331
2A35B
  5
2A36C
331
29B74
  5
29B59
331
2B8A9
  5
2B8AE
331
2B8E8
  5
2B8F1
331
2A363
  5
2A374
331
29B84
  5
29B88
331
2B8F0
  5
2B8F9
331
2B977
  5
2B980
331
2B9B6
  5
2B9C2
331
2B9ED
  5
2B9F8
331
2BA2C
  5
2BA35
331
2B9BE
  5
2B9C7
331
2B8B9
  5
2B8C4
331
2A36B
  5
2A37C
331
29B8C
  5
29B90
331
2B8F8
  5
2B958
331
2B97F
  5
2B988
331
2B9F5
  5
2B9FE
331
2BA34
  5
2BA3D
331
2B9C6
  5
2B9CF
331
2B987
  5
2B991
331
2B9FD
  5
2BA06
331
2BA3C
  5
2BA45
331
2B98F
  5
2B99A
331
2B9CE
  5
2B9D7
331
2BA05
  5
2BA0E
331
2BA44
  5
2BA4D
331
2B892
  5
2B896
331
2A373
  5
2A3EE
331
2A37B
  5
2A3F6
331
2B89A
  5
2B89F
331
2B8C9
  5
2B8D2
331
2B958
  5
2B963
331
2B8A2
  5
2B8A7
331
2B8D1
  5
2B8DA
331
2B960
  5
2B969
331
2B997
  5
2B9A3
331
2B9D6
  5
2B9E0
331
2BA0D
  5
2BA16
331
2BA4C
  5
2BA55
331
29B3D
  5
24DB4
331
2A77B
  5
2B886
331
2B8D9
  5
2B8E2
331
2B968
  5
2B971
331
2B99F
  5
2B9A8
331
2B9DE
  5
2B9E9
331
2BA15
  5
2BA1F
331
2BA54
  5
2BB3E
331
2B8E1
  5
2B8EA
331
2B9A7
  5
2B9B0
331
2B9E6
  5
2B9F3
331
2BA1D
  5
2BA26
331
2B9AF
  5
2B9BB
331
2BA25
  5
2BA2E
331
2A354
  5
2A365
331
2B123
  5
2B887
331
2A35C
  5
2A36D
331
29B75
  5
29B58
331
2B8AA
  5
2B8AF
331
2B8E9
  5
2B8F2
331
2B970
  5
2B979
331
2A364
  5
2A376
331
29B85
  5
29B89
331
2B8B2
  5
2B8B8
331
2B8F1
  5
2B8FA
331
2B978
  5
2B981
331
2B9B7
  5
2B9C3
331
2BA2D
  5
2BA36
331
2BAFC
  5
2BBD1
331
2A36C
  5
2A37D
331
29B8D
  5
29B91
331
2B88B
  5
2B88F
331
2B8BA
  5
2B8C5
331
2B8F9
  5
2B959
331
2B980
  5
2B989
331
2B9BF
  5
2B9C8
331
2B9F6
  5
2B9FF
331
2BA35
  5
2BA3E
331
2B988
  5
2B992
331
2B9C7
  5
2B9D0
331
2B9FE
  5
2BA07
331
2BA3D
  5
2BA46
331
2B9CF
  5
2B9D8
331
2BA06
  5
2BA0F
331
2BA45
  5
2BA4E
331
2A374
  5
2A3EF
331
2B893
  5
2B897
331
2A37C
  5
2A3F7
331
2B89B
  5
2B8A0
331
2B8CA
  5
2B8D3
331
2B959
  5
2B964
331
2B990
  5
2B99B
331
2B8A3
  5
2B8A8
331
2B8D2
  5
2B8DB
331
2B961
  5
2B96A
331
2B9D7
  5
2B9E1
331
2BA0E
  5
2BA17
331
2BA4D
  5
2BA56
331
29B3E
  5
24DC2
331
2B8DA
  5
2B8E3
331
2B969
  5
2B972
331
2B9A0
  5
2B9A9
331
2B9DF
  5
2B9EA
331
2BA16
  5
2BA20
331
2BA55
  5
2BB6D
331
2B8E2
  5
2B8EB
331
2B9A8
  5
2B9B1
331
2B9E7
  5
2B9F4
331
2BA1E
  5
2BA27
331
2BA26
  5
2BA2F
331
2A355
  5
2A366
331
2A35D
  5
2A36E
331
29B76
  5
29B81
331
2B8AB
  5
2B8B0
331
2B8EA
  5
2B8F3
331
2B971
  5
2B97A
331
2B9B0
  5
2B9BC
331
2A365
  5
2A377
331
29B86
  5
29B8A
331
2B884
  5
2B888
331
2B8B3
  5
2B8B9
331
2B8F2
  5
2B8FB
331
2B979
  5
2B982
331
2BA2E
  5
2BA37
331
2A36D
  5
2A37E
331
29B8E
  5
2A16A
331
2B88C
  5
2B890
331
2B8BB
  5
2B8C6
331
2B8FA
  5
2B95C
331
2B981
  5
2B98B
331
2B9C0
  5
2B9C9
331
2B9F7
  5
2BA00
331
2BA36
  5
2BA3F
331
2B989
  5
2B993
331
2B9C8
  5
2B9D1
331
2B9FF
  5
2BA08
331
2BA3E
  5
2BA47
331
2BA07
  5
2BA10
331
2BA46
  5
2BA4F
331
2A375
  5
2A3F0
331
2B894
  5
2B899
331
2B89C
  5
2B8A1
331
2A37D
  5
2A77A
331
2B8CB
  5
2B8D4
331
2B991
  5
2B99D
331
2B9D0
  5
2B9D9
331
2B8A4
  5
2B8A9
331
29B27
  5
29B83
331
2B8D3
  5
2B8DC
331
2B962
  5
2B96B
331
2B9D8
  5
2B9E2
331
2BA0F
  5
2BA18
331
2BA4E
  5
2BA57
331
29B3F
  5
24DBB
331
2B8DB
  5
2B8E4
331
2B96A
  5
2B973
331
2B9A1
  5
2B9AA
331
2B9E0
  5
2B9EC
331
2BA17
  5
2BA21
331
2BA56
  5
2BB85
331
2B8E3
  5
2B8EC
331
2B9A9
  5
2B9B2
331
2BA1F
  5
2BA28
331
2BA27
  5
2BA30
331
2A356
  5
2A367
331
2A35E
  5
2A36F
331
29B77
  5
29B76
331
2B8AC
  5
2B8B2
331
2B8EB
  5
2B8F4
331
2B972
  5
2B97B
331
2B9B1
  5
2B9BD
331
2B885
  5
2B88B
331
2A366
  5
2A378
331
29B87
  5
29B8B
331
2B8B4
  5
2B8BA
331
2B8F3
  5
2B8FC
331
2B97A
  5
2B983
331
2B9F0
  5
2B9F9
331
2BA2F
  5
2BA38
331
2B8BC
  5
2B8C7
331
2A36E
  5
2A37F
331
29B8F
  5
2A16B
331
2B88D
  5
2B891
331
2B8FB
  5
2B95D
331
2B982
  5
2B98C
331
2B9C1
  5
2B9CA
331
2B9F8
  5
2BA01
331
2BA37
  5
2BA40
331
2B8C4
  5
2B8CD
331
2B9C9
  5
2B9D2
331
2BA00
  5
2BA09
331
2BA3F
  5
2BA48
331
2BB6D
  5
2BCA6
331
2BA47
  5
2BA50
331
2BB26
  5
2BC54
  0
SORTENTSTABLE
  5
29D1
102
{ACAD_REACTORS
330
29CF
102
}
330
29CF
100
AcDbSortentsTable
330
341
  0
DIMASSOC
  5
2BB13
102
{ACAD_REACTORS
330
2BB09
102
}
330
2BB09
100
AcDbDimAssoc
330
2BAFC
 90
        3
 70
     0
 71
     0
  1
AcDbOsnapPointRef
 72
     6
331
2B9BE
 73
     2
 91
        0
 40
0.9999999999999928
 10
0.0
 20
0.0
 30
0.0
332
2B9D3
 74
     2
 92
        0
 75
     0
  1
AcDbOsnapPointRef
 72
     1
331
2B9CE
 73
     2
 91
        0
 40
7.853981633974482
 10
0.0
 20
0.0
 30
2.000000000000000E+50
 75
     0
  0
DIMASSOC
  5
2BB3D
102
{ACAD_REACTORS
330
2BB33
102
}
330
2BB33
100
AcDbDimAssoc
330
2BB26
 90
        1
 70
     0
 71
     0
  1
AcDbOsnapPointRef
 72
     1
331
2B88B
 73
     2
 91
        0
 40
1.0
 10
0.0
 20
0.0
 30
2.000000000000000E+50
 75
     0
  0
DIMASSOC
  5
2BB55
102
{ACAD_REACTORS
330
2BB4B
102
}
330
2BB4B
100
AcDbDimAssoc
330
2BB3E
 90
        3
 70
     0
 71
     0
  1
AcDbOsnapPointRef
 72
    13
331
2B897
 73
     2
 91
        0
 40
0.0
 10
0.0
 20
0.0
 30
2.000000000000000E+50
 75
     0
  1
AcDbOsnapPointRef
 72
     1
331
2B8BD
 73
     2
 91
        0
 40
1.0
 10
0.0
 20
0.0
 30
2.000000000000000E+50
 75
     0
  0
DIMASSOC
  5
2BB84
102
{ACAD_REACTORS
330
2BB7A
102
}
330
2BB7A
100
AcDbDimAssoc
330
2BB6D
 90
        3
 70
     0
 71
     0
  1
AcDbOsnapPointRef
 72
    13
331
2B897
 73
     2
 91
        0
 40
0.0
 10
0.0
 20
0.0
 30
2.000000000000000E+50
 75
     0
  1
AcDbOsnapPointRef
 72
    13
331
2BA07
 73
     2
 91
        0
 40
1.570796326794896
 10
0.0
 20
0.0
 30
2.000000000000000E+50
 75
     0
  0
ACDBDETAILVIEWSTYLE
  5
2BD1E
102
{ACAD_XDICTIONARY
360
2BD39
102
}
102
{ACAD_REACTORS
330
2BD1D
102
}
330
2BD1D
100
AcDbModelDocViewStyle
 70
     0
  3
Metric50
290
     0
100
AcDbDetailViewStyle
 70
     0
 71
     0
 90
        3
 71
     1
340
11
 62
   256
 40
5.0
340
0
 62
   256
 40
5.0
300

 40
0.0
280
     1
 71
     2
340
16
 90
       25
 62
   256
 71
     3
340
11
 62
   256
 40
5.0
 90
        0
 40
15.0
 90
        1
300
%<\AcVar ViewDetailId>% (%<\AcVar ViewScale \f "%sn">%)
 71
     4
340
16
 90
       25
 62
   256
340
16
 90
       25
 62
   256
280
     0
  0
GROUP
  5
29F6
102
{ACAD_REACTORS
330
D
102
}
330
D
100
AcDbGroup
300

 70
     1
 71
     1
340
29CE
340
29CD
340
29CC
340
29CB
340
29CA
340
29C9
340
29C8
340
29C7
340
29C6
340
29C5
340
29C4
340
29C3
340
29C2
340
29C1
340
29C0
340
29BF
340
29BE
340
29BD
340
29BC
340
29BB
340
29BA
340
29B9
340
29B8
340
29B7
  0
LAYOUT
  5
22
102
{ACAD_XDICTIONARY
360
24E2E
102
}
102
{ACAD_REACTORS
330
1A
102
}
330
1A
100
AcDbPlotSettings
  1

  2
Canon TS8130 series
  4
A4
  6

 40
4.180416584014892
 41
5.831417560577392
 42
4.180404663085937
 43
3.757080078125
 44
209.9733276367187
 45
296.9683227539062
 46
-0.0062006872036022
 47
1.756521382387688
 48
4.0
 49
2.0
140
82.0
141
57.4
142
1.0
143
1.374
 70
  3748
 72
     1
 73
     1
 74
     1
  7
monochrome.ctb
 75
     0
147
0.7277572728131227
 76
     1
 77
     2
 78
   300
148
-19.98230080583869
149
-9.983689057621745
100
AcDbLayout
  1
Model
 70
     1
 71
     0
 10
0.0
 20
0.0
 11
12.0
 21
9.0
 12
0.0
 22
0.0
 32
0.0
 14
0.0
 24
0.0
 34
0.0
 15
0.0
 25
0.0
 35
0.0
146
0.0
 13
0.0
 23
0.0
 33
0.0
 16
1.0
 26
0.0
 36
0.0
 17
0.0
 27
1.0
 37
0.0
 76
     0
330
1F
331
275F
1001
ACAD_PSEXT
1000
Canon TS8130 series
1000
Canon TS8130 series
1000
USB001
1000

1070
     0
  0
LAYOUT
  5
51
102
{ACAD_XDICTIONARY
360
2E30
102
}
102
{ACAD_REACTORS
330
1A
102
}
330
1A
100
AcDbPlotSettings
  1

  2
\\KASHIKEI2\EPSON PX-1001
  4
A3
  6

 40
3.757083415985107
 41
3.757076740264892
 42
3.757080078125
 43
3.757080078125
 44
296.9683227539062
 45
420.0172119140624
 46
0.0
 47
0.0
 48
0.0
 49
0.0
140
0.0
141
0.0
142
1.0
143
1.0
 70
   672
 72
     1
 73
     1
 74
     5
  7
monochrome.ctb
 75
    16
147
1.0
 76
     1
 77
     2
 78
   300
148
0.0
149
0.0
100
AcDbLayout
  1
ﾚｲｱｳﾄ1
 70
     1
 71
     1
 10
-3.757080078125
 20
-3.757083415985107
 11
416.2601318359374
 21
293.2112393379211
 12
0.0
 22
0.0
 32
0.0
 14
-58.82240024691737
 24
-86.72323328256494
 34
0.0
 15
448.1718497119468
 25
324.5569721112054
 35
0.0
146
0.0
 13
0.0
 23
0.0
 33
0.0
 16
1.0
 26
0.0
 36
0.0
 17
0.0
 27
1.0
 37
0.0
 76
     0
330
50
331
6B
1001
ACAD_PSEXT
1000
\\KASHIKEI2\EPSON PX-1001
1000
EPSON PX-1001
1000
\\KASHIKEI2
1000

1070
     0
  0
LAYOUT
  5
56
102
{ACAD_REACTORS
330
1A
102
}
330
1A
100
AcDbPlotSettings
  1

  2
none_device
  4
Letter_(8.50_x_11.00_Inches)
  6

 40
6.349999904632567
 41
6.349999904632567
 42
6.350006103515625
 43
6.350006103515625
 44
215.8999938964843
 45
279.3999938964843
 46
0.0
 47
0.0
 48
0.0
 49
0.0
140
0.0
141
0.0
142
1.0
143
1.0
 70
   688
 72
     1
 73
     1
 74
     5
  7
monochrome.ctb
 75
    16
147
1.0
 76
     0
 77
     2
 78
   300
148
0.0
149
0.0
100
AcDbLayout
  1
ﾚｲｱｳﾄ2
 70
     1
 71
     2
 10
-6.350006103515625
 20
-6.349999904632567
 11
273.0499877929687
 21
209.5499939918517
 12
0.0
 22
0.0
 32
0.0
 14
26.66076962115562
 24
20.31135699206657
 34
-0.0015258207003583
 15
240.039213369355
 25
182.8886381005154
 35
0.0000000349246037
146
0.0
 13
0.0
 23
0.0
 33
0.0
 16
1.0
 26
0.0
 36
0.0
 17
0.0
 27
1.0
 37
0.0
 76
     0
330
55
331
71
  0
MATERIAL
  5
2763
102
{ACAD_REACTORS
330
2761
102
}
330
2761
100
AcDbMaterial
  1
ByBlock
 73
     1
 78
     1
172
     1
176
     1
270
     1
274
     1
 94
       63
  0
MATERIAL
  5
2762
102
{ACAD_REACTORS
330
2761
102
}
330
2761
100
AcDbMaterial
  1
ByLayer
 73
     1
 78
     1
172
     1
176
     1
270
     1
274
     1
 94
       63
  0
MATERIAL
  5
2764
102
{ACAD_REACTORS
330
2761
102
}
330
2761
100
AcDbMaterial
  1
Global
 73
     1
 78
     1
172
     1
176
     1
270
     1
274
     1
 94
       63
  0
MLEADERSTYLE
  5
247F2
102
{ACAD_REACTORS
330
247F1
102
}
330
247F1
100
AcDbMLeaderStyle
179
     2
170
     2
171
     1
172
     0
 90
        2
 40
0.0
 41
0.0
173
     1
 91
-1056964608
340
14
 92
       -2
290
     1
 42
2.0
291
     1
 43
0.36
  3
Standard
 44
4.0
300

342
11
174
     1
178
     6
175
     1
176
     0
 93
-1056964608
 45
4.0
292
     0
297
     0
 46
4.0
 94
-1056964608
 47
1.0
 49
1.0
140
1.0
293
     1
141
0.0
294
     1
177
     0
142
1.0
295
     1
296
     0
143
0.125
271
     0
272
     9
273
     9
298
     0
  0
MLINESTYLE
  5
18
102
{ACAD_REACTORS
330
17
102
}
330
17
100
AcDbMlineStyle
  2
STANDARD
 70
     0
  3

 62
   256
 51
90.0
 52
90.0
 71
     2
 49
0.5
 62
   256
  6
BYLAYER
 49
-0.5
 62
   256
  6
BYLAYER
  0
PLOTSETTINGS
  5
E74
102
{ACAD_REACTORS
330
19
102
}
330
19
100
AcDbPlotSettings
  1
印刷
  2
EPSON PM-930C.pc3
  4
A4
  6

 40
3.757083177566528
 41
14.7637300491333
 42
3.757080078125
 43
3.757080078125
 44
209.9733276367186
 45
296.9683227539062
 46
-3.77
 47
-9.279999999999999
 48
0.0
 49
0.0
140
0.0
141
0.0
142
1.0
143
1.0
 70
  1716
 72
     1
 73
     0
 74
     2
  7
黒.ctb
 75
    16
147
1.0
 76
     0
 77
     2
 78
   300
148
0.0
149
0.0
  0
ACDBPLACEHOLDER
  5
F
102
{ACAD_REACTORS
330
E
102
}
330
E
  0
SCALE
  5
247E0
102
{ACAD_REACTORS
330
247DF
102
}
330
247DF
100
AcDbScale
 70
     0
300
1:1
140
1.0
141
1.0
290
     1
  0
SCALE
  5
247E1
102
{ACAD_REACTORS
330
247DF
102
}
330
247DF
100
AcDbScale
 70
     0
300
1:2
140
1.0
141
2.0
290
     0
  0
SCALE
  5
247E2
102
{ACAD_REACTORS
330
247DF
102
}
330
247DF
100
AcDbScale
 70
     0
300
1:4
140
1.0
141
4.0
290
     0
  0
SCALE
  5
247E3
102
{ACAD_REACTORS
330
247DF
102
}
330
247DF
100
AcDbScale
 70
     0
300
1:5
140
1.0
141
5.0
290
     0
  0
SCALE
  5
247E4
102
{ACAD_REACTORS
330
247DF
102
}
330
247DF
100
AcDbScale
 70
     0
300
1:8
140
1.0
141
8.0
290
     0
  0
SCALE
  5
247E5
102
{ACAD_REACTORS
330
247DF
102
}
330
247DF
100
AcDbScale
 70
     0
300
1:10
140
1.0
141
10.0
290
     0
  0
SCALE
  5
247E6
102
{ACAD_REACTORS
330
247DF
102
}
330
247DF
100
AcDbScale
 70
     0
300
1:16
140
1.0
141
16.0
290
     0
  0
SCALE
  5
247E7
102
{ACAD_REACTORS
330
247DF
102
}
330
247DF
100
AcDbScale
 70
     0
300
1:20
140
1.0
141
20.0
290
     0
  0
SCALE
  5
247E8
102
{ACAD_REACTORS
330
247DF
102
}
330
247DF
100
AcDbScale
 70
     0
300
1:30
140
1.0
141
30.0
290
     0
  0
SCALE
  5
247E9
102
{ACAD_REACTORS
330
247DF
102
}
330
247DF
100
AcDbScale
 70
     0
300
1:40
140
1.0
141
40.0
290
     0
  0
SCALE
  5
247EA
102
{ACAD_REACTORS
330
247DF
102
}
330
247DF
100
AcDbScale
 70
     0
300
1:50
140
1.0
141
50.0
290
     0
  0
SCALE
  5
247EB
102
{ACAD_REACTORS
330
247DF
102
}
330
247DF
100
AcDbScale
 70
     0
300
1:100
140
1.0
141
100.0
290
     0
  0
SCALE
  5
247EC
102
{ACAD_REACTORS
330
247DF
102
}
330
247DF
100
AcDbScale
 70
     0
300
2:1
140
2.0
141
1.0
290
     0
  0
SCALE
  5
247ED
102
{ACAD_REACTORS
330
247DF
102
}
330
247DF
100
AcDbScale
 70
     0
300
4:1
140
4.0
141
1.0
290
     0
  0
SCALE
  5
247EE
102
{ACAD_REACTORS
330
247DF
102
}
330
247DF
100
AcDbScale
 70
     0
300
8:1
140
8.0
141
1.0
290
     0
  0
SCALE
  5
247EF
102
{ACAD_REACTORS
330
247DF
102
}
330
247DF
100
AcDbScale
 70
     0
300
10:1
140
10.0
141
1.0
290
     0
  0
SCALE
  5
247F0
102
{ACAD_REACTORS
330
247DF
102
}
330
247DF
100
AcDbScale
 70
     0
300
100:1
140
100.0
141
1.0
290
     0
  0
ACDBSECTIONVIEWSTYLE
  5
2BD1C
102
{ACAD_XDICTIONARY
360
2BD37
102
}
102
{ACAD_REACTORS
330
2BD1B
102
}
330
2BD1B
100
AcDbModelDocViewStyle
 70
     0
  3
Metric50
290
     0
100
AcDbSectionViewStyle
 70
     0
 71
     0
 90
      102
 71
     1
340
11
 62
   256
 40
5.0
340
0
340
0
 62
   256
 40
5.0
300
I, O, Q, S, X, Z
 40
10.0
 90
        0
 40
2.5
 90
        0
 71
     2
340
16
 90
       25
 62
   256
340
16
 90
       50
 62
   256
 40
5.0
 40
2.5
 40
5.0
 71
     3
340
11
 62
   256
 40
5.0
 90
        0
 40
15.0
 90
        1
300
%<\AcVar ViewSectionStartId>%-%<\AcVar ViewSectionEndId>% (%<\AcVar ViewScale \f "%sn">%)
 71
     4
 62
   256
 62
   257
300
ANSI31
 40
1.0
 90
        0
290
     0
290
     0
 90
        6
 40
0.0
 40
1.570796326794896
 40
0.2617993877991494
 40
1.308996938995747
 40
-0.2617993877991494
 40
1.832595714594046
  0
TABLESTYLE
  5
2778
102
{ACAD_XDICTIONARY
360
2BD33
102
}
102
{ACAD_REACTORS
330
2777
102
}
330
2777
100
AcDbTableStyle
280
     0
  3
Standard
 70
     0
 71
     0
 40
1.5
 41
1.5
280
     0
281
     0
  7
Standard
140
4.5
170
     2
 62
     0
 63
     7
283
     0
 90
      512
 91
        0
  1

274
    -2
284
     1
 64
     0
275
    -2
285
     1
 65
     0
276
    -2
286
     1
 66
     0
277
    -2
287
     1
 67
     0
278
    -2
288
     1
 68
     0
279
    -2
289
     1
 69
     0
  7
Standard
140
6.0
170
     5
 62
     0
 63
     7
283
     0
 90
      512
 91
        0
  1

274
    -2
284
     1
 64
     0
275
    -2
285
     1
 65
     0
276
    -2
286
     1
 66
     0
277
    -2
287
     1
 67
     0
278
    -2
288
     1
 68
     0
279
    -2
289
     1
 69
     0
  7
Standard
140
4.5
170
     5
 62
     0
 63
     7
283
     0
 90
      512
 91
        0
  1

274
    -2
284
     1
 64
     0
275
    -2
285
     1
 65
     0
276
    -2
286
     1
 66
     0
277
    -2
287
     1
 67
     0
278
    -2
288
     1
 68
     0
279
    -2
289
     1
 69
     0
  0
TABLESTYLE
  5
2688B
102
{ACAD_XDICTIONARY
360
2BD35
102
}
102
{ACAD_REACTORS
330
2777
102
}
330
2777
100
AcDbTableStyle
280
     0
  3
Standard
 70
     0
 71
     0
 40
1.5
 41
1.5
280
     0
281
     0
  7
ｽﾀｲﾙ1
140
4.5
170
     2
 62
     2
 63
     7
283
     0
 90
      512
 91
        0
  1

274
    -2
284
     1
 64
     0
275
    -2
285
     1
 65
     0
276
    -2
286
     1
 66
     0
277
    -2
287
     1
 67
     0
278
    -2
288
     1
 68
     0
279
    -2
289
     1
 69
     0
  7
Standard
140
6.0
170
     5
 62
     0
 63
     7
283
     0
 90
      512
 91
        0
  1

274
    -2
284
     1
 64
     0
275
    -2
285
     1
 65
     0
276
    -2
286
     1
 66
     0
277
    -2
287
     1
 67
     0
278
    -2
288
     1
 68
     0
279
    -2
289
     1
 69
     0
  7
ｽﾀｲﾙ1
140
4.5
170
     5
 62
     2
 63
     7
283
     0
 90
      512
 91
        0
  1

274
    -2
284
     1
 64
     0
275
    -2
285
     1
 65
     0
276
    -2
286
     1
 66
     0
277
    -2
287
     1
 67
     0
278
    -2
288
     1
 68
     0
279
    -2
289
     1
 69
     0
  0
VISUALSTYLE
  5
276B
102
{ACAD_REACTORS
330
2765
102
}
330
2765
100
AcDbVisualStyle
  2
2dWireframe
 70
     4
177
     3
291
     0
 70
    58
 90
        0
176
     1
 90
        2
176
     1
 90
        0
176
     1
 90
        0
176
     1
 40
0.6
176
     1
 40
30.0
176
     1
 62
     7
420
 16777215
176
     1
 90
        1
176
     1
 90
        4
176
     1
 62
     7
176
     1
 62
   257
176
     1
 90
        1
176
     1
 90
        1
176
     1
 40
1.0
176
     1
 90
        0
176
     1
 62
   257
176
     1
 40
1.0
176
     1
 90
        1
176
     1
 90
        6
176
     1
 90
        2
176
     1
 62
     7
176
     1
 90
        5
176
     1
 90
        0
176
     1
 90
        0
176
     1
290
     0
176
     1
 90
        1
176
     1
 40
0.0
176
     1
 90
        0
176
     1
290
     1
176
     1
290
     1
176
     1
290
     0
176
     1
290
     0
176
     1
290
     0
176
     1
290
     0
176
     1
290
     0
176
     1
290
     0
176
     1
290
     0
176
     1
 90
       50
176
     1
 40
0.0
176
     1
 40
1.0
176
     1
 90
        0
176
     1
 62
    18
420
        0
176
     1
 90
       50
176
     1
 90
        3
176
     1
 62
     5
420
      255
176
     1
290
     0
176
     1
 90
       50
176
     1
 90
       50
176
     1
 90
       50
176
     1
290
     0
176
     1
 90
       50
176
     1
 62
   256
176
     0
 40
1.0
176
     0
 90
        2
176
     1
  1
strokes_ogs.tif
176
     1
290
     0
176
     1
 40
1.0
176
     1
 40
1.0
176
     1
  0
VISUALSTYLE
  5
276D
102
{ACAD_REACTORS
330
2765
102
}
330
2765
100
AcDbVisualStyle
  2
3D Hidden
 70
     6
177
     3
291
     0
 70
    58
 90
        1
176
     1
 90
        2
176
     1
 90
        2
176
     1
 90
        0
176
     1
 40
0.6
176
     1
 40
30.0
176
     1
 62
     7
420
 16777215
176
     1
 90
        2
176
     1
 90
        2
176
     1
 62
     7
176
     1
 62
   257
176
     1
 90
        2
176
     1
 90
        1
176
     1
 40
40.0
176
     1
 90
        0
176
     1
 62
   257
176
     1
 40
1.0
176
     1
 90
        1
176
     1
 90
        6
176
     1
 90
        2
176
     1
 62
     7
176
     1
 90
        3
176
     1
 90
        0
176
     1
 90
        0
176
     1
290
     0
176
     1
 90
        1
176
     1
 40
0.0
176
     1
 90
        0
176
     1
290
     0
176
     1
290
     1
176
     1
290
     1
176
     1
290
     0
176
     1
290
     0
176
     1
290
     0
176
     1
290
     0
176
     1
290
     0
176
     1
290
     0
176
     1
 90
       50
176
     1
 40
0.0
176
     1
 40
1.0
176
     1
 90
        0
176
     1
 62
    18
420
        0
176
     1
 90
       50
176
     1
 90
        3
176
     1
 62
     5
420
      255
176
     1
290
     0
176
     1
 90
       50
176
     1
 90
       50
176
     1
 90
       50
176
     1
290
     0
176
     1
 90
       50
176
     1
 62
   256
176
     0
 40
1.0
176
     0
 90
        2
176
     1
  1
strokes_ogs.tif
176
     1
290
     0
176
     1
 40
1.0
176
     1
 40
1.0
176
     1
  0
VISUALSTYLE
  5
276C
102
{ACAD_REACTORS
330
2765
102
}
330
2765
100
AcDbVisualStyle
  2
3dWireframe
 70
     5
177
     3
291
     0
 70
    58
 90
        0
176
     1
 90
        2
176
     1
 90
        0
176
     1
 90
        0
176
     1
 40
0.6
176
     1
 40
30.0
176
     1
 62
     7
420
 16777215
176
     1
 90
        1
176
     1
 90
        4
176
     1
 62
     7
176
     1
 62
   257
176
     1
 90
        1
176
     1
 90
        1
176
     1
 40
1.0
176
     1
 90
        0
176
     1
 62
   257
176
     1
 40
1.0
176
     1
 90
        1
176
     1
 90
        6
176
     1
 90
        2
176
     1
 62
     7
176
     1
 90
        5
176
     1
 90
        0
176
     1
 90
        0
176
     1
290
     0
176
     1
 90
        1
176
     1
 40
0.0
176
     1
 90
        0
176
     1
290
     0
176
     1
290
     1
176
     1
290
     1
176
     1
290
     0
176
     1
290
     0
176
     1
290
     0
176
     1
290
     0
176
     1
290
     0
176
     1
290
     0
176
     1
 90
       50
176
     1
 40
0.0
176
     1
 40
1.0
176
     1
 90
        0
176
     1
 62
    18
420
        0
176
     1
 90
       50
176
     1
 90
        3
176
     1
 62
     5
420
      255
176
     1
290
     0
176
     1
 90
       50
176
     1
 90
       50
176
     1
 90
       50
176
     1
290
     0
176
     1
 90
       50
176
     1
 62
   256
176
     0
 40
1.0
176
     0
 90
        2
176
     1
  1
strokes_ogs.tif
176
     1
290
     0
176
     1
 40
1.0
176
     1
 40
1.0
176
     1
  0
VISUALSTYLE
  5
276A
102
{ACAD_REACTORS
330
2765
102
}
330
2765
100
AcDbVisualStyle
  2
Basic
 70
     7
177
     3
291
     1
 70
    58
 90
        1
176
     1
 90
        0
176
     1
 90
        1
176
     1
 90
        0
176
     1
 40
0.6
176
     1
 40
30.0
176
     1
 62
     7
420
 16777215
176
     1
 90
        0
176
     1
 90
        4
176
     1
 62
     7
176
     1
 62
   257
176
     1
 90
        1
176
     1
 90
        1
176
     1
 40
1.0
176
     1
 90
        8
176
     1
 62
     7
176
     1
 40
1.0
176
     1
 90
        1
176
     1
 90
        6
176
     1
 90
        2
176
     1
 62
     7
176
     1
 90
        5
176
     1
 90
        0
176
     1
 90
        0
176
     1
290
     0
176
     1
 90
        1
176
     1
 40
0.0
176
     1
 90
        0
176
     1
290
     0
176
     1
290
     1
176
     1
290
     1
176
     1
290
     0
176
     1
290
     0
176
     1
290
     0
176
     1
290
     0
176
     1
290
     0
176
     1
290
     0
176
     1
 90
       50
176
     1
 40
0.0
176
     1
 40
1.0
176
     1
 90
        0
176
     1
 62
    18
420
        0
176
     1
 90
       50
176
     1
 90
        3
176
     1
 62
     5
420
      255
176
     1
290
     0
176
     1
 90
       50
176
     1
 90
       50
176
     1
 90
       50
176
     1
290
     0
176
     1
 90
       50
176
     1
 62
   256
176
     0
 40
1.0
176
     0
 90
        2
176
     1
  1
strokes_ogs.tif
176
     1
290
     0
176
     1
 40
1.0
176
     1
 40
1.0
176
     1
  0
VISUALSTYLE
  5
2771
102
{ACAD_REACTORS
330
2765
102
}
330
2765
100
AcDbVisualStyle
  2
Brighten
 70
    12
177
     3
291
     1
 70
    58
 90
        2
176
     1
 90
        2
176
     1
 90
        0
176
     1
 90
        0
176
     1
 40
0.6
176
     1
 40
30.0
176
     1
 62
     7
420
 16777215
176
     1
 90
        1
176
     1
 90
        4
176
     1
 62
     7
176
     1
 62
   257
176
     1
 90
        1
176
     1
 90
        1
176
     1
 40
1.0
176
     1
 90
        8
176
     1
 62
     7
176
     1
 40
1.0
176
     1
 90
        1
176
     1
 90
        6
176
     1
 90
        2
176
     1
 62
     7
176
     1
 90
        5
176
     1
 90
        0
176
     1
 90
        0
176
     1
290
     0
176
     1
 90
        1
176
     1
 40
50.0
176
     1
 90
        0
176
     1
290
     0
176
     1
290
     1
176
     1
290
     1
176
     1
290
     0
176
     1
290
     0
176
     1
290
     0
176
     1
290
     0
176
     1
290
     0
176
     1
290
     0
176
     1
 90
       50
176
     1
 40
0.0
176
     1
 40
1.0
176
     1
 90
        0
176
     1
 62
    18
420
        0
176
     1
 90
       50
176
     1
 90
        3
176
     1
 62
     5
420
      255
176
     1
290
     0
176
     1
 90
       50
176
     1
 90
       50
176
     1
 90
       50
176
     1
290
     0
176
     1
 90
       50
176
     1
 62
   256
176
     0
 40
1.0
176
     0
 90
        2
176
     1
  1
strokes_ogs.tif
176
     1
290
     0
176
     1
 40
1.0
176
     1
 40
1.0
176
     1
  0
VISUALSTYLE
  5
2775
102
{ACAD_REACTORS
330
2765
102
}
330
2765
100
AcDbVisualStyle
  2
ColorChange
 70
    16
177
     3
291
     1
 70
    58
 90
        2
176
     1
 90
        2
176
     1
 90
        3
176
     1
 90
        0
176
     1
 40
0.6
176
     1
 40
30.0
176
     1
 62
     8
420
  8421504
176
     1
 90
        1
176
     1
 90
        4
176
     1
 62
     7
176
     1
 62
   257
176
     1
 90
        1
176
     1
 90
        1
176
     1
 40
1.0
176
     1
 90
        8
176
     1
 62
     8
420
  8421504
176
     1
 40
1.0
176
     1
 90
        1
176
     1
 90
        6
176
     1
 90
        2
176
     1
 62
     7
176
     1
 90
        5
176
     1
 90
        0
176
     1
 90
        0
176
     1
290
     0
176
     1
 90
        1
176
     1
 40
0.0
176
     1
 90
        0
176
     1
290
     0
176
     1
290
     1
176
     1
290
     1
176
     1
290
     0
176
     1
290
     0
176
     1
290
     0
176
     1
290
     0
176
     1
290
     0
176
     1
290
     0
176
     1
 90
       50
176
     1
 40
0.0
176
     1
 40
1.0
176
     1
 90
        0
176
     1
 62
    18
420
        0
176
     1
 90
       50
176
     1
 90
        3
176
     1
 62
     5
420
      255
176
     1
290
     0
176
     1
 90
       50
176
     1
 90
       50
176
     1
 90
       50
176
     1
290
     0
176
     1
 90
       50
176
     1
 62
   256
176
     0
 40
1.0
176
     0
 90
        2
176
     1
  1
strokes_ogs.tif
176
     1
290
     0
176
     1
 40
1.0
176
     1
 40
1.0
176
     1
  0
VISUALSTYLE
  5
276E
102
{ACAD_REACTORS
330
2765
102
}
330
2765
100
AcDbVisualStyle
  2
Conceptual
 70
     9
177
     3
291
     0
 70
    58
 90
        3
176
     1
 90
        2
176
     1
 90
        0
176
     1
 90
        0
176
     1
 40
0.6
176
     1
 40
30.0
176
     1
 62
     7
420
 16777215
176
     1
 90
        2
176
     1
 90
        2
176
     1
 62
     7
176
     1
 62
   257
176
     1
 90
        1
176
     1
 90
        1
176
     1
 40
40.0
176
     1
 90
        8
176
     1
 62
     7
176
     1
 40
1.0
176
     1
 90
        1
176
     1
 90
        6
176
     1
 90
        2
176
     1
 62
     7
176
     1
 90
        3
176
     1
 90
        0
176
     1
 90
        0
176
     1
290
     0
176
     1
 90
        1
176
     1
 40
0.0
176
     1
 90
        0
176
     1
290
     0
176
     1
290
     1
176
     1
290
     1
176
     1
290
     0
176
     1
290
     0
176
     1
290
     0
176
     1
290
     0
176
     1
290
     0
176
     1
290
     0
176
     1
 90
       50
176
     1
 40
0.0
176
     1
 40
1.0
176
     1
 90
        0
176
     1
 62
    18
420
        0
176
     1
 90
       50
176
     1
 90
        3
176
     1
 62
     5
420
      255
176
     1
290
     0
176
     1
 90
       50
176
     1
 90
       50
176
     1
 90
       50
176
     1
290
     0
176
     1
 90
       50
176
     1
 62
   256
176
     0
 40
1.0
176
     0
 90
        2
176
     1
  1
strokes_ogs.tif
176
     1
290
     0
176
     1
 40
1.0
176
     1
 40
1.0
176
     1
  0
VISUALSTYLE
  5
2770
102
{ACAD_REACTORS
330
2765
102
}
330
2765
100
AcDbVisualStyle
  2
Dim
 70
    11
177
     3
291
     1
 70
    58
 90
        2
176
     1
 90
        2
176
     1
 90
        0
176
     1
 90
        0
176
     1
 40
0.6
176
     1
 40
30.0
176
     1
 62
     7
420
 16777215
176
     1
 90
        1
176
     1
 90
        4
176
     1
 62
     7
176
     1
 62
   257
176
     1
 90
        1
176
     1
 90
        1
176
     1
 40
1.0
176
     1
 90
        8
176
     1
 62
     7
176
     1
 40
1.0
176
     1
 90
        1
176
     1
 90
        6
176
     1
 90
        2
176
     1
 62
     7
176
     1
 90
        5
176
     1
 90
        0
176
     1
 90
        0
176
     1
290
     0
176
     1
 90
        1
176
     1
 40
-50.0
176
     1
 90
        0
176
     1
290
     0
176
     1
290
     1
176
     1
290
     1
176
     1
290
     0
176
     1
290
     0
176
     1
290
     0
176
     1
290
     0
176
     1
290
     0
176
     1
290
     0
176
     1
 90
       50
176
     1
 40
0.0
176
     1
 40
1.0
176
     1
 90
        0
176
     1
 62
    18
420
        0
176
     1
 90
       50
176
     1
 90
        3
176
     1
 62
     5
420
      255
176
     1
290
     0
176
     1
 90
       50
176
     1
 90
       50
176
     1
 90
       50
176
     1
290
     0
176
     1
 90
       50
176
     1
 62
   256
176
     0
 40
1.0
176
     0
 90
        2
176
     1
  1
strokes_ogs.tif
176
     1
290
     0
176
     1
 40
1.0
176
     1
 40
1.0
176
     1
  0
VISUALSTYLE
  5
247DE
102
{ACAD_REACTORS
330
2765
102
}
330
2765
100
AcDbVisualStyle
  2
EdgeColorOff
 70
    22
177
     3
291
     1
 70
    58
 90
        2
176
     0
 90
        2
176
     0
 90
        0
176
     0
 90
        0
176
     0
 40
0.6
176
     0
 40
30.0
176
     0
 62
     7
420
 16777215
176
     0
 90
        1
176
     0
 90
        4
176
     0
 62
     7
176
     0
 62
   257
176
     0
 90
        1
176
     0
 90
        1
176
     0
 40
1.0
176
     0
 90
        8
176
     2
 62
     7
176
     0
 40
1.0
176
     0
 90
        1
176
     0
 90
        6
176
     0
 90
        2
176
     0
 62
     7
176
     0
 90
        5
176
     0
 90
        0
176
     0
 90
        0
176
     0
290
     0
176
     0
 90
        1
176
     0
 40
0.0
176
     0
 90
        0
176
     0
290
     0
176
     1
290
     1
176
     1
290
     1
176
     1
290
     0
176
     1
290
     0
176
     1
290
     0
176
     1
290
     0
176
     1
290
     0
176
     1
290
     0
176
     1
 90
       50
176
     1
 40
0.0
176
     1
 40
1.0
176
     1
 90
        0
176
     1
 62
    18
420
        0
176
     1
 90
       50
176
     1
 90
        3
176
     1
 62
     5
420
      255
176
     1
290
     0
176
     1
 90
       50
176
     1
 90
       50
176
     1
 90
       50
176
     1
290
     0
176
     1
 90
       50
176
     1
 62
   256
176
     0
 40
1.0
176
     0
 90
        2
176
     1
  1
strokes_ogs.tif
176
     1
290
     0
176
     1
 40
1.0
176
     1
 40
1.0
176
     1
  0
VISUALSTYLE
  5
2774
102
{ACAD_REACTORS
330
2765
102
}
330
2765
100
AcDbVisualStyle
  2
Facepattern
 70
    15
177
     3
291
     1
 70
    58
 90
        2
176
     1
 90
        2
176
     1
 90
        0
176
     1
 90
        0
176
     1
 40
0.6
176
     1
 40
30.0
176
     1
 62
     7
420
 16777215
176
     1
 90
        1
176
     1
 90
        4
176
     1
 62
     7
176
     1
 62
   257
176
     1
 90
        1
176
     1
 90
        1
176
     1
 40
1.0
176
     1
 90
        8
176
     1
 62
     7
176
     1
 40
1.0
176
     1
 90
        1
176
     1
 90
        6
176
     1
 90
        2
176
     1
 62
     7
176
     1
 90
        5
176
     1
 90
        0
176
     1
 90
        0
176
     1
290
     0
176
     1
 90
        1
176
     1
 40
0.0
176
     1
 90
        0
176
     1
290
     0
176
     1
290
     1
176
     1
290
     1
176
     1
290
     0
176
     1
290
     0
176
     1
290
     0
176
     1
290
     0
176
     1
290
     0
176
     1
290
     0
176
     1
 90
       50
176
     1
 40
0.0
176
     1
 40
1.0
176
     1
 90
        0
176
     1
 62
    18
420
        0
176
     1
 90
       50
176
     1
 90
        3
176
     1
 62
     5
420
      255
176
     1
290
     0
176
     1
 90
       50
176
     1
 90
       50
176
     1
 90
       50
176
     1
290
     0
176
     1
 90
       50
176
     1
 62
   256
176
     0
 40
1.0
176
     0
 90
        2
176
     1
  1
strokes_ogs.tif
176
     1
290
     0
176
     1
 40
1.0
176
     1
 40
1.0
176
     1
  0
VISUALSTYLE
  5
2766
102
{ACAD_REACTORS
330
2765
102
}
330
2765
100
AcDbVisualStyle
  2
Flat
 70
     0
177
     3
291
     1
 70
    58
 90
        2
176
     1
 90
        1
176
     1
 90
        1
176
     1
 90
        2
176
     1
 40
0.6
176
     1
 40
30.0
176
     1
 62
     7
420
 16777215
176
     1
 90
        0
176
     1
 90
        4
176
     1
 62
     7
176
     1
 62
   257
176
     1
 90
        1
176
     1
 90
        1
176
     1
 40
1.0
176
     1
 90
        8
176
     1
 62
     7
176
     1
 40
1.0
176
     1
 90
        1
176
     1
 90
        6
176
     1
 90
        2
176
     1
 62
     7
176
     1
 90
        5
176
     1
 90
        0
176
     1
 90
        0
176
     1
290
     0
176
     1
 90
       13
176
     1
 40
0.0
176
     1
 90
        0
176
     1
290
     0
176
     1
290
     1
176
     1
290
     1
176
     1
290
     0
176
     1
290
     0
176
     1
290
     0
176
     1
290
     0
176
     1
290
     0
176
     1
290
     0
176
     1
 90
       50
176
     1
 40
0.0
176
     1
 40
1.0
176
     1
 90
        0
176
     1
 62
    18
420
        0
176
     1
 90
       50
176
     1
 90
        3
176
     1
 62
     5
420
      255
176
     1
290
     0
176
     1
 90
       50
176
     1
 90
       50
176
     1
 90
       50
176
     1
290
     0
176
     1
 90
       50
176
     1
 62
   256
176
     0
 40
1.0
176
     0
 90
        2
176
     1
  1
strokes_ogs.tif
176
     1
290
     0
176
     1
 40
1.0
176
     1
 40
1.0
176
     1
  0
VISUALSTYLE
  5
2767
102
{ACAD_REACTORS
330
2765
102
}
330
2765
100
AcDbVisualStyle
  2
FlatWithEdges
 70
     1
177
     3
291
     1
 70
    58
 90
        2
176
     1
 90
        1
176
     1
 90
        1
176
     1
 90
        2
176
     1
 40
0.6
176
     1
 40
30.0
176
     1
 62
     7
420
 16777215
176
     1
 90
        1
176
     1
 90
        4
176
     1
 62
     7
176
     1
 62
   257
176
     1
 90
        1
176
     1
 90
        1
176
     1
 40
1.0
176
     1
 90
        0
176
     1
 62
   257
176
     1
 40
1.0
176
     1
 90
        1
176
     1
 90
        6
176
     1
 90
        2
176
     1
 62
     7
176
     1
 90
        5
176
     1
 90
        0
176
     1
 90
        0
176
     1
290
     0
176
     1
 90
       13
176
     1
 40
0.0
176
     1
 90
        0
176
     1
290
     0
176
     1
290
     1
176
     1
290
     1
176
     1
290
     0
176
     1
290
     0
176
     1
290
     0
176
     1
290
     0
176
     1
290
     0
176
     1
290
     0
176
     1
 90
       50
176
     1
 40
0.0
176
     1
 40
1.0
176
     1
 90
        0
176
     1
 62
    18
420
        0
176
     1
 90
       50
176
     1
 90
        3
176
     1
 62
     5
420
      255
176
     1
290
     0
176
     1
 90
       50
176
     1
 90
       50
176
     1
 90
       50
176
     1
290
     0
176
     1
 90
       50
176
     1
 62
   256
176
     0
 40
1.0
176
     0
 90
        2
176
     1
  1
strokes_ogs.tif
176
     1
290
     0
176
     1
 40
1.0
176
     1
 40
1.0
176
     1
  0
VISUALSTYLE
  5
2768
102
{ACAD_REACTORS
330
2765
102
}
330
2765
100
AcDbVisualStyle
  2
Gouraud
 70
     2
177
     3
291
     1
 70
    58
 90
        2
176
     1
 90
        2
176
     1
 90
        1
176
     1
 90
        2
176
     1
 40
0.6
176
     1
 40
30.0
176
     1
 62
     7
420
 16777215
176
     1
 90
        0
176
     1
 90
        4
176
     1
 62
     7
176
     1
 62
   257
176
     1
 90
        1
176
     1
 90
        1
176
     1
 40
1.0
176
     1
 90
        0
176
     1
 62
     7
176
     1
 40
1.0
176
     1
 90
        1
176
     1
 90
        6
176
     1
 90
        2
176
     1
 62
     7
176
     1
 90
        5
176
     1
 90
        0
176
     1
 90
        0
176
     1
290
     0
176
     1
 90
       13
176
     1
 40
0.0
176
     1
 90
        0
176
     1
290
     0
176
     1
290
     1
176
     1
290
     1
176
     1
290
     0
176
     1
290
     0
176
     1
290
     0
176
     1
290
     0
176
     1
290
     0
176
     1
290
     0
176
     1
 90
       50
176
     1
 40
0.0
176
     1
 40
1.0
176
     1
 90
        0
176
     1
 62
    18
420
        0
176
     1
 90
       50
176
     1
 90
        3
176
     1
 62
     5
420
      255
176
     1
290
     0
176
     1
 90
       50
176
     1
 90
       50
176
     1
 90
       50
176
     1
290
     0
176
     1
 90
       50
176
     1
 62
   256
176
     0
 40
1.0
176
     0
 90
        2
176
     1
  1
strokes_ogs.tif
176
     1
290
     0
176
     1
 40
1.0
176
     1
 40
1.0
176
     1
  0
VISUALSTYLE
  5
2769
102
{ACAD_REACTORS
330
2765
102
}
330
2765
100
AcDbVisualStyle
  2
GouraudWithEdges
 70
     3
177
     3
291
     1
 70
    58
 90
        2
176
     1
 90
        2
176
     1
 90
        1
176
     1
 90
        2
176
     1
 40
0.6
176
     1
 40
30.0
176
     1
 62
     7
420
 16777215
176
     1
 90
        1
176
     1
 90
        4
176
     1
 62
     7
176
     1
 62
   257
176
     1
 90
        1
176
     1
 90
        1
176
     1
 40
1.0
176
     1
 90
        0
176
     1
 62
   257
176
     1
 40
1.0
176
     1
 90
        1
176
     1
 90
        6
176
     1
 90
        2
176
     1
 62
     7
176
     1
 90
        5
176
     1
 90
        0
176
     1
 90
        0
176
     1
290
     0
176
     1
 90
       13
176
     1
 40
0.0
176
     1
 90
        0
176
     1
290
     0
176
     1
290
     1
176
     1
290
     1
176
     1
290
     0
176
     1
290
     0
176
     1
290
     0
176
     1
290
     0
176
     1
290
     0
176
     1
290
     0
176
     1
 90
       50
176
     1
 40
0.0
176
     1
 40
1.0
176
     1
 90
        0
176
     1
 62
    18
420
        0
176
     1
 90
       50
176
     1
 90
        3
176
     1
 62
     5
420
      255
176
     1
290
     0
176
     1
 90
       50
176
     1
 90
       50
176
     1
 90
       50
176
     1
290
     0
176
     1
 90
       50
176
     1
 62
   256
176
     0
 40
1.0
176
     0
 90
        2
176
     1
  1
strokes_ogs.tif
176
     1
290
     0
176
     1
 40
1.0
176
     1
 40
1.0
176
     1
  0
VISUALSTYLE
  5
2BD15
102
{ACAD_REACTORS
330
2765
102
}
330
2765
100
AcDbVisualStyle
  2
Hidden
 70
     6
177
     3
291
     0
 70
    58
 90
        1
176
     1
 90
        2
176
     1
 90
        2
176
     1
 90
        0
176
     1
 40
0.6
176
     1
 40
30.0
176
     1
 62
     7
420
 16777215
176
     1
 90
        2
176
     1
 90
        2
176
     1
 62
     7
176
     1
 62
   257
176
     1
 90
        2
176
     1
 90
        1
176
     1
 40
40.0
176
     1
 90
        0
176
     1
 62
   257
176
     1
 40
1.0
176
     1
 90
        1
176
     1
 90
        6
176
     1
 90
        2
176
     1
 62
     7
176
     1
 90
        3
176
     1
 90
        0
176
     1
 90
        0
176
     1
290
     0
176
     1
 90
        1
176
     1
 40
0.0
176
     1
 90
        0
176
     1
290
     0
176
     1
290
     1
176
     1
290
     1
176
     1
290
     0
176
     1
290
     0
176
     1
290
     0
176
     1
290
     0
176
     1
290
     0
176
     1
290
     0
176
     1
 90
       50
176
     1
 40
0.0
176
     1
 40
1.0
176
     1
 90
        0
176
     1
 62
    18
420
        0
176
     1
 90
       50
176
     1
 90
        3
176
     1
 62
     5
420
      255
176
     1
290
     0
176
     1
 90
       50
176
     1
 90
       50
176
     1
 90
       50
176
     1
290
     0
176
     1
 90
       50
176
     1
 62
   256
176
     0
 40
1.0
176
     0
 90
        2
176
     1
  1
strokes_ogs.tif
176
     1
290
     0
176
     1
 40
1.0
176
     1
 40
1.0
176
     1
  0
VISUALSTYLE
  5
247DC
102
{ACAD_REACTORS
330
2765
102
}
330
2765
100
AcDbVisualStyle
  2
JitterOff
 70
    20
177
     3
291
     1
 70
    58
 90
        2
176
     0
 90
        2
176
     0
 90
        0
176
     0
 90
        0
176
     0
 40
0.6
176
     0
 40
30.0
176
     0
 62
     7
420
 16777215
176
     0
 90
        1
176
     0
 90
        4
176
     0
 62
     7
176
     0
 62
   257
176
     0
 90
        1
176
     0
 90
        1
176
     0
 40
1.0
176
     0
 90
       10
176
     2
 62
     7
176
     0
 40
1.0
176
     0
 90
        1
176
     0
 90
        6
176
     0
 90
        2
176
     0
 62
     7
176
     0
 90
        5
176
     0
 90
        0
176
     0
 90
        0
176
     0
290
     0
176
     0
 90
        1
176
     0
 40
0.0
176
     0
 90
        0
176
     0
290
     0
176
     1
290
     1
176
     1
290
     1
176
     1
290
     0
176
     1
290
     0
176
     1
290
     0
176
     1
290
     0
176
     1
290
     0
176
     1
290
     0
176
     1
 90
       50
176
     1
 40
0.0
176
     1
 40
1.0
176
     1
 90
        0
176
     1
 62
    18
420
        0
176
     1
 90
       50
176
     1
 90
        3
176
     1
 62
     5
420
      255
176
     1
290
     0
176
     1
 90
       50
176
     1
 90
       50
176
     1
 90
       50
176
     1
290
     0
176
     1
 90
       50
176
     1
 62
   256
176
     0
 40
1.0
176
     0
 90
        2
176
     1
  1
strokes_ogs.tif
176
     1
290
     0
176
     1
 40
1.0
176
     1
 40
1.0
176
     1
  0
VISUALSTYLE
  5
2773
102
{ACAD_REACTORS
330
2765
102
}
330
2765
100
AcDbVisualStyle
  2
Linepattern
 70
    14
177
     3
291
     1
 70
    58
 90
        2
176
     1
 90
        2
176
     1
 90
        0
176
     1
 90
        0
176
     1
 40
0.6
176
     1
 40
30.0
176
     1
 62
     7
420
 16777215
176
     1
 90
        1
176
     1
 90
        4
176
     1
 62
     7
176
     1
 62
   257
176
     1
 90
        7
176
     1
 90
        7
176
     1
 40
1.0
176
     1
 90
        8
176
     1
 62
     7
176
     1
 40
1.0
176
     1
 90
        1
176
     1
 90
        6
176
     1
 90
        2
176
     1
 62
     7
176
     1
 90
        5
176
     1
 90
        0
176
     1
 90
        0
176
     1
290
     0
176
     1
 90
        1
176
     1
 40
0.0
176
     1
 90
        0
176
     1
290
     0
176
     1
290
     1
176
     1
290
     1
176
     1
290
     0
176
     1
290
     0
176
     1
290
     0
176
     1
290
     0
176
     1
290
     0
176
     1
290
     0
176
     1
 90
       50
176
     1
 40
0.0
176
     1
 40
1.0
176
     1
 90
        0
176
     1
 62
    18
420
        0
176
     1
 90
       50
176
     1
 90
        3
176
     1
 62
     5
420
      255
176
     1
290
     0
176
     1
 90
       50
176
     1
 90
       50
176
     1
 90
       50
176
     1
290
     0
176
     1
 90
       50
176
     1
 62
   256
176
     0
 40
1.0
176
     0
 90
        2
176
     1
  1
strokes_ogs.tif
176
     1
290
     0
176
     1
 40
1.0
176
     1
 40
1.0
176
     1
  0
VISUALSTYLE
  5
247DD
102
{ACAD_REACTORS
330
2765
102
}
330
2765
100
AcDbVisualStyle
  2
OverhangOff
 70
    21
177
     3
291
     1
 70
    58
 90
        2
176
     0
 90
        2
176
     0
 90
        0
176
     0
 90
        0
176
     0
 40
0.6
176
     0
 40
30.0
176
     0
 62
     7
420
 16777215
176
     0
 90
        1
176
     0
 90
        4
176
     0
 62
     7
176
     0
 62
   257
176
     0
 90
        1
176
     0
 90
        1
176
     0
 40
1.0
176
     0
 90
        9
176
     2
 62
     7
176
     0
 40
1.0
176
     0
 90
        1
176
     0
 90
        6
176
     0
 90
        2
176
     0
 62
     7
176
     0
 90
        5
176
     0
 90
        0
176
     0
 90
        0
176
     0
290
     0
176
     0
 90
        1
176
     0
 40
0.0
176
     0
 90
        0
176
     0
290
     0
176
     1
290
     1
176
     1
290
     1
176
     1
290
     0
176
     1
290
     0
176
     1
290
     0
176
     1
290
     0
176
     1
290
     0
176
     1
290
     0
176
     1
 90
       50
176
     1
 40
0.0
176
     1
 40
1.0
176
     1
 90
        0
176
     1
 62
    18
420
        0
176
     1
 90
       50
176
     1
 90
        3
176
     1
 62
     5
420
      255
176
     1
290
     0
176
     1
 90
       50
176
     1
 90
       50
176
     1
 90
       50
176
     1
290
     0
176
     1
 90
       50
176
     1
 62
   256
176
     0
 40
1.0
176
     0
 90
        2
176
     1
  1
strokes_ogs.tif
176
     1
290
     0
176
     1
 40
1.0
176
     1
 40
1.0
176
     1
  0
VISUALSTYLE
  5
276F
102
{ACAD_REACTORS
330
2765
102
}
330
2765
100
AcDbVisualStyle
  2
Realistic
 70
     8
177
     3
291
     0
 70
    58
 90
        2
176
     1
 90
        2
176
     1
 90
        0
176
     1
 90
        0
176
     1
 40
0.6
176
     1
 40
30.0
176
     1
 62
     7
420
 16777215
176
     1
 90
        1
176
     1
 90
        0
176
     1
 62
     7
176
     1
 62
   257
176
     1
 90
        1
176
     1
 90
        1
176
     1
 40
1.0
176
     1
 90
        8
176
     1
 62
     8
420
  7895160
176
     1
 40
1.0
176
     1
 90
        1
176
     1
 90
        6
176
     1
 90
        2
176
     1
 62
     7
176
     1
 90
        5
176
     1
 90
        0
176
     1
 90
        0
176
     1
290
     0
176
     1
 90
       13
176
     1
 40
0.0
176
     1
 90
        0
176
     1
290
     0
176
     1
290
     1
176
     1
290
     1
176
     1
290
     0
176
     1
290
     0
176
     1
290
     0
176
     1
290
     0
176
     1
290
     0
176
     1
290
     0
176
     1
 90
       50
176
     1
 40
0.0
176
     1
 40
1.0
176
     1
 90
        0
176
     1
 62
    18
420
        0
176
     1
 90
       50
176
     1
 90
        3
176
     1
 62
     5
420
      255
176
     1
290
     0
176
     1
 90
       50
176
     1
 90
       50
176
     1
 90
       50
176
     1
290
     0
176
     1
 90
       50
176
     1
 62
   256
176
     0
 40
1.0
176
     0
 90
        2
176
     1
  1
strokes_ogs.tif
176
     1
290
     0
176
     1
 40
1.0
176
     1
 40
1.0
176
     1
  0
VISUALSTYLE
  5
2BD1A
102
{ACAD_REACTORS
330
2765
102
}
330
2765
100
AcDbVisualStyle
  2
Shaded
 70
    27
177
     3
291
     0
 70
    58
 90
        2
176
     1
 90
        2
176
     1
 90
        1
176
     1
 90
        2
176
     1
 40
0.6
176
     1
 40
30.0
176
     1
 62
     7
420
 16777215
176
     1
 90
        0
176
     1
 90
        4
176
     1
 62
     7
176
     1
 62
   257
176
     1
 90
        1
176
     1
 90
        1
176
     1
 40
1.0
176
     1
 90
        8
176
     1
 62
   257
176
     1
 40
1.0
176
     1
 90
        1
176
     1
 90
        6
176
     1
 90
        2
176
     1
 62
     8
420
  7895160
176
     1
 90
        3
176
     1
 90
        0
176
     1
 90
        0
176
     1
290
     0
176
     1
 90
        5
176
     1
 40
0.0
176
     1
 90
        0
176
     1
290
     0
176
     1
290
     1
176
     1
290
     1
176
     1
290
     0
176
     1
290
     0
176
     1
290
     0
176
     1
290
     0
176
     1
290
     0
176
     1
290
     0
176
     1
 90
       50
176
     1
 40
0.0
176
     1
 40
1.0
176
     1
 90
        0
176
     1
 62
    18
420
        0
176
     1
 90
       50
176
     1
 90
        3
176
     1
 62
     5
420
      255
176
     1
290
     0
176
     1
 90
       50
176
     1
 90
       50
176
     1
 90
       50
176
     1
290
     0
176
     1
 90
       50
176
     1
 62
   256
176
     0
 40
1.0
176
     0
 90
        2
176
     1
  1
strokes_ogs.tif
176
     1
290
     0
176
     1
 40
1.0
176
     1
 40
1.0
176
     1
  0
VISUALSTYLE
  5
2BD19
102
{ACAD_REACTORS
330
2765
102
}
330
2765
100
AcDbVisualStyle
  2
Shaded with edges
 70
    26
177
     3
291
     0
 70
    58
 90
        2
176
     1
 90
        2
176
     1
 90
        1
176
     1
 90
        2
176
     1
 40
0.6
176
     1
 40
30.0
176
     1
 62
     7
420
 16777215
176
     1
 90
        1
176
     1
 90
       10
176
     1
 62
     7
176
     1
 62
   257
176
     1
 90
        2
176
     1
 90
        1
176
     1
 40
1.0
176
     1
 90
        8
176
     1
 62
   257
176
     1
 40
1.0
176
     1
 90
        1
176
     1
 90
        6
176
     1
 90
        2
176
     1
 62
     7
176
     1
 90
        3
176
     1
 90
        0
176
     1
 90
        0
176
     1
290
     0
176
     1
 90
        5
176
     1
 40
0.0
176
     1
 90
        0
176
     1
290
     0
176
     1
290
     1
176
     1
290
     1
176
     1
290
     0
176
     1
290
     0
176
     1
290
     0
176
     1
290
     0
176
     1
290
     0
176
     1
290
     0
176
     1
 90
       50
176
     1
 40
0.0
176
     1
 40
1.0
176
     1
 90
        0
176
     1
 62
    18
420
        0
176
     1
 90
       50
176
     1
 90
        3
176
     1
 62
     5
420
      255
176
     1
290
     0
176
     1
 90
       50
176
     1
 90
       50
176
     1
 90
       50
176
     1
290
     0
176
     1
 90
       50
176
     1
 62
   256
176
     0
 40
1.0
176
     0
 90
        2
176
     1
  1
strokes_ogs.tif
176
     1
290
     0
176
     1
 40
1.0
176
     1
 40
1.0
176
     1
  0
VISUALSTYLE
  5
2BD16
102
{ACAD_REACTORS
330
2765
102
}
330
2765
100
AcDbVisualStyle
  2
Shades of Gray
 70
    23
177
     3
291
     0
 70
    58
 90
        2
176
     1
 90
        2
176
     1
 90
        3
176
     1
 90
        0
176
     1
 40
0.6
176
     1
 40
30.0
176
     1
 62
     7
420
 16777215
176
     1
 90
        2
176
     1
 90
        2
176
     1
 62
     7
176
     1
 62
     7
176
     1
 90
        1
176
     1
 90
        1
176
     1
 40
40.0
176
     1
 90
        8
176
     1
 62
     7
176
     1
 40
1.0
176
     1
 90
        1
176
     1
 90
        6
176
     1
 90
        2
176
     1
 62
     7
176
     1
 90
        3
176
     1
 90
        0
176
     1
 90
        0
176
     1
290
     0
176
     1
 90
        1
176
     1
 40
0.0
176
     1
 90
        0
176
     1
290
     0
176
     1
290
     1
176
     1
290
     1
176
     1
290
     0
176
     1
290
     0
176
     1
290
     0
176
     1
290
     0
176
     1
290
     0
176
     1
290
     0
176
     1
 90
       50
176
     1
 40
0.0
176
     1
 40
1.0
176
     1
 90
        0
176
     1
 62
    18
420
        0
176
     1
 90
       50
176
     1
 90
        3
176
     1
 62
     5
420
      255
176
     1
290
     0
176
     1
 90
       50
176
     1
 90
       50
176
     1
 90
       50
176
     1
290
     0
176
     1
 90
       50
176
     1
 62
   256
176
     0
 40
1.0
176
     0
 90
        2
176
     1
  1
strokes_ogs.tif
176
     1
290
     0
176
     1
 40
1.0
176
     1
 40
1.0
176
     1
  0
VISUALSTYLE
  5
2BD17
102
{ACAD_REACTORS
330
2765
102
}
330
2765
100
AcDbVisualStyle
  2
Sketchy
 70
    24
177
     3
291
     0
 70
    58
 90
        1
176
     1
 90
        2
176
     1
 90
        2
176
     1
 90
        0
176
     1
 40
0.6
176
     1
 40
30.0
176
     1
 62
     7
420
 16777215
176
     1
 90
        2
176
     1
 90
        2
176
     1
 62
     7
176
     1
 62
     7
176
     1
 90
        1
176
     1
 90
        1
176
     1
 40
40.0
176
     1
 90
       11
176
     1
 62
     7
176
     1
 40
1.0
176
     1
 90
        1
176
     1
 90
        6
176
     1
 90
        2
176
     1
 62
     7
176
     1
 90
        6
176
     1
 90
        0
176
     1
 90
        0
176
     1
290
     0
176
     1
 90
        1
176
     1
 40
0.0
176
     1
 90
        0
176
     1
290
     0
176
     1
290
     1
176
     1
290
     1
176
     1
290
     0
176
     1
290
     0
176
     1
290
     0
176
     1
290
     0
176
     1
290
     0
176
     1
290
     0
176
     1
 90
       50
176
     1
 40
0.0
176
     1
 40
1.0
176
     1
 90
        0
176
     1
 62
    18
420
        0
176
     1
 90
       50
176
     1
 90
        3
176
     1
 62
     5
420
      255
176
     1
290
     0
176
     1
 90
       50
176
     1
 90
       50
176
     1
 90
       50
176
     1
290
     0
176
     1
 90
       50
176
     1
 62
   256
176
     0
 40
1.0
176
     0
 90
        2
176
     1
  1
strokes_ogs.tif
176
     1
290
     0
176
     1
 40
1.0
176
     1
 40
1.0
176
     1
  0
VISUALSTYLE
  5
2772
102
{ACAD_REACTORS
330
2765
102
}
330
2765
100
AcDbVisualStyle
  2
Thicken
 70
    13
177
     3
291
     1
 70
    58
 90
        2
176
     1
 90
        2
176
     1
 90
        0
176
     1
 90
        0
176
     1
 40
0.6
176
     1
 40
30.0
176
     1
 62
     7
420
 16777215
176
     1
 90
        1
176
     1
 90
        4
176
     1
 62
     7
176
     1
 62
   257
176
     1
 90
        1
176
     1
 90
        1
176
     1
 40
1.0
176
     1
 90
       12
176
     1
 62
     7
176
     1
 40
1.0
176
     1
 90
        1
176
     1
 90
        6
176
     1
 90
        2
176
     1
 62
     7
176
     1
 90
        5
176
     1
 90
        0
176
     1
 90
        0
176
     1
290
     0
176
     1
 90
        1
176
     1
 40
0.0
176
     1
 90
        0
176
     1
290
     0
176
     1
290
     1
176
     1
290
     1
176
     1
290
     0
176
     1
290
     0
176
     1
290
     0
176
     1
290
     0
176
     1
290
     0
176
     1
290
     0
176
     1
 90
       50
176
     1
 40
0.0
176
     1
 40
1.0
176
     1
 90
        0
176
     1
 62
    18
420
        0
176
     1
 90
       50
176
     1
 90
        3
176
     1
 62
     5
420
      255
176
     1
290
     0
176
     1
 90
       50
176
     1
 90
       50
176
     1
 90
       50
176
     1
290
     0
176
     1
 90
       50
176
     1
 62
   256
176
     0
 40
1.0
176
     0
 90
        2
176
     1
  1
strokes_ogs.tif
176
     1
290
     0
176
     1
 40
1.0
176
     1
 40
1.0
176
     1
  0
VISUALSTYLE
  5
2BD14
102
{ACAD_REACTORS
330
2765
102
}
330
2765
100
AcDbVisualStyle
  2
Wireframe
 70
     5
177
     3
291
     0
 70
    58
 90
        0
176
     1
 90
        2
176
     1
 90
        0
176
     1
 90
        0
176
     1
 40
0.6
176
     1
 40
30.0
176
     1
 62
     7
420
 16777215
176
     1
 90
        1
176
     1
 90
        4
176
     1
 62
     7
176
     1
 62
   257
176
     1
 90
        1
176
     1
 90
        1
176
     1
 40
1.0
176
     1
 90
        0
176
     1
 62
   257
176
     1
 40
1.0
176
     1
 90
        1
176
     1
 90
        6
176
     1
 90
        2
176
     1
 62
     7
176
     1
 90
        3
176
     1
 90
        0
176
     1
 90
        0
176
     1
290
     0
176
     1
 90
        1
176
     1
 40
0.0
176
     1
 90
        0
176
     1
290
     0
176
     1
290
     1
176
     1
290
     1
176
     1
290
     0
176
     1
290
     0
176
     1
290
     0
176
     1
290
     0
176
     1
290
     0
176
     1
290
     0
176
     1
 90
       50
176
     1
 40
0.0
176
     1
 40
1.0
176
     1
 90
        0
176
     1
 62
    18
420
        0
176
     1
 90
       50
176
     1
 90
        3
176
     1
 62
     5
420
      255
176
     1
290
     0
176
     1
 90
       50
176
     1
 90
       50
176
     1
 90
       50
176
     1
290
     0
176
     1
 90
       50
176
     1
 62
   256
176
     0
 40
1.0
176
     0
 90
        2
176
     1
  1
strokes_ogs.tif
176
     1
290
     0
176
     1
 40
1.0
176
     1
 40
1.0
176
     1
  0
VISUALSTYLE
  5
2BD18
102
{ACAD_REACTORS
330
2765
102
}
330
2765
100
AcDbVisualStyle
  2
X-Ray
 70
    25
177
     3
291
     0
 70
    58
 90
        2
176
     1
 90
        2
176
     1
 90
        1
176
     1
 90
        1
176
     1
 40
0.5
176
     1
 40
30.0
176
     1
 62
     7
420
 16777215
176
     1
 90
        1
176
     1
 90
        0
176
     1
 62
     7
176
     1
 62
   257
176
     1
 90
        1
176
     1
 90
        1
176
     1
 40
1.0
176
     1
 90
        8
176
     1
 62
     7
176
     1
 40
1.0
176
     1
 90
        1
176
     1
 90
        6
176
     1
 90
        2
176
     1
 62
     7
176
     1
 90
        3
176
     1
 90
        0
176
     1
 90
        0
176
     1
290
     0
176
     1
 90
       13
176
     1
 40
0.0
176
     1
 90
        0
176
     1
290
     0
176
     1
290
     1
176
     1
290
     1
176
     1
290
     0
176
     1
290
     0
176
     1
290
     0
176
     1
290
     0
176
     1
290
     0
176
     1
290
     0
176
     1
 90
       50
176
     1
 40
0.0
176
     1
 40
1.0
176
     1
 90
        0
176
     1
 62
    18
420
        0
176
     1
 90
       50
176
     1
 90
        3
176
     1
 62
     5
420
      255
176
     1
290
     0
176
     1
 90
       50
176
     1
 90
       50
176
     1
 90
       50
176
     1
290
     0
176
     1
 90
       50
176
     1
 62
   256
176
     0
 40
1.0
176
     0
 90
        2
176
     1
  1
strokes_ogs.tif
176
     1
290
     0
176
     1
 40
1.0
176
     1
 40
1.0
176
     1
  0
DICTIONARYVAR
  5
24E32
102
{ACAD_REACTORS
330
5E
102
}
330
5E
100
DictionaryVariables
280
     0
  1
1:1
  0
DICTIONARYVAR
  5
24E30
102
{ACAD_REACTORS
330
5E
102
}
330
5E
100
DictionaryVariables
280
     0
  1
STANDARD
  0
DICTIONARYVAR
  5
2792
102
{ACAD_REACTORS
330
5E
102
}
330
5E
100
DictionaryVariables
280
     0
  1
STANDARD
  0
DICTIONARYVAR
  5
2BD30
102
{ACAD_REACTORS
330
5E
102
}
330
5E
100
DictionaryVariables
280
     0
  1
Metric50
  0
DICTIONARYVAR
  5
2BD31
102
{ACAD_REACTORS
330
5E
102
}
330
5E
100
DictionaryVariables
280
     0
  1
Metric50
  0
DICTIONARYVAR
  5
5F
102
{ACAD_REACTORS
330
5E
102
}
330
5E
100
DictionaryVariables
280
     0
  1
2
  0
DICTIONARYVAR
  5
63
102
{ACAD_REACTORS
330
5E
102
}
330
5E
100
DictionaryVariables
280
     0
  1
1
  0
DICTIONARYVAR
  5
24E34
102
{ACAD_REACTORS
330
5E
102
}
330
5E
100
DictionaryVariables
280
     0
  1
1
  0
DICTIONARYVAR
  5
24E35
102
{ACAD_REACTORS
330
5E
102
}
330
5E
100
DictionaryVariables
280
     0
  1
15
  0
DICTIONARYVAR
  5
24E33
102
{ACAD_REACTORS
330
5E
102
}
330
5E
100
DictionaryVariables
280
     0
  1
0
  0
DICTIONARYVAR
  5
24E31
102
{ACAD_REACTORS
330
5E
102
}
330
5E
100
DictionaryVariables
280
     0
  1
0
  0
DICTIONARY
  5
2BD39
330
2BD1E
100
AcDbDictionary
280
     1
281
     1
  3
ACAD_XREC_ROUNDTRIP
360
2BD3A
  0
DICTIONARY
  5
24E2E
330
22
100
AcDbDictionary
280
     1
281
     1
  3
AcPublish_PlotSettingsOverride
360
2BD2F
  0
DICTIONARY
  5
2E30
330
51
100
AcDbDictionary
280
     1
281
     1
  0
DICTIONARY
  5
2BD37
330
2BD1C
100
AcDbDictionary
280
     1
281
     1
  3
ACAD_XREC_ROUNDTRIP
360
2BD38
  0
DICTIONARY
  5
2BD33
330
2778
100
AcDbDictionary
280
     1
281
     1
  3
ACAD_ROUNDTRIP_2008_TABLESTYLE_CELLSTYLEMAP
360
2BD34
  0
DICTIONARY
  5
2BD35
330
2688B
100
AcDbDictionary
280
     1
281
     1
  3
ACAD_ROUNDTRIP_2008_TABLESTYLE_CELLSTYLEMAP
360
2BD36
  0
XRECORD
  5
2BD3A
102
{ACAD_REACTORS
330
2BD39
102
}
330
2BD39
100
AcDbXrecord
280
     1
102
DISPLAYNAME
  1
Metric50
102
FLAGS
 90
        0
  0
PLOTSETTINGS
  5
2BD2F
102
{ACAD_REACTORS
330
24E2E
102
}
330
24E2E
100
AcDbPlotSettings
  1

  2
Canon TS8130 series
  4
A4
  6

 40
4.180416584014892
 41
5.831417560577392
 42
4.180404663085937
 43
3.757080078125
 44
209.9733276367187
 45
296.9683227539062
 46
5.852861797372952
 47
-81.07317847177194
 48
4.0
 49
2.0
140
82.0
141
57.4
142
1.0
143
1.374
 70
  3748
 72
     1
 73
     1
 74
     0
  7
monochrome.ctb
 75
     0
147
0.7277572728131227
 76
     1
 77
     2
 78
   300
148
89.250750679958
149
-18.03404557947678
1001
ACAD_PSEXT
1000
Canon TS8130 series
1000
Canon TS8130 series
1000
USB001
1000

1070
     0
  0
XRECORD
  5
2BD38
102
{ACAD_REACTORS
330
2BD37
102
}
330
2BD37
100
AcDbXrecord
280
     1
102
DISPLAYNAME
  1
Metric50
102
FLAGS
 90
        0
  0
CELLSTYLEMAP
  5
2BD34
102
{ACAD_REACTORS
330
2BD33
102
}
330
2BD33
100
AcDbCellStyleMap
 90
        3
300
CELLSTYLE
  1
TABLEFORMAT_BEGIN
 90
        5
170
     1
 91
        0
 92
    32768
 62
   257
 93
        1
300
CONTENTFORMAT
  1
CONTENTFORMAT_BEGIN
 90
        0
 91
        0
 92
      512
 93
        0
300

 40
0.0
140
1.0
 94
        5
 62
     0
340
11
144
6.0
309
CONTENTFORMAT_END
171
     1
301
MARGIN
  1
CELLMARGIN_BEGIN
 40
1.5
 40
1.5
 40
1.5
 40
1.5
 40
0.18
 40
0.18
309
CELLMARGIN_END
 94
        6
 95
        1
302
GRIDFORMAT
  1
GRIDFORMAT_BEGIN
 90
        0
 91
        1
 62
     0
 92
       -2
340
0
 93
        0
 40
0.045
309
GRIDFORMAT_END
 95
        2
302
GRIDFORMAT
  1
GRIDFORMAT_BEGIN
 90
        0
 91
        1
 62
     0
 92
       -2
340
0
 93
        0
 40
0.045
309
GRIDFORMAT_END
 95
        4
302
GRIDFORMAT
  1
GRIDFORMAT_BEGIN
 90
        0
 91
        1
 62
     0
 92
       -2
340
0
 93
        0
 40
0.045
309
GRIDFORMAT_END
 95
        8
302
GRIDFORMAT
  1
GRIDFORMAT_BEGIN
 90
        0
 91
        1
 62
     0
 92
       -2
340
0
 93
        0
 40
0.045
309
GRIDFORMAT_END
 95
       16
302
GRIDFORMAT
  1
GRIDFORMAT_BEGIN
 90
        0
 91
        1
 62
     0
 92
       -2
340
0
 93
        0
 40
0.045
309
GRIDFORMAT_END
 95
       32
302
GRIDFORMAT
  1
GRIDFORMAT_BEGIN
 90
        0
 91
        1
 62
     0
 92
       -2
340
0
 93
        0
 40
0.045
309
GRIDFORMAT_END
309
TABLEFORMAT_END
  1
CELLSTYLE_BEGIN
 90
        1
 91
        1
300
_TITLE
309
CELLSTYLE_END
300
CELLSTYLE
  1
TABLEFORMAT_BEGIN
 90
        5
170
     1
 91
        0
 92
        0
 62
   257
 93
        1
300
CONTENTFORMAT
  1
CONTENTFORMAT_BEGIN
 90
        0
 91
        0
 92
      512
 93
        0
300

 40
0.0
140
1.0
 94
        5
 62
     0
340
11
144
4.5
309
CONTENTFORMAT_END
171
     1
301
MARGIN
  1
CELLMARGIN_BEGIN
 40
1.5
 40
1.5
 40
1.5
 40
1.5
 40
0.18
 40
0.18
309
CELLMARGIN_END
 94
        6
 95
        1
302
GRIDFORMAT
  1
GRIDFORMAT_BEGIN
 90
        0
 91
        1
 62
     0
 92
       -2
340
0
 93
        0
 40
0.045
309
GRIDFORMAT_END
 95
        2
302
GRIDFORMAT
  1
GRIDFORMAT_BEGIN
 90
        0
 91
        1
 62
     0
 92
       -2
340
0
 93
        0
 40
0.045
309
GRIDFORMAT_END
 95
        4
302
GRIDFORMAT
  1
GRIDFORMAT_BEGIN
 90
        0
 91
        1
 62
     0
 92
       -2
340
0
 93
        0
 40
0.045
309
GRIDFORMAT_END
 95
        8
302
GRIDFORMAT
  1
GRIDFORMAT_BEGIN
 90
        0
 91
        1
 62
     0
 92
       -2
340
0
 93
        0
 40
0.045
309
GRIDFORMAT_END
 95
       16
302
GRIDFORMAT
  1
GRIDFORMAT_BEGIN
 90
        0
 91
        1
 62
     0
 92
       -2
340
0
 93
        0
 40
0.045
309
GRIDFORMAT_END
 95
       32
302
GRIDFORMAT
  1
GRIDFORMAT_BEGIN
 90
        0
 91
        1
 62
     0
 92
       -2
340
0
 93
        0
 40
0.045
309
GRIDFORMAT_END
309
TABLEFORMAT_END
  1
CELLSTYLE_BEGIN
 90
        2
 91
        1
300
_HEADER
309
CELLSTYLE_END
300
CELLSTYLE
  1
TABLEFORMAT_BEGIN
 90
        5
170
     1
 91
        0
 92
        0
 62
   257
 93
        1
300
CONTENTFORMAT
  1
CONTENTFORMAT_BEGIN
 90
        0
 91
        0
 92
      512
 93
        0
300

 40
0.0
140
1.0
 94
        2
 62
     0
340
11
144
4.5
309
CONTENTFORMAT_END
171
     1
301
MARGIN
  1
CELLMARGIN_BEGIN
 40
1.5
 40
1.5
 40
1.5
 40
1.5
 40
0.18
 40
0.18
309
CELLMARGIN_END
 94
        6
 95
        1
302
GRIDFORMAT
  1
GRIDFORMAT_BEGIN
 90
        0
 91
        1
 62
     0
 92
       -2
340
0
 93
        0
 40
0.045
309
GRIDFORMAT_END
 95
        2
302
GRIDFORMAT
  1
GRIDFORMAT_BEGIN
 90
        0
 91
        1
 62
     0
 92
       -2
340
0
 93
        0
 40
0.045
309
GRIDFORMAT_END
 95
        4
302
GRIDFORMAT
  1
GRIDFORMAT_BEGIN
 90
        0
 91
        1
 62
     0
 92
       -2
340
0
 93
        0
 40
0.045
309
GRIDFORMAT_END
 95
        8
302
GRIDFORMAT
  1
GRIDFORMAT_BEGIN
 90
        0
 91
        1
 62
     0
 92
       -2
340
0
 93
        0
 40
0.045
309
GRIDFORMAT_END
 95
       16
302
GRIDFORMAT
  1
GRIDFORMAT_BEGIN
 90
        0
 91
        1
 62
     0
 92
       -2
340
0
 93
        0
 40
0.045
309
GRIDFORMAT_END
 95
       32
302
GRIDFORMAT
  1
GRIDFORMAT_BEGIN
 90
        0
 91
        1
 62
     0
 92
       -2
340
0
 93
        0
 40
0.045
309
GRIDFORMAT_END
309
TABLEFORMAT_END
  1
CELLSTYLE_BEGIN
 90
        3
 91
        2
300
_DATA
309
CELLSTYLE_END
  0
CELLSTYLEMAP
  5
2BD36
102
{ACAD_REACTORS
330
2BD35
102
}
330
2BD35
100
AcDbCellStyleMap
 90
        3
300
CELLSTYLE
  1
TABLEFORMAT_BEGIN
 90
        5
170
     1
 91
        0
 92
    32768
 62
   257
 93
        1
300
CONTENTFORMAT
  1
CONTENTFORMAT_BEGIN
 90
        0
 91
        0
 92
      512
 93
        0
300

 40
0.0
140
1.0
 94
        5
 62
     0
340
11
144
6.0
309
CONTENTFORMAT_END
171
     1
301
MARGIN
  1
CELLMARGIN_BEGIN
 40
1.5
 40
1.5
 40
1.5
 40
1.5
 40
0.18
 40
0.18
309
CELLMARGIN_END
 94
        6
 95
        1
302
GRIDFORMAT
  1
GRIDFORMAT_BEGIN
 90
        0
 91
        1
 62
     0
 92
       -2
340
0
 93
        0
 40
0.045
309
GRIDFORMAT_END
 95
        2
302
GRIDFORMAT
  1
GRIDFORMAT_BEGIN
 90
        0
 91
        1
 62
     0
 92
       -2
340
0
 93
        0
 40
0.045
309
GRIDFORMAT_END
 95
        4
302
GRIDFORMAT
  1
GRIDFORMAT_BEGIN
 90
        0
 91
        1
 62
     0
 92
       -2
340
0
 93
        0
 40
0.045
309
GRIDFORMAT_END
 95
        8
302
GRIDFORMAT
  1
GRIDFORMAT_BEGIN
 90
        0
 91
        1
 62
     0
 92
       -2
340
0
 93
        0
 40
0.045
309
GRIDFORMAT_END
 95
       16
302
GRIDFORMAT
  1
GRIDFORMAT_BEGIN
 90
        0
 91
        1
 62
     0
 92
       -2
340
0
 93
        0
 40
0.045
309
GRIDFORMAT_END
 95
       32
302
GRIDFORMAT
  1
GRIDFORMAT_BEGIN
 90
        0
 91
        1
 62
     0
 92
       -2
340
0
 93
        0
 40
0.045
309
GRIDFORMAT_END
309
TABLEFORMAT_END
  1
CELLSTYLE_BEGIN
 90
        1
 91
        1
300
_TITLE
309
CELLSTYLE_END
300
CELLSTYLE
  1
TABLEFORMAT_BEGIN
 90
        5
170
     1
 91
        0
 92
        0
 62
   257
 93
        1
300
CONTENTFORMAT
  1
CONTENTFORMAT_BEGIN
 90
        0
 91
        0
 92
      512
 93
        0
300

 40
0.0
140
1.0
 94
        5
 62
     2
340
10EC
144
4.5
309
CONTENTFORMAT_END
171
     1
301
MARGIN
  1
CELLMARGIN_BEGIN
 40
1.5
 40
1.5
 40
1.5
 40
1.5
 40
0.18
 40
0.18
309
CELLMARGIN_END
 94
        6
 95
        1
302
GRIDFORMAT
  1
GRIDFORMAT_BEGIN
 90
        0
 91
        1
 62
     0
 92
       -2
340
0
 93
        0
 40
0.045
309
GRIDFORMAT_END
 95
        2
302
GRIDFORMAT
  1
GRIDFORMAT_BEGIN
 90
        0
 91
        1
 62
     0
 92
       -2
340
0
 93
        0
 40
0.045
309
GRIDFORMAT_END
 95
        4
302
GRIDFORMAT
  1
GRIDFORMAT_BEGIN
 90
        0
 91
        1
 62
     0
 92
       -2
340
0
 93
        0
 40
0.045
309
GRIDFORMAT_END
 95
        8
302
GRIDFORMAT
  1
GRIDFORMAT_BEGIN
 90
        0
 91
        1
 62
     0
 92
       -2
340
0
 93
        0
 40
0.045
309
GRIDFORMAT_END
 95
       16
302
GRIDFORMAT
  1
GRIDFORMAT_BEGIN
 90
        0
 91
        1
 62
     0
 92
       -2
340
0
 93
        0
 40
0.045
309
GRIDFORMAT_END
 95
       32
302
GRIDFORMAT
  1
GRIDFORMAT_BEGIN
 90
        0
 91
        1
 62
     0
 92
       -2
340
0
 93
        0
 40
0.045
309
GRIDFORMAT_END
309
TABLEFORMAT_END
  1
CELLSTYLE_BEGIN
 90
        2
 91
        1
300
_HEADER
309
CELLSTYLE_END
300
CELLSTYLE
  1
TABLEFORMAT_BEGIN
 90
        5
170
     1
 91
        0
 92
        0
 62
   257
 93
        1
300
CONTENTFORMAT
  1
CONTENTFORMAT_BEGIN
 90
        0
 91
        0
 92
      512
 93
        0
300

 40
0.0
140
1.0
 94
        2
 62
     2
340
10EC
144
4.5
309
CONTENTFORMAT_END
171
     1
301
MARGIN
  1
CELLMARGIN_BEGIN
 40
1.5
 40
1.5
 40
1.5
 40
1.5
 40
0.18
 40
0.18
309
CELLMARGIN_END
 94
        6
 95
        1
302
GRIDFORMAT
  1
GRIDFORMAT_BEGIN
 90
        0
 91
        1
 62
     0
 92
       -2
340
0
 93
        0
 40
0.045
309
GRIDFORMAT_END
 95
        2
302
GRIDFORMAT
  1
GRIDFORMAT_BEGIN
 90
        0
 91
        1
 62
     0
 92
       -2
340
0
 93
        0
 40
0.045
309
GRIDFORMAT_END
 95
        4
302
GRIDFORMAT
  1
GRIDFORMAT_BEGIN
 90
        0
 91
        1
 62
     0
 92
       -2
340
0
 93
        0
 40
0.045
309
GRIDFORMAT_END
 95
        8
302
GRIDFORMAT
  1
GRIDFORMAT_BEGIN
 90
        0
 91
        1
 62
     0
 92
       -2
340
0
 93
        0
 40
0.045
309
GRIDFORMAT_END
 95
       16
302
GRIDFORMAT
  1
GRIDFORMAT_BEGIN
 90
        0
 91
        1
 62
     0
 92
       -2
340
0
 93
        0
 40
0.045
309
GRIDFORMAT_END
 95
       32
302
GRIDFORMAT
  1
GRIDFORMAT_BEGIN
 90
        0
 91
        1
 62
     0
 92
       -2
340
0
 93
        0
 40
0.045
309
GRIDFORMAT_END
309
TABLEFORMAT_END
  1
CELLSTYLE_BEGIN
 90
        3
 91
        2
300
_DATA
309
CELLSTYLE_END
  0
ENDSEC
  0
SECTION
  2
ACDSDATA
 70
     2
 71
     6
  0
ACDSSCHEMA
 90
        0
  1
AcDb_Thumbnail_Schema
  2
AcDbDs::ID
280
    10
 91
        8
  2
Thumbnail_Data
280
    15
 91
        0
101
ACDSRECORD
 95
        0
 90
        1
  2
AcDbDs::TreatedAsObjectData
280
     1
291
     1
101
ACDSRECORD
 95
        0
 90
        2
  2
AcDbDs::Legacy
280
     1
291
     1
101
ACDSRECORD
  1
AcDbDs::ID
 90
        3
  2
AcDs:Indexable
280
     1
291
     1
101
ACDSRECORD
  1
AcDbDs::ID
 90
        4
  2
AcDbDs::HandleAttribute
280
     7
282
     1
  0
ACDSSCHEMA
 90
        1
  1
AcDbDs::TreatedAsObjectDataSchema
  2
AcDbDs::TreatedAsObjectData
280
     1
 91
        0
  0
ACDSSCHEMA
 90
        2
  1
AcDbDs::LegacySchema
  2
AcDbDs::Legacy
280
     1
 91
        0
  0
ACDSSCHEMA
 90
        3
  1
AcDbDs::IndexedPropertySchema
  2
AcDs:Indexable
280
     1
 91
        0
  0
ACDSSCHEMA
 90
        4
  1
AcDbDs::HandleAttributeSchema
  2
AcDbDs::HandleAttribute
280
     7
 91
        1
284
     1
  0
ACDSRECORD
 90
        0
  2
AcDbDs::ID
280
    10
320
22
  2
Thumbnail_Data
280
    15
 94
     2127
310
89504E470D0A1A0A0000000D49484452000001000000007F080300000037AFECF400000300504C5445000000000000FFFFFF0000000000000000000000000000000000000000000000000000330000660000990000CC0000FF0033000033330033660033990033CC0033FF0066000066330066660066990066CC0066FF0099
310
000099330099660099990099CC0099FF00CC0000CC3300CC6600CC9900CCCC00CCFF00FF0000FF3300FF6600FF9900FFCC00FFFF3300003300333300663300993300CC3300FF3333003333333333663333993333CC3333FF3366003366333366663366993366CC3366FF3399003399333399663399993399CC3399FF33CC00
310
33CC3333CC6633CC9933CCCC33CCFF33FF0033FF3333FF6633FF9933FFCC33FFFF6600006600336600666600996600CC6600FF6633006633336633666633996633CC6633FF6666006666336666666666996666CC6666FF6699006699336699666699996699CC6699FF66CC0066CC3366CC6666CC9966CCCC66CCFF66FF0066
310
FF3366FF6666FF9966FFCC66FFFF9900009900339900669900999900CC9900FF9933009933339933669933999933CC9933FF9966009966339966669966999966CC9966FF9999009999339999669999999999CC9999FF99CC0099CC3399CC6699CC9999CCCC99CCFF99FF0099FF3399FF6699FF9999FFCC99FFFFCC0000CC00
310
33CC0066CC0099CC00CCCC00FFCC3300CC3333CC3366CC3399CC33CCCC33FFCC6600CC6633CC6666CC6699CC66CCCC66FFCC9900CC9933CC9966CC9999CC99CCCC99FFCCCC00CCCC33CCCC66CCCC99CCCCCCCCCCFFCCFF00CCFF33CCFF66CCFF99CCFFCCCCFFFFFF0000FF0033FF0066FF0099FF00CCFF00FFFF3300FF3333
310
FF3366FF3399FF33CCFF33FFFF6600FF6633FF6666FF6699FF66CCFF66FFFF9900FF9933FF9966FF9999FF99CCFF99FFFFCC00FFCC33FFCC66FFCC99FFCCCCFFCCFFFFFF00FFFF33FFFF66FFFF99FFFFCCFFFFFF0000000D0D0D1A1A1A2828283535354343435050505D5D5D6B6B6B787878868686939393A1A1A1AEAEAEBB
310
BBBBC9C9C9D6D6D6E4E4E4F1F1F1FFFFFF000000000000000000000000000000000000000000000000000000000000C11FEF660000050A4944415478DAED9D4B969D2010867B076CC3FDAF8711E34CFF798EF22C2C14BB05A4944ECE7D69D2F5596FE0FA635E3E7E6A0FFC37DDB81BC06C97F603F0011809002D0EC5030100
310
B5BF6BE948EED03F1FD95103AA01982600300F807A0DC0B335008F1FAD01DCEDADD1E8DFEB0F0078370034D08E9900A0897DCC03008D3CC40C0054FA2EDEA8012A7D136F04801B82C12400C026B94A110020D6D11F005A02009F8F2A223F060340570020A28258C91000680960EF034064A5F20FD280AE4E10BB6808F32600
310
C8A321311160A91D120058F9090055191217111A805507489C7C0180E4257C4588AC73221B40786DE557DE0D5AD195A943303300F78615DAF9C04DE678F9CF194C0D20C4BE4D686552120A3E37836000CEEC611F950AC96800009C94489303F0B2076BD81EB58E1A609580EBDDCA00105C3FC273AD0980BC8CCC084C0F2089
310
05EB8F5AA55F7F22805D214D08CC02A022A66D07683752007B1D6805C0FD92632646B64C503B03300440E607A7D4800A000651FC1C00C99285F98014C06AFF0480B3871480B428907A006D23E0F69C00485C48EE492400F0F13D5C7F064088083022016C0F4E589B0EF300F691449606040560013059B1D6B30250C958C55D
310
1FB452DABEB408D6E7FE10F77E7A9A0324CC04320D202D032695120320330153320179D560026015549BC328201680155A1B5D0C8356FFA706502E86E0155CC74C980160DA0300C601209510930ACB06E05B3DBA540C01A5827A1E00A72B40AC17F08E30EB07406A4F90EA81953FEF071CB686E55483A4274401E0E0642900
310
109B42D60A625718383A5B1480D8154926464ED6110A01808C409C1861BB62E20080991906894C281110A401D1E3BBC56316030EE517E40360921962AA0407F24B0A83444652E81FC82FAB2D5EEC7494E51704807EACB5F85562C7E3DE5ED70300D4AF7AF2E5707FF1D16F7274AFC7C0AB768C2CA58E40CDAE3E91004A2B61
310
E20BE1009E70FD0702F8ED16576100E8412AAF93CDB525B46201B4DC5A3585098804C0CD7B2A26507C001A0784B1794085EE9BC61BCD4702C82FEBEE3AA3BC48601200B80640F1001A2742BDE606F73EC03C02008601302F00705A0C3DC104CC07E0297900F706ECA9CBB29E6FBB817776044702305579C0AE99B4BD920220
310
0F84AAF0A113DDFF991240A1E34B0928F657CB34401600730D80792780A63323DD7C4061897705805B9DFEC39C600D80B6F23F0480B6EB2555D840F74200EB5F06C0D258FEC13D41F7B9DD37CA684087C9817E3B47977D02E05B02BA6002878B05EFAB067B4D8E3200F24C9002408F2F1D1C6502AC66ABD33821154052FCE0
310
D500B80EB82C002E914D36C7F94D746128BA516E3BF0823F7BEEF70A2F24AC974D00BF3681E05793EF6748BFA1069CEBED0DA0A51344984A3DD2886CE9D25000386988E0BA06F0CC886B190820A9891798B3D9319F0C5FCB691EED0308806C57205C57189945E31200E6A94743D2EBF126106DC16D938B00DC7E7A73B91DB0
310
537306C0EECA3F0700FA00E8AB012886C12816FC46C92D05803394B332FA0400E31D4E4EEA3037581C4E03920DE547738A773BC1413B4759B154F591271A902FB3A41A9067059D4CA037005401C0A8ADB3F562FD5A03CC3980E40AC90270EC04917C97A53400F3DC6586138B9F3DBA0580B587F814617BB62800F13F04CD86
310
CA45C73800CBFD1BA47800487B0249399C1523126EB45407C0EFC91CAC01FD00D49C64BE7B8D7DF71B9CF77E83F8EE373893065CF76C7F6A125F18DF5D673F001F807B01BCFDDEE352C77F4D4C4F868B4966C70000000049454E44AE426082
  0
ACDSRECORD
 90
        0
  2
AcDbDs::ID
280
    10
320
51
  2
Thumbnail_Data
280
    15
 94
     4181
310
89504E470D0A1A0A0000000D4948445200000100000000B5080300000087DCD12600000300504C5445000000000000FFFFFF0000000000000000000000000000000000000000000000000000330000660000990000CC0000FF0033000033330033660033990033CC0033FF0066000066330066660066990066CC0066FF0099
310
000099330099660099990099CC0099FF00CC0000CC3300CC6600CC9900CCCC00CCFF00FF0000FF3300FF6600FF9900FFCC00FFFF3300003300333300663300993300CC3300FF3333003333333333663333993333CC3333FF3366003366333366663366993366CC3366FF3399003399333399663399993399CC3399FF33CC00
310
33CC3333CC6633CC9933CCCC33CCFF33FF0033FF3333FF6633FF9933FFCC33FFFF6600006600336600666600996600CC6600FF6633006633336633666633996633CC6633FF6666006666336666666666996666CC6666FF6699006699336699666699996699CC6699FF66CC0066CC3366CC6666CC9966CCCC66CCFF66FF0066
310
FF3366FF6666FF9966FFCC66FFFF9900009900339900669900999900CC9900FF9933009933339933669933999933CC9933FF9966009966339966669966999966CC9966FF9999009999339999669999999999CC9999FF99CC0099CC3399CC6699CC9999CCCC99CCFF99FF0099FF3399FF6699FF9999FFCC99FFFFCC0000CC00
310
33CC0066CC0099CC00CCCC00FFCC3300CC3333CC3366CC3399CC33CCCC33FFCC6600CC6633CC6666CC6699CC66CCCC66FFCC9900CC9933CC9966CC9999CC99CCCC99FFCCCC00CCCC33CCCC66CCCC99CCCCCCCCCCFFCCFF00CCFF33CCFF66CCFF99CCFFCCCCFFFFFF0000FF0033FF0066FF0099FF00CCFF00FFFF3300FF3333
310
FF3366FF3399FF33CCFF33FFFF6600FF6633FF6666FF6699FF66CCFF66FFFF9900FF9933FF9966FF9999FF99CCFF99FFFFCC00FFCC33FFCC66FFCC99FFCCCCFFCCFFFFFF00FFFF33FFFF66FFFF99FFFFCCFFFFFF0000000D0D0D1A1A1A2828283535354343435050505D5D5D6B6B6B787878868686939393A1A1A1AEAEAEBB
310
BBBBC9C9C9D6D6D6E4E4E4F1F1F1FFFFFF000000000000000000000000000000000000000000000000000000000000C11FEF6600000D104944415478DAED9D4992B33A0C80FF1B700D367DFF03F81A5E694DD55B69FFF02CD93218830319A8EAA44348823E24599207FEE1776FFFFD43F8E6ED07C00088EA907667DBC7BEE1
310
017CEFF5FF01E000BEC9FBCB00BEE9DAFF007C10800E03F830004085B2FFD85D51A6D80026DBA700E0E300F8D86617007C0C80FAE957767E18805E1FF0411A80083C9EC9B58305C39F680214007C23809F0FF8F900F78448F27B62172C1FFE70007814007EAD0FF8E5029FA3014CDB6D6C4C6512EA00D70228F0324FFB7200
310
DCDCF9090E01B05F7A7935004103BC8F7C8106D02AF34BE4BFDB0734D6DF5E170AB35FA4F131AD048D7082ECCA23DEE7040B1F30DC09CABEF0AE64E88656809177AAF66A00F7074237B500439DE04B2FE3653E204FFD37728106006F81400000570040CC3E77E3A6A56DB40F2061CDC3018C0B845E1AD06D6CB3BC6D1445B1
310
AC09D2CE82F68E11DECD701B802381106C2543D8531112110C8562F57BFDD32201A6FF4D3EA01208ED00C83F55D4DB8655104A3BBF054030808A93516E1B6EF10580D90298EFD1003ECEC8887F3182D2CD1704E65C0FC695C5F31C5F3EE72B09CC0CC02C019819A9866CB08CCF8F39C1FDC05E8DF5FEB308809B00C21800C8
310
E3CA0701980F67835846827B009CF8F37E73F74A02A5029CF6017BB9C03CC3E300CCD540C87BAC54FD1253C4C650387C669EF3F0FB050092FED98719C90EFF5801C05BBC130088EAE7E177F2C2E64F85E88DFC69FABA3BC94D00564564F253AF9785C252B5A8AB1ED01CADA9D82CB356BCCCDB8E030804C002002B7A01E096
310
B23891522974AFA5AC15FAE5AF86A180750DF0DDC4909B00F4F8801D02609315BD4684F6939AFD4DEC752F00AAB748DBE51A80B2C93FE304F71038D9561340FFFA6A001BEEB1AA0162BAE635E0800F98F7375CAFBD1550270009C2445F9E28F68BF31DB2D06F48496CDE3FC3695501732E5A231015180F00A4D8F76A27D806
310
C010C060025EDE6B008034E82539335601F2E14F2517E8F401FB00D64D1B33209BF6BB747C81D9117816401AFB8395925866EEE300C0DAFC192330AD00251001D81642739F3408C0581FA02B1AA050398557AC65D0D63626E21184D0B289C0769FFB89A93EC700F048860639A211440D20D690E5609700C09DAE31E432F101
310
C4470108BD114E038CC6E7C10168A701CE1F6A210B3FD010D4CA65F05A00D2E9FDFDA9BF3F63E905010AA06A010D1132B3ED3CD1C0A30591BA0F804E27A82665BC9F330562045A1313D05213E072046822103E5828E07505913E00F1BBB4FD42A5D646415500D8FAB976EF05299A7224AC02C07ACF507B1C701280EB165825
310
53A997C0FE443401E70202804C647DC411E600B0C4340E807CAD56B140F98BAE54DE1278632016E08FE9890793E5FFFDFD09963D66BEC02CFB5ED661B87A016E8053103CDA822600265431686E2E131823CB0060B507678C0F20A7CA5BC42070BE1100C4336E74F0EF22A0A7556A515E0FA01591FEF9020D9160E040D2A304
310
805F196D32A689DAC0914211E99E9BB1E62ACB82C86500EA6735A16C025AD40C06E06896182BD415004103E07A0DA85C2B0A20B345AB15DCD65697B9360C570C2998E1B23142D01409D64CD688376539EE943FF10BA0A8027456CB2500AF4A863217E84514184F85FF3AE3040B02C218A157A7C3986442DCB90AB1841C4B47
310
18C3E18BFA905E5F130C15390C00B0A20140E76FAF7E8001803701209C2AE669A70C005B0EBEAA1771980FD0DB1B0A05FC893980543DA100DE4903A0A601C6A6950880951F6CB3ACB8FB7C271F209B80114405B346316EA300DCA1884CA7DED409C64E4F8C8E3D2B3C4DF9D11ED42813785DC748B86EC9049206908868AAE4
310
732145E8098577CB26BB6385BBFB05FCB85521F6B2971F4BAD2F007813D0472B428F00A02BFECAE5F8152728F5F2814A61D15BF980DA996626B003201C7A3A17B8C107E88D8A1D3402880D466F3ABC67026C9418101985E97CD7F40D5AB17C91ABD5040669C0CE28B1A10000B67201A20199095CEC031A4789C900A017801D
310
1CA4845EDFA9A8E8211FA774A90FBCA963C4EA3431ECED99D3B609304A902EFDB6FC470835CC193A5E16D7FBE363516145F3A6323132AC42F2D4920DA2AE5516A5C1DFBB71C061005A370C904067DB9B0068CB6FEDA515C05E5B9E79D83B00142B58C996E064B7A0FC5962BB5A036065D1D3BCE47271CF503B80BCC7CB7806
310
D3610418AF3B19D07144033600F0E9F13739C150E5320364E897D8FAB7423F8AC1FD9A390AB9605779766E029571343D93A6CAA939420C60474A190474B886520680F3F20E003DC406D0D8A6016C4D1A69BC30E63E80CDEB236B66F402881305E68A1D19D956E18827B41A106B1FAE3B806B49130284431A30AC6364DED07F
310
FFDB668C0091C8751728121D38F9156669149E0700451FE4E5C9D05CCD03431E6CC5B302C64BC27ACD272F7F3EA6416D23909B4171D870EBE4E9BE7AC02C5F7DE525C2287F7C5E3562726A61F778FD2FA71E9B6FC0EB003415448ED7038A09534EA54335C8696A90DB3F00DBE3FE13A6DEA13BF49A56604C41249F34E70C5A
310
01C9A842690CA8260415890FC612FEA4710DC179940389E900313E4E1ACB4911837C006F4F9DF02AADC7A5BC09A8861358ADE20F6BB6549B12C001486B75D138A0AAEDFD3E009365FB8B5C8EB6C4DCBD21B045ABA2B64B00BC41117BA90090E383F833DC0788ABC87402609EAD98B1105A01D5A0721500BEF148C6F3281FB0
310
A7D658E85B1973C57D35001142610245E05E29340CF401324429D22C5434DF075B0040F8298452D62A00960B40889EF1021FC0CF0E451FC0BF5E74CF5D00BAEA01B549052300280A800E8570A3E5D2D9F501389A0DB21972500E97A7C1D8000D60F861E215D8F5E9AF430342DBBF1F098EF001D33C85CD8E475A9F7D6CEF37
310
9C26360430EEC7F4384D2B0B7B9801403E9C6FF48D0E00B419F43E80BB273C6D0273A901180303B5A701CA6A40DE3574A90F48424933464E039825002E08F249CDB609A8BF09F39C78900FC8D6F46C01007D1A90BE366980D789C945374C03FCAED65AB010096E3583971745250020B528BC0D021980F501E03A8837579E6C
310
0500D704427B00C83697D56E1EFC9B5120E86BC4AE4723247ABE1924E5131A6267E9D0D9A22854678D756980CFF1FD9A15BC842302705758E71A403AC9E5CC215695C4A48A4C0440CC123E09005C0540A5CACF9CAD589D08F061902A4FA1D999AAAC8B3C2D7CA9A0282EF3981B2A9633D207CCE487E604B7001007BE00B3F1
310
242BE91751955BA1044B1300C03E80413E608ED58C541667B3FF421F7918F8C6D6EF20B2B2017258484FC49B1FE50366B1A34CA511E0B11F40816402B44E9C7AC6A01C4E207547895D634D45517959DDEB00A4C290F640BC2BD7DE65BA0268A871D845765C59340DABAC4603DD0086748CCCF59E423F679455C9759C160271
310
4581150B907E136B165BDD012D00E035C9D0360023914EA140DB0AFB886A6FD2D0153EE0C0F880130056041A9566F3E0CABC9BEF4D03259B34405C298094C92F1820710A0068656703C69F4BB32B5398E8E70E87B868B753781B00D60748ECDD6C6D08000866EF82591DDA4C304B6878303A268D4DA302E6BE74F8061F1009
310
C431224E1D20AD1C6383488D52717F840F60992F40B69658368BF13080790B407CE94128A3015EEF75D3656CF5012D2650594A0B3A3A471B340034144ED09A00163E10CE03C076008082065CBD965858522C2D21149F75BE138F033854121BD033B43F4C2A1BEFA9A5DD0787C376FA80410B2A1E0340FF992E0070AC244684
310
3A900C7D2C002856951D024056760D04C0D101E1DDCDE02D3E60288023DB5D3EC08BA7EF07D05B0F38EB03B48E8FFC698A6FE97700007D00FC625805004DDF7A15800145D1260D88730AD374481720BE16C0A01B2CF49B00BCD604FA95E61C8001DB0FC00FC02700383125F04334E06300F46E668649E7760B00FC5A1FF029
310
F71EFF01F801F801F801787300CB82576E4BDA369735780E005C119C3C0B22F442BE28EC126F52F92400EBA9A6BB07D6026C722F232FF4FA1F13BA5A0BD1FCC82702D09B00A495FC96EDC5488A550CA8813C1480393114D5BB5C8E54132ED05C0D73DFF6480D88EEB066D31D5F4A0A7681D2434DA074E1A257AF797C797F09
310
803BC8476A40E9B3E8492FD451109B61FB21ED8F355AFF7D8F6E0598DAEBCA4AAE4110844510DAED5FC8A287CCF01F1D08659A5C5B45C8EF77C79263E8FEB8846B4DFA1C003C440388C68BBE1D9917378FBAB23F3FBEB322749B0F088D5E76E6482EA6FB5F2FF2FEF2FFF702903480B9C1F2EAEA8DABCEF73F1D8033DD30DD
310
C6FA31DA9EAD0FBA9ADA48BBED473633ACC76940B87B94BF89127F5AC2AD959AA22273DCDE91CF04A06B00D8BDA57663C31518C623DFC504B8362FC22BF4C2847C7009B921A40E79DF2A90DB9EBC8D136411EA820B7F455FB27430BFC9710900E8714F368125F800084A1FDA311BD2423481CAAD9DF51600BD0DE019A1B068
310
FCE0627A7B0D330050BD674709005201E1B1B980DC0A2C91CEA2B74F8F264D0C4071D48393A1A530FE94044170ED7B148CD16C4AB26C14446EDF968D57B8B456845B0E12017CDDF603F003E000EC4EDEFFD837B240E81B75E007E01F7EF7F6DFFFC74965CB58BC5AB50000000049454E44AE426082
  0
ENDSEC
  0
EOF
