  0
SECTION
  2
HEADER
  9
$ACADVER
  1
AC1027
  9
$ACADMAINTVER
 70
    57
  9
$DWGCODEPAGE
  3
ANSI_932
  9
$LASTSAVEDBY
  1
kashikeiQC
  9
$REQUIREDVERSIONS
160
                 0
  9
$INSBASE
 10
0.0
 20
0.0
 30
0.0
  9
$EXTMIN
 10
5.0
 20
0.0
 30
-0.0000000000000033
  9
$EXTMAX
 10
425.0
 20
297.0
 30
0.0000000000000008
  9
$LIMMIN
 10
0.0
 20
0.0
  9
$LIMMAX
 10
420.0
 20
297.0
  9
$ORTHOMODE
 70
     0
  9
$REGENMODE
 70
     1
  9
$FILLMODE
 70
     1
  9
$QTEXTMODE
 70
     0
  9
$MIRRTEXT
 70
     1
  9
$LTSCALE
 40
0.3
  9
$ATTMODE
 70
     1
  9
$TEXTSIZE
 40
2.5
  9
$TRACEWID
 40
1.0
  9
$TEXTSTYLE
  7
Standard
  9
$CLAYER
  8
寸法
  9
$CELTYPE
  6
ByLayer
  9
$CECOLOR
 62
   256
  9
$CELTSCALE
 40
1.0
  9
$DISPSILH
 70
     0
  9
$DIMSCALE
 40
1.0
  9
$DIMASZ
 40
2.5
  9
$DIMEXO
 40
0.625
  9
$DIMDLI
 40
3.75
  9
$DIMRND
 40
0.0
  9
$DIMDLE
 40
0.0
  9
$DIMEXE
 40
1.25
  9
$DIMTP
 40
0.0
  9
$DIMTM
 40
0.0
  9
$DIMTXT
 40
3.5
  9
$DIMCEN
 40
2.5
  9
$DIMTSZ
 40
0.0
  9
$DIMTOL
 70
     0
  9
$DIMLIM
 70
     0
  9
$DIMTIH
 70
     0
  9
$DIMTOH
 70
     0
  9
$DIMSE1
 70
     0
  9
$DIMSE2
 70
     0
  9
$DIMTAD
 70
     1
  9
$DIMZIN
 70
     8
  9
$DIMBLK
  1

  9
$DIMASO
 70
     1
  9
$DIMSHO
 70
     1
  9
$DIMPOST
  1

  9
$DIMAPOST
  1

  9
$DIMALT
 70
     0
  9
$DIMALTD
 70
     3
  9
$DIMALTF
 40
0.03937007874016
  9
$DIMLFAC
 40
1.0
  9
$DIMTOFL
 70
     1
  9
$DIMTVP
 40
0.0
  9
$DIMTIX
 70
     0
  9
$DIMSOXD
 70
     0
  9
$DIMSAH
 70
     0
  9
$DIMBLK1
  1

  9
$DIMBLK2
  1

  9
$DIMSTYLE
  2
ｺﾋﾟｰ - ISO-25
  9
$DIMCLRD
 70
     0
  9
$DIMCLRE
 70
     0
  9
$DIMCLRT
 70
     2
  9
$DIMTFAC
 40
1.0
  9
$DIMGAP
 40
1.0
  9
$DIMJUST
 70
     0
  9
$DIMSD1
 70
     0
  9
$DIMSD2
 70
     0
  9
$DIMTOLJ
 70
     0
  9
$DIMTZIN
 70
     8
  9
$DIMALTZ
 70
     0
  9
$DIMALTTZ
 70
     0
  9
$DIMUPT
 70
     0
  9
$DIMDEC
 70
     1
  9
$DIMTDEC
 70
     1
  9
$DIMALTU
 70
     2
  9
$DIMALTTD
 70
     3
  9
$DIMTXSTY
  7
寸法
  9
$DIMAUNIT
 70
     0
  9
$DIMADEC
 70
     0
  9
$DIMALTRND
 40
0.0
  9
$DIMAZIN
 70
     0
  9
$DIMDSEP
 70
    46
  9
$DIMATFIT
 70
     3
  9
$DIMFRAC
 70
     0
  9
$DIMLDRBLK
  1

  9
$DIMLUNIT
 70
     2
  9
$DIMLWD
 70
    -2
  9
$DIMLWE
 70
    -2
  9
$DIMTMOVE
 70
     0
  9
$DIMFXL
 40
1.0
  9
$DIMFXLON
 70
     0
  9
$DIMJOGANG
 40
0.7853981633974483
  9
$DIMTFILL
 70
     0
  9
$DIMTFILLCLR
 70
     0
  9
$DIMARCSYM
 70
     0
  9
$DIMLTYPE
  6

  9
$DIMLTEX1
  6

  9
$DIMLTEX2
  6

  9
$DIMTXTDIRECTION
 70
     0
  9
$LUNITS
 70
     2
  9
$LUPREC
 70
     4
  9
$SKETCHINC
 40
1.0
  9
$FILLETRAD
 40
1.0
  9
$AUNITS
 70
     0
  9
$AUPREC
 70
     0
  9
$MENU
  1
.
  9
$ELEVATION
 40
0.0
  9
$PELEVATION
 40
0.0
  9
$THICKNESS
 40
0.0
  9
$LIMCHECK
 70
     0
  9
$CHAMFERA
 40
0.0
  9
$CHAMFERB
 40
0.0
  9
$CHAMFERC
 40
20.0
  9
$CHAMFERD
 40
0.0
  9
$SKPOLY
 70
     0
  9
$TDCREATE
 40
2452970.700528056
  9
$TDUCREATE
 40
2452970.325528056
  9
$TDUPDATE
 40
2458814.716360613
  9
$TDUUPDATE
 40
2458814.341360613
  9
$TDINDWG
 40
1.9737808565
  9
$TDUSRTIMER
 40
1.9737799190
  9
$USRTIMER
 70
     1
  9
$ANGBASE
 50
0.0
  9
$ANGDIR
 70
     0
  9
$PDMODE
 70
     3
  9
$PDSIZE
 40
-3.0
  9
$PLINEWID
 40
0.0
  9
$SPLFRAME
 70
     0
  9
$SPLINETYPE
 70
     6
  9
$SPLINESEGS
 70
     8
  9
$HANDSEED
  5
2CDD7
  9
$SURFTAB1
 70
     6
  9
$SURFTAB2
 70
     6
  9
$SURFTYPE
 70
     6
  9
$SURFU
 70
     6
  9
$SURFV
 70
     6
  9
$UCSBASE
  2

  9
$UCSNAME
  2

  9
$UCSORG
 10
0.0
 20
0.0
 30
0.0
  9
$UCSXDIR
 10
1.0
 20
0.0
 30
0.0
  9
$UCSYDIR
 10
0.0
 20
1.0
 30
0.0
  9
$UCSORTHOREF
  2

  9
$UCSORTHOVIEW
 70
     0
  9
$UCSORGTOP
 10
0.0
 20
0.0
 30
0.0
  9
$UCSORGBOTTOM
 10
0.0
 20
0.0
 30
0.0
  9
$UCSORGLEFT
 10
0.0
 20
0.0
 30
0.0
  9
$UCSORGRIGHT
 10
0.0
 20
0.0
 30
0.0
  9
$UCSORGFRONT
 10
0.0
 20
0.0
 30
0.0
  9
$UCSORGBACK
 10
0.0
 20
0.0
 30
0.0
  9
$PUCSBASE
  2

  9
$PUCSNAME
  2

  9
$PUCSORG
 10
0.0
 20
0.0
 30
0.0
  9
$PUCSXDIR
 10
1.0
 20
0.0
 30
0.0
  9
$PUCSYDIR
 10
0.0
 20
1.0
 30
0.0
  9
$PUCSORTHOREF
  2

  9
$PUCSORTHOVIEW
 70
     0
  9
$PUCSORGTOP
 10
0.0
 20
0.0
 30
0.0
  9
$PUCSORGBOTTOM
 10
0.0
 20
0.0
 30
0.0
  9
$PUCSORGLEFT
 10
0.0
 20
0.0
 30
0.0
  9
$PUCSORGRIGHT
 10
0.0
 20
0.0
 30
0.0
  9
$PUCSORGFRONT
 10
0.0
 20
0.0
 30
0.0
  9
$PUCSORGBACK
 10
0.0
 20
0.0
 30
0.0
  9
$USERI1
 70
     0
  9
$USERI2
 70
     0
  9
$USERI3
 70
     0
  9
$USERI4
 70
     0
  9
$USERI5
 70
     0
  9
$USERR1
 40
0.0
  9
$USERR2
 40
0.0
  9
$USERR3
 40
0.0
  9
$USERR4
 40
0.0
  9
$USERR5
 40
0.0
  9
$WORLDVIEW
 70
     1
  9
$SHADEDGE
 70
     3
  9
$SHADEDIF
 70
    70
  9
$TILEMODE
 70
     1
  9
$MAXACTVP
 70
    64
  9
$PINSBASE
 10
0.0
 20
0.0
 30
0.0
  9
$PLIMCHECK
 70
     0
  9
$PEXTMIN
 10
-58.82240024691737
 20
-86.72323328256494
 30
0.0
  9
$PEXTMAX
 10
448.1718497119468
 20
324.5569721112054
 30
0.0
  9
$PLIMMIN
 10
-3.757080078125
 20
-3.757083415985107
  9
$PLIMMAX
 10
416.2601318359374
 20
293.2112393379211
  9
$UNITMODE
 70
     0
  9
$VISRETAIN
 70
     1
  9
$PLINEGEN
 70
     0
  9
$PSLTSCALE
 70
     1
  9
$TREEDEPTH
 70
  3020
  9
$CMLSTYLE
  2
Standard
  9
$CMLJUST
 70
     0
  9
$CMLSCALE
 40
20.0
  9
$PROXYGRAPHICS
 70
     1
  9
$MEASUREMENT
 70
     1
  9
$CELWEIGHT
370
    -1
  9
$ENDCAPS
280
     0
  9
$JOINSTYLE
280
     0
  9
$LWDISPLAY
290
     0
  9
$INSUNITS
 70
     4
  9
$HYPERLINKBASE
  1

  9
$STYLESHEET
  1
monochrome.ctb
  9
$XEDIT
290
     1
  9
$CEPSNTYPE
380
     0
  9
$PSTYLEMODE
290
     1
  9
$FINGERPRINTGUID
  2
{FDEAD578-A652-11D2-9A35-0060089B3A3F}
  9
$VERSIONGUID
  2
{18B1F63D-6910-4559-8310-460CEC7EC2A9}
  9
$EXTNAMES
290
     1
  9
$PSVPSCALE
 40
0.0
  9
$OLESTARTUP
290
     0
  9
$SORTENTS
280
   127
  9
$INDEXCTL
280
     0
  9
$HIDETEXT
280
     1
  9
$XCLIPFRAME
280
     0
  9
$HALOGAP
280
     0
  9
$OBSCOLOR
 70
   257
  9
$OBSLTYPE
280
     0
  9
$INTERSECTIONDISPLAY
280
     0
  9
$INTERSECTIONCOLOR
 70
   257
  9
$DIMASSOC
280
     2
  9
$PROJECTNAME
  1

  9
$CAMERADISPLAY
290
     0
  9
$LENSLENGTH
 40
50.0
  9
$CAMERAHEIGHT
 40
0.0
  9
$STEPSPERSEC
 40
2.0
  9
$STEPSIZE
 40
6.0
  9
$3DDWFPREC
 40
2.0
  9
$PSOLWIDTH
 40
0.25
  9
$PSOLHEIGHT
 40
4.0
  9
$LOFTANG1
 40
1.570796326794896
  9
$LOFTANG2
 40
1.570796326794896
  9
$LOFTMAG1
 40
0.0
  9
$LOFTMAG2
 40
0.0
  9
$LOFTPARAM
 70
     7
  9
$LOFTNORMALS
280
     1
  9
$LATITUDE
 40
37.795
  9
$LONGITUDE
 40
-122.394
  9
$NORTHDIRECTION
 40
0.0
  9
$TIMEZONE
 70
 -8000
  9
$LIGHTGLYPHDISPLAY
280
     1
  9
$TILEMODELIGHTSYNCH
280
     1
  9
$CMATERIAL
347
2762
  9
$SOLIDHIST
280
     1
  9
$SHOWHIST
280
     1
  9
$DWFFRAME
280
     2
  9
$DGNFRAME
280
     0
  9
$REALWORLDSCALE
290
     1
  9
$INTERFERECOLOR
 62
     1
  9
$INTERFEREOBJVS
345
276F
  9
$INTERFEREVPVS
346
276C
  9
$CSHADOW
280
     0
  9
$SHADOWPLANELOCATION
 40
0.0
  0
ENDSEC
  0
SECTION
  2
CLASSES
  0
CLASS
  1
ACDBDICTIONARYWDFLT
  2
AcDbDictionaryWithDefault
  3
ObjectDBX Classes
 90
        0
 91
        1
280
     0
281
     0
  0
CLASS
  1
DICTIONARYVAR
  2
AcDbDictionaryVar
  3
ObjectDBX Classes
 90
        0
 91
       14
280
     0
281
     0
  0
CLASS
  1
DIMASSOC
  2
AcDbDimAssoc
  3
"AcDbDimAssoc|Product Desc:     AcDim ARX App For Dimension|Company:          Autodesk, Inc.|WEB Address:      www.autodesk.com"
 90
        0
 91
        4
280
     0
281
     0
  0
CLASS
  1
PLOTSETTINGS
  2
AcDbPlotSettings
  3
ObjectDBX Classes
 90
        0
 91
        2
280
     0
281
     0
  0
CLASS
  1
MATERIAL
  2
AcDbMaterial
  3
ObjectDBX Classes
 90
     1153
 91
        3
280
     0
281
     0
  0
CLASS
  1
VISUALSTYLE
  2
AcDbVisualStyle
  3
ObjectDBX Classes
 90
     4095
 91
       26
280
     0
281
     0
  0
CLASS
  1
TABLESTYLE
  2
AcDbTableStyle
  3
ObjectDBX Classes
 90
     4095
 91
        2
280
     0
281
     0
  0
CLASS
  1
SORTENTSTABLE
  2
AcDbSortentsTable
  3
ObjectDBX Classes
 90
        0
 91
        2
280
     0
281
     0
  0
CLASS
  1
ACAD_EVALUATION_GRAPH
  2
AcDbEvalGraph
  3
ObjectDBX Classes
 90
     1153
 91
        0
280
     0
281
     0
  0
CLASS
  1
ACAECUSTOBJ
  2
AcAeEditorObj
  3
AcAeEditorObj
 90
     1024
 91
        0
280
     0
281
     0
  0
CLASS
  1
ACDB_DYNAMICBLOCKPURGEPREVENTER_VERSION
  2
AcDbDynamicBlockPurgePreventer
  3
ObjectDBX Classes
 90
     1153
 91
        0
280
     0
281
     0
  0
CLASS
  1
ACAD_TABLE
  2
AcDbTable
  3
ObjectDBX Classes
 90
     1025
 91
        0
280
     0
281
     1
  0
CLASS
  1
SCALE
  2
AcDbScale
  3
ObjectDBX Classes
 90
     1153
 91
       17
280
     0
281
     0
  0
CLASS
  1
MLEADERSTYLE
  2
AcDbMLeaderStyle
  3
ACDB_MLEADERSTYLE_CLASS
 90
     4095
 91
        1
280
     0
281
     0
  0
CLASS
  1
TABLECONTENT
  2
AcDbTableContent
  3
ObjectDBX Classes
 90
     1152
 91
        0
280
     0
281
     0
  0
CLASS
  1
TABLEGEOMETRY
  2
AcDbTableGeometry
  3
ObjectDBX Classes
 90
     1152
 91
        0
280
     0
281
     0
  0
CLASS
  1
ACDBSECTIONVIEWSTYLE
  2
AcDbSectionViewStyle
  3
ObjectDBX Classes
 90
     1025
 91
        1
280
     0
281
     0
  0
CLASS
  1
ACDBDETAILVIEWSTYLE
  2
AcDbDetailViewStyle
  3
ObjectDBX Classes
 90
     1025
 91
        1
280
     0
281
     0
  0
CLASS
  1
CELLSTYLEMAP
  2
AcDbCellStyleMap
  3
ObjectDBX Classes
 90
     1152
 91
        2
280
     0
281
     0
  0
ENDSEC
  0
SECTION
  2
TABLES
  0
TABLE
  2
VPORT
  5
8
330
0
100
AcDbSymbolTable
 70
     1
  0
VPORT
  5
275F
330
8
100
AcDbSymbolTableRecord
100
AcDbViewportTableRecord
  2
*Active
 70
     0
 10
0.0
 20
0.0
 11
1.0
 21
1.0
 12
375.154658832921
 22
70.2114558162965
 13
0.0
 23
0.0
 14
10.0
 24
10.0
 15
10.0
 25
10.0
 16
0.0
 26
0.0
 36
1.0
 17
0.0
 27
0.0
 37
0.0
 40
417.5844738339021
 41
2.367088607594936
 42
50.0
 43
0.0
 44
0.0
 50
0.0
 51
0.0
 71
     0
 72
   100
 73
     1
 74
     3
 75
     0
 76
     0
 77
     0
 78
     0
281
     0
 65
     1
110
0.0
120
0.0
130
0.0
111
1.0
121
0.0
131
0.0
112
0.0
122
1.0
132
0.0
 79
     0
146
0.0
348
276B
 60
     3
 61
     5
292
     1
282
     1
141
0.0
142
0.0
 63
   250
421
  3355443
1001
ACAD_NAV_VCDISPLAY
1070
     3
  0
ENDTAB
  0
TABLE
  2
LTYPE
  5
5
330
0
100
AcDbSymbolTable
 70
     4
  0
LTYPE
  5
14
330
5
100
AcDbSymbolTableRecord
100
AcDbLinetypeTableRecord
  2
ByBlock
 70
     0
  3

 72
    65
 73
     0
 40
0.0
  0
LTYPE
  5
15
330
5
100
AcDbSymbolTableRecord
100
AcDbLinetypeTableRecord
  2
ByLayer
 70
     0
  3

 72
    65
 73
     0
 40
0.0
  0
LTYPE
  5
16
330
5
100
AcDbSymbolTableRecord
100
AcDbLinetypeTableRecord
  2
Continuous
 70
     0
  3
Solid line
 72
    65
 73
     0
 40
0.0
  0
LTYPE
  5
A5
330
5
100
AcDbSymbolTableRecord
100
AcDbLinetypeTableRecord
  2
CENTER
 70
     0
  3
Center ____ _ ____ _ ____ _ ____ _ ____ _ ____
 72
    65
 73
     4
 40
50.8
 49
31.75
 74
     0
 49
-6.349999999999998
 74
     0
 49
6.349999999999998
 74
     0
 49
-6.349999999999998
 74
     0
  0
LTYPE
  5
A6
330
5
100
AcDbSymbolTableRecord
100
AcDbLinetypeTableRecord
  2
HIDDEN
 70
     0
  3
Hidden __ __ __ __ __ __ __ __ __ __ __ __ __ _
 72
    65
 73
     2
 40
9.524999999999996
 49
6.349999999999998
 74
     0
 49
-3.174999999999998
 74
     0
  0
LTYPE
  5
2365
330
5
100
AcDbSymbolTableRecord
100
AcDbLinetypeTableRecord
  2
DIVIDE
 70
     0
  3
Divide ____ . . ____ . . ____ . . ____ . . ____
 72
    65
 73
     6
 40
31.74999999999999
 49
12.7
 74
     0
 49
-6.349999999999998
 74
     0
 49
0.0
 74
     0
 49
-6.349999999999998
 74
     0
 49
0.0
 74
     0
 49
-6.349999999999998
 74
     0
  0
ENDTAB
  0
TABLE
  2
LAYER
  5
2
102
{ACAD_XDICTIONARY
360
279F
102
}
330
0
100
AcDbSymbolTable
 70
    11
  0
LAYER
  5
10
102
{ACAD_XDICTIONARY
360
24E13
102
}
330
2
100
AcDbSymbolTableRecord
100
AcDbLayerTableRecord
  2
0
 70
     0
 62
     7
  6
Continuous
370
    -3
390
F
347
2764
348
0
  0
LAYER
  5
A7
102
{ACAD_XDICTIONARY
360
24E15
102
}
330
2
100
AcDbSymbolTableRecord
100
AcDbLayerTableRecord
  2
破線
 70
     0
 62
     4
  6
HIDDEN
370
    20
390
F
347
2764
348
0
  0
LAYER
  5
A8
102
{ACAD_XDICTIONARY
360
24E17
102
}
330
2
100
AcDbSymbolTableRecord
100
AcDbLayerTableRecord
  2
一点鎖線
 70
     0
 62
     5
  6
CENTER
370
    15
390
F
347
2764
348
0
  0
LAYER
  5
A9
102
{ACAD_XDICTIONARY
360
24E19
102
}
330
2
100
AcDbSymbolTableRecord
100
AcDbLayerTableRecord
  2
補助線
 70
     0
 62
     8
  6
Continuous
290
     0
370
    -3
390
F
347
2764
348
0
  0
LAYER
  5
AA
102
{ACAD_XDICTIONARY
360
24E1B
102
}
330
2
100
AcDbSymbolTableRecord
100
AcDbLayerTableRecord
  2
実線
 70
     0
 62
     7
  6
Continuous
370
    -3
390
F
347
2764
348
0
  0
LAYER
  5
AB
102
{ACAD_XDICTIONARY
360
24E1D
102
}
330
2
100
AcDbSymbolTableRecord
100
AcDbLayerTableRecord
  2
寸法
 70
     0
 62
     3
  6
Continuous
370
    15
390
F
347
2764
348
0
  0
LAYER
  5
AC
102
{ACAD_XDICTIONARY
360
24E1F
102
}
330
2
100
AcDbSymbolTableRecord
100
AcDbLayerTableRecord
  2
文字
 70
     0
 62
     2
  6
Continuous
370
    15
390
F
347
2764
348
0
  0
LAYER
  5
185
330
2
100
AcDbSymbolTableRecord
100
AcDbLayerTableRecord
  2
Defpoints
 70
     0
 62
     7
  6
Continuous
290
     0
370
    -3
390
F
347
2764
348
0
  0
LAYER
  5
58C
102
{ACAD_XDICTIONARY
360
24E21
102
}
330
2
100
AcDbSymbolTableRecord
100
AcDbLayerTableRecord
  2
細線
 70
     0
 62
     6
  6
Continuous
370
     9
390
F
347
2764
348
0
  0
LAYER
  5
1023
102
{ACAD_XDICTIONARY
360
24E23
102
}
330
2
100
AcDbSymbolTableRecord
100
AcDbLayerTableRecord
  2
太線
 70
     0
 62
     3
  6
Continuous
370
    40
390
F
347
2764
348
0
  0
LAYER
  5
2366
102
{ACAD_XDICTIONARY
360
24E25
102
}
330
2
100
AcDbSymbolTableRecord
100
AcDbLayerTableRecord
  2
二点鎖線
 70
     0
 62
     1
  6
DIVIDE
370
    20
390
F
347
2764
348
0
  0
ENDTAB
  0
TABLE
  2
STYLE
  5
3
330
0
100
AcDbSymbolTable
 70
    18
  0
STYLE
  5
11
330
3
100
AcDbSymbolTableRecord
100
AcDbTextStyleTableRecord
  2
Standard
 70
     0
 40
2.5
 41
0.8
 50
0.0
 71
     0
 42
2.5
  3
romans.shx
  4
bigfont.shx
  0
STYLE
  5
A4
330
3
100
AcDbSymbolTableRecord
100
AcDbTextStyleTableRecord
  2

 70
     1
 40
0.0
 41
1.0
 50
0.0
 71
     0
 42
2.5
  3
ltypeshp.shx
  4

  0
STYLE
  5
2A5
330
3
100
AcDbSymbolTableRecord
100
AcDbTextStyleTableRecord
  2
寸法
 70
     0
 40
0.0
 41
0.75
 50
0.0
 71
     0
 42
2.5
  3
romans.shx
  4
bigfont.shx
  0
STYLE
  5
109D
330
3
100
AcDbSymbolTableRecord
100
AcDbTextStyleTableRecord
  2
縦書き
 70
     4
 40
3.0
 41
0.8
 50
0.0
 71
     0
 42
3.0
  3
romans.shx
  4
bigfont.shx
  0
STYLE
  5
10EC
330
3
100
AcDbSymbolTableRecord
100
AcDbTextStyleTableRecord
  2
ｽﾀｲﾙ1
 70
     0
 40
3.0
 41
0.8
 50
0.0
 71
     0
 42
3.0
  3
romans.shx
  4
bigfont.shx
  0
STYLE
  5
114D
330
3
100
AcDbSymbolTableRecord
100
AcDbTextStyleTableRecord
  2
ｽﾀｲﾙ2
 70
     0
 40
9.0
 41
1.0
 50
0.0
 71
     0
 42
9.0
  3
swisscbo.ttf
  4

1001
ACAD
1000
Swis721 BdCnOul BT
1071
       82
  0
STYLE
  5
2367
330
3
100
AcDbSymbolTableRecord
100
AcDbTextStyleTableRecord
  2
ｽﾀｲﾙ3
 70
     0
 40
2.0
 41
1.0
 50
0.0
 71
     0
 42
2.0
  3
isocp.shx
  4
bigfont.shx
  0
STYLE
  5
2368
330
3
100
AcDbSymbolTableRecord
100
AcDbTextStyleTableRecord
  2
ｽﾀｲﾙ4
 70
     0
 40
4.5
 41
1.0
 50
0.0
 71
     0
 42
4.5
  3
swisscbo.ttf
  4

1001
ACAD
1000
Swis721 BdCnOul BT
1071
       82
  0
STYLE
  5
3AB5
330
3
100
AcDbSymbolTableRecord
100
AcDbTextStyleTableRecord
  2
スタイル1
 70
     0
 40
3.0
 41
0.8
 50
0.0
 71
     0
 42
3.0
  3
romans.shx
  4
bigfont.shx
  0
STYLE
  5
3E4F
330
3
100
AcDbSymbolTableRecord
100
AcDbTextStyleTableRecord
  2
hhhhhhhhhhhhhhhhhh
 70
     0
 40
1.5
 41
0.8
 50
0.0
 71
     0
 42
1.0
  3
bold.shx
  4
bigfont.shx
  0
STYLE
  5
3E50
330
3
100
AcDbSymbolTableRecord
100
AcDbTextStyleTableRecord
  2
書き込み
 70
     0
 40
2.5
 41
0.75
 50
0.0
 71
     0
 42
1.0
  3
romand.shx
  4
bigfont.shx
  0
STYLE
  5
24822
330
3
100
AcDbSymbolTableRecord
100
AcDbTextStyleTableRecord
  2
ﾛｺﾞ
 70
     0
 40
14.0
 41
0.7
 50
0.0
 71
     0
 42
2.5
  3
swisscbo.ttf
  4

1001
ACAD
1000
Swis721 BdCnOul BT
1071
       82
  0
STYLE
  5
264FC
330
3
100
AcDbSymbolTableRecord
100
AcDbTextStyleTableRecord
  2
寸法２
 70
     0
 40
1.8
 41
0.8
 50
0.0
 71
     0
 42
1.8
  3
romans.shx
  4
bigfont.shx
  0
STYLE
  5
264FD
330
3
100
AcDbSymbolTableRecord
100
AcDbTextStyleTableRecord
  2
カシケイ
 70
     0
 40
3.0
 41
0.8
 50
0.0
 71
     0
 42
2.5
  3
swisscbo.ttf
  4

1001
ACAD
1000
Swis721 BdCnOul BT
1071
       82
  0
STYLE
  5
29418
330
3
100
AcDbSymbolTableRecord
100
AcDbTextStyleTableRecord
  2
スタイル6
 70
     0
 40
3.0
 41
1.0
 50
0.0
 71
     0
 42
3.0
  3
swissc.ttf
  4

1001
ACAD
1000
Swis721 Cn BT
1071
       34
  0
STYLE
  5
29419
330
3
100
AcDbSymbolTableRecord
100
AcDbTextStyleTableRecord
  2
スタイル3
 70
     0
 40
9.0
 41
1.0
 50
0.0
 71
     0
 42
2.5
  3
swisscbo.ttf
  4

1001
ACAD
1000
Swis721 BdCnOul BT
1071
       82
  0
STYLE
  5
2A7F0
330
3
100
AcDbSymbolTableRecord
100
AcDbTextStyleTableRecord
  2
BIGFONT
 70
     0
 40
0.0
 41
1.0
 50
0.0
 71
     0
 42
20.0
  3
txt.shx
  4
bigfont
  0
STYLE
  5
2BFC5
330
3
100
AcDbSymbolTableRecord
100
AcDbTextStyleTableRecord
  2
スタイル2
 70
     0
 40
10.0
 41
1.0
 50
0.0
 71
     0
 42
3.0
  3
swisscbo.ttf
  4

1001
ACAD
1000
Swis721 BdCnOul BT
1071
       82
  0
ENDTAB
  0
TABLE
  2
VIEW
  5
6
330
0
100
AcDbSymbolTable
 70
     0
  0
ENDTAB
  0
TABLE
  2
UCS
  5
7
330
0
100
AcDbSymbolTable
 70
     0
  0
ENDTAB
  0
TABLE
  2
APPID
  5
9
330
0
100
AcDbSymbolTable
 70
    12
  0
APPID
  5
12
330
9
100
AcDbSymbolTableRecord
100
AcDbRegAppTableRecord
  2
ACAD
 70
     0
  0
APPID
  5
2789
330
9
100
AcDbSymbolTableRecord
100
AcDbRegAppTableRecord
  2
ACAD_PSEXT
 70
     0
  0
APPID
  5
28B6
330
9
100
AcDbSymbolTableRecord
100
AcDbRegAppTableRecord
  2
ACAD_EXEMPT_FROM_CAD_STANDARDS
 70
     0
  0
APPID
  5
2977
330
9
100
AcDbSymbolTableRecord
100
AcDbRegAppTableRecord
  2
ACAUTHENVIRON
 70
     0
  0
APPID
  5
29B0
330
9
100
AcDbSymbolTableRecord
100
AcDbRegAppTableRecord
  2
AcDbDynamicBlockTrueName
 70
     0
  0
APPID
  5
29B1
330
9
100
AcDbSymbolTableRecord
100
AcDbRegAppTableRecord
  2
AcDbDynamicBlockGUID
 70
     0
  0
APPID
  5
29B3
330
9
100
AcDbSymbolTableRecord
100
AcDbRegAppTableRecord
  2
AcDbBlockRepETag
 70
     0
  0
APPID
  5
24823
330
9
100
AcDbSymbolTableRecord
100
AcDbRegAppTableRecord
  2
ACAD_DSTYLE_DIMJAG
 70
     0
  0
APPID
  5
24824
330
9
100
AcDbSymbolTableRecord
100
AcDbRegAppTableRecord
  2
ACAD_DSTYLE_DIMTALN
 70
     0
  0
APPID
  5
2867E
330
9
100
AcDbSymbolTableRecord
100
AcDbRegAppTableRecord
  2
ACAD_DSTYLE_DIMRADIAL_EXTENSION
 70
     0
  0
APPID
  5
2A28D
330
9
100
AcDbSymbolTableRecord
100
AcDbRegAppTableRecord
  2
AcadAnnoPO
 70
     0
  0
APPID
  5
2CDCD
330
9
100
AcDbSymbolTableRecord
100
AcDbRegAppTableRecord
  2
ACAD_NAV_VCDISPLAY
 70
     0
  0
ENDTAB
  0
TABLE
  2
DIMSTYLE
  5
A
330
0
100
AcDbSymbolTable
 70
     2
100
AcDbDimStyleTable
 71
     2
340
FF
340
27
  0
DIMSTYLE
105
27
330
A
100
AcDbSymbolTableRecord
100
AcDbDimStyleTableRecord
  2
ISO-25
 70
     0
 41
2.5
 42
0.625
 43
3.75
 44
1.25
 73
     0
 74
     0
 77
     1
 78
     8
140
2.5
141
2.5
143
0.03937007874016
147
0.625
171
     3
172
     1
271
     2
272
     2
274
     3
278
    44
283
     0
284
     8
340
11
  0
DIMSTYLE
105
FF
102
{ACAD_REACTORS
330
2CBB0
330
2CBDA
330
2CBF2
330
2CC39
102
}
330
A
100
AcDbSymbolTableRecord
100
AcDbDimStyleTableRecord
  2
ｺﾋﾟｰ - ISO-25
 70
     0
 41
2.5
 42
0.625
 43
3.75
 44
1.25
 73
     0
 74
     0
 77
     1
 78
     8
140
3.5
141
2.5
143
0.03937007874016
147
1.0
171
     3
172
     1
178
     2
271
     1
272
     1
274
     3
283
     0
284
     8
340
2A5
1001
ACAD_DSTYLE_DIMJAG
1070
   388
1040
1.5
1001
ACAD_DSTYLE_DIMTALN
1070
   392
1070
     0
  0
ENDTAB
  0
TABLE
  2
BLOCK_RECORD
  5
1
330
0
100
AcDbSymbolTable
 70
    12
  0
BLOCK_RECORD
  5
1F
102
{ACAD_XDICTIONARY
360
2D98
102
}
330
1
100
AcDbSymbolTableRecord
100
AcDbBlockTableRecord
  2
*Model_Space
340
22
 70
     0
280
     1
281
     0
  0
BLOCK_RECORD
  5
50
330
1
100
AcDbSymbolTableRecord
100
AcDbBlockTableRecord
  2
*Paper_Space
340
51
 70
     0
280
     1
281
     0
  0
BLOCK_RECORD
  5
55
330
1
100
AcDbSymbolTableRecord
100
AcDbBlockTableRecord
  2
*Paper_Space0
340
56
 70
     0
280
     1
281
     0
  0
BLOCK_RECORD
  5
341
102
{ACAD_XDICTIONARY
360
29CF
102
}
330
1
100
AcDbSymbolTableRecord
100
AcDbBlockTableRecord
  2
_None
340
0
 70
     0
280
     1
281
     0
1001
AcDbDynamicBlockGUID
1000
{FDCFC2F5-9095-49BF-99B6-274B4C3B84BC}
1001
AcDbBlockRepETag
1070
     1
1071
       24
  0
BLOCK_RECORD
  5
429
330
1
100
AcDbSymbolTableRecord
100
AcDbBlockTableRecord
  2
_DotSmall
340
0
 70
     0
280
     1
281
     0
  0
BLOCK_RECORD
  5
10CB
330
1
100
AcDbSymbolTableRecord
100
AcDbBlockTableRecord
  2
mark
340
0
310
2800000020000000200000000100080000000000000400000000000000000000000000000000000000000000000080000080000000808000800000008000800080800000C0C0C000C0DCC000F0CAA6000020400000206000002080000020A0000020C0000020E00000400000004020000040400000406000004080000040A0
310
000040C0000040E00000600000006020000060400000606000006080000060A0000060C0000060E00000800000008020000080400000806000008080000080A0000080C0000080E00000A0000000A0200000A0400000A0600000A0800000A0A00000A0C00000A0E00000C0000000C0200000C0400000C0600000C0800000C0
310
A00000C0C00000C0E00000E0000000E0200000E0400000E0600000E0800000E0A00000E0C00000E0E00040000000400020004000400040006000400080004000A0004000C0004000E00040200000402020004020400040206000402080004020A0004020C0004020E000404000004040200040404000404060004040800040
310
40A0004040C0004040E00040600000406020004060400040606000406080004060A0004060C0004060E00040800000408020004080400040806000408080004080A0004080C0004080E00040A0000040A0200040A0400040A0600040A0800040A0A00040A0C00040A0E00040C0000040C0200040C0400040C0600040C08000
310
40C0A00040C0C00040C0E00040E0000040E0200040E0400040E0600040E0800040E0A00040E0C00040E0E00080000000800020008000400080006000800080008000A0008000C0008000E00080200000802020008020400080206000802080008020A0008020C0008020E00080400000804020008040400080406000804080
310
008040A0008040C0008040E00080600000806020008060400080606000806080008060A0008060C0008060E00080800000808020008080400080806000808080008080A0008080C0008080E00080A0000080A0200080A0400080A0600080A0800080A0A00080A0C00080A0E00080C0000080C0200080C0400080C0600080C0
310
800080C0A00080C0C00080C0E00080E0000080E0200080E0400080E0600080E0800080E0A00080E0C00080E0E000C0000000C0002000C0004000C0006000C0008000C000A000C000C000C000E000C0200000C0202000C0204000C0206000C0208000C020A000C020C000C020E000C0400000C0402000C0404000C0406000C0
310
408000C040A000C040C000C040E000C0600000C0602000C0604000C0606000C0608000C060A000C060C000C060E000C0800000C0802000C0804000C0806000C0808000C080A000C080C000C080E000C0A00000C0A02000C0A04000C0A06000C0A08000C0A0A000C0A0C000C0A0E000C0C00000C0C02000C0C04000C0C06000
310
C0C08000C0C0A000F0FBFF00A4A0A000808080000000FF0000FF000000FFFF00FF000000FF00FF00FFFF0000FFFFFF0000000000000000000000000000000000000000000000000000000000000000000000000000000000000000000000000000000000000000000000000000000000000000000000000000000000000000
310
00000000000000000000000000000000000000000000000000000000000000000000000000000000000000000000000000000000000000000000000000000000000000000000000000000000000000000000000000000000000000000000000000000000000000000000000000000000000000000000000000000000000000
310
FF0000FF0000000000000000000000000000000000000000000000000000FFFFFF0000FFFFFF0000000000000000000000000000000000000000000000FF0000FF0000FF0000FF0000000000000000000000000000000000000000FFFF0000FF00000000FF0000FFFF0000000000000000000000000000000000FF0000FFFF
310
000000FF0000FFFF0000FF000000000000000000FFFFFFFF0000FF0000FF000000FFFF00FF000000FF0000FF0000FFFFFFFF0000FF0000FFFFFF0000FF000000FF00000000FF000000FF0000FFFFFF0000FF0000FF0000FF000000FF000000FF00FFFFFFFF00FF000000FF000000FF0000FF0000FF00000000FFFF00000000
310
FF00FF0000FF00FF00000000FFFF00000000FF0000FF000000FF000000000000FF00FF0000FF00FF000000000000FF000000FF0000FF0000FF00000000000000FF00FF0000FF00FF00000000000000FF0000FF0000FF000000FFFF0000000000FF00FF0000FF00FF0000000000FFFF000000FF0000FF0000FF0000FF000000
310
00FF00FFFFFFFF00FF00000000FF0000FF0000FF0000FF0000FFFFFF00FF00000000FFFF000000FF00000000FF00FFFFFF0000FF0000FFFFFFFF0000FF00FFFF00000000FF00FF000000FFFF00FF0000FFFFFFFF000000000000000000FF0000FF00000000FF000000FF0000FF0000000000000000000000000000000000FF
310
FF00FFFF00000000FFFF00FFFF0000000000000000000000000000000000000000FF0000FF0000FF0000FF0000000000000000000000000000000000000000000000FFFFFF0000FFFFFF0000000000000000000000000000000000000000000000000000FF0000FF0000000000000000000000000000000000000000000000
310
00000000000000000000000000000000000000000000000000000000000000000000000000000000000000000000000000000000000000000000000000000000000000000000000000000000000000000000000000000000000000000000000000000000000000000000000000000000000000000000000000000000000000
310
0000000000000000000000000000000000000000000000000000000000000000000000000000000000000000000000000000000000000000
102
{BLKREFS
331
2CA51
102
}
 70
     4
280
     1
281
     0
  0
BLOCK_RECORD
  5
2D20
330
1
100
AcDbSymbolTableRecord
100
AcDbBlockTableRecord
  2
A$C34DA08B7
340
0
 70
     4
280
     1
281
     0
  0
BLOCK_RECORD
  5
2D24
330
1
100
AcDbSymbolTableRecord
100
AcDbBlockTableRecord
  2
A$C04A47E41
340
0
 70
     4
280
     1
281
     0
  0
BLOCK_RECORD
  5
2D46
330
1
100
AcDbSymbolTableRecord
100
AcDbBlockTableRecord
  2
A$C2FFA21FC
340
0
 70
     4
280
     1
281
     0
  0
BLOCK_RECORD
  5
2CBB1
330
1
100
AcDbSymbolTableRecord
100
AcDbBlockTableRecord
  2
*D7
340
0
 70
     0
280
     1
281
     0
  0
BLOCK_RECORD
  5
2CBDB
330
1
100
AcDbSymbolTableRecord
100
AcDbBlockTableRecord
  2
*D8
340
0
 70
     0
280
     1
281
     0
  0
BLOCK_RECORD
  5
2CBF3
330
1
100
AcDbSymbolTableRecord
100
AcDbBlockTableRecord
  2
*D9
340
0
 70
     0
280
     1
281
     0
  0
BLOCK_RECORD
  5
2CC3A
330
1
100
AcDbSymbolTableRecord
100
AcDbBlockTableRecord
  2
*D10
340
0
 70
     0
280
     1
281
     0
  0
ENDTAB
  0
ENDSEC
  0
SECTION
  2
BLOCKS
  0
BLOCK
  5
20
330
1F
100
AcDbEntity
  8
0
100
AcDbBlockBegin
  2
*Model_Space
 70
     0
 10
0.0
 20
0.0
 30
0.0
  3
*Model_Space
  1

  0
ENDBLK
  5
21
330
1F
100
AcDbEntity
  8
0
100
AcDbBlockEnd
  0
BLOCK
  5
52
330
50
100
AcDbEntity
 67
     1
  8
0
100
AcDbBlockBegin
  2
*Paper_Space
 70
     0
 10
0.0
 20
0.0
 30
0.0
  3
*Paper_Space
  1

  0
ENDBLK
  5
53
330
50
100
AcDbEntity
 67
     1
  8
0
100
AcDbBlockEnd
  0
BLOCK
  5
57
330
55
100
AcDbEntity
 67
     1
  8
0
100
AcDbBlockBegin
  2
*Paper_Space0
 70
     0
 10
0.0
 20
0.0
 30
0.0
  3
*Paper_Space0
  1

  0
VIEWPORT
  5
71
330
55
100
AcDbEntity
 67
     1
  8
0
100
AcDbViewport
 10
133.3499908447265
 20
101.5999970436096
 30
0.0
 40
381.3957395593834
 41
218.2856291881582
 68
     0
 69
     0
 12
133.3499908447265
 22
101.5999970436096
 13
0.0
 23
0.0
 14
10.0
 24
10.0
 15
10.0
 25
10.0
 16
0.0
 26
0.0
 36
1.0
 17
0.0
 27
0.0
 37
0.0
 42
50.0
 43
0.0
 44
0.0
 45
218.2856291881582
 50
0.0
 51
0.0
 72
   100
 90
    32800
  1

281
     0
 71
     1
 74
     0
110
0.0
120
0.0
130
0.0
111
1.0
121
0.0
131
0.0
112
0.0
122
1.0
132
0.0
 79
     0
146
0.0
170
     0
 61
     5
348
276B
292
     1
282
     1
141
0.0
142
0.0
 63
   250
421
  3355443
  0
VIEWPORT
  5
73
330
55
100
AcDbEntity
 67
     1
  8
0
100
AcDbViewport
 10
133.349993944168
 20
101.599993944168
 30
0.0
 40
213.3599903106689
 41
162.5599903106689
 68
     0
 69
     0
 12
210.0
 22
148.5
 13
0.0
 23
0.0
 14
10.0
 24
10.0
 15
10.0
 25
10.0
 16
0.0
 26
0.0
 36
1.0
 17
0.0
 27
0.0
 37
0.0
 42
50.0
 43
0.0
 44
0.0
 45
324.0677920111345
 50
0.0
 51
0.0
 72
   100
 90
    32864
  1

281
     0
 71
     1
 74
     0
110
0.0
120
0.0
130
0.0
111
1.0
121
0.0
131
0.0
112
0.0
122
1.0
132
0.0
 79
     0
146
0.0
170
     0
 61
     5
348
276B
292
     1
282
     1
141
0.0
142
0.0
 63
   250
421
  3355443
  0
ENDBLK
  5
58
330
55
100
AcDbEntity
 67
     1
  8
0
100
AcDbBlockEnd
  0
BLOCK
  5
342
330
341
100
AcDbEntity
  8
0
100
AcDbBlockBegin
  2
_None
 70
     0
 10
0.0
 20
0.0
 30
0.0
  3
_None
  1

  0
LINE
  5
29B7
102
{ACAD_REACTORS
330
29F6
102
}
330
341
100
AcDbEntity
  8
0
100
AcDbLine
 10
7.618927466172911
 20
14.9090276980656
 30
0.0
 11
13.53608213148402
 21
23.35960033891454
 31
0.0
1001
AcDbBlockRepETag
1070
     1
1071
        0
1005
29B7
  0
LINE
  5
29B8
102
{ACAD_REACTORS
330
29F6
102
}
330
341
100
AcDbEntity
  8
0
100
AcDbLine
 10
7.618927466172911
 20
14.9090276980656
 30
0.0
 11
8.516181951946554
 21
13.62761549266754
 31
0.0
1001
AcDbBlockRepETag
1070
     1
1071
        1
1005
29B8
  0
LINE
  5
29B9
102
{ACAD_REACTORS
330
29F6
102
}
330
341
100
AcDbEntity
  8
0
100
AcDbLine
 10
21.97323679679512
 20
14.90902769806559
 30
0.0
 11
21.07598231102148
 21
16.19043990346365
 31
0.0
1001
AcDbBlockRepETag
1070
     1
1071
        2
1005
29B9
  0
LINE
  5
29BA
102
{ACAD_REACTORS
330
29F6
102
}
330
341
100
AcDbEntity
  8
0
100
AcDbLine
 10
21.97323679679512
 20
14.90902769806559
 30
0.0
 11
16.056082131484
 21
6.458455057216698
 31
0.0
1001
AcDbBlockRepETag
1070
     1
1071
        3
1005
29BA
  0
LINE
  5
29BB
102
{ACAD_REACTORS
330
29F6
102
}
330
341
100
AcDbEntity
  8
0
100
AcDbLine
 10
15.556082131484
 20
21.42363521294153
 30
0.0
 11
19.54408298552672
 21
15.72817974235458
 31
0.0
1001
AcDbBlockRepETag
1070
     1
1071
        4
1005
29BB
  0
LINE
  5
29BC
102
{ACAD_REACTORS
330
29F6
102
}
330
341
100
AcDbEntity
  8
0
100
AcDbLine
 10
9.761293059265803
 20
14.49945167592111
 30
0.0
 11
8.516181951946544
 21
13.62761549266753
 31
0.0
1001
AcDbBlockRepETag
1070
     1
1071
        5
1005
29BC
  0
LINE
  5
29BD
102
{ACAD_REACTORS
330
29F6
102
}
330
341
100
AcDbEntity
  8
0
100
AcDbLine
 10
10.04808127744132
 20
14.08987565377662
 30
0.0
 11
8.802970170122067
 21
13.21803947052303
 31
0.0
1001
AcDbBlockRepETag
1070
     1
1071
        6
1005
29BD
  0
LINE
  5
29BE
102
{ACAD_REACTORS
330
29F6
102
}
330
341
100
AcDbEntity
  8
0
100
AcDbLine
 10
14.03608213148402
 20
5.744381053845643
 30
0.0
 11
14.03608213148402
 21
24.07367434228561
 31
0.0
1001
AcDbBlockRepETag
1070
     1
1071
        7
1005
29BE
  0
LINE
  5
29BF
102
{ACAD_REACTORS
330
29F6
102
}
330
341
100
AcDbEntity
  8
0
100
AcDbLine
 10
15.556082131484
 20
5.744381053845648
 30
0.0
 11
15.556082131484
 21
21.42363521294153
 31
0.0
1001
AcDbBlockRepETag
1070
     1
1071
        8
1005
29BF
  0
LINE
  5
29C0
102
{ACAD_REACTORS
330
29F6
102
}
330
341
100
AcDbEntity
  8
0
100
AcDbLine
 10
13.53608213148402
 20
6.458455057216702
 30
0.0
 11
13.53608213148402
 21
9.108494186560758
 31
0.0
1001
AcDbBlockRepETag
1070
     1
1071
        9
1005
29C0
  0
LINE
  5
29C1
102
{ACAD_REACTORS
330
29F6
102
}
330
341
100
AcDbEntity
  8
0
100
AcDbLine
 10
16.056082131484
 20
6.458455057216702
 30
0.0
 11
16.056082131484
 21
9.108494186560749
 31
0.0
1001
AcDbBlockRepETag
1070
     1
1071
       10
1005
29C1
  0
LINE
  5
29C2
102
{ACAD_REACTORS
330
29F6
102
}
330
341
100
AcDbEntity
  8
0
100
AcDbLine
 10
14.03608213148402
 20
24.0736743422856
 30
0.0
 11
14.79608213148402
 21
25.15906682740961
 31
0.0
1001
AcDbBlockRepETag
1070
     1
1071
       11
1005
29C2
  0
LINE
  5
29C3
102
{ACAD_REACTORS
330
29F6
102
}
330
341
100
AcDbEntity
  8
0
100
AcDbLine
 10
13.53608213148402
 20
20.70956120957047
 30
0.0
 11
9.474504841090279
 21
14.90902769806561
 31
0.0
1001
AcDbBlockRepETag
1070
     1
1071
       12
1005
29C3
  0
LINE
  5
29C4
102
{ACAD_REACTORS
330
29F6
102
}
330
341
100
AcDbEntity
  8
0
100
AcDbLine
 10
16.056082131484
 20
9.108494186560754
 30
0.0
 11
20.11765942187774
 21
14.90902769806561
 31
0.0
1001
AcDbBlockRepETag
1070
     1
1071
       13
1005
29C4
  0
LINE
  5
29C5
102
{ACAD_REACTORS
330
29F6
102
}
330
341
100
AcDbEntity
  8
0
100
AcDbLine
 10
15.556082131484
 20
5.744381053845644
 30
0.0
 11
14.79608213148401
 21
4.658988568721649
 31
0.0
1001
AcDbBlockRepETag
1070
     1
1071
       14
1005
29C5
  0
LINE
  5
29C6
102
{ACAD_REACTORS
330
29F6
102
}
330
341
100
AcDbEntity
  8
0
100
AcDbLine
 10
14.03608213148402
 20
5.744381053845645
 30
0.0
 11
14.79608213148401
 21
4.658988568721649
 31
0.0
1001
AcDbBlockRepETag
1070
     1
1071
       15
1005
29C6
  0
LINE
  5
29C7
102
{ACAD_REACTORS
330
29F6
102
}
330
341
100
AcDbEntity
  8
0
100
AcDbLine
 10
8.802970170122078
 20
13.21803947052304
 30
0.0
 11
13.53608213148402
 21
6.458455057216703
 31
0.0
1001
AcDbBlockRepETag
1070
     1
1071
       16
1005
29C7
  0
LINE
  5
29C8
102
{ACAD_REACTORS
330
29F6
102
}
330
341
100
AcDbEntity
  8
0
100
AcDbLine
 10
10.04808127744132
 20
14.08987565377662
 30
0.0
 11
13.53608213148402
 21
9.10849418656076
 31
0.0
1001
AcDbBlockRepETag
1070
     1
1071
       17
1005
29C8
  0
LINE
  5
29C9
102
{ACAD_REACTORS
330
29F6
102
}
330
341
100
AcDbEntity
  8
0
100
AcDbLine
 10
13.53608213148402
 20
20.70956120957048
 30
0.0
 11
13.53608213148402
 21
23.35960033891454
 31
0.0
1001
AcDbBlockRepETag
1070
     1
1071
       18
1005
29C9
  0
LINE
  5
29CA
102
{ACAD_REACTORS
330
29F6
102
}
330
341
100
AcDbEntity
  8
0
100
AcDbLine
 10
19.83087120370222
 20
15.31860372021007
 30
0.0
 11
21.07598231102148
 21
16.19043990346365
 31
0.0
1001
AcDbBlockRepETag
1070
     1
1071
       19
1005
29CA
  0
LINE
  5
29CB
102
{ACAD_REACTORS
330
29F6
102
}
330
341
100
AcDbEntity
  8
0
100
AcDbLine
 10
19.54408298552669
 20
15.72817974235456
 30
0.0
 11
20.78919409284595
 21
16.60001592560815
 31
0.0
1001
AcDbBlockRepETag
1070
     1
1071
       20
1005
29CB
  0
LINE
  5
29CC
102
{ACAD_REACTORS
330
29F6
102
}
330
341
100
AcDbEntity
  8
0
100
AcDbLine
 10
19.83087120370224
 20
15.31860372021007
 30
0.0
 11
20.11765942187774
 21
14.90902769806561
 31
0.0
1001
AcDbBlockRepETag
1070
     1
1071
       21
1005
29CC
  0
LINE
  5
29CD
102
{ACAD_REACTORS
330
29F6
102
}
330
341
100
AcDbEntity
  8
0
100
AcDbLine
 10
20.78919409284596
 20
16.60001592560815
 30
0.0
 11
14.79608213148402
 21
25.15906682740961
 31
0.0
1001
AcDbBlockRepETag
1070
     1
1071
       22
1005
29CD
  0
LINE
  5
29CE
102
{ACAD_REACTORS
330
29F6
102
}
330
341
100
AcDbEntity
  8
0
100
AcDbLine
 10
9.761293059265803
 20
14.49945167592111
 30
0.0
 11
9.474504841090279
 21
14.90902769806561
 31
0.0
1001
AcDbBlockRepETag
1070
     1
1071
       23
1005
29CE
  0
ENDBLK
  5
343
330
341
100
AcDbEntity
  8
0
100
AcDbBlockEnd
  0
BLOCK
  5
42B
330
429
100
AcDbEntity
  8
0
100
AcDbBlockBegin
  2
_DotSmall
 70
     0
 10
0.0
 20
0.0
 30
0.0
  3
_DotSmall
  1

  0
LWPOLYLINE
  5
42A
330
429
100
AcDbEntity
  8
0
  6
ByBlock
 62
     0
100
AcDbPolyline
 90
        2
 70
     1
 43
0.5
 10
-0.0625
 20
0.0
 42
1.0
 10
0.0625
 20
0.0
 42
1.0
  0
ENDBLK
  5
42C
330
429
100
AcDbEntity
  8
0
100
AcDbBlockEnd
  0
BLOCK
  5
10EA
330
10CB
100
AcDbEntity
  8
0
100
AcDbBlockBegin
  2
mark
 70
     0
 10
0.0
 20
0.0
 30
0.0
  3
mark
  1

  4
柏原計器(株)マーク
  0
LINE
  5
10CC
330
10CB
100
AcDbEntity
  8
実線
100
AcDbLine
 10
45.0
 20
-8.5
 30
0.0
 11
27.0
 21
-21.10373568777475
 31
0.0
  0
LINE
  5
10CD
330
10CB
100
AcDbEntity
  8
実線
100
AcDbLine
 10
45.0
 20
-8.5
 30
0.0
 11
27.0
 21
4.103735687774785
 31
0.0
  0
LINE
  5
10CE
330
10CB
100
AcDbEntity
  8
実線
100
AcDbLine
 10
46.0
 20
-4.317109183163836
 30
0.0
 11
27.0
 21
8.986834042820532
 31
0.0
  0
LINE
  5
10CF
330
10CB
100
AcDbEntity
  8
実線
100
AcDbLine
 10
46.0
 20
-12.6828908168361
 30
0.0
 11
27.0
 21
-25.9868340428206
 31
0.0
  0
LINE
  5
10D0
330
10CB
100
AcDbEntity
  8
実線
100
AcDbLine
 10
5.0
 20
-8.5
 30
0.0
 11
23.0
 21
-21.10373568777475
 31
0.0
  0
LINE
  5
10D1
330
10CB
100
AcDbEntity
  8
実線
100
AcDbLine
 10
4.0
 20
-12.6828908168361
 30
0.0
 11
22.99999999999994
 21
-25.98683404282056
 31
0.0
  0
LINE
  5
10D2
330
10CB
100
AcDbEntity
  8
実線
100
AcDbLine
 10
5.0
 20
-8.5
 30
0.0
 11
23.0
 21
4.103735687774785
 31
0.0
  0
LINE
  5
10D3
330
10CB
100
AcDbEntity
  8
実線
100
AcDbLine
 10
4.0
 20
-4.317109183163863
 30
0.0
 11
23.0
 21
8.986834042820587
 31
0.0
  0
LINE
  5
10D4
330
10CB
100
AcDbEntity
  8
実線
100
AcDbLine
 10
4.0
 20
-4.317109183163863
 30
0.0
 11
4.0
 21
0.0
 31
0.0
  0
LINE
  5
10D5
330
10CB
100
AcDbEntity
  8
実線
100
AcDbLine
 10
0.0
 20
0.0
 30
0.0
 11
0.0
 21
-17.0
 31
0.0
  0
LINE
  5
10D6
330
10CB
100
AcDbEntity
  8
実線
100
AcDbLine
 10
0.0
 20
-17.0
 30
0.0
 11
4.0
 21
-17.0
 31
0.0
  0
LINE
  5
10D7
330
10CB
100
AcDbEntity
  8
実線
100
AcDbLine
 10
4.0
 20
-17.0
 30
0.0
 11
4.0
 21
-12.6828908168361
 31
0.0
  0
LINE
  5
10D8
330
10CB
100
AcDbEntity
  8
実線
100
AcDbLine
 10
4.0
 20
0.0
 30
0.0
 11
0.0
 21
0.0
 31
0.0
  0
LINE
  5
10D9
330
10CB
100
AcDbEntity
  8
実線
100
AcDbLine
 10
27.0
 20
-21.10373568777475
 30
0.0
 11
27.0
 21
-25.9868340428206
 31
0.0
  0
LINE
  5
10DA
330
10CB
100
AcDbEntity
  8
実線
100
AcDbLine
 10
23.0
 20
-21.1037356877747
 30
0.0
 11
22.99999999999994
 21
-25.98683404282056
 31
0.0
  0
ARC
  5
10DB
330
10CB
100
AcDbEntity
  8
実線
100
AcDbCircle
 10
25.0
 20
-12.5
 30
0.0
 40
6.0
100
AcDbArc
 50
180.0
 51
0.0
  0
ARC
  5
10DC
330
10CB
100
AcDbEntity
  8
実線
100
AcDbCircle
 10
25.0
 20
-12.5
 30
0.0
 40
3.0
100
AcDbArc
 50
180.0
 51
0.0
  0
ARC
  5
10DD
330
10CB
100
AcDbEntity
  8
実線
100
AcDbCircle
 10
25.0
 20
-4.5
 30
0.0
 40
6.0
100
AcDbArc
 50
0.0
 51
180.0
  0
ARC
  5
10DE
330
10CB
100
AcDbEntity
  8
実線
100
AcDbCircle
 10
25.0
 20
-4.5
 30
0.0
 40
3.0
100
AcDbArc
 50
0.0
 51
180.0
  0
LINE
  5
10DF
330
10CB
100
AcDbEntity
  8
実線
100
AcDbLine
 10
22.0
 20
-4.499999999999943
 30
0.0
 11
22.0
 21
-12.50000000000005
 31
0.0
  0
LINE
  5
10E0
330
10CB
100
AcDbEntity
  8
実線
100
AcDbLine
 10
19.0
 20
-4.499999999999943
 30
0.0
 11
19.0
 21
-12.50000000000005
 31
0.0
  0
LINE
  5
10E1
330
10CB
100
AcDbEntity
  8
実線
100
AcDbLine
 10
23.0
 20
8.986834042820587
 30
0.0
 11
23.0
 21
4.103735687774785
 31
0.0
  0
LINE
  5
10E2
330
10CB
100
AcDbEntity
  8
実線
100
AcDbLine
 10
28.0
 20
-4.499999999999971
 30
0.0
 11
28.0
 21
-12.50000000000005
 31
0.0
  0
LINE
  5
10E3
330
10CB
100
AcDbEntity
  8
実線
100
AcDbLine
 10
31.0
 20
-4.499999999999943
 30
0.0
 11
31.0
 21
-12.50000000000005
 31
0.0
  0
LINE
  5
10E4
330
10CB
100
AcDbEntity
  8
実線
100
AcDbLine
 10
27.0
 20
8.986834042820532
 30
0.0
 11
27.0
 21
4.103735687774785
 31
0.0
  0
LINE
  5
10E5
330
10CB
100
AcDbEntity
  8
実線
100
AcDbLine
 10
50.0
 20
0.0
 30
0.0
 11
50.0
 21
-17.0
 31
0.0
  0
LINE
  5
10E6
330
10CB
100
AcDbEntity
  8
実線
100
AcDbLine
 10
46.0
 20
0.0
 30
0.0
 11
46.0
 21
-4.317109183163836
 31
0.0
  0
LINE
  5
10E7
330
10CB
100
AcDbEntity
  8
実線
100
AcDbLine
 10
46.0
 20
-17.0
 30
0.0
 11
50.0
 21
-17.0
 31
0.0
  0
LINE
  5
10E8
330
10CB
100
AcDbEntity
  8
実線
100
AcDbLine
 10
46.0
 20
-12.6828908168361
 30
0.0
 11
46.0
 21
-17.0
 31
0.0
  0
LINE
  5
10E9
330
10CB
100
AcDbEntity
  8
実線
100
AcDbLine
 10
50.0
 20
0.0
 30
0.0
 11
46.0
 21
0.0
 31
0.0
  0
ENDBLK
  5
10EB
330
10CB
100
AcDbEntity
  8
0
100
AcDbBlockEnd
  0
BLOCK
  5
2D22
330
2D20
100
AcDbEntity
  8
0
100
AcDbBlockBegin
  2
A$C34DA08B7
 70
     0
 10
0.0
 20
0.0
 30
0.0
  3
A$C34DA08B7
  1

  0
LINE
  5
2D21
330
2D20
100
AcDbEntity
  8
実線
100
AcDbLine
 10
3.443694327872606
 20
-0.000000348593062
 30
0.0
 11
0.0000000833857712
 21
3.443693895893829
 31
0.0
  0
ENDBLK
  5
2D23
330
2D20
100
AcDbEntity
  8
0
100
AcDbBlockEnd
  0
BLOCK
  5
2D26
330
2D24
100
AcDbEntity
  8
0
100
AcDbBlockBegin
  2
A$C04A47E41
 70
     0
 10
0.0
 20
0.0
 30
0.0
  3
A$C04A47E41
  1

  0
LINE
  5
2D25
330
2D24
100
AcDbEntity
  8
実線
100
AcDbLine
 10
0.0
 20
0.0
 30
0.0
 11
-3.443694244486835
 21
3.443694244486891
 31
0.0
  0
ENDBLK
  5
2D27
330
2D24
100
AcDbEntity
  8
0
100
AcDbBlockEnd
  0
BLOCK
  5
2D4F
330
2D46
100
AcDbEntity
  8
0
100
AcDbBlockBegin
  2
A$C2FFA21FC
 70
     0
 10
0.0
 20
0.0
 30
0.0
  3
A$C2FFA21FC
  1

  0
LINE
  5
2D47
330
2D46
100
AcDbEntity
  8
実線
100
AcDbLine
 10
1.673649195882092
 20
5.714196736163046
 30
0.0
 11
4.040546862123335
 21
5.714196736163046
 31
0.0
  0
LINE
  5
2D48
330
2D46
100
AcDbEntity
  8
実線
100
AcDbLine
 10
-0.0000001942917152
 20
1.673649679747882
 30
0.0
 11
-0.0000001942917152
 21
4.040547345989125
 31
0.0
  0
LINE
  5
2D49
330
2D46
100
AcDbEntity
  8
実線
100
AcDbLine
 10
-0.0000001942917152
 20
4.040547345989239
 30
0.0
 11
1.673649195882092
 21
5.714196736162989
 31
0.0
  0
LINE
  5
2D4A
330
2D46
100
AcDbEntity
  8
実線
100
AcDbLine
 10
1.673649195882092
 20
0.0000002895740749
 30
0.0
 11
4.040546862123335
 21
0.0000002895740749
 31
0.0
  0
LINE
  5
2D4B
330
2D46
100
AcDbEntity
  8
実線
100
AcDbLine
 10
-0.0000001942917152
 20
1.673649679747882
 30
0.0
 11
1.673649195882035
 21
0.0000002895740749
 31
0.0
  0
LINE
  5
2D4C
330
2D46
100
AcDbEntity
  8
実線
100
AcDbLine
 10
5.714196252297256
 20
1.673649679747882
 30
0.0
 11
5.714196252297256
 21
4.040547345989125
 31
0.0
  0
LINE
  5
2D4D
330
2D46
100
AcDbEntity
  8
実線
100
AcDbLine
 10
5.714196252297256
 20
4.040547345989239
 30
0.0
 11
4.040546862123449
 21
5.714196736162989
 31
0.0
  0
LINE
  5
2D4E
330
2D46
100
AcDbEntity
  8
実線
100
AcDbLine
 10
5.714196252297256
 20
1.673649679747882
 30
0.0
 11
4.040546862123505
 21
0.0000002895740749
 31
0.0
  0
ENDBLK
  5
2D50
330
2D46
100
AcDbEntity
  8
0
100
AcDbBlockEnd
  0
BLOCK
  5
2CBB2
330
2CBB1
100
AcDbEntity
  8
0
100
AcDbBlockBegin
  2
*D7
 70
     1
 10
0.0
 20
0.0
 30
0.0
  3
*D7
  1

  0
LINE
  5
2CCCC
330
2CBB1
100
AcDbEntity
  8
寸法
 62
     0
440
 16777216
370
    -2
100
AcDbLine
 10
169.8560589048318
 20
149.4603806944309
 30
0.0
 11
275.9044273086542
 21
149.4603806944309
 31
0.0
  0
LINE
  5
2CCCD
330
2CBB1
100
AcDbEntity
  8
寸法
 62
     0
440
 16777216
370
    -2
100
AcDbLine
 10
169.8560589048318
 20
249.4603806944309
 30
0.0
 11
275.9044273086542
 21
249.4603806944309
 31
0.0
  0
LINE
  5
2CCCE
330
2CBB1
100
AcDbEntity
  8
寸法
 62
     0
440
 16777216
370
    -2
100
AcDbLine
 10
274.6544273086542
 20
151.9603806944308
 30
0.0
 11
274.6544273086542
 21
246.9603806944309
 31
0.0
  0
SOLID
  5
2CCCF
330
2CBB1
100
AcDbEntity
  8
寸法
 62
     0
440
 16777216
100
AcDbTrace
 10
274.2377606419875
 20
151.9603806944308
 30
0.0
 11
275.0710939753209
 21
151.9603806944308
 31
0.0
 12
274.6544273086542
 22
149.4603806944309
 32
0.0
 13
274.6544273086542
 23
149.4603806944309
 33
0.0
  0
SOLID
  5
2CCD0
330
2CBB1
100
AcDbEntity
  8
寸法
 62
     0
440
 16777216
100
AcDbTrace
 10
274.2377606419875
 20
246.9603806944309
 30
0.0
 11
275.0710939753209
 21
246.9603806944309
 31
0.0
 12
274.6544273086542
 22
249.4603806944309
 32
0.0
 13
274.6544273086542
 23
249.4603806944309
 33
0.0
  0
MTEXT
  5
2CCD1
330
2CBB1
100
AcDbEntity
  8
寸法
 62
     2
440
 16777216
100
AcDbMText
 10
271.9044273086542
 20
199.4603806944309
 30
0.0
 40
3.5
 41
0.0
 46
0.0
 71
     5
 72
     1
  1
100
  7
寸法
 11
0.0000000000000001
 21
1.0
 31
0.0
 73
     1
 44
1.0
  0
POINT
  5
2CCD2
330
2CBB1
100
AcDbEntity
  8
Defpoints
 62
     0
440
 16777216
100
AcDbPoint
 10
169.2310589048318
 20
149.4603806944309
 30
0.0
  0
POINT
  5
2CCD3
330
2CBB1
100
AcDbEntity
  8
Defpoints
 62
     0
440
 16777216
100
AcDbPoint
 10
169.2310589048318
 20
249.4603806944309
 30
0.0
  0
POINT
  5
2CCD4
330
2CBB1
100
AcDbEntity
  8
Defpoints
 62
     0
440
 16777216
100
AcDbPoint
 10
274.6544273086542
 20
249.4603806944309
 30
0.0
  0
ENDBLK
  5
2CBB3
330
2CBB1
100
AcDbEntity
  8
0
100
AcDbBlockEnd
  0
BLOCK
  5
2CBDC
330
2CBDB
100
AcDbEntity
  8
0
100
AcDbBlockBegin
  2
*D8
 70
     1
 10
0.0
 20
0.0
 30
0.0
  3
*D8
  1

  0
LINE
  5
2CD8C
330
2CBDB
100
AcDbEntity
  8
寸法
 62
     0
440
 16777216
370
    -2
100
AcDbLine
 10
67.23105890483179
 20
49.56273231636868
 30
0.0
 11
67.23105890483179
 21
22.11362150138644
 31
0.0
  0
LINE
  5
2CD8D
330
2CBDB
100
AcDbEntity
  8
寸法
 62
     0
440
 16777216
370
    -2
100
AcDbLine
 10
257.2310589048318
 20
49.56273231636849
 30
0.0
 11
257.2310589048318
 21
22.11362150138644
 31
0.0
  0
LINE
  5
2CD8E
330
2CBDB
100
AcDbEntity
  8
寸法
 62
     0
440
 16777216
370
    -2
100
AcDbLine
 10
69.73105890483179
 20
23.36362150138644
 30
0.0
 11
254.7310589048318
 21
23.36362150138644
 31
0.0
  0
SOLID
  5
2CD8F
330
2CBDB
100
AcDbEntity
  8
寸法
 62
     0
440
 16777216
100
AcDbTrace
 10
69.73105890483179
 20
23.7802881680531
 30
0.0
 11
69.73105890483179
 21
22.94695483471977
 31
0.0
 12
67.23105890483179
 22
23.36362150138644
 32
0.0
 13
67.23105890483179
 23
23.36362150138644
 33
0.0
  0
SOLID
  5
2CD90
330
2CBDB
100
AcDbEntity
  8
寸法
 62
     0
440
 16777216
100
AcDbTrace
 10
254.7310589048318
 20
23.7802881680531
 30
0.0
 11
254.7310589048318
 21
22.94695483471977
 31
0.0
 12
257.2310589048318
 22
23.36362150138644
 32
0.0
 13
257.2310589048318
 23
23.36362150138644
 33
0.0
  0
MTEXT
  5
2CD91
330
2CBDB
100
AcDbEntity
  8
寸法
 62
     2
440
 16777216
100
AcDbMText
 10
162.2310589048318
 20
26.11362150138643
 30
0.0
 40
3.5
 41
0.0
 46
0.0
 71
     5
 72
     1
  1
190
  7
寸法
 73
     1
 44
1.0
  0
POINT
  5
2CD92
330
2CBDB
100
AcDbEntity
  8
Defpoints
 62
     0
440
 16777216
100
AcDbPoint
 10
67.23105890483179
 20
50.18773231636868
 30
0.0
  0
POINT
  5
2CD93
330
2CBDB
100
AcDbEntity
  8
Defpoints
 62
     0
440
 16777216
100
AcDbPoint
 10
257.2310589048318
 20
50.18773231636849
 30
0.0
  0
POINT
  5
2CD94
330
2CBDB
100
AcDbEntity
  8
Defpoints
 62
     0
440
 16777216
100
AcDbPoint
 10
257.2310589048318
 20
23.36362150138644
 30
0.0
  0
ENDBLK
  5
2CBDD
330
2CBDB
100
AcDbEntity
  8
0
100
AcDbBlockEnd
  0
BLOCK
  5
2CBF4
330
2CBF3
100
AcDbEntity
  8
0
100
AcDbBlockBegin
  2
*D9
 70
     1
 10
0.0
 20
0.0
 30
0.0
  3
*D9
  1

  0
LINE
  5
2CC8F
330
2CBF3
100
AcDbEntity
  8
寸法
 62
     0
440
 16777216
370
    -2
100
AcDbLine
 10
133.6060589048318
 20
30.68773231636868
 30
0.0
 11
50.82476389647013
 21
30.6877323163687
 31
0.0
  0
LINE
  5
2CC90
330
2CBF3
100
AcDbEntity
  8
寸法
 62
     0
440
 16777216
370
    -2
100
AcDbLine
 10
60.57827217795239
 20
65.68773231636862
 30
0.0
 11
50.82476389647013
 21
65.68773231636862
 31
0.0
  0
LINE
  5
2CC91
330
2CBF3
100
AcDbEntity
  8
寸法
 62
     0
440
 16777216
370
    -2
100
AcDbLine
 10
52.07476389647013
 20
33.1877323163687
 30
0.0
 11
52.07476389647013
 21
63.18773231636862
 31
0.0
  0
SOLID
  5
2CC92
330
2CBF3
100
AcDbEntity
  8
寸法
 62
     0
440
 16777216
100
AcDbTrace
 10
51.65809722980346
 20
33.1877323163687
 30
0.0
 11
52.49143056313679
 21
33.1877323163687
 31
0.0
 12
52.07476389647013
 22
30.6877323163687
 32
0.0
 13
52.07476389647013
 23
30.6877323163687
 33
0.0
  0
SOLID
  5
2CC93
330
2CBF3
100
AcDbEntity
  8
寸法
 62
     0
440
 16777216
100
AcDbTrace
 10
51.65809722980347
 20
63.18773231636862
 30
0.0
 11
52.4914305631368
 21
63.18773231636862
 31
0.0
 12
52.07476389647013
 22
65.68773231636862
 32
0.0
 13
52.07476389647013
 23
65.68773231636862
 33
0.0
  0
MTEXT
  5
2CC94
330
2CBF3
100
AcDbEntity
  8
寸法
 62
     2
440
 16777216
100
AcDbMText
 10
49.32476389647011
 20
48.18773231636868
 30
0.0
 40
3.5
 41
0.0
 46
0.0
 71
     5
 72
     1
  1
35
  7
寸法
 11
0.0000000000000001
 21
1.0
 31
0.0
 73
     1
 44
1.0
  0
POINT
  5
2CC95
330
2CBF3
100
AcDbEntity
  8
Defpoints
 62
     0
440
 16777216
100
AcDbPoint
 10
134.2310589048318
 20
30.68773231636868
 30
0.0
  0
POINT
  5
2CC96
330
2CBF3
100
AcDbEntity
  8
Defpoints
 62
     0
440
 16777216
100
AcDbPoint
 10
61.20327217795239
 20
65.68773231636862
 30
0.0
  0
POINT
  5
2CC97
330
2CBF3
100
AcDbEntity
  8
Defpoints
 62
     0
440
 16777216
100
AcDbPoint
 10
52.07476389647013
 20
65.68773231636862
 30
0.0
  0
ENDBLK
  5
2CBF5
330
2CBF3
100
AcDbEntity
  8
0
100
AcDbBlockEnd
  0
BLOCK
  5
2CC3B
330
2CC3A
100
AcDbEntity
  8
0
100
AcDbBlockBegin
  2
*D10
 70
     1
 10
0.0
 20
0.0
 30
0.0
  3
*D10
  1

  0
LINE
  5
2CC86
330
2CC3A
100
AcDbEntity
  8
寸法
 62
     0
440
 16777216
370
    -2
100
AcDbLine
 10
133.6060589048318
 20
30.68773231636868
 30
0.0
 11
42.16843407191502
 21
30.68773231636871
 31
0.0
  0
LINE
  5
2CC87
330
2CC3A
100
AcDbEntity
  8
寸法
 62
     0
440
 16777216
370
    -2
100
AcDbLine
 10
120.6060589048318
 20
143.6877323163687
 30
0.0
 11
42.16843407191504
 21
143.6877323163687
 31
0.0
  0
LINE
  5
2CC88
330
2CC3A
100
AcDbEntity
  8
寸法
 62
     0
440
 16777216
370
    -2
100
AcDbLine
 10
43.41843407191502
 20
33.18773231636871
 30
0.0
 11
43.41843407191504
 21
141.1877323163687
 31
0.0
  0
SOLID
  5
2CC89
330
2CC3A
100
AcDbEntity
  8
寸法
 62
     0
440
 16777216
100
AcDbTrace
 10
43.00176740524835
 20
33.18773231636871
 30
0.0
 11
43.83510073858168
 21
33.18773231636871
 31
0.0
 12
43.41843407191502
 22
30.68773231636871
 32
0.0
 13
43.41843407191502
 23
30.68773231636871
 33
0.0
  0
SOLID
  5
2CC8A
330
2CC3A
100
AcDbEntity
  8
寸法
 62
     0
440
 16777216
100
AcDbTrace
 10
43.00176740524838
 20
141.1877323163687
 30
0.0
 11
43.83510073858171
 21
141.1877323163687
 31
0.0
 12
43.41843407191504
 22
143.6877323163687
 32
0.0
 13
43.41843407191504
 23
143.6877323163687
 33
0.0
  0
MTEXT
  5
2CC8B
330
2CC3A
100
AcDbEntity
  8
寸法
 62
     2
440
 16777216
100
AcDbMText
 10
40.66843407191502
 20
87.18773231636872
 30
0.0
 40
3.5
 41
0.0
 46
0.0
 71
     5
 72
     1
  1
113
  7
寸法
 11
0.0000000000000001
 21
1.0
 31
0.0
 73
     1
 44
1.0
  0
POINT
  5
2CC8C
330
2CC3A
100
AcDbEntity
  8
Defpoints
 62
     0
440
 16777216
100
AcDbPoint
 10
134.2310589048318
 20
30.68773231636868
 30
0.0
  0
POINT
  5
2CC8D
330
2CC3A
100
AcDbEntity
  8
Defpoints
 62
     0
440
 16777216
100
AcDbPoint
 10
121.2310589048318
 20
143.6877323163687
 30
0.0
  0
POINT
  5
2CC8E
330
2CC3A
100
AcDbEntity
  8
Defpoints
 62
     0
440
 16777216
100
AcDbPoint
 10
43.41843407191504
 20
143.6877323163687
 30
0.0
  0
ENDBLK
  5
2CC3C
330
2CC3A
100
AcDbEntity
  8
0
100
AcDbBlockEnd
  0
ENDSEC
  0
SECTION
  2
ENTITIES
  0
TEXT
  5
108D
330
1F
100
AcDbEntity
  8
文字
100
AcDbText
 10
293.0
 20
27.25
 30
0.0
 40
3.0
  1

 41
0.8
 72
     1
 11
293.0
 21
28.75
 31
0.0
100
AcDbText
 73
     2
  0
TEXT
  5
108F
330
1F
100
AcDbEntity
  8
文字
100
AcDbText
 10
333.0
 20
27.5
 30
0.0
 40
3.0
  1

 41
0.8
 72
     1
 11
333.0
 21
29.0
 31
0.0
100
AcDbText
 73
     2
  0
TEXT
  5
1090
330
1F
100
AcDbEntity
  8
文字
100
AcDbText
 10
353.0
 20
27.5
 30
0.0
 40
3.0
  1

 41
0.8
 72
     1
 11
353.0
 21
29.0
 31
0.0
100
AcDbText
 73
     2
  0
MTEXT
  5
1581D
330
1F
100
AcDbEntity
  8
実線
 62
     2
100
AcDbMText
 10
196.5671900572592
 20
248.2436849630891
 30
0.0
 40
2.5
 41
0.0
 46
0.0
 71
     9
 72
     1
  1

  7
寸法
 73
     1
 44
1.0
  0
LINE
  5
29A83
330
1F
100
AcDbEntity
  8
0
100
AcDbLine
 10
215.0
 20
272.0
 30
0.0
 11
214.9999999999999
 21
287.0
 31
0.0
  0
LINE
  5
29ABB
330
1F
100
AcDbEntity
  8
0
100
AcDbLine
 10
400.0
 20
148.5
 30
0.0
 11
415.0
 21
148.5
 31
0.0
  0
LINE
  5
29B24
330
1F
100
AcDbEntity
  8
0
100
AcDbLine
 10
214.9999999999999
 20
25.0
 30
0.0
 11
214.9999999999999
 21
10.0
 31
0.0
  0
LINE
  5
29B27
330
1F
100
AcDbEntity
  8
0
100
AcDbLine
 10
29.99999999999926
 20
148.4999999999989
 30
0.0
 11
15.0
 21
148.4999999999988
 31
0.0
  0
LINE
  5
29B3C
330
1F
100
AcDbEntity
  8
補助線
100
AcDbLine
 10
5.0
 20
297.0
 30
0.0
 11
5.0
 21
0.0
 31
0.0
  0
LINE
  5
29B3D
330
1F
100
AcDbEntity
  8
補助線
100
AcDbLine
 10
425.0
 20
297.0
 30
0.0
 11
5.0
 21
297.0
 31
0.0
  0
LINE
  5
29B3E
330
1F
100
AcDbEntity
  8
補助線
100
AcDbLine
 10
425.0
 20
0.0
 30
0.0
 11
425.0
 21
297.0
 31
0.0
  0
LINE
  5
29B3F
330
1F
100
AcDbEntity
  8
補助線
100
AcDbLine
 10
5.0
 20
0.0
 30
0.0
 11
425.0
 21
0.0
 31
0.0
  0
LINE
  5
29B58
330
1F
100
AcDbEntity
  8
0
100
AcDbLine
 10
24.99999999999926
 20
217.7499999999989
 30
0.0
 11
14.9999999999996
 21
217.7499999999988
 31
0.0
  0
LINE
  5
29B59
330
1F
100
AcDbEntity
  8
0
100
AcDbLine
 10
24.99999999999926
 20
79.24999999999887
 30
0.0
 11
15.00000000000039
 21
79.24999999999883
 31
0.0
  0
LINE
  5
29B5A
330
1F
100
AcDbEntity
  8
0
100
AcDbLine
 10
405.0
 20
217.75
 30
0.0
 11
415.0
 21
217.75
 31
0.0
  0
LINE
  5
29B5B
330
1F
100
AcDbEntity
  8
0
100
AcDbLine
 10
405.0
 20
79.25
 30
0.0
 11
415.0
 21
79.25
 31
0.0
  0
LINE
  5
29B74
330
1F
100
AcDbEntity
  8
0
100
AcDbLine
 10
114.9999999999999
 20
277.0
 30
0.0
 11
114.9999999999999
 21
286.9999999999998
 31
0.0
  0
LINE
  5
29B75
330
1F
100
AcDbEntity
  8
0
100
AcDbLine
 10
315.0
 20
277.0
 30
0.0
 11
315.0
 21
287.0000000000002
 31
0.0
  0
LINE
  5
29B76
330
1F
100
AcDbEntity
  8
0
100
AcDbLine
 10
114.9999999999999
 20
20.0
 30
0.0
 11
114.9999999999999
 21
10.0
 31
0.0
  0
LINE
  5
29B77
330
1F
100
AcDbEntity
  8
0
100
AcDbLine
 10
315.0
 20
20.0
 30
0.0
 11
315.0
 21
10.0
 31
0.0
  0
TEXT
  5
29B81
330
1F
100
AcDbEntity
  8
0
100
AcDbText
 10
56.87381033117555
 20
279.47215302696
 30
0.0
 40
5.0
  1
1
 41
0.8
 72
     1
 11
58.49285795022317
 21
281.97215302696
 31
0.0
100
AcDbText
 73
     2
  0
TEXT
  5
29B83
330
1F
100
AcDbEntity
  8
0
100
AcDbText
 10
156.5880960454612
 20
279.4721530269602
 30
0.0
 40
5.0
  1
2
 41
0.8
 72
     1
 11
158.4928579502231
 21
281.9721530269601
 31
0.0
100
AcDbText
 73
     2
  0
TEXT
  5
29B84
330
1F
100
AcDbEntity
  8
0
100
AcDbText
 10
256.5880960454613
 20
279.47215302696
 30
0.0
 40
5.0
  1
3
 41
0.8
 72
     1
 11
258.4928579502232
 21
281.97215302696
 31
0.0
100
AcDbText
 73
     2
  0
TEXT
  5
29B85
330
1F
100
AcDbEntity
  8
0
100
AcDbText
 10
356.4928579502232
 20
279.47215302696
 30
0.0
 40
5.0
  1
4
 41
0.8
 72
     1
 11
358.4928579502232
 21
281.97215302696
 31
0.0
100
AcDbText
 73
     2
  0
TEXT
  5
29B86
330
1F
100
AcDbEntity
  8
0
100
AcDbText
 10
56.87381033117555
 20
12.84246760572546
 30
0.0
 40
5.0
  1
1
 41
0.8
 72
     1
 11
58.49285795022317
 21
15.34246760572546
 31
0.0
100
AcDbText
 73
     2
  0
TEXT
  5
29B87
330
1F
100
AcDbEntity
  8
0
100
AcDbText
 10
156.5880960454612
 20
12.84246760572563
 30
0.0
 40
5.0
  1
2
 41
0.8
 72
     1
 11
158.4928579502231
 21
15.34246760572563
 31
0.0
100
AcDbText
 73
     2
  0
TEXT
  5
29B88
330
1F
100
AcDbEntity
  8
0
100
AcDbText
 10
256.5880960454613
 20
12.84246760572546
 30
0.0
 40
5.0
  1
3
 41
0.8
 72
     1
 11
258.4928579502232
 21
15.34246760572546
 31
0.0
100
AcDbText
 73
     2
  0
TEXT
  5
29B89
330
1F
100
AcDbEntity
  8
0
100
AcDbText
 10
356.4928579502232
 20
12.84246760572546
 30
0.0
 40
5.0
  1
4
 41
0.8
 72
     1
 11
358.4928579502232
 21
15.34246760572546
 31
0.0
100
AcDbText
 73
     2
  0
TEXT
  5
29B8A
330
1F
100
AcDbEntity
  8
0
100
AcDbText
 10
18.58632463146319
 20
250.0319149255158
 30
0.0
 40
5.0
  1
A
 41
0.8
 72
     1
 11
20.30061034574891
 21
252.5319149255158
 31
0.0
100
AcDbText
 73
     2
  0
TEXT
  5
29B8B
330
1F
100
AcDbEntity
  8
0
100
AcDbText
 10
18.2053722505112
 20
180.7819149255158
 30
0.0
 40
5.0
  1
B
 41
0.8
 72
     1
 11
20.3006103457493
 21
183.2819149255158
 31
0.0
100
AcDbText
 73
     2
  0
TEXT
  5
29B8C
330
1F
100
AcDbEntity
  8
0
100
AcDbText
 10
18.30061034574891
 20
111.5319149255158
 30
0.0
 40
5.0
  1
C
 41
0.8
 72
     1
 11
20.30061034574891
 21
114.0319149255158
 31
0.0
100
AcDbText
 73
     2
  0
TEXT
  5
29B8D
330
1F
100
AcDbEntity
  8
0
100
AcDbText
 10
18.20537225051081
 20
42.28191492551693
 30
0.0
 40
5.0
  1
D
 41
0.8
 72
     1
 11
20.30061034574891
 21
44.78191492551693
 31
0.0
100
AcDbText
 73
     2
  0
TEXT
  5
29B8E
330
1F
100
AcDbEntity
  8
0
100
AcDbText
 10
408.0524664877939
 20
250.0319149255158
 30
0.0
 40
5.0
  1
A
 41
0.8
 72
     1
 11
409.7667522020797
 21
252.5319149255158
 31
0.0
100
AcDbText
 73
     2
  0
TEXT
  5
29B8F
330
1F
100
AcDbEntity
  8
0
100
AcDbText
 10
407.671514106842
 20
180.7819149255158
 30
0.0
 40
5.0
  1
B
 41
0.8
 72
     1
 11
409.7667522020801
 21
183.2819149255158
 31
0.0
100
AcDbText
 73
     2
  0
TEXT
  5
29B90
330
1F
100
AcDbEntity
  8
0
100
AcDbText
 10
407.7667522020797
 20
111.5319149255158
 30
0.0
 40
5.0
  1
C
 41
0.8
 72
     1
 11
409.7667522020797
 21
114.0319149255158
 31
0.0
100
AcDbText
 73
     2
  0
TEXT
  5
29B91
330
1F
100
AcDbEntity
  8
0
100
AcDbText
 10
407.6715141068416
 20
42.28191492551693
 30
0.0
 40
5.0
  1
D
 41
0.8
 72
     1
 11
409.7667522020797
 21
44.78191492551693
 31
0.0
100
AcDbText
 73
     2
  0
LINE
  5
2A351
330
1F
100
AcDbEntity
  8
0
100
AcDbLine
 10
280.0
 20
20.0
 30
0.0
 11
280.0
 21
68.0
 31
0.0
  0
LINE
  5
2A352
330
1F
100
AcDbEntity
  8
0
100
AcDbLine
 10
280.0
 20
35.0
 30
0.0
 11
405.0
 21
35.0
 31
0.0
  0
LINE
  5
2A353
330
1F
100
AcDbEntity
  8
0
100
AcDbLine
 10
280.0
 20
58.0
 30
0.0
 11
405.0
 21
58.0
 31
0.0
  0
LINE
  5
2A354
330
1F
100
AcDbEntity
  8
0
100
AcDbLine
 10
280.0
 20
68.0
 30
0.0
 11
405.0
 21
68.0
 31
0.0
  0
LINE
  5
2A355
330
1F
100
AcDbEntity
  8
0
100
AcDbLine
 10
292.5
 20
35.0
 30
0.0
 11
292.5
 21
20.0
 31
0.0
  0
LINE
  5
2A356
330
1F
100
AcDbEntity
  8
0
100
AcDbLine
 10
305.0
 20
35.0
 30
0.0
 11
305.0
 21
20.0
 31
0.0
  0
LINE
  5
2A357
330
1F
100
AcDbEntity
  8
0
100
AcDbLine
 10
317.5
 20
35.0
 30
0.0
 11
317.5
 21
20.0
 31
0.0
  0
LINE
  5
2A358
330
1F
100
AcDbEntity
  8
0
100
AcDbLine
 10
330.0
 20
35.0
 30
0.0
 11
330.0
 21
20.0
 31
0.0
  0
LINE
  5
2A359
330
1F
100
AcDbEntity
  8
0
100
AcDbLine
 10
342.5
 20
58.0
 30
0.0
 11
342.5
 21
20.0
 31
0.0
  0
LINE
  5
2A35A
330
1F
100
AcDbEntity
  8
0
100
AcDbLine
 10
373.7499999999999
 20
46.49999999999999
 30
0.0
 11
373.7499999999999
 21
35.0
 31
0.0
  0
LINE
  5
2A35B
330
1F
100
AcDbEntity
  8
0
100
AcDbLine
 10
301.5
 20
68.0
 30
0.0
 11
301.5
 21
58.0
 31
0.0
  0
LINE
  5
2A35C
330
1F
100
AcDbEntity
  8
0
100
AcDbLine
 10
280.0
 20
31.0
 30
0.0
 11
342.5
 21
31.0
 31
0.0
  0
TEXT
  5
2A35D
330
1F
100
AcDbEntity
  8
0
100
AcDbText
 10
287.96
 20
61.5
 30
0.0
 40
3.0
  1
品名
 41
0.9
 72
     1
 11
290.75
 21
63.0
 31
0.0
100
AcDbText
 73
     2
  0
TEXT
  5
2A35E
330
1F
100
AcDbEntity
  8
0
100
AcDbText
 10
283.37
 20
31.5
 30
0.0
 40
3.0
  1
承認
 41
0.9
 72
     1
 11
286.25
 21
33.0
 31
0.0
100
AcDbText
 73
     2
  0
TEXT
  5
2A35F
330
1F
100
AcDbEntity
  8
0
100
AcDbText
 10
295.96
 20
31.5
 30
0.0
 40
3.0
  1
検図
 41
0.9
 72
     1
 11
298.75
 21
33.0
 31
0.0
100
AcDbText
 73
     2
  0
TEXT
  5
2A360
330
1F
100
AcDbEntity
  8
0
100
AcDbText
 10
308.46
 20
31.5
 30
0.0
 40
3.0
  1
製図
 41
0.9
 72
     1
 11
311.25
 21
33.0
 31
0.0
100
AcDbText
 73
     2
  0
TEXT
  5
2A361
330
1F
100
AcDbEntity
  8
0
100
AcDbText
 10
319.43
 20
31.5
 30
0.0
 40
3.0
  1
年月日
 41
0.9
 72
     1
 11
323.75
 21
33.0
 31
0.0
100
AcDbText
 73
     2
  0
TEXT
  5
2A362
330
1F
100
AcDbEntity
  8
0
100
AcDbText
 10
333.37
 20
31.5
 30
0.0
 40
3.0
  1
尺度
 41
0.9
 72
     1
 11
336.25
 21
33.0
 31
0.0
100
AcDbText
 73
     2
  0
TEXT
  5
2A363
330
1F
100
AcDbEntity
  8
0
100
AcDbText
 10
347.5141191097013
 20
25.47732717604083
 30
0.0
 40
5.0
  1
柏原計器工業株式会社
 41
0.9
 72
     1
 11
373.9141191097012
 21
27.97732717604083
 31
0.0
100
AcDbText
 73
     2
  0
TEXT
  5
2A364
330
1F
100
AcDbEntity
  8
0
100
AcDbText
 10
331.75
 20
23.75
 30
0.0
 40
3.5
  1
free
 41
0.9
 72
     1
 11
336.25
 21
25.5
 31
0.0
100
AcDbText
 73
     2
  0
TEXT
  5
2A365
330
1F
100
AcDbEntity
  8
0
100
AcDbText
 10
306.5860329945233
 20
50.90516497261692
 30
0.0
 40
3.5
  1
外観図
 41
0.9
 72
     1
 11
311.7310329945233
 21
52.65516497261692
 31
0.0
100
AcDbText
 73
     2
  0
TEXT
  5
2A366
330
1F
100
AcDbEntity
  8
0
100
AcDbText
 10
318.7335983023971
 20
61.25
 30
0.0
 40
3.5
  1
ハイブリッド式水道メーター　20mm
 41
0.9
 72
     1
 11
352.3935983023971
 21
63.0
 31
0.0
100
AcDbText
 73
     2
  0
LINE
  5
2A367
330
1F
100
AcDbEntity
  8
0
100
AcDbLine
 10
404.9999999999998
 20
46.49999999999999
 30
0.0
 11
280.0
 21
46.5
 31
0.0
  0
LINE
  5
2A369
330
1F
100
AcDbEntity
  8
0
100
AcDbLine
 10
347.5
 20
57.99999999999999
 30
0.0
 11
347.5
 21
46.5
 31
0.0
  0
TEXT
  5
2A36A
330
1F
100
AcDbEntity
  8
0
100
AcDbText
 10
343.8012444219987
 20
53.78915733104803
 30
0.0
 40
3.0
  1
図
 41
0.9
 72
     1
 11
345.0612444219987
 21
55.28915733104803
 31
0.0
100
AcDbText
 73
     2
  0
TEXT
  5
2A36B
330
1F
100
AcDbEntity
  8
0
100
AcDbText
 10
343.74
 20
48.125
 30
0.0
 40
3.0
  1
番
 41
0.9
 72
     1
 11
345.0
 21
49.62499999999999
 31
0.0
100
AcDbText
 73
     2
  0
LINE
  5
2A36C
330
1F
100
AcDbEntity
  8
0
100
AcDbLine
 10
285.0
 20
46.49999999999999
 30
0.0
 11
285.0
 21
35.0
 31
0.0
  0
TEXT
  5
2A36D
330
1F
100
AcDbEntity
  8
0
100
AcDbText
 10
281.3012444219987
 20
42.28915733104803
 30
0.0
 40
3.0
  1
摘
 41
0.9
 72
     1
 11
282.5612444219987
 21
43.78915733104803
 31
0.0
100
AcDbText
 73
     2
  0
TEXT
  5
2A36E
330
1F
100
AcDbEntity
  8
0
100
AcDbText
 10
281.24
 20
36.625
 30
0.0
 40
3.0
  1
要
 41
0.9
 72
     1
 11
282.5
 21
38.125
 31
0.0
100
AcDbText
 73
     2
  0
LINE
  5
2A36F
330
1F
100
AcDbEntity
  8
0
100
AcDbLine
 10
285.0
 20
57.99999999999999
 30
0.0
 11
285.0
 21
46.5
 31
0.0
  0
TEXT
  5
2A370
330
1F
100
AcDbEntity
  8
0
100
AcDbText
 10
281.3912444219987
 20
53.78915733104803
 30
0.0
 40
3.0
  1
名
 41
0.9
 72
     1
 11
282.5612444219987
 21
55.28915733104803
 31
0.0
100
AcDbText
 73
     2
  0
TEXT
  5
2A371
330
1F
100
AcDbEntity
  8
0
100
AcDbText
 10
281.24
 20
48.125
 30
0.0
 40
3.0
  1
称
 41
0.9
 72
     1
 11
282.5
 21
49.62499999999999
 31
0.0
100
AcDbText
 73
     2
  0
LINE
  5
2A372
330
1F
100
AcDbEntity
  8
0
  6
CENTER
 48
0.2
370
    15
100
AcDbLine
 10
380.3743237194039
 20
40.70717840942182
 30
0.0
 11
402.3661932218493
 21
40.70717840942182
 31
0.0
  0
LINE
  5
2A373
330
1F
100
AcDbEntity
  8
0
  6
CENTER
 48
0.2
370
    15
100
AcDbLine
 10
385.6829979138538
 20
45.02275052681983
 30
0.0
 11
385.6829979138538
 21
36.39160629202382
 31
0.0
  0
CIRCLE
  5
2A374
330
1F
100
AcDbEntity
  8
0
100
AcDbCircle
 10
385.6829979138538
 20
40.70717840942182
 30
0.0
 40
3.616483184024218
  0
CIRCLE
  5
2A375
330
1F
100
AcDbEntity
  8
0
100
AcDbCircle
 10
385.6829979138538
 20
40.70717840942182
 30
0.0
 40
2.153012167676263
  0
LINE
  5
2A376
330
1F
100
AcDbEntity
  8
0
100
AcDbLine
 10
391.435352056124
 20
42.86019057709808
 30
0.0
 11
391.435352056124
 21
38.5377720924151
 31
0.0
  0
LINE
  5
2A377
330
1F
100
AcDbEntity
  8
0
100
AcDbLine
 10
391.435352056124
 20
38.5377720924151
 30
0.0
 11
400.8293035353753
 21
37.0906952253976
 31
0.0
  0
LINE
  5
2A378
330
1F
100
AcDbEntity
  8
0
100
AcDbLine
 10
400.8293035353753
 20
37.0906952253976
 30
0.0
 11
400.8293035353753
 21
44.32366159344604
 31
0.0
  0
LINE
  5
2A379
330
1F
100
AcDbEntity
  8
0
100
AcDbLine
 10
400.8293035353753
 20
44.32366159344604
 30
0.0
 11
391.435352056124
 21
42.86019057709808
 31
0.0
  0
TEXT
  5
2A37A
330
1F
100
AcDbEntity
  8
0
100
AcDbText
 10
343.8012444219987
 20
42.28915733104803
 30
0.0
 40
3.0
  1
材
 41
0.9
 72
     1
 11
345.0612444219987
 21
43.78915733104803
 31
0.0
100
AcDbText
 73
     2
  0
TEXT
  5
2A37B
330
1F
100
AcDbEntity
  8
0
100
AcDbText
 10
343.74
 20
36.625
 30
0.0
 40
3.0
  1
質
 41
0.9
 72
     1
 11
345.0
 21
38.125
 31
0.0
100
AcDbText
 73
     2
  0
LINE
  5
2A37C
330
1F
100
AcDbEntity
  8
0
100
AcDbLine
 10
347.5
 20
46.49999999999999
 30
0.0
 11
347.5
 21
35.0
 31
0.0
  0
TEXT
  5
2A37D
330
1F
100
AcDbEntity
  8
0
100
AcDbText
 10
375.0512444219985
 20
42.72828299788964
 30
0.0
 40
3.0
  1
投
 41
0.9
 72
     1
 11
376.3112444219985
 21
44.22828299788965
 31
0.0
100
AcDbText
 73
     2
  0
TEXT
  5
2A37E
330
1F
100
AcDbEntity
  8
0
100
AcDbText
 10
374.9899999999998
 20
35.74674936600604
 30
0.0
 40
3.0
  1
法
 41
0.9
 72
     1
 11
376.2499999999998
 21
37.24674936600604
 31
0.0
100
AcDbText
 73
     2
  0
LINE
  5
2A37F
330
1F
100
AcDbEntity
  8
0
100
AcDbLine
 10
378.7499999999998
 20
46.49999999999999
 30
0.0
 11
378.7499999999998
 21
35.0
 31
0.0
  0
TEXT
  5
2A380
330
1F
100
AcDbEntity
  8
0
100
AcDbText
 10
375.0512444219985
 20
39.32506030432352
 30
0.0
 40
3.0
  1
影
 41
0.9
 72
     1
 11
376.3112444219985
 21
40.82506030432351
 31
0.0
100
AcDbText
 73
     2
  0
TEXT
  5
2A77A
330
1F
100
AcDbEntity
  8
0
100
AcDbText
 10
317.8166666666667
 20
26.58703627890884
 30
0.0
 40
3.5
  1
2019.
 41
0.8
 72
     1
 11
323.75
 21
28.33703627890884
 31
0.0
100
AcDbText
 73
     2
  0
TEXT
  5
2A77B
330
1F
100
AcDbEntity
  8
0
100
AcDbText
 10
317.55
 20
21.53356531963254
 30
0.0
 40
3.5
  1
11.20
 41
0.8
 72
     1
 11
323.75
 21
23.28356531963255
 31
0.0
100
AcDbText
 73
     2
  0
TEXT
  5
2BF5F
330
1F
100
AcDbEntity
  8
寸法
100
AcDbText
 10
263.7396897481989
 20
98.52484894317093
 30
0.0
 40
3.5
  1
φ33.2～山11　上水
 41
0.9
  7
寸法
100
AcDbText
  0
SOLID
  5
2BF60
330
1F
100
AcDbEntity
  8
寸法
100
AcDbTrace
 10
251.3591614254115
 20
84.45731285342231
 30
0.0
 11
250.2310589048318
 21
82.18773231636863
 31
0.0
 12
252.0342630849651
 22
83.96876173663679
 32
0.0
 13
252.0342630849651
 23
83.96876173663679
 33
0.0
1001
ACAD
1000
DSTYLE
1002
{
1070
   147
1040
1.0
1070
    77
1070
     0
1002
}
  0
LWPOLYLINE
  5
2BF61
330
1F
100
AcDbEntity
  8
寸法
100
AcDbPolyline
 90
        3
 70
     0
 43
0.0
 10
251.6967122551882
 20
84.21303729502955
 10
261.1257103055036
 20
97.24244611836617
 10
307.6268341963196
 20
97.24244611836617
1001
ACAD
1000
DSTYLE
1002
{
1070
   147
1040
1.0
1070
    77
1070
     0
1002
}
  0
TEXT
  5
2BF62
330
1F
100
AcDbEntity
  8
寸法
100
AcDbText
 10
263.8993619935644
 20
92.78237479469556
 30
0.0
 40
3.5
  1
φ33.0～山14　金門
 41
0.9
  7
寸法
100
AcDbText
  0
TEXT
  5
2BF6C
330
1F
100
AcDbEntity
  8
0
100
AcDbText
 10
301.9060329945233
 20
39.40516497261692
 30
0.0
 40
3.5
  1
PDH-20
 41
0.9
 72
     1
 11
311.7310329945233
 21
41.15516497261692
 31
0.0
100
AcDbText
 73
     2
  0
LINE
  5
2C58E
330
1F
100
AcDbEntity
  8
一点鎖線
 48
0.5
100
AcDbLine
 10
164.2310589048318
 20
148.852811141137
 30
0.0
 11
164.2310589048318
 21
27.24956616760688
 31
0.0
  0
LINE
  5
2C58F
102
{ACAD_REACTORS
330
2CC09
102
}
330
1F
100
AcDbEntity
  8
一点鎖線
 48
0.5
100
AcDbLine
 10
267.258845631711
 20
65.68773231636862
 30
0.0
 11
61.20327217795239
 21
65.68773231636862
 31
0.0
  0
LINE
  5
2C803
330
1F
100
AcDbEntity
  8
一点鎖線
100
AcDbLine
 10
259.0356005094327
 20
199.4603806944309
 30
0.0
 11
63.64783288410194
 21
199.460380694431
 31
0.0
  0
LINE
  5
2C804
330
1F
100
AcDbEntity
  8
一点鎖線
100
AcDbLine
 10
164.2310589048318
 20
251.3981413951106
 30
0.0
 11
164.2310589048318
 21
147.5226199937511
 31
0.0
  0
LINE
  5
2C805
330
1F
100
AcDbEntity
  8
実線
100
AcDbLine
 10
257.2310589048318
 20
214.9603806944307
 30
0.0
 11
257.2310589048318
 21
183.9603806944309
 31
0.0
  0
LINE
  5
2C806
330
1F
100
AcDbEntity
  8
実線
100
AcDbLine
 10
255.7310589048318
 20
215.9603806944309
 30
0.0
 11
257.2310589048318
 21
214.9603806944308
 31
0.0
  0
LINE
  5
2C807
330
1F
100
AcDbEntity
  8
実線
100
AcDbLine
 10
255.7310589048318
 20
182.9603806944309
 30
0.0
 11
257.2310589048318
 21
183.9603806944309
 31
0.0
  0
LINE
  5
2C808
330
1F
100
AcDbEntity
  8
実線
100
AcDbLine
 10
244.2310589048318
 20
215.9603806944309
 30
0.0
 11
244.2310589048318
 21
182.9603806944309
 31
0.0
  0
LINE
  5
2C809
330
1F
100
AcDbEntity
  8
実線
100
AcDbLine
 10
255.7310589048318
 20
215.9603806944309
 30
0.0
 11
244.2310589048318
 21
215.9603806944309
 31
0.0
  0
LINE
  5
2C80A
330
1F
100
AcDbEntity
  8
実線
100
AcDbLine
 10
255.7310589048318
 20
182.9603806944309
 30
0.0
 11
244.2310589048318
 21
182.9603806944309
 31
0.0
  0
LINE
  5
2C80B
330
1F
100
AcDbEntity
  8
細線
100
AcDbLine
 10
255.7310589048318
 20
215.4603806944309
 30
0.0
 11
244.2310589048318
 21
215.4603806944309
 31
0.0
  0
LINE
  5
2C80C
330
1F
100
AcDbEntity
  8
細線
100
AcDbLine
 10
255.7310589048318
 20
183.4603806944308
 30
0.0
 11
244.2310589048318
 21
183.4603806944308
 31
0.0
  0
LINE
  5
2C80D
330
1F
100
AcDbEntity
  8
実線
100
AcDbLine
 10
202.3107405007222
 20
174.1086211598988
 30
0.0
 11
241.6710589048316
 21
185.5887140277642
 31
0.0
  0
ARC
  5
2C80E
330
1F
100
AcDbEntity
  8
実線
100
AcDbCircle
 10
242.2310589048318
 20
183.6687140277641
 30
0.0
 40
2.0
100
AcDbArc
 50
0.0
 51
106.2602047083103
  0
LINE
  5
2C80F
330
1F
100
AcDbEntity
  8
実線
100
AcDbLine
 10
229.6844283593232
 20
216.8281479368708
 30
0.0
 11
241.6710589048316
 21
213.3320473610975
 31
0.0
  0
ARC
  5
2C811
330
1F
100
AcDbEntity
  8
実線
100
AcDbCircle
 10
242.2310589048318
 20
215.2520473610975
 30
0.0
 40
2.0
100
AcDbArc
 50
253.7397952916897
 51
0.0
  0
LINE
  5
2C812
330
1F
100
AcDbEntity
  8
実線
100
AcDbLine
 10
255.7310589048319
 20
215.9603806944309
 30
0.0
 11
255.7310589048318
 21
182.9603806944309
 31
0.0
  0
LINE
  5
2C813
330
1F
100
AcDbEntity
  8
実線
100
AcDbLine
 10
80.23105890483179
 20
215.960380694431
 30
0.0
 11
80.23105890483179
 21
182.960380694431
 31
0.0
  0
LINE
  5
2C814
330
1F
100
AcDbEntity
  8
実線
100
AcDbLine
 10
67.23105890483179
 20
214.9603806944309
 30
0.0
 11
67.23105890483179
 21
183.960380694431
 31
0.0
  0
LINE
  5
2C815
330
1F
100
AcDbEntity
  8
細線
100
AcDbLine
 10
68.7310589048318
 20
183.4603806944309
 30
0.0
 11
80.23105890483179
 21
183.4603806944309
 31
0.0
  0
LINE
  5
2C816
330
1F
100
AcDbEntity
  8
実線
100
AcDbLine
 10
68.7310589048318
 20
182.960380694431
 30
0.0
 11
80.23105890483179
 21
182.960380694431
 31
0.0
  0
LINE
  5
2C817
330
1F
100
AcDbEntity
  8
実線
100
AcDbLine
 10
68.7310589048318
 20
182.960380694431
 30
0.0
 11
67.23105890483179
 21
183.960380694431
 31
0.0
  0
ARC
  5
2C818
330
1F
100
AcDbEntity
  8
実線
100
AcDbCircle
 10
82.2310589048318
 20
183.6687140277643
 30
0.0
 40
2.0
100
AcDbArc
 50
73.73979529168967
 51
180.0
  0
LINE
  5
2C819
330
1F
100
AcDbEntity
  8
細線
100
AcDbLine
 10
68.7310589048318
 20
215.460380694431
 30
0.0
 11
80.23105890483179
 21
215.460380694431
 31
0.0
  0
LINE
  5
2C81A
330
1F
100
AcDbEntity
  8
実線
100
AcDbLine
 10
68.7310589048318
 20
215.960380694431
 30
0.0
 11
80.23105890483179
 21
215.960380694431
 31
0.0
  0
LINE
  5
2C81B
330
1F
100
AcDbEntity
  8
実線
100
AcDbLine
 10
68.7310589048318
 20
215.960380694431
 30
0.0
 11
68.7310589048318
 21
182.960380694431
 31
0.0
  0
LINE
  5
2C81C
330
1F
100
AcDbEntity
  8
実線
100
AcDbLine
 10
68.7310589048318
 20
215.960380694431
 30
0.0
 11
67.23105890483179
 21
214.9603806944309
 31
0.0
  0
ARC
  5
2C81D
330
1F
100
AcDbEntity
  8
実線
100
AcDbCircle
 10
82.2310589048318
 20
215.2520473610975
 30
0.0
 40
2.0
100
AcDbArc
 50
180.0
 51
286.2602047083103
  0
LINE
  5
2C81E
330
1F
100
AcDbEntity
  8
実線
100
AcDbLine
 10
80.23105890483179
 20
215.960380694431
 30
0.0
 11
80.23105890483179
 21
215.2520473610975
 31
0.0
  0
LINE
  5
2C81F
330
1F
100
AcDbEntity
  8
実線
100
AcDbLine
 10
126.1335145958155
 20
174.0907584467724
 30
0.0
 11
82.79105890483174
 21
185.5887140277643
 31
0.0
  0
LINE
  5
2C820
330
1F
100
AcDbEntity
  8
実線
100
AcDbLine
 10
126.1335145958153
 20
224.8300029420891
 30
0.0
 11
82.79105890483197
 21
213.3320473610976
 31
0.0
  0
LINE
  5
2C821
330
1F
100
AcDbEntity
  8
実線
100
AcDbLine
 10
109.997444537144
 20
177.336771813081
 30
0.0
 11
97.39919436647006
 21
180.6788556556162
 31
0.0
  0
LINE
  5
2C822
330
1F
100
AcDbEntity
  8
実線
100
AcDbLine
 10
97.39919436647006
 20
180.6788556556162
 30
0.0
 11
97.39919436647006
 21
181.7134446185611
 31
0.0
  0
LINE
  5
2C823
330
1F
100
AcDbEntity
  8
実線
100
AcDbLine
 10
109.997444537144
 20
177.336771813081
 30
0.0
 11
109.997444537144
 21
178.371360776026
 31
0.0
  0
LINE
  5
2C824
330
1F
100
AcDbEntity
  8
実線
100
AcDbLine
 10
257.2310589048318
 20
81.18773231636865
 30
0.0
 11
257.2310589048318
 21
50.18773231636849
 31
0.0
  0
LINE
  5
2C826
330
1F
100
AcDbEntity
  8
実線
100
AcDbLine
 10
256.2310589048318
 20
49.18773231636862
 30
0.0
 11
244.2310589048318
 21
49.18773231636868
 31
0.0
  0
LINE
  5
2C828
330
1F
100
AcDbEntity
  8
実線
100
AcDbLine
 10
256.2310589048318
 20
82.18773231636863
 30
0.0
 11
244.2310589048318
 21
82.18773231636863
 31
0.0
  0
LINE
  5
2C829
102
{ACAD_REACTORS
330
2CBF1
102
}
330
1F
100
AcDbEntity
  8
実線
100
AcDbLine
 10
67.23105890483179
 20
81.18773231636863
 30
0.0
 11
67.23105890483179
 21
50.18773231636868
 31
0.0
  0
LINE
  5
2C82A
330
1F
100
AcDbEntity
  8
実線
100
AcDbLine
 10
68.2310589048318
 20
49.18773231636862
 30
0.0
 11
80.23105890483179
 21
49.18773231636868
 31
0.0
  0
LINE
  5
2C82C
330
1F
100
AcDbEntity
  8
実線
100
AcDbLine
 10
68.2310589048318
 20
82.18773231636863
 30
0.0
 11
80.23105890483179
 21
82.18773231636863
 31
0.0
  0
LINE
  5
2C82E
330
1F
100
AcDbEntity
  8
実線
100
AcDbLine
 10
68.2310589048318
 20
82.18773231636863
 30
0.0
 11
67.23105890483179
 21
81.18773231636863
 31
0.0
  0
LINE
  5
2C82F
330
1F
100
AcDbEntity
  8
実線
100
AcDbLine
 10
80.23105890483179
 20
49.18773231636868
 30
0.0
 11
80.23105890482566
 21
82.18773231636863
 31
0.0
  0
LINE
  5
2C830
330
1F
100
AcDbEntity
  8
実線
100
AcDbLine
 10
204.2310589048315
 20
103.6877323163686
 30
0.0
 11
204.2310589048315
 21
103.6877323163686
 31
0.0
  0
LINE
  5
2C831
330
1F
100
AcDbEntity
  8
実線
100
AcDbLine
 10
202.2310589048316
 20
101.6877323163686
 30
0.0
 11
202.2310589048316
 21
97.34798635421306
 31
0.0
  0
ARC
  5
2C832
330
1F
100
AcDbEntity
  8
実線
100
AcDbCircle
 10
199.2310589048318
 20
88.68773231636863
 30
0.0
 40
8.0
100
AcDbArc
 50
22.88084800841397
 51
60.00000000000002
  0
ARC
  5
2C833
330
1F
100
AcDbEntity
  8
実線
100
AcDbCircle
 10
204.2310589048315
 20
97.34798635421306
 30
0.0
 40
2.0
100
AcDbArc
 50
180.0
 51
240.0
  0
ARC
  5
2C834
330
1F
100
AcDbEntity
  8
実線
100
AcDbCircle
 10
124.2310589048318
 20
97.34798635421283
 30
0.0
 40
2.0
100
AcDbArc
 50
300.0
 51
0.0
  0
LINE
  5
2C835
330
1F
100
AcDbEntity
  8
実線
100
AcDbLine
 10
126.2310589048318
 20
101.6877323163686
 30
0.0
 11
126.2310589048318
 21
97.34798635421306
 31
0.0
  0
LINE
  5
2C836
330
1F
100
AcDbEntity
  8
実線
100
AcDbLine
 10
124.2310589048318
 20
103.6877323163686
 30
0.0
 11
124.2310589048318
 21
103.6877323163686
 31
0.0
  0
ARC
  5
2C837
330
1F
100
AcDbEntity
  8
実線
100
AcDbCircle
 10
129.2310589048318
 20
88.68773231636863
 30
0.0
 40
8.0
100
AcDbArc
 50
119.9999999999999
 51
180.0
  0
LINE
  5
2C838
330
1F
100
AcDbEntity
  8
実線
100
AcDbLine
 10
121.2310589048318
 20
88.68773231636863
 30
0.0
 11
121.2310589048318
 21
86.88612251988445
 31
0.0
  0
LINE
  5
2C839
330
1F
100
AcDbEntity
  8
実線
100
AcDbLine
 10
241.6128867601567
 20
79.69309939010997
 30
0.0
 11
214.3038006878192
 21
88.56855236361969
 31
0.0
  0
ARC
  5
2C83A
330
1F
100
AcDbEntity
  8
実線
100
AcDbCircle
 10
208.444213152213
 20
92.57589239717288
 30
0.0
 40
2.0
100
AcDbArc
 50
202.880848008414
 51
251.9958383940871
  0
ARC
  5
2C83B
330
1F
100
AcDbEntity
  8
実線
100
AcDbCircle
 10
242.2310589048318
 20
81.59516752757179
 30
0.0
 40
2.0
100
AcDbArc
 50
251.9958383940871
 51
0.0
  0
LINE
  5
2C83C
330
1F
100
AcDbEntity
  8
実線
100
AcDbLine
 10
82.2310589048318
 20
51.81606564970201
 30
0.0
 11
88.87417337190777
 21
51.81606564970201
 31
0.0
  0
ARC
  5
2C83D
330
1F
100
AcDbEntity
  8
実線
100
AcDbCircle
 10
164.2310589048318
 20
385.6877323163685
 30
0.0
 40
353.0
100
AcDbArc
 50
270.0
 51
273.9605193862498
  0
ARC
  5
2C83E
330
1F
100
AcDbEntity
  8
実線
100
AcDbCircle
 10
187.2310589048318
 20
53.48297617943427
 30
0.0
 40
20.0
100
AcDbArc
 50
273.9605193862498
 51
341.6074711473093
  0
LINE
  5
2C83F
330
1F
100
AcDbEntity
  8
実線
100
AcDbLine
 10
210.6424700666428
 20
50.58512978983163
 30
0.0
 11
242.1064517396863
 21
52.54926440309162
 31
0.0
  0
ARC
  5
2C840
330
1F
100
AcDbEntity
  8
実線
100
AcDbCircle
 10
242.2310589048318
 20
50.55314991379129
 30
0.0
 40
2.0
100
AcDbArc
 50
0.0
 51
93.5720458334142
  0
ARC
  5
2C841
330
1F
100
AcDbEntity
  8
実線
100
AcDbCircle
 10
210.9539879795063
 20
45.594843566581
 30
0.0
 40
5.0
100
AcDbArc
 50
93.5720458334142
 51
161.6074711473092
  0
LINE
  5
2C842
330
1F
100
AcDbEntity
  8
実線
100
AcDbLine
 10
234.2310589048318
 20
52.05764411737266
 30
0.0
 11
197.2425227134522
 21
36.0244994680134
 31
0.0
  0
LINE
  5
2C843
330
1F
100
AcDbEntity
  8
実線
100
AcDbLine
 10
194.2310589048318
 20
30.68773231636863
 30
0.0
 11
194.2310589048318
 21
31.43693760842234
 31
0.0
  0
ARC
  5
2C844
330
1F
100
AcDbEntity
  8
実線
100
AcDbCircle
 10
199.2310589048318
 20
31.43693760842234
 30
0.0
 40
5.0
100
AcDbArc
 50
113.4349248999351
 51
180.0
  0
LINE
  5
2C845
330
1F
100
AcDbEntity
  8
実線
100
AcDbLine
 10
194.2310589048318
 20
30.68773231636863
 30
0.0
 11
134.2310589048318
 21
30.68773231636868
 31
0.0
  0
LINE
  5
2C846
102
{ACAD_REACTORS
330
2CC09
330
2CC50
102
}
330
1F
100
AcDbEntity
  8
実線
100
AcDbLine
 10
134.2310589048318
 20
30.68773231636868
 30
0.0
 11
134.2310589048318
 21
31.48974237930946
 31
0.0
  0
LINE
  5
2C847
330
1F
100
AcDbEntity
  8
実線
100
AcDbLine
 10
212.2310589048318
 20
92.68773231636862
 30
0.0
 11
212.2310589048318
 21
91.4216545698124
 31
0.0
  0
LINE
  5
2C848
330
1F
100
AcDbEntity
  8
実線
100
AcDbLine
 10
209.2310589048318
 20
95.68773231636862
 30
0.0
 11
203.1159102466604
 21
95.68773231636862
 31
0.0
  0
ARC
  5
2C849
330
1F
100
AcDbEntity
  8
実線
100
AcDbCircle
 10
209.2310589048318
 20
92.68773231636862
 30
0.0
 40
3.0
100
AcDbArc
 50
0.0
 51
90.0
  0
ARC
  5
2C84A
330
1F
100
AcDbEntity
  8
実線
100
AcDbCircle
 10
215.2310589048318
 20
91.4216545698124
 30
0.0
 40
3.0
100
AcDbArc
 50
180.0
 51
251.9958383940871
  0
LINE
  5
2C84B
330
1F
100
AcDbEntity
  8
実線
100
AcDbLine
 10
214.3038006878192
 20
88.56855236361969
 30
0.0
 11
207.8260410075379
 21
90.67382425971107
 31
0.0
  0
CIRCLE
  5
2C84C
330
1F
100
AcDbEntity
  8
実線
100
AcDbCircle
 10
209.2310589048318
 20
92.68773231636862
 30
0.0
 40
1.0
  0
ARC
  5
2C84F
330
1F
100
AcDbEntity
  8
実線
100
AcDbCircle
 10
164.2310589048318
 20
190.6877323163685
 30
0.0
 40
158.0
100
AcDbArc
 50
241.5141106229002
 51
270.0
  0
ARC
  5
2C850
330
1F
100
AcDbEntity
  8
実線
100
AcDbCircle
 10
82.2310589048318
 20
49.81606564970201
 30
0.0
 40
2.0
100
AcDbArc
 50
90.0
 51
180.0
  0
ARC
  5
2C851
330
1F
100
AcDbEntity
  8
実線
100
AcDbCircle
 10
129.2310589048318
 20
31.48974237930946
 30
0.0
 40
5.0
100
AcDbArc
 50
0.0
 51
77.60066881812869
  0
LINE
  5
2C852
330
1F
100
AcDbEntity
  8
実線
100
AcDbLine
 10
82.5159295761091
 20
78.71572157308389
 30
0.0
 11
118.6583649117478
 21
83.9167101914171
 31
0.0
  0
ARC
  5
2C853
330
1F
100
AcDbEntity
  8
実線
100
AcDbCircle
 10
82.2310589048318
 20
80.69532979206201
 30
0.0
 40
2.0
100
AcDbArc
 50
180.0
 51
278.1887932286609
  0
ARC
  5
2C854
330
1F
100
AcDbEntity
  8
実線
100
AcDbCircle
 10
118.2310589048318
 20
86.88612251988445
 30
0.0
 40
3.0
100
AcDbArc
 50
278.1887932286609
 51
0.0
  0
LINE
  5
2C855
330
1F
100
AcDbEntity
  8
実線
100
AcDbLine
 10
256.2310589048318
 20
82.18773231636863
 30
0.0
 11
257.2310589048318
 21
81.18773231636863
 31
0.0
  0
LINE
  5
2C857
330
1F
100
AcDbEntity
  8
実線
100
AcDbLine
 10
244.2310589048318
 20
49.18773231636868
 30
0.0
 11
244.2310589048318
 21
82.18773231636863
 31
0.0
  0
LINE
  5
2C858
330
1F
100
AcDbEntity
  8
実線
100
AcDbLine
 10
147.2310589048318
 20
80.18773231636862
 30
0.0
 11
164.2310589048318
 21
80.18773231636862
 31
0.0
  0
LINE
  5
2C859
330
1F
100
AcDbEntity
  8
実線
100
AcDbLine
 10
147.2310589048318
 20
87.18773231636863
 30
0.0
 11
164.2310589048318
 21
87.18773231636863
 31
0.0
  0
LINE
  5
2C85A
330
1F
100
AcDbEntity
  8
実線
100
AcDbLine
 10
147.2310589048318
 20
82.93773231636862
 30
0.0
 11
175.2310589048318
 21
82.93773231636862
 31
0.0
  0
LINE
  5
2C85B
330
1F
100
AcDbEntity
  8
実線
100
AcDbLine
 10
175.2310589048318
 20
84.43773231636862
 30
0.0
 11
147.2310589048318
 21
84.43773231636862
 31
0.0
  0
LINE
  5
2C85C
330
1F
100
AcDbEntity
  8
実線
100
AcDbLine
 10
175.2310589048318
 20
80.18773231636862
 30
0.0
 11
181.2310589048318
 21
83.68773231636863
 31
0.0
  0
LINE
  5
2C85D
330
1F
100
AcDbEntity
  8
実線
100
AcDbLine
 10
181.2310589048318
 20
83.68773231636863
 30
0.0
 11
175.2310589048318
 21
87.18773231636863
 31
0.0
  0
LINE
  5
2C85E
330
1F
100
AcDbEntity
  8
実線
100
AcDbLine
 10
164.2310589048318
 20
80.18773231636862
 30
0.0
 11
166.5531553061655
 21
82.93773231636862
 31
0.0
  0
LINE
  5
2C85F
330
1F
100
AcDbEntity
  8
実線
100
AcDbLine
 10
175.2310589048318
 20
82.93773231636862
 30
0.0
 11
175.2310589048318
 21
80.18773231636862
 31
0.0
  0
LINE
  5
2C860
330
1F
100
AcDbEntity
  8
実線
100
AcDbLine
 10
175.2310589048318
 20
87.18773231636863
 30
0.0
 11
175.2310589048318
 21
84.43773231636862
 31
0.0
  0
LINE
  5
2C861
330
1F
100
AcDbEntity
  8
実線
100
AcDbLine
 10
164.2310589048318
 20
87.18773231636863
 30
0.0
 11
166.5531553061655
 21
84.43773231636862
 31
0.0
  0
LINE
  5
2C862
330
1F
100
AcDbEntity
  8
実線
100
AcDbLine
 10
147.2310589048318
 20
80.18773231636862
 30
0.0
 11
149.5531553061655
 21
82.93773231636862
 31
0.0
  0
LINE
  5
2C863
330
1F
100
AcDbEntity
  8
実線
100
AcDbLine
 10
147.2310589048318
 20
87.18773231636863
 30
0.0
 11
149.5531553061655
 21
84.43773231636862
 31
0.0
  0
LINE
  5
2C864
330
1F
100
AcDbEntity
  8
実線
100
AcDbLine
 10
147.2310589048318
 20
84.43773231636862
 30
0.0
 11
147.2310589048318
 21
82.93773231636862
 31
0.0
  0
TEXT
  5
2C865
330
1F
100
AcDbEntity
  8
文字
100
AcDbText
 10
107.9608265280215
 20
62.36407130834757
 30
0.0
 40
6.7
  1
E
  7
ﾛｺﾞ
 72
     1
 11
110.1666057488007
 21
65.71407130834757
 31
0.0
100
AcDbText
 73
     2
  0
TEXT
  5
2C866
330
1F
100
AcDbEntity
  8
文字
100
AcDbText
 10
99.06434587843408
 20
62.39822632887287
 30
0.0
 40
6.7
  1
9
  7
ﾛｺﾞ
 72
     1
 11
101.2918783459665
 21
65.74822632887287
 31
0.0
100
AcDbText
 73
     2
  0
TEXT
  5
2C867
330
1F
100
AcDbEntity
  8
文字
100
AcDbText
 10
93.06434587843408
 20
62.39822632887287
 30
0.0
 40
6.7
  1
1
  7
ﾛｺﾞ
 72
     1
 11
95.29187834596655
 21
65.74822632887287
 31
0.0
100
AcDbText
 73
     2
  0
TEXT
  5
2C868
330
1F
100
AcDbEntity
  8
文字
100
AcDbText
 10
144.4818368301637
 20
54.68773231636863
 30
0.0
 40
14.0
  1
20
 41
1.1
  7
ﾛｺﾞ
 72
     1
 11
154.7218368301637
 21
61.68773231636862
 31
0.0
100
AcDbText
 73
     2
  0
TEXT
  5
2C869
330
1F
100
AcDbEntity
  8
文字
100
AcDbText
 10
166.8255908364935
 20
61.81601571809778
 30
0.0
 40
9.0
  1
mm
 41
1.05
  7
ﾛｺﾞ
 72
     1
 11
176.2633181092208
 21
66.31601571809778
 31
0.0
100
AcDbText
 73
     2
  0
LINE
  5
2C86A
330
1F
100
AcDbEntity
  8
実線
100
AcDbLine
 10
68.2310589048318
 20
49.18773231636862
 30
0.0
 11
67.23105890483179
 21
50.18773231636862
 31
0.0
  0
LINE
  5
2C86B
330
1F
100
AcDbEntity
  8
実線
100
AcDbLine
 10
256.2310589048318
 20
49.18773231636851
 30
0.0
 11
257.2310589048318
 21
50.18773231636851
 31
0.0
  0
LINE
  5
2C86C
330
1F
100
AcDbEntity
  8
実線
100
AcDbLine
 10
256.2310589048318
 20
49.1877323163685
 30
0.0
 11
256.2310589048318
 21
82.18773231636863
 31
0.0
  0
LINE
  5
2C86D
330
1F
100
AcDbEntity
  8
実線
100
AcDbLine
 10
68.2310589048318
 20
82.18773231636863
 30
0.0
 11
68.2310589048318
 21
49.18773231636862
 31
0.0
  0
LINE
  5
2C98F
330
1F
100
AcDbEntity
  8
実線
100
AcDbLine
 10
125.4810586048859
 20
103.3355046068494
 30
-0.0000000000000032
 11
125.4810586048859
 21
102.9686966068494
 31
-0.0000000000000032
  0
LINE
  5
2C990
330
1F
100
AcDbEntity
  8
実線
100
AcDbLine
 10
124.2310586048859
 20
104.2337226068495
 30
-0.0000000000000032
 11
124.2310586048859
 21
104.0572096068494
 31
-0.0000000000000032
  0
LINE
  5
2C991
330
1F
100
AcDbEntity
  8
実線
100
AcDbLine
 10
202.9810586048859
 20
102.9686966068494
 30
-0.0000000000000032
 11
203.817725604886
 21
103.4517466068494
 31
-0.0000000000000032
  0
LINE
  5
2C992
330
1F
100
AcDbEntity
  8
実線
100
AcDbLine
 10
164.2310586048859
 20
105.9477346068495
 30
-0.0000000000000032
 11
207.2310586048859
 21
105.9477346068495
 31
-0.0000000000000032
  0
LINE
  5
2C993
330
1F
100
AcDbEntity
  8
実線
100
AcDbLine
 10
125.5148066048859
 20
102.9686966068494
 30
-0.0000000000000032
 11
125.4810586048859
 21
102.9686966068494
 31
-0.0000000000000032
  0
LINE
  5
2C994
330
1F
100
AcDbEntity
  8
実線
100
AcDbLine
 10
204.2310586048859
 20
105.0571806068495
 30
-0.0000000000000032
 11
204.2310586048859
 21
105.2336986068495
 31
-0.0000000000000032
  0
LINE
  5
2C995
330
1F
100
AcDbEntity
  8
実線
100
AcDbLine
 10
202.9810586048859
 20
103.9553906068494
 30
-0.0000000000000032
 11
202.9810586048859
 21
104.3332256068494
 31
-0.0000000000000032
  0
LINE
  5
2C996
330
1F
100
AcDbEntity
  8
実線
100
AcDbLine
 10
202.9810586048859
 20
102.9686966068494
 30
-0.0000000000000032
 11
125.5148066048859
 21
102.9686966068494
 31
-0.0000000000000032
  0
LINE
  5
2C997
330
1F
100
AcDbEntity
  8
実線
100
AcDbLine
 10
125.4810586048859
 20
105.3355416068494
 30
-0.0000000000000032
 11
125.4810586048859
 21
104.9577126068495
 31
-0.0000000000000032
  0
ARC
  5
2C998
330
1F
100
AcDbEntity
  8
実線
100
AcDbCircle
 10
-124.7310586048859
 20
101.6696586068494
 30
0.0000000000000032
 40
1.5
210
0.0
220
0.0
230
-1.0
100
AcDbArc
 50
119.9999999999999
 51
180.0
  0
ARC
  5
2C999
330
1F
100
AcDbEntity
  8
実線
100
AcDbCircle
 10
-203.7310586048859
 20
101.6696586068494
 30
0.0000000000000032
 40
1.5
210
0.0
220
0.0
230
-1.0
100
AcDbArc
 50
0.0
 51
60.00000000000002
  0
SPLINE
  5
2C99A
330
1F
100
AcDbEntity
  8
実線
100
AcDbSpline
210
-0.0000299514225053
220
-0.0000518722615799
230
-0.9999999982060904
 70
     8
 71
     2
 72
     6
 73
     3
 74
     0
 42
0.000000001
 43
0.0000000001
 40
0.0
 40
0.0
 40
0.0
 40
1.0
 40
1.0
 40
1.0
 10
203.8313880147261
 20
103.4667178344396
 30
-0.0000000000000031
 10
203.4002459543851
 20
103.7156615589717
 30
-0.0000000000000032
 10
202.9691047933413
 20
103.964606461161
 30
-0.0000000000000032
  0
SPLINE
  5
2C99B
330
1F
100
AcDbEntity
  8
実線
100
AcDbSpline
210
0.0
220
0.0
230
1.0
 70
     8
 71
     2
 72
     6
 73
     3
 74
     0
 42
0.000000001
 43
0.0000000001
 40
0.0
 40
0.0
 40
0.0
 40
1.0
 40
1.0
 40
1.0
 10
124.2269296065656
 20
104.0573685705873
 30
-0.0000000000000032
 10
124.853985939146
 20
103.6953031294355
 30
-0.0000000000000032
 10
125.4810414218921
 20
103.3332359557034
 30
-0.0000000000000032
  0
SPLINE
  5
2C99C
330
1F
100
AcDbEntity
  8
実線
100
AcDbSpline
210
0.0000000000000001
220
-0.00000000000001
230
1.0
 70
     8
 71
     3
 72
    71
 73
    67
 74
     0
 42
0.000000001
 43
0.0000000001
 40
0.0
 40
0.0
 40
0.0
 40
0.0
 40
0.0662047662227391
 40
0.0662047662227391
 40
0.0837731763723502
 40
0.0837731763723502
 40
0.1013415865219613
 40
0.1013415865219613
 40
0.1364784068211836
 40
0.1364784068211836
 40
0.1716152271204069
 40
0.1716152271204069
 40
0.189183637270018
 40
0.189183637270018
 40
0.2067520474196291
 40
0.2067520474196291
 40
0.2770256880180746
 40
0.2770256880180746
 40
0.3121625083172969
 40
0.3121625083172969
 40
0.3472993286165192
 40
0.3472993286165192
 40
0.3824361489157424
 40
0.3824361489157424
 40
0.4175729692149647
 40
0.4175729692149647
 40
0.4527097895141869
 40
0.4527097895141869
 40
0.4878466098134103
 40
0.4878466098134103
 40
0.5229834301126325
 40
0.5229834301126325
 40
0.5405518402622436
 40
0.5405518402622436
 40
0.5581202504118548
 40
0.5581202504118548
 40
0.6283938910103003
 40
0.6283938910103003
 40
0.6459623011599114
 40
0.6459623011599114
 40
0.6635307113095226
 40
0.6635307113095226
 40
0.698667531608746
 40
0.698667531608746
 40
0.7338043519079683
 40
0.7338043519079683
 40
0.7513727620575792
 40
0.7513727620575792
 40
0.7689411722071906
 40
0.7865095823568025
 40
0.7865095823568025
 40
0.8040779925064136
 40
0.8040779925064136
 40
0.8392148128056359
 40
0.8392148128056359
 40
0.874351633104858
 40
0.874351633104858
 40
0.8919200432544702
 40
0.8919200432544702
 40
0.9094884534040815
 40
0.9094884534040815
 40
0.9797620940025259
 40
0.9797620940025259
 40
0.9973305041521379
 40
0.9973305041521379
 40
1.0
 40
1.0
 40
1.0
 40
1.0
 10
204.2309888927296
 20
105.2344945992439
 30
-0.0000000000000033
 10
204.2376863071599
 20
105.2125226515621
 30
-0.0000000000000032
 10
203.9594294669664
 20
105.1906670168748
 30
-0.0000000000000028
 10
203.2433180593964
 20
105.1626235289665
 30
-0.0000000000000028
 10
203.0721024214922
 20
105.1566799646714
 30
-0.0000000000000028
 10
202.6903418644579
 20
105.1448450352978
 30
-0.0000000000000028
 10
202.4804179612481
 20
105.1389689631626
 30
-0.0000000000000028
 10
201.7947325254174
 20
105.1214476376237
 30
-0.0000000000000028
 10
201.2632230335921
 20
105.1098790165248
 30
-0.0000000000000028
 10
200.0536902665417
 20
105.0864787883529
 30
-0.0000000000000028
 10
199.3756691600617
 20
105.0747964490624
 30
-0.0000000000000028
 10
198.2464113304447
 20
105.0572715690627
 30
-0.0000000000000028
 10
197.8505706829523
 20
105.0514110859329
 30
-0.0000000000000028
 10
197.0234042760833
 20
105.0395986097495
 30
-0.0000000000000028
 10
196.5945969168572
 20
105.0336868915703
 30
-0.0000000000000028
 10
194.3761431084156
 20
105.0042787686309
 30
-0.0000000000000028
 10
192.3659182641393
 20
104.9812371027208
 30
-0.0000000000000028
 10
188.996846156348
 20
104.9459990292769
 30
-0.0000000000000028
 10
187.8078426466718
 20
104.9342414996361
 30
-0.0000000000000028
 10
185.3640444969194
 20
104.9108104719386
 30
-0.0000000000000028
 10
184.1044970510188
 20
104.8990494629756
 30
-0.0000000000000028
 10
181.5115607817142
 20
104.8757727981965
 30
-0.0000000000000028
 10
180.1781714616288
 20
104.8642319127244
 30
-0.0000000000000028
 10
177.4363014069515
 20
104.8407233445842
 30
-0.0000000000000028
 10
176.0214759177734
 20
104.8288277706406
 30
-0.0000000000000028
 10
173.1610135846408
 20
104.8053406058175
 30
-0.0000000000000028
 10
171.7123160387921
 20
104.7936175459875
 30
-0.0000000000000028
 10
168.7777356803019
 20
104.7698925716079
 30
-0.0000000000000028
 10
167.3059520761549
 20
104.7581537048439
 30
-0.0000000000000028
 10
164.3665107053741
 20
104.7348479244808
 30
-0.0000000000000028
 10
162.896742409348
 20
104.7231136731733
 30
-0.0000000000000028
 10
160.6920175211735
 20
104.7054720409663
 30
-0.0000000000000028
 10
159.9570970227048
 20
104.6995974560102
 30
-0.0000000000000028
 10
158.4872313587816
 20
104.687842642421
 30
-0.0000000000000028
 10
157.7525973077524
 20
104.6819647120189
 30
-0.0000000000000028
 10
154.118301507214
 20
104.6526444795022
 30
-0.0000000000000029
 10
151.3027101259063
 20
104.6293813793322
 30
-0.0000000000000029
 10
147.8984506383829
 20
104.5998879563569
 30
-0.0000000000000029
 10
147.2220456238212
 20
104.5939325513478
 30
-0.0000000000000029
 10
145.8956777401608
 20
104.5821260456591
 30
-0.0000000000000029
 10
145.2441390920064
 20
104.5762615220728
 30
-0.0000000000000029
 10
143.3238084210886
 20
104.5587664011224
 30
-0.0000000000000029
 10
142.0892004586199
 20
104.5472027021064
 30
-0.0000000000000029
 10
139.7103033299356
 20
104.5237966023967
 30
-0.0000000000000029
 10
138.5660086314437
 20
104.5121035134735
 30
-0.0000000000000029
 10
136.9191118638555
 20
104.4945441859219
 30
-0.0000000000000029
 10
136.380591961494
 20
104.4886648864748
 30
-0.0000000000000029
 10
135.3354954799165
 20
104.4768578753608
 30
-0.0000000000000029
 10
134.321399299755
 20
104.4650073315922
 30
-0.0000000000000029
 10
133.3689558547316
 20
104.453212437399
 30
-0.0000000000000029
 10
132.4474513490438
 20
104.4414429923405
 30
-0.0000000000000029
 10
132.0012362780533
 20
104.4355577399706
 30
-0.0000000000000029
 10
130.7194852446373
 20
104.4179633391082
 30
-0.0000000000000029
 10
129.9387947176267
 20
104.406189910872
 30
-0.0000000000000029
 10
128.5206148937577
 20
104.3828377785698
 30
-0.0000000000000029
 10
127.8831361627947
 20
104.3713027707271
 30
-0.0000000000000029
 10
127.0349985665973
 20
104.3537918722778
 30
-0.0000000000000029
 10
126.7703395721542
 20
104.3479055528119
 30
-0.0000000000000029
 10
126.2777404047917
 20
104.3361091436221
 30
-0.0000000000000029
 10
126.0491856531091
 20
104.3301813598401
 30
-0.0000000000000029
 10
125.0091180653573
 20
104.3007462987904
 30
-0.0000000000000029
 10
124.5031628075969
 20
104.2774793015264
 30
-0.0000000000000029
 10
124.2668791504732
 20
104.2483930931169
 30
-0.0000000000000031
 10
124.2396589255131
 20
104.2425803082454
 30
-0.0000000000000031
 10
124.2317493990301
 20
104.2358327785695
 30
-0.0000000000000032
 10
124.231178096694
 20
104.2349410374854
 30
-0.0000000000000032
 10
124.2310795767282
 20
104.2340478712658
 30
-0.0000000000000032
  0
SPLINE
  5
2C99D
330
1F
100
AcDbEntity
  8
実線
100
AcDbSpline
210
0.0
220
0.0
230
1.0
 70
     8
 71
     3
 72
    70
 73
    66
 74
     0
 42
0.000000001
 43
0.0000000001
 40
0.0
 40
0.0
 40
0.0
 40
0.0
 40
0.0062672843604481
 40
0.0062672843604481
 40
0.0274610462520416
 40
0.0274610462520416
 40
0.0486548081436362
 40
0.0486548081436362
 40
0.0910423319268267
 40
0.0910423319268267
 40
0.1334298557100159
 40
0.1334298557100159
 40
0.1758173794932064
 40
0.1758173794932064
 40
0.2182049032763957
 40
0.2182049032763957
 40
0.2393986651679903
 40
0.2393986651679903
 40
0.2605924270595849
 40
0.2605924270595849
 40
0.3029799508427742
 40
0.3029799508427742
 40
0.3453674746259635
 40
0.3453674746259635
 40
0.3665612365175581
 40
0.3665612365175581
 40
0.3877549984091526
 40
0.3877549984091526
 40
0.4301425221923421
 40
0.4301425221923421
 40
0.4513362840839366
 40
0.4513362840839366
 40
0.4725300459755312
 40
0.4725300459755312
 40
0.5149175697587204
 40
0.5149175697587204
 40
0.5573050935419111
 40
0.5573050935419111
 40
0.5784988554335057
 40
0.5784988554335057
 40
0.5996926173250989
 40
0.5996926173250989
 40
0.6420801411082895
 40
0.6420801411082895
 40
0.663273902999883
 40
0.663273902999883
 40
0.6844676648914775
 40
0.6844676648914775
 40
0.726855188674668
 40
0.726855188674668
 40
0.7692427124578574
 40
0.7692427124578574
 40
0.7904364743494519
 40
0.7904364743494519
 40
0.8116302362410465
 40
0.8116302362410465
 40
0.8540177600242358
 40
0.8540177600242358
 40
0.8964052838074263
 40
0.8964052838074263
 40
0.9387928075906156
 40
0.9387928075906156
 40
0.9811803313738048
 40
0.9811803313738048
 40
1.0
 40
1.0
 40
1.0
 40
1.0
 10
202.9689412266052
 20
105.9474564327926
 30
-0.0000000000000032
 10
202.9626473107437
 20
105.9453917776474
 30
-0.0000000000000032
 10
202.953913648021
 20
105.9433228766145
 30
-0.0000000000000032
 10
202.9049295487318
 20
105.9342343982478
 30
-0.0000000000000032
 10
202.8389181199618
 20
105.9271927978952
 30
-0.0000000000000032
 10
202.6498254713854
 20
105.913137037281
 30
-0.0000000000000028
 10
202.5275905943626
 20
105.9061786134888
 30
-0.0000000000000028
 10
202.0799528970499
 20
105.8853154876394
 30
-0.0000000000000028
 10
201.673954954126
 20
105.8713131054588
 30
-0.0000000000000028
 10
200.649506170874
 20
105.8435647180347
 30
-0.0000000000000028
 10
200.0310802761473
 20
105.8297182188635
 30
-0.0000000000000028
 10
198.5732877549719
 20
105.8014399642538
 30
-0.0000000000000028
 10
197.7483805069103
 20
105.7875425256108
 30
-0.0000000000000028
 10
195.9194524003505
 20
105.7598293216948
 30
-0.0000000000000028
 10
194.9145678450406
 20
105.7458289741002
 30
-0.0000000000000028
 10
193.2702665958418
 20
105.724947619485
 30
-0.0000000000000028
 10
192.6992654368548
 20
105.7179968711865
 30
-0.0000000000000028
 10
191.5103230895758
 20
105.7039796373693
 30
-0.0000000000000028
 10
190.8946977054067
 20
105.6969112084469
 30
-0.0000000000000028
 10
189.0039117853755
 20
105.67585365607
 30
-0.0000000000000028
 10
187.677926687237
 20
105.6620389353891
 30
-0.0000000000000028
 10
184.8975517227291
 20
105.6343396088113
 30
-0.0000000000000028
 10
183.4431703534471
 20
105.6202968849637
 30
-0.0000000000000028
 10
181.1621254245426
 20
105.5992761391248
 30
-0.0000000000000028
 10
180.3853391788896
 20
105.592267818979
 30
-0.0000000000000028
 10
178.8215775332457
 20
105.5783119413506
 30
-0.0000000000000028
 10
178.0317615978522
 20
105.5713096144194
 30
-0.0000000000000028
 10
175.6389299092698
 20
105.5503568350992
 30
-0.0000000000000028
 10
174.0126280714592
 20
105.5365636278578
 30
-0.0000000000000028
 10
171.5264135444352
 20
105.5157316688393
 30
-0.0000000000000028
 10
170.6898575442803
 20
105.5087183869909
 30
-0.0000000000000028
 10
169.0007763462076
 20
105.4946378302
 30
-0.0000000000000028
 10
168.1464124081008
 20
105.4875643910358
 30
-0.0000000000000028
 10
165.5962738325208
 20
105.4665951134826
 30
-0.0000000000000028
 10
163.902152233067
 20
105.4527632576016
 30
-0.0000000000000028
 10
160.5255457759312
 20
105.424874211921
 30
-0.0000000000000028
 10
158.843058956927
 20
105.4110589024314
 30
-0.0000000000000028
 10
156.32828330304
 20
105.3900993969255
 30
-0.0000000000000028
 10
155.4886391293112
 20
105.3830037793904
 30
-0.0000000000000028
 10
153.8340653564983
 20
105.3689214094596
 30
-0.0000000000000028
 10
153.0176049930701
 20
105.3619289318254
 30
-0.0000000000000028
 10
150.6000167451936
 20
105.3410876742624
 30
-0.0000000000000028
 10
149.030549315828
 20
105.3272785525083
 30
-0.0000000000000028
 10
146.7395052129529
 20
105.3063301200312
 30
-0.0000000000000028
 10
145.9863831295656
 20
105.2993502098257
 30
-0.0000000000000028
 10
144.5016325283009
 20
105.2853911358415
 30
-0.0000000000000028
 10
143.7673664588367
 20
105.2783862166993
 30
-0.0000000000000028
 10
141.6198718510161
 20
105.2573640059433
 30
-0.0000000000000028
 10
140.2639639844722
 20
105.2433221046555
 30
-0.0000000000000028
 10
137.6987232670567
 20
105.2156114799147
 30
-0.0000000000000028
 10
136.4894006698257
 20
105.2017810787042
 30
-0.0000000000000028
 10
134.7874507609333
 20
105.1807325800839
 30
-0.0000000000000028
 10
134.2374189298762
 20
105.1736880403762
 30
-0.0000000000000028
 10
133.1826419202196
 20
105.159660669045
 30
-0.0000000000000028
 10
132.6803465333262
 20
105.1527116208424
 30
-0.0000000000000028
 10
131.2468908226526
 20
105.1318282916843
 30
-0.0000000000000028
 10
130.388854467611
 20
105.1178318197645
 30
-0.0000000000000028
 10
128.8659533461027
 20
105.0901086818031
 30
-0.0000000000000028
 10
128.2006896263394
 20
105.0762023720301
 30
-0.0000000000000028
 10
127.0730050358629
 20
105.0479286074661
 30
-0.0000000000000028
 10
126.6223800960163
 20
105.0340937961563
 30
-0.0000000000000028
 10
125.9386803515869
 20
105.0063420730384
 30
-0.0000000000000028
 10
125.7056321345819
 20
104.9923465131638
 30
-0.0000000000000028
 10
125.528117494792
 20
104.9722563703187
 30
-0.0000000000000033
 10
125.4953110897124
 20
104.9660829955708
 30
-0.0000000000000033
 10
125.4847828009276
 20
104.9598576189264
 30
-0.0000000000000032
  0
SPLINE
  5
2C99E
330
1F
100
AcDbEntity
  8
実線
100
AcDbSpline
210
0.0
220
0.0
230
1.0
 70
     8
 71
     2
 72
     6
 73
     3
 74
     0
 42
0.000000001
 43
0.0000000001
 40
0.0
 40
0.0
 40
0.0
 40
1.0
 40
1.0
 40
1.0
 10
125.492592084393
 20
104.9643668675126
 30
-0.0000000000000032
 10
124.8597421502288
 20
104.5989539116154
 30
-0.0000000000000032
 10
124.2268913906546
 20
104.2335427203758
 30
-0.0000000000000032
  0
SPLINE
  5
2C99F
330
1F
100
AcDbEntity
  8
実線
100
AcDbSpline
210
0.0000261346830617
220
0.0000452621709954
230
0.999999998634157
 70
     8
 71
     2
 72
     6
 73
     3
 74
     0
 42
0.000000001
 43
0.0000000001
 40
0.0
 40
0.0
 40
0.0
 40
1.0
 40
1.0
 40
1.0
 10
204.2352932349493
 20
105.2335034941177
 30
-0.0000000000000031
 10
203.6024448314981
 20
105.5989133337095
 30
-0.0000000000000032
 10
202.9695972992633
 20
105.9643248710891
 30
-0.0000000000000032
  0
SPLINE
  5
2C9A0
330
1F
100
AcDbEntity
  8
実線
100
AcDbSpline
210
0.0
220
0.0
230
1.0
 70
     8
 71
     3
 72
    70
 73
    66
 74
     0
 42
0.000000001
 43
0.0000000001
 40
0.0
 40
0.0
 40
0.0
 40
0.0
 40
0.0209586253220514
 40
0.0209586253220514
 40
0.0561002632904462
 40
0.0561002632904462
 40
0.1263835392272359
 40
0.1263835392272359
 40
0.1615251771956307
 40
0.1615251771956307
 40
0.1966668151640255
 40
0.1966668151640255
 40
0.2318084531324203
 40
0.2318084531324203
 40
0.2493792721166176
 40
0.2493792721166176
 40
0.266950091100815
 40
0.266950091100815
 40
0.3372333670376048
 40
0.3372333670376048
 40
0.3548041860218022
 40
0.3548041860218022
 40
0.3723750050059996
 40
0.3723750050059996
 40
0.4075166429743942
 40
0.4075166429743942
 40
0.4426582809427888
 40
0.4426582809427888
 40
0.4602290999269862
 40
0.4602290999269862
 40
0.4777999189111836
 40
0.4777999189111836
 40
0.5480831948479731
 40
0.5480831948479731
 40
0.5656540138321705
 40
0.5656540138321705
 40
0.583224832816368
 40
0.583224832816368
 40
0.6183664707847627
 40
0.6183664707847627
 40
0.6535081087531573
 40
0.6535081087531573
 40
0.6710789277373546
 40
0.6710789277373546
 40
0.6886497467215519
 40
0.6886497467215519
 40
0.758933022658341
 40
0.758933022658341
 40
0.7765038416425384
 40
0.7765038416425384
 40
0.7940746606267358
 40
0.7940746606267358
 40
0.8292162985951303
 40
0.8292162985951303
 40
0.8643579365635252
 40
0.8643579365635252
 40
0.8819287555477226
 40
0.8819287555477226
 40
0.8994995745319201
 40
0.8994995745319201
 40
0.9697828504687091
 40
0.9697828504687091
 40
0.9873536694529068
 40
0.9873536694529068
 40
1.0
 40
1.0
 40
1.0
 40
1.0
 10
124.2310335715854
 20
104.0575017058153
 30
-0.0000000000000032
 10
124.2318795111212
 20
104.06453619503
 30
-0.0000000000000031
 10
124.2620251973617
 20
104.0715829971554
 30
-0.0000000000000031
 10
124.4208134781488
 20
104.090462356797
 30
-0.0000000000000029
 10
124.6036759398096
 20
104.1022365290096
 30
-0.0000000000000029
 10
125.3870187609634
 20
104.1372849473148
 30
-0.0000000000000029
 10
126.2194802376827
 20
104.1604838407653
 30
-0.0000000000000029
 10
127.9346491200683
 20
104.195713942235
 30
-0.0000000000000029
 10
128.588905314182
 20
104.2076652512481
 30
-0.0000000000000029
 10
130.025979101473
 20
104.2310720538557
 30
-0.0000000000000029
 10
130.8109269357237
 20
104.2426436933925
 30
-0.0000000000000029
 10
132.5111305054479
 20
104.266047140863
 30
-0.0000000000000029
 10
133.4263875654444
 20
104.2777322046793
 30
-0.0000000000000029
 10
134.8987132912868
 20
104.2952416883714
 30
-0.0000000000000029
 10
135.406098855404
 20
104.3010839503208
 30
-0.0000000000000029
 10
136.4548495061053
 20
104.3128918677718
 30
-0.0000000000000029
 10
136.9932302286975
 20
104.3188248063951
 30
-0.0000000000000029
 10
139.7396124434967
 20
104.3482867260339
 30
-0.0000000000000029
 10
142.1230635293546
 20
104.3713293029905
 30
-0.0000000000000029
 10
145.333914242665
 20
104.4006753533828
 30
-0.0000000000000029
 10
145.9877931068656
 20
104.4065410677941
 30
-0.0000000000000029
 10
147.3194773150983
 20
104.4182948041936
 30
-0.0000000000000029
 10
147.9956717507616
 20
104.424168264051
 30
-0.0000000000000029
 10
150.0353730068293
 20
104.44176155955
 30
-0.0000000000000029
 10
151.417385940686
 20
104.4535379813918
 30
-0.0000000000000029
 10
154.2248154062313
 20
104.4768333340465
 30
-0.0000000000000029
 10
155.6502331920824
 20
104.4883695318559
 30
-0.0000000000000029
 10
157.8213409557506
 20
104.5059811659534
 30
-0.0000000000000029
 10
158.5505527784114
 20
104.5118839753837
 30
-0.0000000000000029
 10
160.0202226740473
 20
104.5237026158261
 30
-0.0000000000000029
 10
160.7607252693831
 20
104.5296183764682
 30
-0.0000000000000029
 10
164.4450769489528
 20
104.5589116611559
 30
-0.0000000000000029
 10
167.3719054030437
 20
104.5822304384388
 30
-0.0000000000000029
 10
171.0049924050256
 20
104.6113489239802
 30
-0.0000000000000029
 10
171.7303227329355
 20
104.617185584646
 30
-0.0000000000000029
 10
173.1783581843567
 20
104.62898515011
 30
-0.0000000000000029
 10
173.9023452507813
 20
104.6349428496798
 30
-0.0000000000000029
 10
176.043997800745
 20
104.6526495075499
 30
-0.0000000000000029
 10
177.4395850268315
 20
104.6642631766605
 30
-0.0000000000000028
 10
180.1681424023413
 20
104.6875007673233
 30
-0.0000000000000028
 10
181.5011081318116
 20
104.6992460961285
 30
-0.0000000000000028
 10
183.4531666591917
 20
104.7168019537494
 30
-0.0000000000000028
 10
184.0959368880055
 20
104.7226454982881
 30
-0.0000000000000028
 10
185.3653533243762
 20
104.7343595213521
 30
-0.0000000000000028
 10
185.9937243250947
 20
104.7402477451095
 30
-0.0000000000000028
 10
189.0602441645051
 20
104.7697173452848
 30
-0.0000000000000028
 10
191.2928200393326
 20
104.7927953199984
 30
-0.0000000000000028
 10
193.813948264833
 20
104.822131644212
 30
-0.0000000000000028
 10
194.3045395746722
 20
104.8280179793063
 30
-0.0000000000000028
 10
195.2579809160525
 20
104.8397917889892
 30
-0.0000000000000028
 10
195.7222127989707
 20
104.8456976616983
 30
-0.0000000000000028
 10
197.0599468961923
 20
104.8633080723246
 30
-0.0000000000000028
 10
197.878784686897
 20
104.8749899266077
 30
-0.0000000000000028
 10
199.3750585420739
 20
104.8984123979388
 30
-0.0000000000000028
 10
200.0524834209846
 20
104.910021931286
 30
-0.0000000000000028
 10
200.9620425386272
 20
104.9274686395886
 30
-0.0000000000000028
 10
201.2474262210339
 20
104.9333106167763
 30
-0.0000000000000028
 10
201.782009480595
 20
104.9450970830332
 30
-0.0000000000000028
 10
202.0318171718284
 20
104.9510392307741
 30
-0.0000000000000028
 10
203.1805886928069
 20
104.9806050996318
 30
-0.0000000000000028
 10
203.7739272352967
 20
105.003755953078
 30
-0.0000000000000028
 10
204.1210184261729
 20
105.0329344866491
 30
-0.0000000000000033
 10
204.1704792617804
 20
105.038758441508
 30
-0.0000000000000033
 10
204.2206966695421
 20
105.0488042659631
 30
-0.0000000000000032
 10
204.2312080076001
 20
105.0530261566934
 30
-0.0000000000000032
 10
204.2310512163122
 20
105.0572705407446
 30
-0.0000000000000032
  0
SPLINE
  5
2C9A1
330
1F
100
AcDbEntity
  8
実線
100
AcDbSpline
210
0.0
220
0.0
230
1.0
 70
     8
 71
     3
 72
    70
 73
    66
 74
     0
 42
0.000000001
 43
0.0000000001
 40
0.0
 40
0.0
 40
0.0
 40
0.0
 40
0.02203917672603
 40
0.02203917672603
 40
0.04407835345206
 40
0.04407835345206
 40
0.08815670690412
 40
0.08815670690412
 40
0.1322350603561799
 40
0.1322350603561799
 40
0.1542742370822099
 40
0.1542742370822099
 40
0.1763134138082399
 40
0.1763134138082399
 40
0.2203917672602998
 40
0.2203917672602998
 40
0.2424309439863297
 40
0.2424309439863297
 40
0.2644701207123598
 40
0.2644701207123598
 40
0.3085484741644197
 40
0.3085484741644197
 40
0.3526268276164796
 40
0.3526268276164796
 40
0.3967051810685396
 40
0.3967051810685396
 40
0.4407835345205995
 40
0.4407835345205995
 40
0.4628227112466295
 40
0.4628227112466295
 40
0.4848618879726595
 40
0.4848618879726595
 40
0.5289402414247197
 40
0.5289402414247197
 40
0.5509794181507496
 40
0.5509794181507496
 40
0.5730185948767797
 40
0.5730185948767797
 40
0.6170969483288396
 40
0.6170969483288396
 40
0.6611753017808995
 40
0.6611753017808995
 40
0.6832144785069296
 40
0.6832144785069296
 40
0.7052536552329595
 40
0.7052536552329595
 40
0.7493320086850197
 40
0.7493320086850197
 40
0.7713711854110499
 40
0.7713711854110499
 40
0.79341036213708
 40
0.79341036213708
 40
0.8374887155891402
 40
0.8374887155891402
 40
0.8815670690412005
 40
0.8815670690412005
 40
0.9036062457672308
 40
0.9036062457672308
 40
0.9256454224932607
 40
0.9256454224932607
 40
0.9697237759453207
 40
0.9697237759453207
 40
0.9917629526713511
 40
0.9917629526713511
 40
1.0
 40
1.0
 40
1.0
 40
1.0
 10
125.5148062880043
 20
102.9686962464103
 30
-0.0000000000000032
 10
125.5460049971363
 20
102.972378501185
 30
-0.0000000000000034
 10
125.60847928774
 20
102.9760578797168
 30
-0.0000000000000034
 10
125.7957768607532
 20
102.9834565383173
 30
-0.000000000000003
 10
125.9206839277622
 20
102.9871719196866
 30
-0.000000000000003
 10
126.3841801071319
 20
102.9982051843993
 30
-0.000000000000003
 10
126.8119723251627
 20
103.0054037008215
 30
-0.000000000000003
 10
127.8995103196712
 20
103.019998525777
 30
-0.000000000000003
 10
128.5594045157127
 20
103.0272951674988
 30
-0.000000000000003
 10
129.7298423410002
 20
103.0382977770006
 30
-0.0000000000000029
 10
130.1483680709882
 20
103.0419787852029
 30
-0.0000000000000029
 10
131.0331710790324
 20
103.0493152485928
 30
-0.0000000000000029
 10
131.5005706946797
 20
103.052980558414
 30
-0.0000000000000029
 10
132.9767282295568
 20
103.063873789846
 30
-0.0000000000000029
 10
134.0590015258362
 20
103.0710699789013
 30
-0.0000000000000029
 10
135.8309043380564
 20
103.0820484057681
 30
-0.0000000000000029
 10
136.4463923566406
 20
103.0857241332007
 30
-0.0000000000000029
 10
137.7285132391518
 20
103.0930567292441
 30
-0.0000000000000029
 10
138.389185118119
 20
103.0966954256881
 30
-0.0000000000000029
 10
140.4214841883483
 20
103.1076086699551
 30
-0.0000000000000029
 10
141.8461226972949
 20
103.1149136092979
 30
-0.0000000000000029
 10
144.8331961013493
 20
103.1293532987587
 30
-0.0000000000000029
 10
146.397005852473
 20
103.1366072075573
 30
-0.0000000000000029
 10
149.661814050374
 20
103.1513400713813
 30
-0.0000000000000029
 10
151.3276601426955
 20
103.1585243411049
 30
-0.0000000000000029
 10
154.7233978099618
 20
103.1729914921641
 30
-0.0000000000000029
 10
156.4533052582235
 20
103.1802568829054
 30
-0.0000000000000029
 10
159.0970592985845
 20
103.1911042933954
 30
-0.0000000000000029
 10
159.9885659276749
 20
103.1947447858543
 30
-0.0000000000000029
 10
161.7790837902041
 20
103.2020658525675
 30
-0.0000000000000029
 10
162.6722379826901
 20
103.2057224321747
 30
-0.0000000000000029
 10
165.3455415637752
 20
103.2166206552868
 30
-0.0000000000000029
 10
167.1195541645729
 20
103.2237419098275
 30
-0.0000000000000029
 10
169.7684475169933
 20
103.2345873938706
 30
-0.0000000000000029
 10
170.6493832843496
 20
103.2382228905686
 30
-0.0000000000000029
 10
172.4071258599331
 20
103.2454856192893
 30
-0.0000000000000029
 10
173.28671858307
 20
103.2491122822093
 30
-0.0000000000000029
 10
175.8990000758997
 20
103.2600020135098
 30
-0.0000000000000029
 10
177.5917371891928
 20
103.2672664485163
 30
-0.0000000000000029
 10
180.8829641393843
 20
103.2816572370495
 30
-0.0000000000000029
 10
182.4814427916822
 20
103.2887779392102
 30
-0.0000000000000029
 10
184.8072482315103
 20
103.2996706976406
 30
-0.0000000000000029
 10
185.5731993438669
 20
103.3033392206949
 30
-0.0000000000000029
 10
187.0660410237531
 20
103.3105936865598
 30
-0.0000000000000029
 10
187.7914913425234
 20
103.3141821560164
 30
-0.0000000000000029
 10
189.9065743280682
 20
103.3249608997232
 30
-0.0000000000000029
 10
191.2352464308133
 20
103.3321943940013
 30
-0.0000000000000029
 10
193.1067291759966
 20
103.3429390699277
 30
-0.0000000000000029
 10
193.7102447034024
 20
103.3465125854608
 30
-0.0000000000000029
 10
194.8760192098509
 20
103.3537202226282
 30
-0.0000000000000029
 10
195.440298333315
 20
103.3573685457766
 30
-0.0000000000000029
 10
197.0521362311449
 20
103.3682820391653
 30
-0.0000000000000029
 10
198.0180006666776
 20
103.3754044347756
 30
-0.0000000000000029
 10
199.7398884032495
 20
103.3897085277341
 30
-0.0000000000000029
 10
200.4959561898729
 20
103.3969268419296
 30
-0.0000000000000029
 10
201.468925253941
 20
103.4076920212296
 30
-0.0000000000000029
 10
201.7672988140287
 20
103.4113045489826
 30
-0.0000000000000029
 10
202.3026165964645
 20
103.4185276103666
 30
-0.0000000000000029
 10
202.5398556835437
 20
103.4221379505828
 30
-0.0000000000000029
 10
203.1623162047861
 20
103.4329325446916
 30
-0.0000000000000029
 10
203.4585267892617
 20
103.4399930856746
 30
-0.0000000000000029
 10
203.7260378506235
 20
103.4507235219644
 30
-0.0000000000000034
 10
203.7856417311341
 20
103.4543236399154
 30
-0.0000000000000031
 10
203.826115440409
 20
103.459281551602
 30
-0.0000000000000032
 10
203.8328832068507
 20
103.4606311887555
 30
-0.0000000000000032
 10
203.8353977206355
 20
103.4619798684388
 30
-0.0000000000000032
  0
SPLINE
  5
2C9A2
330
1F
100
AcDbEntity
  8
実線
100
AcDbSpline
210
0.0
220
0.0
230
1.0
 70
     8
 71
     3
 72
    70
 73
    66
 74
     0
 42
0.000000001
 43
0.0000000001
 40
0.0
 40
0.0
 40
0.0
 40
0.0
 40
0.0028855809767554
 40
0.0028855809767554
 40
0.0241007813815048
 40
0.0241007813815048
 40
0.0665311821910049
 40
0.0665311821910049
 40
0.1089615830005038
 40
0.1089615830005038
 40
0.1301767834052533
 40
0.1301767834052533
 40
0.1513919838100027
 40
0.1513919838100027
 40
0.1938223846195016
 40
0.1938223846195016
 40
0.2362527854290017
 40
0.2362527854290017
 40
0.2786831862385006
 40
0.2786831862385006
 40
0.3211135870479995
 40
0.3211135870479995
 40
0.3423287874527502
 40
0.3423287874527502
 40
0.3635439878575009
 40
0.3635439878575009
 40
0.4059743886669998
 40
0.4059743886669998
 40
0.4484047894765001
 40
0.4484047894765001
 40
0.4696199898812505
 40
0.4696199898812505
 40
0.490835190286
 40
0.490835190286
 40
0.5332655910955002
 40
0.5332655910955002
 40
0.5544807915002508
 40
0.5544807915002508
 40
0.5756959919050004
 40
0.5756959919050004
 40
0.6181263927145003
 40
0.6181263927145003
 40
0.6605567935239992
 40
0.6605567935239992
 40
0.6817719939287499
 40
0.6817719939287499
 40
0.7029871943335006
 40
0.7029871943335006
 40
0.7454175951429996
 40
0.7454175951429996
 40
0.76663279554775
 40
0.76663279554775
 40
0.7878479959525007
 40
0.7878479959525007
 40
0.8302783967619994
 40
0.8302783967619994
 40
0.8727087975714995
 40
0.8727087975714995
 40
0.893923997976249
 40
0.893923997976249
 40
0.9151391983809995
 40
0.9151391983809995
 40
0.9575695991904998
 40
0.9575695991904998
 40
1.0
 40
1.0
 40
1.0
 40
1.0
 10
202.9810597278204
 20
103.9553985487909
 30
-0.0000000000000032
 10
202.9810405168994
 20
103.9544487409369
 30
-0.0000000000000032
 10
202.9805038129246
 20
103.9534976440728
 30
-0.0000000000000032
 10
202.9716893576761
 20
103.9455414187629
 30
-0.0000000000000031
 10
202.9356600868791
 20
103.9384549950438
 30
-0.0000000000000033
 10
202.7426385697824
 20
103.9173194742994
 30
-0.0000000000000029
 10
202.502779472705
 20
103.9035449628796
 30
-0.0000000000000029
 10
201.8084107629118
 20
103.8757070003394
 30
-0.0000000000000029
 10
201.3538837346869
 20
103.8617573648494
 30
-0.0000000000000029
 10
200.5083738998819
 20
103.8408886543412
 30
-0.0000000000000029
 10
200.1986311144305
 20
103.8339084208144
 30
-0.0000000000000029
 10
199.5251180395778
 20
103.8198032015563
 30
-0.0000000000000029
 10
199.1641075999093
 20
103.8127593095478
 30
-0.0000000000000029
 10
198.0101808916715
 20
103.7917809887199
 30
-0.0000000000000029
 10
197.146664643966
 20
103.7780542879273
 30
-0.0000000000000029
 10
195.233526325507
 20
103.750201475952
 30
-0.0000000000000029
 10
194.1839256663195
 20
103.7362020833075
 30
-0.0000000000000029
 10
191.8911736751913
 20
103.7081593050112
 30
-0.0000000000000029
 10
190.6710052151172
 20
103.6941536747196
 30
-0.0000000000000029
 10
188.0968381895534
 20
103.6662971958118
 30
-0.0000000000000029
 10
186.7415249606017
 20
103.6525740493829
 30
-0.0000000000000029
 10
184.6051993652695
 20
103.6316052441936
 30
-0.0000000000000029
 10
183.8758106823113
 20
103.6245687288684
 30
-0.0000000000000029
 10
182.381612206628
 20
103.6104812517982
 30
-0.0000000000000029
 10
181.6198212710133
 20
103.6034599210659
 30
-0.0000000000000029
 10
179.3138792414067
 20
103.5825787806341
 30
-0.0000000000000029
 10
177.7403250037248
 20
103.5686428449928
 30
-0.0000000000000029
 10
174.5220876087489
 20
103.5408097868321
 30
-0.0000000000000029
 10
172.8774074200469
 20
103.5270460694611
 30
-0.0000000000000029
 10
170.3552875048105
 20
103.5059273152188
 30
-0.0000000000000029
 10
169.505696409921
 20
103.4988326510927
 30
-0.0000000000000029
 10
167.8133284880696
 20
103.4848141749519
 30
-0.0000000000000029
 10
166.9673920897107
 20
103.4778635117173
 30
-0.0000000000000029
 10
164.4303132252678
 20
103.4570861775303
 30
-0.0000000000000029
 10
162.7398994429234
 20
103.4431601142011
 30
-0.0000000000000029
 10
160.2057408714365
 20
103.4222353233526
 30
-0.0000000000000029
 10
159.3612656420589
 20
103.415273541106
 30
-0.0000000000000029
 10
157.6728147375363
 20
103.4013094114021
 30
-0.0000000000000029
 10
156.8271079679605
 20
103.3942807491756
 30
-0.0000000000000029
 10
154.3274449025286
 20
103.3732036760527
 30
-0.0000000000000029
 10
152.6993659200664
 20
103.3592634627169
 30
-0.0000000000000029
 10
149.517950691845
 20
103.3316073164581
 30
-0.0000000000000029
 10
147.9646165157196
 20
103.3176468467284
 30
-0.0000000000000029
 10
145.6921308885164
 20
103.2966033703335
 30
-0.0000000000000029
 10
144.9417442410085
 20
103.2895649465877
 30
-0.0000000000000029
 10
143.4798386696031
 20
103.2755987917187
 30
-0.0000000000000029
 10
142.7668603646571
 20
103.2686447950964
 30
-0.0000000000000029
 10
140.680710599315
 20
103.2476881471539
 30
-0.0000000000000029
 10
139.3601018470797
 20
103.2337833114235
 30
-0.0000000000000029
 10
137.4840423373066
 20
103.2130089885228
 30
-0.0000000000000029
 10
136.8762204678423
 20
103.2060673974118
 30
-0.0000000000000029
 10
135.6962630185658
 20
103.1920303162342
 30
-0.0000000000000029
 10
135.1221167488097
 20
103.1849393753472
 30
-0.0000000000000029
 10
133.4717668880687
 20
103.1638455121314
 30
-0.0000000000000029
 10
132.4686418690332
 20
103.1500778413056
 30
-0.0000000000000029
 10
130.6502954639977
 20
103.122204794487
 30
-0.0000000000000029
 10
129.8350847541653
 20
103.1082907399216
 30
-0.0000000000000029
 10
128.7558905702451
 20
103.0874158350819
 30
-0.0000000000000029
 10
128.4193257584763
 20
103.0804040945118
 30
-0.0000000000000029
 10
127.7995843160906
 20
103.0662926640428
 30
-0.0000000000000029
 10
127.5177527042822
 20
103.0592590784811
 30
-0.0000000000000029
 10
126.7543090737395
 20
103.0383157669109
 30
-0.0000000000000029
 10
126.3544059050352
 20
103.0245886936372
 30
-0.000000000000003
 10
125.7704598159198
 20
102.9966948614436
 30
-0.000000000000003
 10
125.5863511783013
 20
102.9827201849173
 30
-0.0000000000000034
 10
125.5148062878754
 20
102.968696246395
 30
-0.0000000000000032
  0
SPLINE
  5
2C9A3
330
1F
100
AcDbEntity
  8
実線
100
AcDbSpline
210
0.0000351198022016
220
0.0000608232940313
230
-0.9999999975335631
 70
     8
 71
     2
 72
     6
 73
     3
 74
     0
 42
0.000000001
 43
0.0000000001
 40
0.0
 40
0.0
 40
0.0
 40
1.0
 40
1.0
 40
1.0
 10
124.416825714085
 20
105.9477243422778
 30
-0.0000000000000032
 10
124.9489328602728
 20
105.6404827652118
 30
-0.0000000000000032
 10
125.4810390877157
 20
105.333239977734
 30
-0.0000000000000033
  0
SPLINE
  5
2C9A4
330
1F
100
AcDbEntity
  8
実線
100
AcDbSpline
210
0.0000000000000001
220
-0.0000000000000094
230
1.0
 70
     8
 71
     3
 72
    48
 73
    44
 74
     0
 42
0.000000001
 43
0.0000000001
 40
0.0
 40
0.0
 40
0.0
 40
0.0
 40
0.0323329672911471
 40
0.0323329672911471
 40
0.066521366450602
 40
0.066521366450602
 40
0.1007097656100564
 40
0.1007097656100564
 40
0.1690865639289663
 40
0.1690865639289663
 40
0.2374633622478756
 40
0.2374633622478756
 40
0.305840160566785
 40
0.305840160566785
 40
0.3400285597262399
 40
0.3400285597262399
 40
0.3742169588856943
 40
0.3742169588856943
 40
0.4425937572046041
 40
0.4425937572046041
 40
0.4767821563640586
 40
0.4767821563640586
 40
0.5109705555235136
 40
0.5109705555235136
 40
0.5793473538424233
 40
0.5793473538424233
 40
0.6477241521613322
 40
0.6477241521613322
 40
0.6819125513207877
 40
0.6819125513207877
 40
0.716100950480243
 40
0.716100950480243
 40
0.7844777487991528
 40
0.7844777487991528
 40
0.8186661479586073
 40
0.8186661479586073
 40
0.8528545471180628
 40
0.8528545471180628
 40
0.9212313454369724
 40
0.9212313454369724
 40
0.9896081437558812
 40
0.9896081437558812
 40
1.0
 40
1.0
 40
1.0
 40
1.0
 10
125.4809686707601
 20
105.3355138405302
 30
-0.0000000000000032
 10
125.4809644473989
 20
105.3420882472831
 30
-0.0000000000000033
 10
125.5058200501839
 20
105.3486842019536
 30
-0.0000000000000033
 10
125.6085802972811
 20
105.3623332584392
 30
-0.0000000000000033
 10
125.6899037833857
 20
105.3693752873543
 30
-0.0000000000000028
 10
125.9087735742139
 20
105.3833882673063
 30
-0.0000000000000028
 10
126.0457116370396
 20
105.3903337648377
 30
-0.0000000000000028
 10
126.5370457631115
 20
105.4112378776038
 30
-0.0000000000000028
 10
126.9716255836303
 20
105.425219290732
 30
-0.0000000000000028
 10
128.0528029642405
 20
105.4529272094286
 30
-0.0000000000000028
 10
128.700162904676
 20
105.4668693918784
 30
-0.0000000000000028
 10
130.2128006415077
 20
105.4951289190069
 30
-0.0000000000000028
 10
131.0668086492328
 20
105.5090205943974
 30
-0.0000000000000028
 10
132.493618887177
 20
105.5301090672288
 30
-0.0000000000000028
 10
132.994533801793
 20
105.5372084072696
 30
-0.0000000000000028
 10
134.0341416171236
 20
105.5512615890704
 30
-0.0000000000000028
 10
134.5739541242628
 20
105.5582333407135
 30
-0.0000000000000028
 10
136.2522507308829
 20
105.579036673675
 30
-0.0000000000000028
 10
137.4493458714785
 20
105.5928996460221
 30
-0.0000000000000028
 10
139.3622999301653
 20
105.6138404020627
 30
-0.0000000000000028
 10
140.019565218141
 20
105.620811487132
 30
-0.0000000000000028
 10
141.3740891715219
 20
105.6347690099946
 30
-0.0000000000000028
 10
142.0739104294905
 20
105.6417802123308
 30
-0.0000000000000028
 10
144.2069477927459
 20
105.6628295066813
 30
-0.0000000000000028
 10
145.6778993974267
 20
105.6768304522506
 30
-0.0000000000000028
 10
148.7147996423064
 20
105.704505573813
 30
-0.0000000000000028
 10
150.2807497849512
 20
105.7183968080938
 30
-0.0000000000000028
 10
152.702523277979
 20
105.7394467425105
 30
-0.0000000000000028
 10
153.5250534050719
 20
105.7464924355824
 30
-0.0000000000000028
 10
155.1780772332649
 20
105.7604848792049
 30
-0.0000000000000028
 10
156.0076818828193
 20
105.7674263318072
 30
-0.0000000000000028
 10
158.5055598681815
 20
105.7883485598607
 30
-0.0000000000000028
 10
160.1828603206993
 20
105.8023074229024
 30
-0.0000000000000028
 10
162.7167579448994
 20
105.8230842064641
 30
-0.0000000000000028
 10
163.5643910428621
 20
105.8300010323967
 30
-0.0000000000000028
 10
165.265752915913
 20
105.8439911058828
 30
-0.0000000000000028
 10
166.1218387733777
 20
105.8510711373043
 30
-0.0000000000000028
 10
168.6831219096957
 20
105.8722247136649
 30
-0.0000000000000028
 10
170.3646983450317
 20
105.88600862078
 30
-0.0000000000000028
 10
173.6778160210929
 20
105.9138262556104
 30
-0.0000000000000028
 10
175.3093532641903
 20
105.9277881033998
 30
-0.0000000000000028
 10
177.1595802928511
 20
105.9438121882575
 30
-0.0000000000000028
 10
177.403136161628
 20
105.9459272051816
 30
-0.0000000000000028
 10
177.646101727842
 20
105.9480452957606
 30
-0.0000000000000028
  0
SPLINE
  5
2C9A5
330
1F
100
AcDbEntity
  8
実線
100
AcDbSpline
210
0.0
220
0.0
230
1.0
 70
     8
 71
     2
 72
     6
 73
     3
 74
     0
 42
0.000000001
 43
0.0000000001
 40
0.0
 40
0.0
 40
0.0
 40
1.0
 40
1.0
 40
1.0
 10
202.9691722547164
 20
104.3263646872496
 30
-0.0000000000000032
 10
203.6020216447848
 20
104.6917774399006
 30
-0.0000000000000032
 10
204.2348722447985
 20
105.0571884388862
 30
-0.0000000000000032
  0
SPLINE
  5
2C9A6
330
1F
100
AcDbEntity
  8
実線
100
AcDbSpline
210
0.0
220
0.0
230
1.0
 70
     8
 71
     3
 72
    76
 73
    72
 74
     0
 42
0.000000001
 43
0.0000000001
 40
0.0
 40
0.0
 40
0.0
 40
0.0
 40
0.0099356559789522
 40
0.0099356559789522
 40
0.0309722315065755
 40
0.0309722315065755
 40
0.0520088070341988
 40
0.0520088070341988
 40
0.0940819580894455
 40
0.0940819580894455
 40
0.1151185336170689
 40
0.1151185336170689
 40
0.1361551091446921
 40
0.1361551091446921
 40
0.178228260199939
 40
0.178228260199939
 40
0.2203014112551858
 40
0.2203014112551858
 40
0.2413379867828091
 40
0.2413379867828091
 40
0.2623745623104325
 40
0.2623745623104325
 40
0.3044477133656793
 40
0.3044477133656793
 40
0.3254842888933027
 40
0.3254842888933027
 40
0.3465208644209261
 40
0.3465208644209261
 40
0.3885940154761727
 40
0.3885940154761727
 40
0.4306671665314197
 40
0.4306671665314197
 40
0.4517037420590427
 40
0.4517037420590427
 40
0.4727403175866662
 40
0.4727403175866662
 40
0.514813468641913
 40
0.514813468641913
 40
0.5568866196971594
 40
0.5568866196971594
 40
0.5779231952247829
 40
0.5779231952247829
 40
0.5989597707524063
 40
0.5989597707524063
 40
0.641032921807653
 40
0.641032921807653
 40
0.6620694973352764
 40
0.6620694973352764
 40
0.6831060728628997
 40
0.6831060728628997
 40
0.7251792239181469
 40
0.7251792239181469
 40
0.7672523749733937
 40
0.7672523749733937
 40
0.7882889505010171
 40
0.7882889505010171
 40
0.8093255260286403
 40
0.8093255260286403
 40
0.8513986770838871
 40
0.8513986770838871
 40
0.8724352526115104
 40
0.8724352526115104
 40
0.893471828139134
 40
0.893471828139134
 40
0.9355449791943808
 40
0.9355449791943808
 40
0.9776181302496276
 40
0.9776181302496276
 40
0.9986547057772511
 40
0.9986547057772511
 40
1.0
 40
1.0
 40
1.0
 40
1.0
 10
125.4810319350772
 20
103.3358307378892
 30
-0.0000000000000033
 10
125.4814797877507
 20
103.3391439680453
 30
-0.0000000000000033
 10
125.4882364722093
 20
103.3424641942986
 30
-0.0000000000000033
 10
125.528934494532
 20
103.3528536893461
 30
-0.0000000000000034
 10
125.5852035003006
 20
103.3599403031189
 30
-0.0000000000000034
 10
125.7531197025337
 20
103.3739559055349
 30
-0.0000000000000029
 10
125.8647039448797
 20
103.3808999216483
 30
-0.0000000000000029
 10
126.2806582692703
 20
103.4016956068369
 30
-0.0000000000000029
 10
126.6658890111039
 20
103.4156721248686
 30
-0.0000000000000029
 10
127.4053248453288
 20
103.4365375698344
 30
-0.0000000000000029
 10
127.6788204390434
 20
103.4434745843352
 30
-0.0000000000000029
 10
128.2808553754569
 20
103.45741531082
 30
-0.0000000000000029
 10
128.6107993051307
 20
103.4644732240959
 30
-0.0000000000000029
 10
129.6726899532636
 20
103.4856118581175
 30
-0.0000000000000029
 10
130.4761845431658
 20
103.4995028183518
 30
-0.0000000000000029
 10
132.2684260195217
 20
103.5271664900698
 30
-0.0000000000000029
 10
133.2571804100939
 20
103.5411649807827
 30
-0.0000000000000029
 10
134.8821560567057
 20
103.5621331155894
 30
-0.0000000000000029
 10
135.4495613342344
 20
103.5691412172459
 30
-0.0000000000000029
 10
136.6230073907252
 20
103.5831364417776
 30
-0.0000000000000029
 10
137.2273099976191
 20
103.5901341142939
 30
-0.0000000000000029
 10
139.0917086210527
 20
103.6111331114337
 30
-0.0000000000000029
 10
140.4030814320444
 20
103.6249789828862
 30
-0.0000000000000029
 10
142.4719158981836
 20
103.64574625904
 30
-0.0000000000000029
 10
143.1785438905688
 20
103.6527142027356
 30
-0.0000000000000029
 10
144.62634954084
 20
103.6667431171681
 30
-0.0000000000000029
 10
145.3689774337424
 20
103.6737948721387
 30
-0.0000000000000029
 10
147.6407035375334
 20
103.6948891009838
 30
-0.0000000000000029
 10
149.1916688587012
 20
103.7087039218984
 30
-0.0000000000000029
 10
152.3638221251992
 20
103.736609344581
 30
-0.0000000000000029
 10
153.9850194251874
 20
103.7504545271846
 30
-0.0000000000000029
 10
156.4702258276149
 20
103.771309553837
 30
-0.0000000000000029
 10
157.3075572516447
 20
103.7783231875934
 30
-0.0000000000000029
 10
159.000560645589
 20
103.7924647363151
 30
-0.0000000000000029
 10
159.8478720739015
 20
103.7995013565913
 30
-0.0000000000000029
 10
162.3869368968082
 20
103.8204289256588
 30
-0.0000000000000029
 10
164.0781550784863
 20
103.834196567642
 30
-0.0000000000000029
 10
167.4576477400414
 20
103.8620991408868
 30
-0.0000000000000029
 10
169.145924525538
 20
103.8759873576564
 30
-0.0000000000000029
 10
171.6760511365003
 20
103.897001316355
 30
-0.0000000000000029
 10
172.5149436774356
 20
103.9040519031702
 30
-0.0000000000000029
 10
174.1686620741834
 20
103.9180880272495
 30
-0.0000000000000029
 10
174.98584523611
 20
103.9250742989537
 30
-0.0000000000000029
 10
177.4088249134804
 20
103.945906935925
 30
-0.0000000000000029
 10
178.9861724068023
 20
103.9596713327941
 30
-0.0000000000000029
 10
181.2948311997288
 20
103.9806639007294
 30
-0.0000000000000029
 10
182.054794007199
 20
103.9876750060724
 30
-0.0000000000000029
 10
183.5550915433291
 20
104.001703368052
 30
-0.0000000000000029
 10
184.2946023762913
 20
104.0087140062323
 30
-0.0000000000000029
 10
186.4508398094942
 20
104.0296258300274
 30
-0.0000000000000029
 10
187.8168005581008
 20
104.0436396013298
 30
-0.0000000000000029
 10
190.408813441486
 20
104.0713812308847
 30
-0.0000000000000029
 10
191.6348694075816
 20
104.0851867019938
 30
-0.0000000000000029
 10
193.3658748257635
 20
104.1063145665248
 30
-0.0000000000000029
 10
193.9256159906326
 20
104.1133951683147
 30
-0.0000000000000029
 10
194.9924264072533
 20
104.1273836533885
 30
-0.0000000000000029
 10
195.5015994608125
 20
104.1343165854025
 30
-0.0000000000000029
 10
196.9578154073406
 20
104.1551201364838
 30
-0.0000000000000029
 10
197.8338543556533
 20
104.169113532064
 30
-0.0000000000000029
 10
199.0057253667778
 20
104.1899607238502
 30
-0.0000000000000029
 10
199.372576166354
 20
104.1968939250769
 30
-0.0000000000000029
 10
200.0577908965206
 20
104.2108550810602
 30
-0.0000000000000029
 10
200.3770221131238
 20
104.2179384719346
 30
-0.0000000000000029
 10
201.2485288563969
 20
104.2390624785856
 30
-0.0000000000000029
 10
201.718576877452
 20
104.2529081225244
 30
-0.0000000000000029
 10
202.4431295143986
 20
104.2805930380513
 30
-0.0000000000000029
 10
202.697627957486
 20
104.2946102697348
 30
-0.0000000000000029
 10
202.9139955829505
 20
104.3155666820251
 30
-0.0000000000000033
 10
202.9584652808687
 20
104.3225759506853
 30
-0.0000000000000031
 10
202.9753741424524
 20
104.330021660321
 30
-0.0000000000000032
 10
202.976274690069
 20
104.3304692613329
 30
-0.0000000000000032
 10
202.9770596213889
 20
104.3309169194545
 30
-0.0000000000000032
  0
LINE
  5
2C9CB
330
1F
100
AcDbEntity
  8
実線
100
AcDbLine
 10
120.2310589048318
 20
105.9477346068495
 30
-0.0000000000000032
 11
208.2310589048318
 21
105.9477346068495
 31
-0.0000000000000032
  0
LINE
  5
2C9CC
330
1F
100
AcDbEntity
  8
実線
100
AcDbLine
 10
208.2310589048318
 20
105.9477346068495
 30
-0.0000000000000032
 11
208.2310589048318
 21
105.9477346068495
 31
-0.0000000000000032
  0
LINE
  5
2C9CD
330
1F
100
AcDbEntity
  8
実線
100
AcDbLine
 10
204.2310589048318
 20
130.1877323164324
 30
0.0
 11
206.7310589048318
 21
130.1877323164324
 31
0.0
  0
LINE
  5
2C9CE
330
1F
100
AcDbEntity
  8
実線
100
AcDbLine
 10
206.7310589048318
 20
130.1877323164324
 30
0.0
 11
206.7310589048318
 21
125.6877323164325
 31
0.0
  0
LINE
  5
2C9CF
330
1F
100
AcDbEntity
  8
実線
100
AcDbLine
 10
208.2310589048318
 20
124.1877323164325
 30
0.0
 11
208.2310589048318
 21
124.1877323164325
 31
0.0
  0
ARC
  5
2C9D0
330
1F
100
AcDbEntity
  8
実線
100
AcDbCircle
 10
208.2310589048318
 20
125.6877323164325
 30
0.0
 40
1.5
100
AcDbArc
 50
180.0
 51
270.0
  0
LINE
  5
2C9D1
330
1F
100
AcDbEntity
  8
実線
100
AcDbLine
 10
120.2310589048318
 20
105.9477346068495
 30
-0.0000000000000032
 11
120.2310589048318
 21
124.1877323164325
 31
0.0
  0
ARC
  5
2C9D2
330
1F
100
AcDbEntity
  8
実線
100
AcDbCircle
 10
120.2310589048318
 20
125.6877323164325
 30
0.0
 40
1.5
100
AcDbArc
 50
270.0
 51
0.0
  0
LINE
  5
2C9D3
330
1F
100
AcDbEntity
  8
実線
100
AcDbLine
 10
121.7310589048318
 20
130.1877323164324
 30
0.0
 11
121.7310589048318
 21
125.6877323164325
 31
0.0
  0
LINE
  5
2C9D4
330
1F
100
AcDbEntity
  8
実線
100
AcDbLine
 10
164.2310589048318
 20
130.1877323164324
 30
0.0
 11
121.7310589048318
 21
130.1877323164324
 31
0.0
  0
LINE
  5
2C9D5
330
1F
100
AcDbEntity
  8
実線
100
AcDbLine
 10
120.2310589048318
 20
124.1877323164325
 30
0.0
 11
120.2310589048318
 21
124.1877323164325
 31
0.0
  0
LINE
  5
2C9D6
330
1F
100
AcDbEntity
  8
実線
100
AcDbLine
 10
209.7310589048318
 20
107.4477346068495
 30
-0.0000000000000032
 11
214.2310589048318
 21
107.4477346068495
 31
-0.0000000000000032
  0
LINE
  5
2C9D7
330
1F
100
AcDbEntity
  8
実線
100
AcDbLine
 10
214.2310589048318
 20
107.4477346068495
 30
-0.0000000000000032
 11
214.2310589048318
 21
123.1877323164325
 31
0.0
  0
LINE
  5
2C9D8
330
1F
100
AcDbEntity
  8
実線
100
AcDbLine
 10
214.2310589048318
 20
123.1877323164325
 30
0.0
 11
208.2310589048318
 21
123.1877323164325
 31
0.0
  0
ARC
  5
2C9D9
330
1F
100
AcDbEntity
  8
実線
100
AcDbCircle
 10
209.7310589048318
 20
105.9477346068495
 30
-0.0000000000000032
 40
1.5
100
AcDbArc
 50
90.0
 51
180.0
  0
LINE
  5
2C9DA
330
1F
100
AcDbEntity
  8
実線
100
AcDbLine
 10
208.2310589048318
 20
124.1877323164325
 30
0.0
 11
208.2310589048318
 21
105.9477346068495
 31
-0.0000000000000032
  0
LINE
  5
2C9DB
330
1F
100
AcDbEntity
  8
実線
100
AcDbLine
 10
164.2310589048318
 20
107.4477346068495
 30
-0.0000000000000032
 11
159.2310589048318
 21
107.4477346068495
 31
-0.0000000000000032
  0
LINE
  5
2C9DC
330
1F
100
AcDbEntity
  8
実線
100
AcDbLine
 10
159.2310589048318
 20
107.4477346068495
 30
-0.0000000000000032
 11
159.2310589048318
 21
123.1877323164325
 31
0.0
  0
LINE
  5
2C9DD
330
1F
100
AcDbEntity
  8
実線
100
AcDbLine
 10
159.2310589048318
 20
123.1877323164325
 30
0.0
 11
164.2310589048318
 21
123.1877323164325
 31
0.0
  0
LINE
  5
2C9DE
330
1F
100
AcDbEntity
  8
実線
100
AcDbLine
 10
120.2310589048318
 20
124.1877323164325
 30
0.0
 11
164.2310589048318
 21
124.1877323164325
 31
0.0
  0
LINE
  5
2C9DF
330
1F
100
AcDbEntity
  8
実線
100
AcDbLine
 10
118.7310589048318
 20
107.4477346068495
 30
-0.0000000000000032
 11
112.2310589048318
 21
107.4477346068495
 31
-0.0000000000000032
  0
ARC
  5
2C9E0
330
1F
100
AcDbEntity
  8
実線
100
AcDbCircle
 10
118.7310589048318
 20
105.9477346068495
 30
-0.0000000000000032
 40
1.5
100
AcDbArc
 50
0.0
 51
90.0
  0
LINE
  5
2C9E1
330
1F
100
AcDbEntity
  8
実線
100
AcDbLine
 10
120.2310589048318
 20
105.9477346068495
 30
-0.0000000000000032
 11
120.2310589048318
 21
105.9477346068495
 31
-0.0000000000000032
  0
LINE
  5
2C9E2
330
1F
100
AcDbEntity
  8
実線
100
AcDbLine
 10
112.2310589048318
 20
107.4477346068495
 30
-0.0000000000000032
 11
112.2310589048318
 21
125.6877323164325
 31
0.0
  0
LINE
  5
2C9E3
330
1F
100
AcDbEntity
  8
実線
100
AcDbLine
 10
115.7310589048318
 20
129.1877323164324
 30
0.0
 11
121.7310589048318
 21
129.1877323164324
 31
0.0
  0
ARC
  5
2C9E4
330
1F
100
AcDbEntity
  8
実線
100
AcDbCircle
 10
115.7310589048318
 20
125.6877323164325
 30
0.0
 40
3.5
100
AcDbArc
 50
90.0
 51
180.0
  0
CIRCLE
  5
2C9E5
330
1F
100
AcDbEntity
  8
実線
100
AcDbCircle
 10
115.7310589048318
 20
125.6877323164325
 30
0.0
 40
1.35
  0
ARC
  5
2C9E6
330
1F
100
AcDbEntity
  8
実線
100
AcDbCircle
 10
85.14968138904407
 20
137.4371455711688
 30
0.0
 40
37.5
100
AcDbArc
 50
316.2339370535022
 51
347.2918860001926
  0
LINE
  5
2C9E7
330
1F
100
AcDbEntity
  8
実線
100
AcDbLine
 10
190.9168809832313
 20
226.090380694431
 30
0.0
 11
222.2310589048317
 21
226.0903806944309
 31
0.0
  0
LINE
  5
2C9E8
330
1F
100
AcDbEntity
  8
実線
100
AcDbLine
 10
191.9802859210928
 20
224.9803806944311
 30
0.0
 11
222.2310589048317
 21
224.9803806944309
 31
0.0
  0
LINE
  5
2C9E9
330
1F
100
AcDbEntity
  8
実線
100
AcDbLine
 10
119.7310589048315
 20
202.1103806944308
 30
0.0
 11
126.6243108401559
 21
202.1103806944309
 31
0.0
  0
LINE
  5
2C9EA
330
1F
100
AcDbEntity
  8
実線
100
AcDbLine
 10
119.7310589048315
 20
196.8103806944308
 30
0.0
 11
126.6243108401559
 21
196.8103806944309
 31
0.0
  0
ARC
  5
2C9EB
330
1F
100
AcDbEntity
  8
実線
100
AcDbCircle
 10
164.2310589048317
 20
199.4603806944309
 30
0.0
 40
37.7
100
AcDbArc
 50
191.8524496941609
 51
344.6180734184756
  0
ARC
  5
2C9EC
330
1F
100
AcDbEntity
  8
実線
100
AcDbCircle
 10
164.2310589048317
 20
199.4603806944309
 30
0.0
 40
37.7
100
AcDbArc
 50
15.58079630148034
 51
168.147550305839
  0
LINE
  5
2C9EE
330
1F
100
AcDbEntity
  8
実線
100
AcDbLine
 10
123.031193240402
 20
166.7457964042399
 30
0.0
 11
125.8596203651481
 21
169.5742235289859
 31
0.0
  0
LINE
  5
2C9EF
330
1F
100
AcDbEntity
  8
実線
100
AcDbLine
 10
131.5164746146405
 20
158.2605150300012
 30
0.0
 11
134.3449017393867
 21
161.0889421547474
 31
0.0
  0
LINE
  5
2C9F0
330
1F
100
AcDbEntity
  8
実線
100
AcDbLine
 10
119.1421059438761
 20
167.0993497948329
 30
0.0
 11
131.9799388952304
 21
179.9371827461874
 31
0.0
  0
LINE
  5
2C9F1
330
1F
100
AcDbEntity
  8
実線
100
AcDbLine
 10
131.8700280052341
 20
154.3714277334751
 30
0.0
 11
144.7078609565884
 21
167.2092606848296
 31
0.0
  0
LINE
  5
2C9F3
330
1F
100
AcDbEntity
  8
一点鎖線
100
AcDbLine
 10
148.1476714293488
 20
215.5437681699141
 30
0.0
 11
100.4628168076051
 21
263.2286227916579
 31
0.0
  0
LINE
  5
2C9F4
330
1F
100
AcDbEntity
  8
実線
100
AcDbLine
 10
137.8804356453195
 20
257.6308091073383
 30
0.0
 11
122.3240864592151
 21
273.1871582934422
 31
0.0
  0
ARC
  5
2C9F5
330
1F
100
AcDbEntity
  8
実線
100
AcDbCircle
 10
120.2027661156554
 20
271.0658379498825
 30
0.0
 40
3.0
100
AcDbArc
 50
44.99999999999977
 51
135.0000000000002
  0
LINE
  5
2C9F6
330
1F
100
AcDbEntity
  8
実線
100
AcDbLine
 10
106.0606304919248
 20
225.8110039539436
 30
0.0
 11
90.50428130582089
 21
241.3673531400474
 31
0.0
  0
LINE
  5
2C9F7
330
1F
100
AcDbEntity
  8
実線
100
AcDbLine
 10
139.6482025982859
 20
252.327508248439
 30
0.0
 11
136.112668692353
 21
255.8630421543719
 31
0.0
  0
LINE
  5
2C9F8
330
1F
100
AcDbEntity
  8
実線
100
AcDbLine
 10
111.363931350824
 20
224.043237000977
 30
0.0
 11
107.8283974448912
 21
227.5787709069098
 31
0.0
  0
LINE
  5
2C9F9
330
1F
100
AcDbEntity
  8
実線
100
AcDbLine
 10
133.2488862285476
 20
238.1500172856487
 30
0.0
 11
129.3597989320216
 21
242.0391045821745
 31
0.0
  0
LINE
  5
2C9FA
330
1F
100
AcDbEntity
  8
実線
100
AcDbLine
 10
125.5414223136142
 20
230.4425533707154
 30
0.0
 11
121.6523350170884
 21
234.3316406672414
 31
0.0
  0
LINE
  5
2C9FB
330
1F
100
AcDbEntity
  8
実線
100
AcDbLine
 10
142.1230763324388
 20
254.8023819825918
 30
0.0
 11
138.5875424265057
 21
258.3379158885248
 31
0.0
  0
LINE
  5
2C9FC
330
1F
100
AcDbEntity
  8
実線
100
AcDbLine
 10
108.889057616671
 20
221.568363266824
 30
0.0
 11
105.3535237107382
 21
225.1038971727569
 31
0.0
  0
LINE
  5
2C9FD
330
1F
100
AcDbEntity
  8
実線
100
AcDbLine
 10
119.1421059438761
 20
167.0993497948329
 30
0.0
 11
131.8700280052341
 21
154.3714277334751
 31
0.0
  0
LINE
  5
2C9FE
330
1F
100
AcDbEntity
  8
実線
100
AcDbLine
 10
123.031193240402
 20
166.7457964042399
 30
0.0
 11
131.5164746146406
 21
158.2605150300013
 31
0.0
  0
LINE
  5
2C9FF
330
1F
100
AcDbEntity
  8
実線
100
AcDbLine
 10
125.8596203651481
 20
169.5742235289861
 30
0.0
 11
134.3449017393867
 21
161.0889421547474
 31
0.0
  0
LINE
  5
2CA00
330
1F
100
AcDbEntity
  8
実線
100
AcDbLine
 10
196.5920898044297
 20
154.3714277334755
 30
0.0
 11
183.7542568530754
 21
167.2092606848299
 31
0.0
  0
LINE
  5
2CA01
330
1F
100
AcDbEntity
  8
実線
100
AcDbLine
 10
209.3200118657877
 20
167.0993497948334
 30
0.0
 11
196.4821789144331
 21
179.9371827461879
 31
0.0
  0
LINE
  5
2CA02
330
1F
100
AcDbEntity
  8
実線
100
AcDbLine
 10
196.5920898044297
 20
154.3714277334755
 30
0.0
 11
209.3200118657877
 21
167.0993497948334
 31
0.0
  0
LINE
  5
2CA03
330
1F
100
AcDbEntity
  8
実線
100
AcDbLine
 10
131.8700280052336
 20
244.5493336553867
 30
0.0
 11
144.707860956588
 21
231.7115007040324
 31
0.0
  0
LINE
  5
2CA04
330
1F
100
AcDbEntity
  8
実線
100
AcDbLine
 10
119.1421059438756
 20
231.8214115940287
 30
0.0
 11
131.9799388952302
 21
218.9835786426744
 31
0.0
  0
LINE
  5
2CA05
330
1F
100
AcDbEntity
  8
実線
100
AcDbLine
 10
142.1230763324387
 20
254.8023819825917
 30
0.0
 11
108.889057616671
 21
221.568363266824
 31
0.0
  0
LINE
  5
2CA06
330
1F
100
AcDbEntity
  8
実線
100
AcDbLine
 10
133.2488862285477
 20
238.1500172856488
 30
0.0
 11
125.5414223136143
 21
230.4425533707154
 31
0.0
  0
LINE
  5
2CA07
330
1F
100
AcDbEntity
  8
実線
100
AcDbLine
 10
196.9456431950228
 20
158.2605150300014
 30
0.0
 11
194.1172160702769
 21
161.0889421547475
 31
0.0
  0
LINE
  5
2CA08
330
1F
100
AcDbEntity
  8
実線
100
AcDbLine
 10
205.4309245692615
 20
166.7457964042399
 30
0.0
 11
202.6024974445153
 21
169.5742235289862
 31
0.0
  0
LINE
  5
2CA09
330
1F
100
AcDbEntity
  8
実線
100
AcDbLine
 10
196.9456431950228
 20
158.2605150300014
 30
0.0
 11
205.4309245692615
 21
166.7457964042399
 31
0.0
  0
LINE
  5
2CA0A
330
1F
100
AcDbEntity
  8
実線
100
AcDbLine
 10
194.1172160702766
 20
161.0889421547475
 30
0.0
 11
202.6024974445153
 21
169.5742235289862
 31
0.0
  0
LINE
  5
2CA0B
330
1F
100
AcDbEntity
  8
実線
100
AcDbLine
 10
131.5164746146405
 20
240.6602463588608
 30
0.0
 11
134.3449017393865
 21
237.8318192341147
 31
0.0
  0
LINE
  5
2CA0C
330
1F
100
AcDbEntity
  8
実線
100
AcDbLine
 10
123.0311932404019
 20
232.1749649846223
 30
0.0
 11
125.8596203651481
 21
229.3465378598761
 31
0.0
  0
LINE
  5
2CA0D
330
1F
100
AcDbEntity
  8
実線
100
AcDbLine
 10
131.5164746146405
 20
240.6602463588608
 30
0.0
 11
131.127565884988
 21
240.2713376292082
 31
0.0
  0
LINE
  5
2CA0E
330
1F
100
AcDbEntity
  8
実線
100
AcDbLine
 10
123.4201019700547
 20
232.563873714275
 30
0.0
 11
123.0311932404019
 21
232.1749649846222
 31
0.0
  0
LINE
  5
2CA0F
330
1F
100
AcDbEntity
  8
実線
100
AcDbLine
 10
138.5875424265058
 20
258.3379158885247
 30
0.0
 11
105.3535237107384
 21
225.1038971727569
 31
0.0
  0
LINE
  5
2CA10
330
1F
100
AcDbEntity
  8
実線
100
AcDbLine
 10
118.0814457720958
 20
273.1871582934422
 30
0.0
 11
90.50428130582089
 21
245.6099938271667
 31
0.0
  0
ARC
  5
2CA11
330
1F
100
AcDbEntity
  8
実線
100
AcDbCircle
 10
92.62560164938054
 20
243.488673483607
 30
0.0
 40
3.0
100
AcDbArc
 50
135.0000000000002
 51
224.9999999999997
  0
LINE
  5
2CA12
330
1F
100
AcDbEntity
  8
実線
100
AcDbLine
 10
134.3449017393867
 20
237.8318192341147
 30
0.0
 11
125.8596203651481
 21
229.3465378598761
 31
0.0
  0
LINE
  5
2CA13
330
1F
100
AcDbEntity
  8
実線
100
AcDbLine
 10
119.7310589048315
 20
196.8103806944308
 30
0.0
 11
119.7310589048315
 21
202.1103806944308
 31
0.0
  0
ARC
  5
2CA14
330
1F
100
AcDbEntity
  8
実線
100
AcDbCircle
 10
222.2310589048317
 20
218.4603806944309
 30
0.0
 40
7.629999999999999
100
AcDbArc
 50
314.7985754463342
 51
90.0
  0
ARC
  5
2CA15
330
1F
100
AcDbEntity
  8
実線
100
AcDbCircle
 10
222.2310589048317
 20
218.4603806944309
 30
0.0
 40
6.519999999999999
100
AcDbArc
 50
314.7985754463342
 51
90.0
  0
ARC
  5
2CA16
330
1F
100
AcDbEntity
  8
実線
100
AcDbCircle
 10
195.2310589048316
 20
205.4603806944309
 30
0.0
 40
17.43
100
AcDbArc
 50
287.2382931899556
 51
293.3707079849471
  0
ARC
  5
2CA17
330
1F
100
AcDbEntity
  8
実線
100
AcDbCircle
 10
195.2310589048316
 20
205.4603806944309
 30
0.0
 40
17.43
100
AcDbArc
 50
308.2893652432935
 51
314.7985754463342
  0
ARC
  5
2CA18
330
1F
100
AcDbEntity
  8
実線
100
AcDbCircle
 10
195.2310589048316
 20
205.4603806944309
 30
0.0
 40
16.32
100
AcDbArc
 50
312.7421233077554
 51
314.7985754463342
  0
LINE
  5
2CA19
330
1F
100
AcDbEntity
  8
実線
100
AcDbLine
 10
227.607283315473
 20
213.0462223030993
 30
0.0
 11
207.5125256777643
 21
193.0922573968018
 31
0.0
  0
LINE
  5
2CA1A
330
1F
100
AcDbEntity
  8
実線
100
AcDbLine
 10
226.8251589254583
 20
213.8338652669759
 30
0.0
 11
206.7304012877496
 21
193.8799003606784
 31
0.0
  0
ARC
  5
2CA1C
330
1F
100
AcDbEntity
  8
実線
100
AcDbCircle
 10
164.2310589048318
 20
199.4603806944309
 30
0.0
 40
42.5
100
AcDbArc
 50
347.2543431517071
 51
12.74565684829281
  0
LINE
  5
2CA1D
330
1F
100
AcDbEntity
  8
実線
100
AcDbLine
 10
200.9768069581781
 20
209.460380694431
 30
0.0
 11
204.9035311680222
 21
209.4603806944309
 31
0.0
  0
LINE
  5
2CA1E
330
1F
100
AcDbEntity
  8
実線
100
AcDbLine
 10
200.3731396418341
 20
189.4603806944309
 30
0.0
 11
204.9035311680222
 21
189.460380694431
 31
0.0
  0
LINE
  5
2CA1F
330
1F
100
AcDbEntity
  8
実線
100
AcDbLine
 10
119.7310589048318
 20
203.760380694431
 30
0.0
 11
119.7310589048318
 21
206.1603806944309
 31
0.0
  0
LINE
  5
2CA20
330
1F
100
AcDbEntity
  8
実線
100
AcDbLine
 10
126.6810921937945
 20
206.960380694431
 30
0.0
 11
120.5310589048317
 21
206.960380694431
 31
0.0
  0
LINE
  5
2CA21
330
1F
100
AcDbEntity
  8
実線
100
AcDbLine
 10
126.6810921937945
 20
191.9603806944309
 30
0.0
 11
120.5310589048317
 21
191.9603806944309
 31
0.0
  0
ARC
  5
2CA22
330
1F
100
AcDbEntity
  8
実線
100
AcDbCircle
 10
200.9768069581781
 20
210.260380694431
 30
0.0
 40
0.8
100
AcDbArc
 50
196.378671738139
 51
270.0
  0
ARC
  5
2CA23
330
1F
100
AcDbEntity
  8
実線
100
AcDbCircle
 10
204.9035311680222
 20
208.660380694431
 30
0.0
 40
0.8
100
AcDbArc
 50
12.74565684829281
 51
90.0
  0
ARC
  5
2CA24
330
1F
100
AcDbEntity
  8
実線
100
AcDbCircle
 10
204.9035311680222
 20
190.2603806944309
 30
0.0
 40
0.8
100
AcDbArc
 50
270.0
 51
347.2543431517071
  0
ARC
  5
2CA27
330
1F
100
AcDbEntity
  8
実線
100
AcDbCircle
 10
164.2310589048318
 20
199.4603806944309
 30
0.0
 40
37.5
100
AcDbArc
 50
192.7548044907967
 51
344.5339900465797
  0
ARC
  5
2CA28
330
1F
100
AcDbEntity
  8
実線
100
AcDbCircle
 10
126.6810921937945
 20
190.9603806944309
 30
0.0
 40
1.0
100
AcDbArc
 50
12.7548044907967
 51
90.0
  0
ARC
  5
2CA29
330
1F
100
AcDbEntity
  8
実線
100
AcDbCircle
 10
126.6810921937945
 20
207.960380694431
 30
0.0
 40
1.0
100
AcDbArc
 50
270.0
 51
347.2451955092032
  0
LINE
  5
2CA2A
330
1F
100
AcDbEntity
  8
実線
100
AcDbLine
 10
126.7310589048318
 20
206.9603806944309
 30
0.0
 11
126.6810921937945
 21
206.960380694431
 31
0.0
  0
LINE
  5
2CA2B
330
1F
100
AcDbEntity
  8
実線
100
AcDbLine
 10
126.7198027889856
 20
191.9603806944309
 30
0.0
 11
126.6810921937945
 21
191.9603806944309
 31
0.0
  0
ARC
  5
2CA2C
330
1F
100
AcDbEntity
  8
実線
100
AcDbCircle
 10
120.5310589048317
 20
192.7603806944309
 30
0.0
 40
0.8
100
AcDbArc
 50
180.0
 51
270.0
  0
ARC
  5
2CA2D
330
1F
100
AcDbEntity
  8
実線
100
AcDbCircle
 10
120.5310589048317
 20
206.1603806944309
 30
0.0
 40
0.8
100
AcDbArc
 50
90.0
 51
180.0
  0
LINE
  5
2CA2E
330
1F
100
AcDbEntity
  8
実線
100
AcDbLine
 10
119.7310589048318
 20
192.7603806944309
 30
0.0
 11
119.7310589048318
 21
195.1603806944309
 31
0.0
  0
LINE
  5
2CA2F
330
1F
100
AcDbEntity
  8
実線
100
AcDbLine
 10
119.7310589048318
 20
203.760380694431
 30
0.0
 11
119.7310589048318
 21
195.1603806944309
 31
0.0
  0
ARC
  5
2CA30
330
1F
100
AcDbEntity
  8
実線
100
AcDbCircle
 10
164.2310589048318
 20
199.4603806944309
 30
0.0
 40
37.5
100
AcDbArc
 50
16.37867173813942
 51
167.2451955092033
  0
ARC
  5
2CA31
330
1F
100
AcDbEntity
  8
実線
100
AcDbCircle
 10
164.2310589048318
 20
199.4603806944309
 30
0.0
 40
34.00000000000001
100
AcDbArc
 50
84.93790703571995
 51
275.06209296428
  0
ARC
  5
2CA32
330
1F
100
AcDbEntity
  8
実線
100
AcDbCircle
 10
164.2310589048318
 20
199.4603806944309
 30
0.0
 40
34.00000000000001
100
AcDbArc
 50
292.4795056094106
 51
67.52049439058938
  0
LINE
  5
2CA33
330
1F
100
AcDbEntity
  8
破線
100
AcDbLine
 10
126.7198022265443
 20
191.9596311802274
 30
0.0
 11
126.7310589048318
 21
206.960380694431
 31
0.0
  0
LINE
  5
2CA34
330
1F
100
AcDbEntity
  8
実線
100
AcDbLine
 10
121.2310589048318
 20
191.9603806944309
 30
0.0
 11
125.2310589048318
 21
191.9603806944309
 31
0.0
  0
LINE
  5
2CA3A
330
1F
100
AcDbEntity
  8
実線
100
AcDbLine
 10
167.2310589048318
 20
165.5929922507329
 30
0.0
 11
167.2310589048318
 21
233.3277691382373
 31
0.0
  0
LINE
  5
2CA3B
330
1F
100
AcDbEntity
  8
実線
100
AcDbLine
 10
177.2310589048318
 20
168.043824549675
 30
0.0
 11
177.2310589048318
 21
230.8769368392951
 31
0.0
  0
TEXT
  5
2CA3E
330
1F
100
AcDbEntity
  8
文字
100
AcDbText
 10
189.0886657240407
 20
185.701742922824
 30
0.0
 40
9.0
  1
20
 50
90.0
 41
1.1
  7
スタイル2
 72
     4
 11
184.6441852045602
 21
192.2846000656811
 31
0.0
100
AcDbText
  0
TEXT
  5
2CA3F
330
1F
100
AcDbEntity
  8
文字
100
AcDbText
 10
189.2917763012573
 20
200.4288134046087
 30
0.0
 40
8.0
  1
mm
 50
90.0
 41
0.9
  7
スタイル2
 72
     4
 11
186.206062015543
 21
207.6194627552581
 31
0.0
100
AcDbText
  0
TEXT
  5
2CA40
330
1F
100
AcDbEntity
  8
文字
100
AcDbText
 10
160.4650097834689
 20
179.0850137432824
 30
0.0
 40
9.0
  1
K
 50
171.04726287007
  7
スタイル2
 72
     1
 11
156.5376384151416
 21
175.1482283243628
 31
0.0
100
AcDbText
 73
     2
  0
TEXT
  5
2CA41
330
1F
100
AcDbEntity
  8
文字
100
AcDbText
 10
154.447735703122
 20
181.138429579456
 30
0.0
 40
9.0
  1
A
 50
152.3076798394186
  7
スタイル2
 72
     1
 11
149.4586248088505
 21
178.674790749125
 31
0.0
100
AcDbText
 73
     2
  0
TEXT
  5
2CA42
330
1F
100
AcDbEntity
  8
文字
100
AcDbText
 10
149.2797819890743
 20
184.8888281138563
 30
0.0
 40
9.0
  1
S
 50
132.4166227373244
  7
スタイル2
 72
     1
 11
143.7461625733362
 21
184.2739405029776
 31
0.0
100
AcDbText
 73
     2
  0
TEXT
  5
2CA43
330
1F
100
AcDbEntity
  8
文字
100
AcDbText
 10
145.5236781858348
 20
189.7618515287412
 30
0.0
 40
9.0
  1
H
 50
111.512425231516
  7
スタイル2
 72
     1
 11
140.0245268683943
 21
191.4418754717401
 31
0.0
100
AcDbText
 73
     2
  0
TEXT
  5
2CA44
330
1F
100
AcDbEntity
  8
文字
100
AcDbText
 10
143.231058904832
 20
197.8561599152643
 30
0.0
 40
9.0
  1
I
 50
89.99999999999964
  7
スタイル2
 72
     1
 11
138.731058904832
 21
199.4603806944851
 31
0.0
100
AcDbText
 73
     2
  0
TEXT
  5
2CA45
330
1F
100
AcDbEntity
  8
文字
100
AcDbText
 10
142.8984181468305
 20
202.4985350680542
 30
0.0
 40
9.0
  1
H
 50
68.48757476848479
  7
スタイル2
 72
     1
 11
140.0245268683943
 21
207.4788859172299
 31
0.0
100
AcDbText
 73
     2
  0
TEXT
  5
2CA46
330
1F
100
AcDbEntity
  8
文字
100
AcDbText
 10
144.8608222571257
 20
209.1953735927512
 30
0.0
 40
9.0
  1
A
 50
47.58337726267553
  7
スタイル2
 72
     1
 11
143.7461625733362
 21
214.6468208859925
 31
0.0
100
AcDbText
 73
     2
  0
TEXT
  5
2CA47
330
1F
100
AcDbEntity
  8
文字
100
AcDbText
 10
148.4916071822513
 20
214.6563127606584
 30
0.0
 40
9.0
  1
R
 50
27.69232016058144
  7
スタイル2
 72
     1
 11
149.4586248088503
 21
220.2459706398453
 31
0.0
100
AcDbText
 73
     2
  0
TEXT
  5
2CA48
330
1F
100
AcDbEntity
  8
文字
100
AcDbText
 10
154.0050711651512
 20
218.8180556021571
 30
0.0
 40
9.0
  1
A
 50
8.952737129929944
  7
スタイル2
 72
     1
 11
156.5376384151418
 21
223.7725330646075
 31
0.0
100
AcDbText
 73
     2
  0
INSERT
  5
2CA51
330
1F
100
AcDbEntity
  8
実線
100
AcDbBlockReference
  2
mark
 10
153.8247902408059
 20
189.960380694485
 30
0.0
 41
0.38
 42
0.38
 43
0.38
 50
90.0
  0
ARC
  5
2CA52
330
1F
100
AcDbEntity
  8
実線
100
AcDbCircle
 10
164.2310589048318
 20
199.4603806944309
 30
0.0
 40
44.0
100
AcDbArc
 50
189.8142483329326
 51
213.1971083096947
  0
ARC
  5
2CA53
330
1F
100
AcDbEntity
  8
実線
100
AcDbCircle
 10
164.2310589048318
 20
199.4603806944309
 30
0.0
 40
44.0
100
AcDbArc
 50
236.8028916903099
 51
303.1971083096899
  0
ARC
  5
2CA54
330
1F
100
AcDbEntity
  8
実線
100
AcDbCircle
 10
164.2310589048318
 20
199.4603806944309
 30
0.0
 40
44.0
100
AcDbArc
 50
326.8028916903053
 51
352.0668664823513
  0
ARC
  5
2CA55
330
1F
100
AcDbEntity
  8
実線
100
AcDbCircle
 10
164.2310589048318
 20
199.4603806944309
 30
0.0
 40
44.0
100
AcDbArc
 50
37.24519802186017
 51
123.1971083096898
  0
ARC
  5
2CA56
330
1F
100
AcDbEntity
  8
実線
100
AcDbCircle
 10
164.2310589048318
 20
199.4603806944309
 30
0.0
 40
44.0
100
AcDbArc
 50
146.8028916903053
 51
170.185751667067
  0
ARC
  5
2CA57
330
1F
100
AcDbEntity
  8
実線
100
AcDbCircle
 10
164.2310589048318
 20
199.4603806944309
 30
0.0
 40
42.5
100
AcDbArc
 50
327.2257885931602
 51
347.2543431517071
  0
ARC
  5
2CA58
330
1F
100
AcDbEntity
  8
実線
100
AcDbCircle
 10
164.2310589048318
 20
199.4603806944309
 30
0.0
 40
42.5
100
AcDbArc
 50
38.79885487944466
 51
122.7742114068416
  0
ARC
  5
2CA59
330
1F
100
AcDbEntity
  8
実線
100
AcDbCircle
 10
164.2310589048318
 20
199.4603806944309
 30
0.0
 40
42.5
100
AcDbArc
 50
147.2257885931596
 51
169.835751378277
  0
ARC
  5
2CA5A
330
1F
100
AcDbEntity
  8
実線
100
AcDbCircle
 10
164.2310589048318
 20
199.4603806944309
 30
0.0
 40
42.5
100
AcDbArc
 50
190.1642486217226
 51
212.77421140684
  0
ARC
  5
2CA5B
330
1F
100
AcDbEntity
  8
実線
100
AcDbCircle
 10
164.2310589048318
 20
199.4603806944309
 30
0.0
 40
42.5
100
AcDbArc
 50
237.2257885931584
 51
302.7742114068416
  0
ARC
  5
2CA5C
330
1F
100
AcDbEntity
  8
実線
100
AcDbCircle
 10
164.2310589048318
 20
199.4603806944309
 30
0.0
 40
40.0
100
AcDbArc
 50
328.0028781629139
 51
345.5224878140701
  0
ARC
  5
2CA5D
330
1F
100
AcDbEntity
  8
実線
100
AcDbCircle
 10
164.2310589048318
 20
199.4603806944309
 30
0.0
 40
40.0
100
AcDbArc
 50
41.73988909915688
 51
121.9971218370855
  0
ARC
  5
2CA5E
330
1F
100
AcDbEntity
  8
実線
100
AcDbCircle
 10
164.2310589048318
 20
199.4603806944309
 30
0.0
 40
40.0
100
AcDbArc
 50
148.0028781629143
 51
169.1930771251403
  0
ARC
  5
2CA5F
330
1F
100
AcDbEntity
  8
実線
100
AcDbCircle
 10
164.2310589048318
 20
199.4603806944309
 30
0.0
 40
40.0
100
AcDbArc
 50
190.8069228748596
 51
211.9971218370864
  0
ARC
  5
2CA60
330
1F
100
AcDbEntity
  8
実線
100
AcDbCircle
 10
164.2310589048318
 20
199.4603806944309
 30
0.0
 40
40.0
100
AcDbArc
 50
238.0028781629145
 51
301.9971218370855
  0
LINE
  5
2CA61
330
1F
100
AcDbEntity
  8
実線
100
AcDbLine
 10
169.2310589048318
 20
149.4603806944309
 30
0.0
 11
159.2310589048318
 21
149.4603806944309
 31
0.0
  0
LINE
  5
2CA62
102
{ACAD_REACTORS
330
2CBC7
102
}
330
1F
100
AcDbEntity
  8
実線
100
AcDbLine
 10
168.7310589048318
 20
155.6910992290013
 30
0.0
 11
169.2310589048318
 21
149.4603806944309
 31
0.0
  0
LINE
  5
2CA63
330
1F
100
AcDbEntity
  8
実線
100
AcDbLine
 10
159.2310589048318
 20
149.4603806944309
 30
0.0
 11
159.7310589048318
 21
155.6910992290013
 31
0.0
  0
LINE
  5
2CA64
330
1F
100
AcDbEntity
  8
実線
100
AcDbLine
 10
159.2310589048318
 20
249.4603806944309
 30
0.0
 11
169.2310589048318
 21
249.4603806944309
 31
0.0
  0
LINE
  5
2CA65
330
1F
100
AcDbEntity
  8
実線
100
AcDbLine
 10
159.7310589048318
 20
243.2296621598606
 30
0.0
 11
159.2310589048318
 21
249.4603806944309
 31
0.0
  0
LINE
  5
2CA66
102
{ACAD_REACTORS
330
2CBC7
102
}
330
1F
100
AcDbEntity
  8
実線
100
AcDbLine
 10
169.2310589048318
 20
249.4603806944309
 30
0.0
 11
168.7310589048318
 21
243.2296621598606
 31
0.0
  0
LINE
  5
2CA67
330
1F
100
AcDbEntity
  8
実線
100
AcDbLine
 10
112.2310589048318
 20
204.4603806944309
 30
0.0
 11
119.7310589048319
 21
203.8585239456156
 31
0.0
  0
LINE
  5
2CA68
330
1F
100
AcDbEntity
  8
実線
100
AcDbLine
 10
119.7310589048317
 20
195.0622374432462
 30
0.0
 11
112.2310589048318
 21
194.4603806944309
 31
0.0
  0
LINE
  5
2CA69
330
1F
100
AcDbEntity
  8
実線
100
AcDbLine
 10
112.2310589048318
 20
194.4603806944309
 30
0.0
 11
112.2310589048318
 21
204.4603806944309
 31
0.0
  0
LINE
  5
2CA6A
330
1F
100
AcDbEntity
  8
実線
100
AcDbLine
 10
214.2310589048318
 20
194.4603806944309
 30
0.0
 11
209.2896372644024
 21
194.8569177561687
 31
0.0
  0
LINE
  5
2CA6B
330
1F
100
AcDbEntity
  8
実線
100
AcDbLine
 10
214.2310589048318
 20
199.7637176180053
 30
0.0
 11
214.2310589048318
 21
194.4603806944309
 31
0.0
  0
MTEXT
  5
2CA6E
330
1F
100
AcDbEntity
  8
文字
370
     9
100
AcDbMText
 10
162.1643003295423
 20
155.05709820295
 30
0.0
 40
5.0
 41
19.85484558976438
 46
0.0
 71
     1
 72
     5
  1
{\fMS PMincho|b0|i0|c128|p18;\W1.05;E}
  7
寸法
 73
     1
 44
1.0
  0
LINE
  5
2CA71
330
1F
100
AcDbEntity
  8
実線
100
AcDbLine
 10
164.2310589048318
 20
130.1877323164324
 30
0.0
 11
206.7310589048318
 21
130.1877323164324
 31
0.0
  0
LINE
  5
2CA72
330
1F
100
AcDbEntity
  8
実線
100
AcDbLine
 10
164.2310589048318
 20
107.4477346068495
 30
-0.0000000000000032
 11
169.2310589048318
 21
107.4477346068495
 31
-0.0000000000000032
  0
LINE
  5
2CA73
330
1F
100
AcDbEntity
  8
実線
100
AcDbLine
 10
169.2310589048318
 20
107.4477346068495
 30
-0.0000000000000032
 11
169.2310589048318
 21
123.1877323164325
 31
0.0
  0
LINE
  5
2CA74
330
1F
100
AcDbEntity
  8
実線
100
AcDbLine
 10
169.2310589048318
 20
123.1877323164325
 30
0.0
 11
164.2310589048318
 21
123.1877323164325
 31
0.0
  0
LINE
  5
2CA75
330
1F
100
AcDbEntity
  8
実線
100
AcDbLine
 10
208.2310589048318
 20
124.1877323164325
 30
0.0
 11
164.2310589048318
 21
124.1877323164325
 31
0.0
  0
LINE
  5
2CA76
330
1F
100
AcDbEntity
  8
実線
100
AcDbLine
 10
119.7310589048318
 20
142.1877323163687
 30
0.0
 11
119.7310589048318
 21
133.1877323163687
 31
0.0
  0
ARC
  5
2CA77
330
1F
100
AcDbEntity
  8
実線
100
AcDbCircle
 10
121.2310589048318
 20
142.1877323163687
 30
0.0
 40
1.5
100
AcDbArc
 50
90.0
 51
180.0
  0
LINE
  5
2CA78
330
1F
100
AcDbEntity
  8
実線
100
AcDbLine
 10
206.7310589048318
 20
143.6877323163687
 30
0.0
 11
206.7310589048318
 21
142.1877323163688
 31
0.0
  0
LINE
  5
2CA79
330
1F
100
AcDbEntity
  8
実線
100
AcDbLine
 10
126.7310589048318
 20
137.6877323163687
 30
0.0
 11
201.7310589048318
 21
137.6877323163687
 31
0.0
  0
LINE
  5
2CA7A
330
1F
100
AcDbEntity
  8
実線
100
AcDbLine
 10
128.2310589048318
 20
139.6877323163687
 30
0.0
 11
200.2310589048318
 21
139.6877323163687
 31
0.0
  0
LINE
  5
2CA7B
330
1F
100
AcDbEntity
  8
実線
100
AcDbLine
 10
128.2310589048318
 20
137.6877323163687
 30
0.0
 11
128.2310589048318
 21
139.6877323163687
 31
0.0
  0
LINE
  5
2CA7C
330
1F
100
AcDbEntity
  8
実線
100
AcDbLine
 10
200.2310589048318
 20
139.6877323163687
 30
0.0
 11
200.2310589048318
 21
137.6877323163687
 31
0.0
  0
LINE
  5
2CA7D
330
1F
100
AcDbEntity
  8
実線
100
AcDbLine
 10
130.2310589048318
 20
142.1877323163687
 30
0.0
 11
144.2310589048318
 21
142.1877323163687
 31
0.0
  0
LINE
  5
2CA7E
330
1F
100
AcDbEntity
  8
実線
100
AcDbLine
 10
126.7310589048318
 20
139.6877323163687
 30
0.0
 11
126.7310589048318
 21
133.1877323163687
 31
0.0
  0
LINE
  5
2CA7F
330
1F
100
AcDbEntity
  8
実線
100
AcDbLine
 10
201.7310589048318
 20
140.8479863542131
 30
0.0
 11
206.7310589048318
 21
142.1877323163688
 31
0.0
  0
LINE
  5
2CA80
330
1F
100
AcDbEntity
  8
実線
100
AcDbLine
 10
206.7310589048318
 20
143.6877323163687
 30
0.0
 11
200.9310589048318
 21
143.6877323163687
 31
0.0
  0
LINE
  5
2CA81
330
1F
100
AcDbEntity
  8
実線
100
AcDbLine
 10
126.7310589048318
 20
139.6877323163687
 30
0.0
 11
119.7310589048318
 21
139.6877323163687
 31
0.0
  0
ARC
  5
2CA82
330
1F
100
AcDbEntity
  8
実線
100
AcDbCircle
 10
123.2310589048318
 20
134.1877323163687
 30
0.0
 40
3.5
100
AcDbArc
 50
180.0
 51
0.0
  0
CIRCLE
  5
2CA83
330
1F
100
AcDbEntity
  8
実線
100
AcDbCircle
 10
123.2310589048318
 20
134.1877323163687
 30
0.0
 40
1.35
  0
LINE
  5
2CA84
330
1F
100
AcDbEntity
  8
実線
100
AcDbLine
 10
130.2310589048318
 20
143.6877323163687
 30
0.0
 11
130.2310589048318
 21
142.1877323163687
 31
0.0
  0
LINE
  5
2CA85
330
1F
100
AcDbEntity
  8
実線
100
AcDbLine
 10
199.0310589048317
 20
143.6877323163687
 30
0.0
 11
200.9310589048318
 21
143.6877323163687
 31
0.0
  0
LINE
  5
2CA86
102
{ACAD_REACTORS
330
2CC50
102
}
330
1F
100
AcDbEntity
  8
実線
100
AcDbLine
 10
121.2310589048318
 20
143.6877323163687
 30
0.0
 11
199.0310589048317
 21
143.6877323163687
 31
0.0
  0
LINE
  5
2CA87
330
1F
100
AcDbEntity
  8
実線
100
AcDbLine
 10
198.2310589048318
 20
143.6877323163687
 30
0.0
 11
198.2310589048318
 21
142.1877323163687
 31
0.0
  0
LINE
  5
2CA88
330
1F
100
AcDbEntity
  8
実線
100
AcDbLine
 10
198.2310589048318
 20
142.1877323163687
 30
0.0
 11
181.2310589048318
 21
142.1877323163687
 31
0.0
  0
LINE
  5
2CA89
330
1F
100
AcDbEntity
  8
実線
100
AcDbLine
 10
181.2310589048318
 20
142.1877323163687
 30
0.0
 11
181.2310589048318
 21
143.6877323163687
 31
0.0
  0
LINE
  5
2CA8A
330
1F
100
AcDbEntity
  8
実線
100
AcDbLine
 10
201.7310589048318
 20
137.6877323163687
 30
0.0
 11
201.7310589048318
 21
140.8479863542131
 31
0.0
  0
LINE
  5
2CA8B
330
1F
100
AcDbEntity
  8
実線
100
AcDbLine
 10
227.6609119048317
 20
126.1690256754316
 30
0.0
 11
227.8096279048316
 21
134.6889866754316
 31
0.0
  0
LINE
  5
2CA8C
330
1F
100
AcDbEntity
  8
実線
100
AcDbLine
 10
229.8619719048318
 20
134.6877326754315
 30
0.0
 11
229.8619719048318
 21
137.6877326754315
 31
0.0
  0
LINE
  5
2CA8D
330
1F
100
AcDbEntity
  8
実線
100
AcDbLine
 10
227.5248919048317
 20
134.6877326754315
 30
0.0
 11
227.5248919048317
 21
137.6877326754315
 31
0.0
  0
LINE
  5
2CA8E
330
1F
100
AcDbEntity
  8
実線
100
AcDbLine
 10
225.9979549048316
 20
126.1702796754316
 30
0.0
 11
226.1010939048317
 21
134.6877326754315
 31
0.0
  0
LINE
  5
2CA8F
330
1F
100
AcDbEntity
  8
実線
100
AcDbLine
 10
211.9459549048317
 20
130.1877326754315
 30
0.0
 11
216.3753229048316
 21
130.1877326754315
 31
0.0
  0
LINE
  5
2CA90
330
1F
100
AcDbEntity
  8
実線
100
AcDbLine
 10
219.6873579048317
 20
126.1702796754316
 30
0.0
 11
225.9979549048316
 21
126.1702796754316
 31
0.0
  0
LINE
  5
2CA91
330
1F
100
AcDbEntity
  8
実線
100
AcDbLine
 10
144.7295389048318
 20
136.6833686754316
 30
0.0
 11
129.2292729048317
 21
136.6833686754316
 31
0.0
  0
LINE
  5
2CA92
330
1F
100
AcDbEntity
  8
実線
100
AcDbLine
 10
199.2328439048317
 20
136.6833686754316
 30
0.0
 11
183.7325779048317
 21
136.6833686754316
 31
0.0
  0
SPLINE
  5
2CA93
330
1F
100
AcDbEntity
  8
実線
100
AcDbSpline
210
0.0000000000000005
220
-0.0000000000000007
230
1.0
 70
     8
 71
     3
 72
    11
 73
     7
 74
     0
 42
0.000000001
 43
0.0000000001
 40
0.0
 40
0.0
 40
0.0
 40
0.0
 40
0.2259189453175958
 40
0.4749437486470577
 40
0.7389082183377647
 40
1.0
 40
1.0
 40
1.0
 40
1.0
 10
226.5033688717133
 20
125.1877323165815
 30
-0.0000000000000008
 10
226.6352981763077
 20
125.1856637097048
 30
-0.0000000000000008
 10
226.8983450843887
 20
125.2206634208226
 30
-0.0000000000000008
 10
227.2892078697332
 20
125.4005435482026
 30
-0.0000000000000008
 10
227.584435300831
 20
125.7416610132175
 30
-0.0000000000000007
 10
227.6542437269575
 20
126.0172176810092
 30
-0.0000000000000007
 10
227.6609318206213
 20
126.1702799100333
 30
-0.0000000000000007
  0
SPLINE
  5
2CA94
330
1F
100
AcDbEntity
  8
実線
100
AcDbSpline
210
0.0
220
0.0
230
1.0
 70
    24
 71
     1
 72
     4
 73
     2
 74
     0
 42
0.000000001
 43
0.0000000001
 40
0.0
 40
0.0
 40
1.0
 40
1.0
 10
212.4180875212764
 20
130.1874195975228
 30
-0.0000000000000005
 10
212.5265274608421
 20
126.1604839123386
 30
-0.0000000000000007
  0
SPLINE
  5
2CA95
330
1F
100
AcDbEntity
  8
実線
100
AcDbSpline
210
-0.0000000000000006
220
-0.0000000000000007
230
1.0
 70
     8
 71
     3
 72
    13
 73
     9
 74
     0
 42
0.000000001
 43
0.0000000001
 40
0.0
 40
0.0
 40
0.0
 40
0.0
 40
0.1115201039487749
 40
0.2278635016244231
 40
0.3489508537731877
 40
0.4776140031074334
 40
0.7471369611342269
 40
1.0
 40
1.0
 40
1.0
 40
1.0
 10
212.526376489694
 20
126.160844174783
 30
-0.0000000000000007
 10
212.5281610227741
 20
126.0975341823825
 30
-0.0000000000000007
 10
212.5436059042556
 20
125.9708497739541
 30
-0.0000000000000007
 10
212.6054113560585
 20
125.780321266865
 30
-0.0000000000000007
 10
212.7079679083349
 20
125.6000479432796
 30
-0.0000000000000007
 10
212.8913792451226
 20
125.3954581917414
 30
-0.0000000000000008
 10
213.1866082076326
 20
125.2326481939426
 30
-0.0000000000000008
 10
213.4656747641702
 20
125.1881151658517
 30
-0.0000000000000008
 10
213.6127571420545
 20
125.1877323163687
 30
-0.0000000000000008
  0
SPLINE
  5
2CA96
330
1F
100
AcDbEntity
  8
実線
100
AcDbSpline
210
0.0
220
0.0
230
1.0
 70
    24
 71
     3
 72
    14
 73
    10
 74
     0
 42
0.000000001
 43
0.0000000001
 40
0.0
 40
0.0
 40
0.0
 40
0.0
 40
0.25
 40
0.25
 40
0.5
 40
0.5
 40
0.75
 40
0.75
 40
1.0
 40
1.0
 40
1.0
 40
1.0
 10
184.6287832691634
 20
137.6877323163687
 30
0.0
 10
181.6078566871917
 20
137.6877323163687
 30
0.0
 10
178.3076153910663
 20
137.6877323163687
 30
0.0
 10
171.4148922863524
 20
137.6877323163687
 30
0.0
 10
167.8231744374309
 20
137.6877323163687
 30
0.0
 10
160.6389424701281
 20
137.6877323163687
 30
0.0
 10
157.047224620997
 20
137.6877323163687
 30
0.0
 10
150.1545015154622
 20
137.6877323163687
 30
0.0
 10
146.8542602187253
 20
137.6877323163687
 30
0.0
 10
143.8333336359658
 20
137.6877323163687
 30
0.0
  0
SPLINE
  5
2CA97
330
1F
100
AcDbEntity
  8
実線
100
AcDbSpline
210
0.0
220
0.0
230
1.0
 70
    24
 71
     1
 72
     4
 73
     2
 74
     0
 42
0.000000001
 43
0.0000000001
 40
0.0
 40
0.0
 40
1.0
 40
1.0
 10
211.9423570810545
 20
134.6877323163687
 30
-0.0000000000000002
 10
227.5248920810545
 20
134.6877323163687
 30
-0.0000000000000002
  0
SPLINE
  5
2CA98
330
1F
100
AcDbEntity
  8
実線
100
AcDbSpline
210
0.0
220
0.0
230
1.0
 70
    24
 71
     3
 72
    10
 73
     6
 74
     0
 42
0.000000001
 43
0.0000000001
 40
0.0
 40
0.0
 40
0.0
 40
0.0
 40
0.5
 40
0.5
 40
1.0
 40
1.0
 40
1.0
 40
1.0
 10
227.5248920830945
 20
134.687732316667
 30
-0.0000000000000002
 10
228.2614804683053
 20
134.687732316667
 30
-0.0000000000000002
 10
228.853228333953
 20
134.687732316667
 30
-0.0000000000000002
 10
229.6536467938044
 20
134.687732316667
 30
-0.0000000000000002
 10
229.8619824381546
 20
134.687732316667
 30
-0.0000000000000002
 10
229.8619666865795
 20
134.687732316667
 30
-0.0000000000000002
  0
SPLINE
  5
2CA99
330
1F
100
AcDbEntity
  8
実線
100
AcDbSpline
210
0.0
220
0.0
230
1.0
 70
     8
 71
     3
 72
    18
 73
    14
 74
     0
 42
0.000000001
 43
0.0000000001
 40
0.0
 40
0.0
 40
0.0
 40
0.0
 40
0.062470076537805
 40
0.1249495076892241
 40
0.2500641950362941
 40
0.3745810240093161
 40
0.4998099936103095
 40
0.624241027455021
 40
0.7493929959937287
 40
0.8740897937830245
 40
0.9370844937144704
 40
0.9685127315902519
 40
1.0
 40
1.0
 40
1.0
 40
1.0
 10
143.8333336359658
 20
137.6877323163687
 30
0.0
 10
143.8613662536184
 20
137.6868163132415
 30
0.0
 10
143.9174356866817
 20
137.6849841698197
 30
0.0
 10
144.0291311612848
 20
137.6653332401513
 30
0.0
 10
144.1657575156823
 20
137.6185792242145
 30
0.0
 10
144.3189030290789
 20
137.526570081872
 30
0.0
 10
144.4552137008656
 20
137.402610058105
 30
0.0
 10
144.569654183372
 20
137.2503088237067
 30
0.0
 10
144.6569440214132
 20
137.0755578288924
 30
0.0
 10
144.7039416608529
 20
136.9158544626839
 30
0.0
 10
144.7217821170432
 20
136.8004780269148
 30
-0.0000000000000001
 10
144.7278146135261
 20
136.733634371717
 30
-0.0000000000000001
 10
144.7289637976908
 20
136.7001346052786
 30
-0.0000000000000001
 10
144.7295389288847
 20
136.6833690064657
 30
-0.0000000000000001
  0
SPLINE
  5
2CA9A
330
1F
100
AcDbEntity
  8
実線
100
AcDbSpline
210
0.0000000000000006
220
-0.0000000000000006
230
1.0
 70
     8
 71
     3
 72
    17
 73
    13
 74
     0
 42
0.000000001
 43
0.0000000001
 40
0.0
 40
0.0
 40
0.0
 40
0.0
 40
0.0624113752594375
 40
0.1249211180700301
 40
0.2500682483801164
 40
0.374600153538278
 40
0.4997707322151781
 40
0.6245569077250872
 40
0.7493767487460984
 40
0.8745050327104333
 40
0.9372725646200736
 40
1.0
 40
1.0
 40
1.0
 40
1.0
 10
183.7325779765572
 20
136.6833690064657
 30
-0.0000000000000001
 10
183.7341377333203
 20
136.7166104659816
 30
-0.0000000000000001
 10
183.7372597052038
 20
136.7831457774009
 30
-0.0000000000000001
 10
183.7581955645094
 20
136.9148173969999
 30
0.0
 10
183.8045864428077
 20
137.0742659945918
 30
0.0
 10
183.8919141354117
 20
137.249391504801
 30
0.0
 10
184.0060822807591
 20
137.4017332739647
 30
0.0
 10
184.1425090791244
 20
137.5260342512724
 30
0.0
 10
184.2955261512347
 20
137.6182060092401
 30
0.0
 10
184.4323846346829
 20
137.6651845925912
 30
0.0
 10
184.5443223743834
 20
137.6849575427993
 30
0.0
 10
184.6006356350678
 20
137.6868075890313
 30
0.0
 10
184.6287832691673
 20
137.6877323165961
 30
0.0
  0
SPLINE
  5
2CA9B
330
1F
100
AcDbEntity
  8
実線
100
AcDbSpline
210
0.0
220
0.0
230
1.0
 70
    24
 71
     1
 72
     4
 73
     2
 74
     0
 42
0.000000001
 43
0.0000000001
 40
0.0
 40
0.0
 40
1.0
 40
1.0
 10
211.9545685415017
 20
136.6833690073686
 30
-0.0000000000000001
 10
211.9144858551877
 20
130.1877323163687
 30
-0.0000000000000005
  0
SPLINE
  5
2CA9C
330
1F
100
AcDbEntity
  8
実線
100
AcDbSpline
210
0.0
220
0.0
230
1.0
 70
    24
 71
     1
 72
     4
 73
     2
 74
     0
 42
0.000000001
 43
0.0000000001
 40
0.0
 40
0.0
 40
1.0
 40
1.0
 10
129.2292727856072
 20
136.6833690073686
 30
-0.0000000000000001
 10
129.2292727819215
 20
130.1877323163687
 30
-0.0000000000000005
  0
SPLINE
  5
2CA9D
330
1F
100
AcDbEntity
  8
実線
100
AcDbSpline
210
0.0
220
0.0
230
1.0
 70
     8
 71
     3
 72
     8
 73
     4
 74
     0
 42
0.000000001
 43
0.0000000001
 40
0.0
 40
0.0
 40
0.0
 40
0.0
 40
1.0
 40
1.0
 40
1.0
 40
1.0
 10
144.7295389288847
 20
136.6833690064657
 30
-0.0000000000000001
 10
144.7763203632116
 20
134.5181567764546
 30
-0.0000000000000002
 10
144.823057470677
 20
132.3529445464435
 30
-0.0000000000000003
 10
144.8697502197231
 20
130.1877323164324
 30
-0.0000000000000005
  0
SPLINE
  5
2CA9E
330
1F
100
AcDbEntity
  8
実線
100
AcDbSpline
210
0.0
220
0.0
230
1.0
 70
    24
 71
     1
 72
     4
 73
     2
 74
     0
 42
0.000000001
 43
0.0000000001
 40
0.0
 40
0.0
 40
1.0
 40
1.0
 10
116.5075483586074
 20
136.6833690073686
 30
-0.0000000000000001
 10
116.5476310449214
 20
130.1877323163687
 30
-0.0000000000000005
  0
SPLINE
  5
2CA9F
330
1F
100
AcDbEntity
  8
実線
100
AcDbSpline
210
0.0
220
0.0
230
1.0
 70
    24
 71
     1
 72
     4
 73
     2
 74
     0
 42
0.000000001
 43
0.0000000001
 40
0.0
 40
0.0
 40
1.0
 40
1.0
 10
199.2328441244237
 20
136.6833690063686
 30
-0.0000000000000001
 10
199.2328441236416
 20
130.1877323163687
 30
-0.0000000000000005
  0
SPLINE
  5
2CAA0
330
1F
100
AcDbEntity
  8
実線
100
AcDbSpline
210
0.0
220
0.0
230
1.0
 70
    24
 71
     1
 72
     4
 73
     2
 74
     0
 42
0.000000001
 43
0.0000000001
 40
0.0
 40
0.0
 40
1.0
 40
1.0
 10
183.732577989803
 20
136.6833690073688
 30
-0.0000000000000001
 10
183.5923666886103
 20
130.1877323163687
 30
-0.0000000000000005
  0
SPLINE
  5
2CAA1
330
1F
100
AcDbEntity
  8
実線
100
AcDbSpline
210
0.0
220
0.0
230
1.0
 70
    24
 71
     1
 72
     4
 73
     2
 74
     0
 42
0.000000001
 43
0.0000000001
 40
0.0
 40
0.0
 40
1.0
 40
1.0
 10
116.5075483601442
 20
136.6833690063686
 30
-0.0000000000000001
 10
116.5476310496417
 20
130.1877323163687
 30
-0.0000000000000005
  0
SPLINE
  5
2CAA2
330
1F
100
AcDbEntity
  8
実線
100
AcDbSpline
210
0.0
220
0.0
230
1.0
 70
    24
 71
     1
 72
     4
 73
     2
 74
     0
 42
0.000000001
 43
0.0000000001
 40
0.0
 40
0.0
 40
1.0
 40
1.0
 10
211.9331109249895
 20
133.1877323161527
 30
-0.0000000000000001
 10
217.7836999249896
 20
133.1877323161527
 30
-0.0000000000000003
  0
SPLINE
  5
2CAA3
330
1F
100
AcDbEntity
  8
実線
100
AcDbSpline
210
0.0
220
0.0
230
1.0
 70
    24
 71
     1
 72
     4
 73
     2
 74
     0
 42
0.000000001
 43
0.0000000001
 40
0.0
 40
0.0
 40
1.0
 40
1.0
 10
217.7836999249896
 20
133.1877323161527
 30
-0.0000000000000003
 10
217.7625820518942
 20
130.1877323157209
 30
0.0000000000000004
  0
SPLINE
  5
2CAA4
330
1F
100
AcDbEntity
  8
実線
100
AcDbSpline
210
0.0
220
0.0
230
1.0
 70
    24
 71
     1
 72
     4
 73
     2
 74
     0
 42
0.000000001
 43
0.0000000001
 40
0.0
 40
0.0
 40
1.0
 40
1.0
 10
216.3753227887844
 20
130.1877323163687
 30
0.0000000000000004
 10
216.3964406535904
 20
133.1877323163687
 30
-0.0000000000000003
  0
SPLINE
  5
2CAA5
330
1F
100
AcDbEntity
  8
実線
100
AcDbSpline
210
0.0
220
0.0
230
1.0
 70
    24
 71
     1
 72
     4
 73
     2
 74
     0
 42
0.000000001
 43
0.0000000001
 40
0.0
 40
0.0
 40
1.0
 40
1.0
 10
219.6428806098349
 20
130.1877323157209
 30
-0.0000000000000005
 10
219.6873576718456
 20
126.1702799103686
 30
-0.0000000000000007
  0
SPLINE
  5
2CAA6
330
1F
100
AcDbEntity
  8
実線
100
AcDbSpline
210
0.0
220
0.0
230
1.0
 70
     8
 71
     3
 72
    18
 73
    14
 74
     0
 42
0.000000001
 43
0.0000000001
 40
0.0
 40
0.0
 40
0.0
 40
0.0
 40
0.0909102076715635
 40
0.1818197452705851
 40
0.2727287617006676
 40
0.3636374058679873
 40
0.4545458266805398
 40
0.5454541730474335
 40
0.6363625938781203
 40
0.7272712380817115
 40
0.8181802545661994
 40
0.90908979223776
 40
1.0
 40
1.0
 40
1.0
 40
1.0
 10
216.3753227909317
 20
130.1877323167512
 30
0.0000000000000004
 10
216.4217806832403
 20
130.1877314546275
 30
0.0000000000000004
 10
216.5146961254302
 20
130.1877297303863
 30
0.0000000000000004
 10
216.6533921354824
 20
130.1877204139787
 30
0.0000000000000004
 10
216.7907371217393
 20
130.1877108409703
 30
0.0000000000000004
 10
216.9260646430496
 20
130.1877028598894
 30
0.0000000000000004
 10
217.0587169712503
 20
130.1876984523751
 30
0.0000000000000004
 10
217.1880533655531
 20
130.1876984523744
 30
0.0000000000000004
 10
217.3134342176045
 20
130.1877028598874
 30
0.0000000000000004
 10
217.4342949352724
 20
130.1877108409674
 30
0.0000000000000004
 10
217.5498845310431
 20
130.1877204139746
 30
0.0000000000000004
 10
217.6602551034437
 20
130.1877297303815
 30
0.0000000000000004
 10
217.728472985822
 20
130.1877314546225
 30
0.0000000000000004
 10
217.7625820527185
 20
130.1877323167462
 30
0.0000000000000004
  0
SPLINE
  5
2CAA7
330
1F
100
AcDbEntity
  8
実線
100
AcDbSpline
210
0.0
220
0.0
230
1.0
 70
    24
 71
     1
 72
     4
 73
     2
 74
     0
 42
0.000000001
 43
0.0000000001
 40
0.0
 40
0.0
 40
1.0
 40
1.0
 10
217.7625820518942
 20
130.1877323157209
 30
0.0000000000000004
 10
219.6428806098349
 20
130.1877323157209
 30
-0.0000000000000005
  0
SPLINE
  5
2CAA8
330
1F
100
AcDbEntity
  8
実線
100
AcDbSpline
210
0.0
220
0.0
230
1.0
 70
    24
 71
     1
 72
     4
 73
     2
 74
     0
 42
0.000000001
 43
0.0000000001
 40
0.0
 40
0.0
 40
1.0
 40
1.0
 10
183.5923666886103
 20
130.1877323163687
 30
-0.0000000000000005
 10
199.2328441181875
 20
130.1877323163687
 30
-0.0000000000000005
  0
SPLINE
  5
2CAA9
330
1F
100
AcDbEntity
  8
実線
100
AcDbSpline
210
0.0
220
0.0
230
1.0
 70
    24
 71
     1
 72
     4
 73
     2
 74
     0
 42
0.000000001
 43
0.0000000001
 40
0.0
 40
0.0
 40
1.0
 40
1.0
 10
129.2292727819215
 20
130.1877323163687
 30
-0.0000000000000005
 10
144.8697502114987
 20
130.1877323163687
 30
-0.0000000000000005
  0
SPLINE
  5
2CAAA
330
1F
100
AcDbEntity
  8
実線
100
AcDbSpline
210
0.0
220
0.0
230
1.0
 70
    24
 71
     1
 72
     4
 73
     2
 74
     0
 42
0.000000001
 43
0.0000000001
 40
0.0
 40
0.0
 40
1.0
 40
1.0
 10
116.5476310496417
 20
130.1877323163687
 30
-0.0000000000000005
 10
129.2292727764675
 20
130.1877323163687
 30
-0.0000000000000005
  0
SPLINE
  5
2CAAB
330
1F
100
AcDbEntity
  8
実線
100
AcDbSpline
210
0.0
220
0.0
230
1.0
 70
    24
 71
     1
 72
     4
 73
     2
 74
     0
 42
0.000000001
 43
0.0000000001
 40
0.0
 40
0.0
 40
1.0
 40
1.0
 10
199.2328441236416
 20
130.1877323163687
 30
-0.0000000000000005
 10
211.9144858504676
 20
130.1877323163687
 30
-0.0000000000000005
  0
SPLINE
  5
2CAAC
330
1F
100
AcDbEntity
  8
実線
100
AcDbSpline
210
0.0
220
0.0
230
1.0
 70
    24
 71
     3
 72
    14
 73
    10
 74
     0
 42
0.000000001
 43
0.0000000001
 40
0.0
 40
0.0
 40
0.0
 40
0.0
 40
0.25
 40
0.25
 40
0.5
 40
0.5
 40
0.75
 40
0.75
 40
1.0
 40
1.0
 40
1.0
 40
1.0
 10
144.8697502197231
 20
130.1877323164324
 30
-0.0000000000000005
 10
147.7724351427523
 20
130.1877323164324
 30
-0.0000000000000005
 10
150.9146332108212
 20
130.1877323164324
 30
-0.0000000000000005
 10
157.4485325286373
 20
130.1877323164324
 30
-0.0000000000000005
 10
160.8396418786722
 20
130.1877323164324
 30
-0.0000000000000005
 10
167.622475028943
 20
130.1877323164324
 30
-0.0000000000000005
 10
171.0135843787877
 20
130.1877323164324
 30
-0.0000000000000005
 10
177.5474836958581
 20
130.1877323164324
 30
-0.0000000000000005
 10
180.6896817633712
 20
130.1877323164324
 30
-0.0000000000000005
 10
183.5923666856822
 20
130.1877323164324
 30
-0.0000000000000005
  0
SPLINE
  5
2CAAD
330
1F
100
AcDbEntity
  8
実線
100
AcDbSpline
210
0.0
220
0.0
230
1.0
 70
     8
 71
     3
 72
     8
 73
     4
 74
     0
 42
0.000000001
 43
0.0000000001
 40
0.0
 40
0.0
 40
0.0
 40
0.0
 40
1.0
 40
1.0
 40
1.0
 40
1.0
 10
212.6996037733297
 20
126.1702799153552
 30
-0.0000000000000007
 10
212.6641176741296
 20
127.5094317707562
 30
-0.0000000000000006
 10
212.6285949939409
 20
128.8485826048354
 30
-0.0000000000000005
 10
212.5930354996026
 20
130.1877323628421
 30
-0.0000000000000005
  0
SPLINE
  5
2CAAE
330
1F
100
AcDbEntity
  8
実線
100
AcDbSpline
210
0.0
220
0.0
230
1.0
 70
     8
 71
     3
 72
     8
 73
     4
 74
     0
 42
0.000000001
 43
0.0000000001
 40
0.0
 40
0.0
 40
0.0
 40
0.0
 40
1.0
 40
1.0
 40
1.0
 40
1.0
 10
216.3367433690969
 20
126.1702799103721
 30
-0.0000000000000007
 10
216.3216805857953
 20
127.5094307123922
 30
-0.0000000000000006
 10
216.3065594454533
 20
128.8485815144122
 30
-0.0000000000000005
 10
216.291380116515
 20
130.1877323164324
 30
-0.0000000000000005
  0
SPLINE
  5
2CAAF
330
1F
100
AcDbEntity
  8
実線
100
AcDbSpline
210
0.0
220
0.0
230
1.0
 70
     8
 71
     3
 72
    11
 73
     7
 74
     0
 42
0.000000001
 43
0.0000000001
 40
0.0
 40
0.0
 40
0.0
 40
0.0
 40
0.1149657792339902
 40
0.3833393396974598
 40
0.6810635366111423
 40
1.0
 40
1.0
 40
1.0
 40
1.0
 10
212.5270642922481
 20
126.1603817563905
 30
-0.0000000000000007
 10
212.5261492246816
 20
126.16066296246
 30
-0.0000000000000007
 10
212.5260502057033
 20
126.1616385422105
 30
-0.0000000000000007
 10
212.5435014852722
 20
126.163609175723
 30
-0.0000000000000007
 10
212.5967417487871
 20
126.1666144003586
 30
-0.0000000000000007
 10
212.6645390542387
 20
126.1690303749708
 30
-0.0000000000000007
 10
212.6996037733297
 20
126.1702799153552
 30
-0.0000000000000007
  0
SPLINE
  5
2CAB0
330
1F
100
AcDbEntity
  8
実線
100
AcDbSpline
210
0.0000000000000001
220
-0.0000000000000001
230
1.0
 70
    12
 71
     2
 72
     6
 73
     3
 74
     0
 42
0.000000001
 43
0.0000000001
 40
0.0
 40
0.0
 40
0.0
 40
1.0
 40
1.0
 40
1.0
 10
218.9937280500546
 20
125.1877323163687
 30
-0.0000000000000008
 41
1.0
 10
219.6754598210548
 20
125.1877323163688
 30
-0.0000000000000008
 41
0.713250449154184
 10
219.6873576810546
 20
126.1702799103686
 30
-0.0000000000000007
 41
1.0
  0
SPLINE
  5
2CAB1
330
1F
100
AcDbEntity
  8
実線
100
AcDbSpline
210
0.0
220
0.0
230
1.0
 70
     8
 71
     3
 72
    25
 73
    21
 74
     0
 42
0.000000001
 43
0.0000000001
 40
0.0
 40
0.0
 40
0.0
 40
0.0
 40
0.0340600320258166
 40
0.067148870438772
 40
0.0989921468915188
 40
0.1293296933274707
 40
0.1579209471848954
 40
0.1845488881889696
 40
0.2090224007097537
 40
0.2311771260611704
 40
0.2508750058897336
 40
0.3779359328408304
 40
0.5001444140740114
 40
0.6225634798598121
 40
0.74989648982634
 40
0.7870055596822624
 40
0.8316872953358613
 40
0.8829550217545103
 40
0.9395527336366795
 40
1.0
 40
1.0
 40
1.0
 40
1.0
 10
216.3367433656952
 20
126.1702799591144
 30
-0.0000000000000007
 10
216.3469946841476
 20
126.1695040263717
 30
-0.0000000000000007
 10
216.3672050131947
 20
126.1679742859655
 30
-0.0000000000000007
 10
216.4095409765327
 20
126.1658186598285
 30
-0.0000000000000007
 10
216.4585380598051
 20
126.1638458567183
 30
-0.0000000000000007
 10
216.5133422983708
 20
126.1620828057844
 30
-0.0000000000000007
 10
216.5718411315574
 20
126.1605372441434
 30
-0.0000000000000007
 10
216.6321541817681
 20
126.159206526001
 30
-0.0000000000000007
 10
216.692361622853
 20
126.1580762194467
 30
-0.0000000000000007
 10
216.7506818382692
 20
126.1571275526676
 30
-0.0000000000000007
 10
216.9074894049525
 20
126.1548296946755
 30
-0.0000000000000007
 10
217.2040921085338
 20
126.1519775275128
 30
-0.0000000000000007
 10
217.69036886353
 20
126.1507920779938
 30
-0.0000000000000007
 10
218.2194071428221
 20
126.1519819185921
 30
-0.0000000000000007
 10
218.6331373376586
 20
126.1550438064687
 30
-0.0000000000000007
 10
218.9211252885557
 20
126.1579521092928
 30
-0.0000000000000007
 10
219.0994978508002
 20
126.1600378283733
 30
-0.0000000000000007
 10
219.2947766423779
 20
126.1628079676243
 30
-0.0000000000000007
 10
219.4980541719399
 20
126.1662562766237
 30
-0.0000000000000007
 10
219.622887935973
 20
126.1689096422997
 30
-0.0000000000000007
 10
219.6873576799874
 20
126.1702799591144
 30
-0.0000000000000007
  0
SPLINE
  5
2CAB2
330
1F
100
AcDbEntity
  8
実線
100
AcDbSpline
210
-0.0000000000000002
220
-0.0000000000000002
230
1.0
 70
    12
 71
     3
 72
     8
 73
     4
 74
     0
 42
0.000000001
 43
0.0000000001
 40
0.0
 40
0.0
 40
0.0
 40
0.0
 40
1.0
 40
1.0
 40
1.0
 40
1.0
 10
217.3184208931981
 20
125.1877323165815
 30
-0.0000000000000008
 41
0.9570772342603667
 10
216.7512076804497
 20
125.1877323159966
 30
-0.0000000000000008
 41
0.774116256033456
 10
216.3466426009577
 20
125.5926559637559
 30
-0.0000000000000007
 41
0.7741162560334551
 10
216.336743365456
 20
126.1702799100333
 30
-0.0000000000000007
 41
0.9570772342603628
  0
SPLINE
  5
2CAB3
330
1F
100
AcDbEntity
  8
実線
100
AcDbSpline
210
-0.0000000000000001
220
-0.0000000000000001
230
1.0
 70
    12
 71
     2
 72
     6
 73
     3
 74
     0
 42
0.000000001
 43
0.0000000001
 40
0.0
 40
0.0
 40
0.0
 40
1.0
 40
1.0
 40
1.0
 10
213.6127571420545
 20
125.1877323163687
 30
-0.0000000000000008
 41
1.0
 10
212.7152671340546
 20
125.1877323163687
 30
-0.0000000000000008
 41
0.7132504491541753
 10
212.6996037730546
 20
126.1702799103686
 30
-0.0000000000000007
 41
1.0
  0
SPLINE
  5
2CAB4
330
1F
100
AcDbEntity
  8
実線
100
AcDbSpline
210
0.0
220
0.0
230
1.0
 70
    24
 71
     3
 72
     8
 73
     4
 74
     0
 42
0.000000001
 43
0.0000000001
 40
0.0
 40
0.0
 40
0.0
 40
0.0
 40
1.0
 40
1.0
 40
1.0
 40
1.0
 10
212.6996037951508
 20
126.1702799105994
 30
-0.0000000000000007
 10
214.3464657590382
 20
126.1702799105994
 30
-0.0000000000000007
 10
215.5694109796766
 20
126.1702799105994
 30
-0.0000000000000007
 10
216.3367433690935
 20
126.1702799105994
 30
-0.0000000000000007
  0
SPLINE
  5
2CAB5
330
1F
100
AcDbEntity
  8
実線
100
AcDbSpline
210
0.0000000000000003
220
-0.0000000000000002
230
1.0
 70
    12
 71
     3
 72
     8
 73
     4
 74
     0
 42
0.000000001
 43
0.0000000001
 40
0.0
 40
0.0
 40
0.0
 40
0.0
 40
1.0
 40
1.0
 40
1.0
 40
1.0
 10
225.9979544299711
 20
126.1702799100333
 30
-0.0000000000000007
 41
0.9570772342603618
 10
225.9909598697368
 20
125.592655963756
 30
-0.0000000000000007
 41
0.7741162560334463
 10
225.7051039561645
 20
125.1877323159966
 30
-0.0000000000000008
 41
0.7741162560334474
 10
225.3043247990497
 20
125.1877323165816
 30
-0.0000000000000008
 41
0.9570772342603655
  0
SPLINE
  5
2CAB6
330
1F
100
AcDbEntity
  8
実線
100
AcDbSpline
210
0.0
220
0.0
230
1.0
 70
    28
 71
     3
 72
     8
 73
     4
 74
     0
 42
0.000000001
 43
0.0000000001
 40
0.0
 40
0.0
 40
0.0
 40
0.0
 40
1.0
 40
1.0
 40
1.0
 40
1.0
 10
227.6552536846483
 20
126.1702799100332
 30
-0.0000000000000007
 41
0.6766130647479553
 10
227.7321332986156
 20
126.1702799100332
 30
-0.0000000000000007
 41
0.7143040799283335
 10
227.0687095903
 20
126.1702799100333
 30
-0.0000000000000007
 41
0.8077921364324691
 10
225.9979544299711
 20
126.1702799100334
 30
-0.0000000000000007
 41
0.9570772342603619
  0
SPLINE
  5
2CAB7
330
1F
100
AcDbEntity
  8
実線
100
AcDbSpline
210
0.0
220
0.0
230
1.0
 70
    28
 71
     3
 72
     8
 73
     4
 74
     0
 42
0.000000001
 43
0.0000000001
 40
0.0
 40
0.0
 40
0.0
 40
0.0
 40
1.0
 40
1.0
 40
1.0
 40
1.0
 10
225.30432479905
 20
125.1877323165815
 30
-0.0000000000000008
 41
0.9570772342603619
 10
225.8034350147876
 20
125.1877323165815
 30
-0.0000000000000008
 41
0.8656741225232515
 10
226.2021149873624
 20
125.1877323165816
 30
-0.0000000000000008
 41
0.7951880504034295
 10
226.4383297990498
 20
125.1877323165815
 30
-0.0000000000000008
 41
0.7456190179008955
  0
SPLINE
  5
2CAB8
330
1F
100
AcDbEntity
  8
実線
100
AcDbSpline
210
0.0
220
0.0
230
1.0
 70
    28
 71
     3
 72
     8
 73
     4
 74
     0
 42
0.000000001
 43
0.0000000001
 40
0.0
 40
0.0
 40
0.0
 40
0.0
 40
1.0
 40
1.0
 40
1.0
 40
1.0
 10
213.6127571429163
 20
125.1877323165815
 30
-0.0000000000000008
 41
0.9570772342603635
 10
215.2943088979139
 20
125.1877323165816
 30
-0.0000000000000008
 41
0.9529151437572908
 10
216.5349252803119
 20
125.1877323165816
 30
-0.0000000000000008
 41
0.9529151437572908
 10
217.318420893198
 20
125.1877323165815
 30
-0.0000000000000008
 41
0.9570772342603635
  0
SPLINE
  5
2CAB9
330
1F
100
AcDbEntity
  8
実線
100
AcDbSpline
210
0.0
220
0.0
230
1.0
 70
    24
 71
     3
 72
    36
 73
    32
 74
     0
 42
0.000000001
 43
0.0000000001
 40
0.0
 40
0.0
 40
0.0
 40
0.0
 40
0.062499999999998
 40
0.062499999999998
 40
0.1250000000000011
 40
0.1250000000000011
 40
0.1874999999999994
 40
0.1874999999999994
 40
0.218750000000001
 40
0.218750000000001
 40
0.2499999999999977
 40
0.2499999999999977
 40
0.3125000000000008
 40
0.3125000000000008
 40
0.3749999999999989
 40
0.3749999999999989
 40
0.5000000000000006
 40
0.5000000000000006
 40
0.5624999999999996
 40
0.5624999999999996
 40
0.625
 40
0.625
 40
0.6875
 40
0.6875
 40
0.7499999999999996
 40
0.7499999999999996
 40
0.8124999999999998
 40
0.8124999999999998
 40
0.875
 40
0.875
 40
1.0
 40
1.0
 40
1.0
 40
1.0
 10
217.3184208930545
 20
125.1877323163687
 30
-0.0000000000000008
 10
217.3269694360545
 20
125.1877323163687
 30
-0.0000000000000008
 10
217.3385325370546
 20
125.1877323163687
 30
-0.0000000000000008
 10
217.3673780880547
 20
125.1877323163687
 30
-0.0000000000000008
 10
217.3845147310546
 20
125.1877323163687
 30
-0.0000000000000008
 10
217.4240259780547
 20
125.1877323163687
 30
-0.0000000000000008
 10
217.4464009930546
 20
125.1877323163687
 30
-0.0000000000000008
 10
217.4839654410546
 20
125.1877323163687
 30
-0.0000000000000008
 10
217.4971949760545
 20
125.1877323163687
 30
-0.0000000000000008
 10
217.5248532880546
 20
125.1877323163687
 30
-0.0000000000000008
 10
217.5392079910546
 20
125.1877323163687
 30
-0.0000000000000008
 10
217.5838096510545
 20
125.1877323163687
 30
-0.0000000000000008
 10
217.6155875040547
 20
125.1877323163687
 30
-0.0000000000000008
 10
217.6831919860547
 20
125.1877323163687
 30
-0.0000000000000008
 10
217.7191204310545
 20
125.1877323163687
 30
-0.0000000000000008
 10
217.8326077680547
 20
125.1877323163687
 30
-0.0000000000000008
 10
217.9131482750547
 20
125.1877323163687
 30
-0.0000000000000008
 10
218.0411313110546
 20
125.1877323163687
 30
-0.0000000000000008
 10
218.0852135910545
 20
125.1877323163687
 30
-0.0000000000000008
 10
218.1732680390546
 20
125.1877323163687
 30
-0.0000000000000008
 10
218.2175256120547
 20
125.1877323163687
 30
-0.0000000000000008
 10
218.3064962830547
 20
125.1877323163687
 30
-0.0000000000000008
 10
218.3512764490544
 20
125.1877323163687
 30
-0.0000000000000008
 10
218.4410363480544
 20
125.1877323163687
 30
-0.0000000000000008
 10
218.4851232820545
 20
125.1877323163687
 30
-0.0000000000000008
 10
218.5717725250545
 20
125.1877323163687
 30
-0.0000000000000008
 10
218.6143346610545
 20
125.1877323163687
 30
-0.0000000000000008
 10
218.6979115890547
 20
125.1877323163687
 30
-0.0000000000000008
 10
218.7391252710547
 20
125.1877323163687
 30
-0.0000000000000008
 10
218.8568832670546
 20
125.1877323163687
 30
-0.0000000000000008
 10
218.9287386510546
 20
125.1877323163687
 30
-0.0000000000000008
 10
218.9937280500546
 20
125.1877323163687
 30
-0.0000000000000008
  0
SPLINE
  5
2CABA
330
1F
100
AcDbEntity
  8
実線
100
AcDbSpline
210
0.0
220
0.0
230
1.0
 70
    24
 71
     1
 72
     4
 73
     2
 74
     0
 42
0.000000001
 43
0.0000000001
 40
0.0
 40
0.0
 40
1.0
 40
1.0
 10
225.3043247965129
 20
125.1877323163687
 30
-0.0000000000000008
 10
218.9937280552213
 20
125.1877323163687
 30
-0.0000000000000008
  0
SPLINE
  5
2CABB
330
1F
100
AcDbEntity
  8
実線
100
AcDbSpline
210
0.0
220
0.0
230
1.0
 70
    24
 71
     3
 72
     9
 73
     5
 74
     0
 42
0.000000001
 43
0.0000000001
 40
0.0
 40
0.0
 40
0.0
 40
0.0
 40
0.4999999999716401
 40
1.0
 40
1.0
 40
1.0
 40
1.0
 10
225.7310584508311
 20
125.1877323163232
 30
-0.0000000000000008
 10
225.6727326751668
 20
124.5210656496724
 30
-0.0000000000000008
 10
225.5560811238311
 20
123.187732316295
 30
-0.0000000000000009
 10
225.439429572501
 20
121.8543989829172
 30
-0.000000000000001
 10
225.3811037968328
 20
121.1877323161905
 30
-0.000000000000001
  0
SPLINE
  5
2CABC
330
1F
100
AcDbEntity
  8
実線
100
AcDbSpline
210
0.0
220
0.0
230
1.0
 70
    24
 71
     3
 72
     8
 73
     4
 74
     0
 42
0.000000001
 43
0.0000000001
 40
0.0
 40
0.0
 40
0.0
 40
0.0
 40
1.0
 40
1.0
 40
1.0
 40
1.0
 10
219.081013074783
 20
121.1877323139167
 30
-0.000000000000001
 10
218.9643615234522
 20
122.5210656472186
 30
-0.0000000000000009
 10
218.8477099721292
 20
123.8543989805203
 30
-0.0000000000000008
 10
218.7310584207987
 20
125.1877323138221
 30
-0.0000000000000008
  0
SPLINE
  5
2CABD
330
1F
100
AcDbEntity
  8
実線
100
AcDbSpline
210
0.0
220
0.0
230
1.0
 70
    24
 71
     2
 72
    26
 73
    23
 74
     0
 42
0.000000001
 43
0.0000000001
 40
0.0
 40
0.0
 40
0.0
 40
0.0078125
 40
0.015625
 40
0.03125
 40
0.0625
 40
0.125
 40
0.1875
 40
0.25
 40
0.3125
 40
0.375
 40
0.4375
 40
0.5
 40
0.5625
 40
0.625
 40
0.6875
 40
0.75
 40
0.8125
 40
0.875
 40
0.9375
 40
0.96875
 40
0.98125
 40
1.0
 40
1.0
 40
1.0
 10
225.3811037943419
 20
121.1877323163687
 30
-0.000000000000001
 10
225.3810902847076
 20
121.1877323163687
 30
-0.000000000000001
 10
225.3792323417426
 20
121.1877323163687
 30
-0.000000000000001
 10
225.3735780318866
 20
121.1877323163687
 30
-0.000000000000001
 10
225.3509205550859
 20
121.1877323163687
 30
-0.000000000000001
 10
225.2602081186403
 20
121.1877323163687
 30
-0.000000000000001
 10
225.022850363539
 20
121.1877323163687
 30
-0.000000000000001
 10
224.6782056120926
 20
121.1877323163687
 30
-0.000000000000001
 10
224.239518364071
 20
121.1877323163687
 30
-0.000000000000001
 10
223.7236471318515
 20
121.1877323163687
 30
-0.000000000000001
 10
223.1504165462281
 20
121.1877323163687
 30
0.0000000000000008
 10
222.5418555555891
 20
121.1877323163687
 30
0.0000000000000008
 10
221.9213507949353
 20
121.1877323163687
 30
0.0000000000000008
 10
221.3127479373527
 20
121.1877323163687
 30
0.0000000000000008
 10
220.7394352266708
 20
121.1877323163687
 30
-0.000000000000001
 10
220.2234447674293
 20
121.1877323163687
 30
-0.000000000000001
 10
219.7846057721795
 20
121.1877323163687
 30
-0.000000000000001
 10
219.4397825848516
 20
121.1877323163687
 30
-0.000000000000001
 10
219.2022265624501
 20
121.1877323163687
 30
-0.000000000000001
 10
219.1113572954489
 20
121.1877323163687
 30
-0.000000000000001
 10
219.090135206415
 20
121.1877323163687
 30
-0.000000000000001
 10
219.0810455818387
 20
121.1877323163687
 30
-0.000000000000001
 10
219.0810131057672
 20
121.1877323163687
 30
-0.000000000000001
  0
SPLINE
  5
2CABE
330
1F
100
AcDbEntity
  8
実線
100
AcDbSpline
210
0.0
220
0.0
230
1.0
 70
    24
 71
     1
 72
     4
 73
     2
 74
     0
 42
0.000000001
 43
0.0000000001
 40
0.0
 40
0.0
 40
1.0
 40
1.0
 10
128.5190739035263
 20
137.6877323163687
 30
0.0
 10
143.833333683269
 20
137.6877323163687
 30
0.0
  0
SPLINE
  5
2CABF
330
1F
100
AcDbEntity
  8
実線
100
AcDbSpline
210
0.0000000000000006
220
-0.0000000000000005
230
1.0
 70
     8
 71
     2
 72
    24
 73
    21
 74
     0
 42
0.000000001
 43
0.0000000001
 40
0.0
 40
0.0
 40
0.0
 40
0.015625
 40
0.03125
 40
0.0625
 40
0.125
 40
0.175
 40
0.25
 40
0.3
 40
0.375
 40
0.425
 40
0.5
 40
0.55
 40
0.625
 40
0.675
 40
0.75
 40
0.8
 40
0.875
 40
0.9375
 40
0.9625
 40
1.0
 40
1.0
 40
1.0
 10
199.9430429904128
 20
137.6877323163687
 30
0.0
 10
199.9341057005513
 20
137.6877185462385
 30
0.0
 10
199.9172813777759
 20
137.6871484007295
 30
0.0
 10
199.8912114504357
 20
137.6853572052091
 30
0.0
 10
199.8393134268112
 20
137.6781520758093
 30
0.0
 10
199.7776133037343
 20
137.6608105364071
 30
0.0
 10
199.7106288928596
 20
137.6341111163467
 30
0.0
 10
199.646004977684
 20
137.5962653214048
 30
0.0
 10
199.5839509622251
 20
137.5515729284866
 30
0.0
 10
199.5257557315462
 20
137.4966120787664
 30
0.0
 10
199.4710300306892
 20
137.4356537408789
 30
0.0
 10
199.4215122880566
 20
137.365701670717
 30
0.0
 10
199.3762296446509
 20
137.2908329750805
 30
0.0
 10
199.337302899509
 20
137.2085928033036
 30
0.0
 10
199.3032131530608
 20
137.1227068623702
 30
0.0
 10
199.2763816158188
 20
137.0313565606859
 30
0.0
 10
199.2548020743797
 20
136.9377722287193
 30
0.0
 10
199.239732555787
 20
136.831148129243
 30
-0.0000000000000001
 10
199.2349241122647
 20
136.7626539696077
 30
-0.0000000000000001
 10
199.232867587106
 20
136.7138283345978
 30
-0.0000000000000001
 10
199.2328441244237
 20
136.6833690063686
 30
-0.0000000000000001
  0
SPLINE
  5
2CAC0
330
1F
100
AcDbEntity
  8
実線
100
AcDbSpline
210
0.0
220
0.0
230
1.0
 70
    24
 71
     1
 72
     4
 73
     2
 74
     0
 42
0.000000001
 43
0.0000000001
 40
0.0
 40
0.0
 40
1.0
 40
1.0
 10
211.3135891266654
 20
137.6877323163687
 30
0.0
 10
227.5248921266655
 20
137.6877323163687
 30
0.0
  0
SPLINE
  5
2CAC1
330
1F
100
AcDbEntity
  8
実線
100
AcDbSpline
210
-0.0000000000000007
220
-0.0000000000000005
230
1.0
 70
     8
 71
     2
 72
    24
 73
    21
 74
     0
 42
0.000000001
 43
0.0000000001
 40
0.0
 40
0.0
 40
0.0
 40
0.015625
 40
0.03125
 40
0.0625
 40
0.125
 40
0.175
 40
0.25
 40
0.3
 40
0.375
 40
0.425
 40
0.5
 40
0.55
 40
0.625
 40
0.675
 40
0.75
 40
0.8
 40
0.875
 40
0.9375
 40
0.9625
 40
1.0
 40
1.0
 40
1.0
 10
129.2292727756855
 20
136.6833690063686
 30
-0.0000000000000001
 10
129.2292630398321
 20
136.6960081216227
 30
-0.0000000000000001
 10
129.2288598841876
 20
136.7198010789109
 30
-0.0000000000000001
 10
129.2275933081603
 20
136.7566691704271
 30
-0.0000000000000001
 10
129.2224984668657
 20
136.8300633569784
 30
-0.0000000000000001
 10
129.2102360289382
 20
136.9173196751187
 30
0.0
 10
129.1913565058632
 20
137.0120490363094
 30
0.0
 10
129.1645952289382
 20
137.1034401878874
 30
0.0
 10
129.1329926340147
 20
137.191196987432
 30
0.0
 10
129.0941290805547
 20
137.2734966934408
 30
0.0
 10
129.051024617368
 20
137.3508897835433
 30
0.0
 10
129.0015605567662
 20
137.4209177699158
 30
0.0
 10
128.9486198871825
 20
137.4849564867766
 30
0.0
 10
128.8904667533618
 20
137.5400067027092
 30
0.0
 10
128.8297356475023
 20
137.588216428388
 30
0.0
 10
128.7651406181057
 20
137.6261615853566
 30
0.0
 10
128.6989658735851
 20
137.6566793709692
 30
0.0
 10
128.6235705305587
 20
137.6779906836598
 30
0.0
 10
128.5751373822561
 20
137.6847907889692
 30
0.0
 10
128.5406121139062
 20
137.6876991313786
 30
0.0
 10
128.5190739096963
 20
137.6877323163687
 30
0.0
  0
SPLINE
  5
2CAC2
330
1F
100
AcDbEntity
  8
実線
100
AcDbSpline
210
0.0000000000000006
220
-0.0000000000000005
230
1.0
 70
     8
 71
     2
 72
    24
 73
    21
 74
     0
 42
0.000000001
 43
0.0000000001
 40
0.0
 40
0.0
 40
0.0
 40
0.015625
 40
0.03125
 40
0.0625
 40
0.125
 40
0.175
 40
0.25
 40
0.3
 40
0.375
 40
0.425
 40
0.5
 40
0.55
 40
0.625
 40
0.675
 40
0.75
 40
0.8
 40
0.875
 40
0.9375
 40
0.9625
 40
1.0
 40
1.0
 40
1.0
 10
117.2115495914127
 20
137.6877323163687
 30
0.0
 10
117.2026123865228
 20
137.6877185462385
 30
0.0
 10
117.1857915819498
 20
137.6871484007295
 30
0.0
 10
117.1597327075581
 20
137.6853572052091
 30
0.0
 10
117.1078791446975
 20
137.6781520758093
 30
0.0
 10
117.0462860312311
 20
137.6608105364071
 30
0.0
 10
116.9794663747345
 20
137.6341111163467
 30
0.0
 10
116.9150759949843
 20
137.5962653214048
 30
0.0
 10
116.8532977633215
 20
137.5515729284866
 30
0.0
 10
116.7954416801076
 20
137.4966120787664
 30
0.0
 10
116.7410921354758
 20
137.4356537408789
 30
0.0
 10
116.6920060467821
 20
137.365701670717
 30
0.0
 10
116.6471853963851
 20
137.2908329750805
 30
0.0
 10
116.6087661314936
 20
137.2085928033036
 30
0.0
 10
116.5752063622801
 20
137.1227068623702
 30
0.0
 10
116.5489385212579
 20
137.0313565606859
 30
0.0
 10
116.5279364615921
 20
136.9377722287193
 30
0.0
 10
116.5135248893962
 20
136.831148129243
 30
-0.0000000000000001
 10
116.5091391034698
 20
136.7626539696077
 30
-0.0000000000000001
 10
116.5073838671455
 20
136.7138283345978
 30
-0.0000000000000001
 10
116.5075483601442
 20
136.6833690063686
 30
-0.0000000000000001
  0
SPLINE
  5
2CAC3
330
1F
100
AcDbEntity
  8
実線
100
AcDbSpline
210
0.0
220
0.0
230
1.0
 70
    24
 71
     2
 72
    16
 73
    13
 74
     0
 42
0.000000001
 43
0.0000000001
 40
0.0
 40
0.0
 40
0.0
 40
0.03125
 40
0.0625
 40
0.125
 40
0.25
 40
0.3928571428571428
 40
0.5
 40
0.6428571428571428
 40
0.75
 40
0.875
 40
0.925
 40
1.0
 40
1.0
 40
1.0
 10
227.5248921266655
 20
137.6877323163687
 30
0.0
 10
227.5943700243781
 20
137.6877323163687
 30
0.0
 10
227.7286972284246
 20
137.6877323163687
 30
0.0
 10
227.925537405667
 20
137.6877323163687
 30
0.0
 10
228.2971345170133
 20
137.6877323163687
 30
0.0
 10
228.7648961366306
 20
137.6877323163687
 30
0.0
 10
229.1241279010399
 20
137.6877323163687
 30
0.0
 10
229.4253506209529
 20
137.6877323163687
 30
0.0
 10
229.6422946930238
 20
137.6877323163687
 30
0.0
 10
229.7850485070317
 20
137.6877323163687
 30
0.0
 10
229.8388752916705
 20
137.6877323163687
 30
0.0
 10
229.8619383436071
 20
137.6877323163687
 30
0.0
 10
229.8619714090185
 20
137.6877323163687
 30
0.0
  0
SPLINE
  5
2CAC4
330
1F
100
AcDbEntity
  8
実線
100
AcDbSpline
210
0.0
220
0.0
230
1.0
 70
    24
 71
     1
 72
     4
 73
     2
 74
     0
 42
0.000000001
 43
0.0000000001
 40
0.0
 40
0.0
 40
1.0
 40
1.0
 10
128.5190739096963
 20
137.6877323163687
 30
0.0
 10
117.2115495914127
 20
137.6877323163687
 30
0.0
  0
SPLINE
  5
2CAC5
330
1F
100
AcDbEntity
  8
実線
100
AcDbSpline
210
0.0
220
0.0
230
1.0
 70
    24
 71
     1
 72
     4
 73
     2
 74
     0
 42
0.000000001
 43
0.0000000001
 40
0.0
 40
0.0
 40
1.0
 40
1.0
 10
211.2505673086964
 20
137.6877323163687
 30
0.0
 10
199.9430429904128
 20
137.6877323163687
 30
0.0
  0
SPLINE
  5
2CAC6
330
1F
100
AcDbEntity
  8
実線
100
AcDbSpline
210
-0.0000000000000007
220
-0.0000000000000005
230
1.0
 70
     8
 71
     2
 72
    24
 73
    21
 74
     0
 42
0.000000001
 43
0.0000000001
 40
0.0
 40
0.0
 40
0.0
 40
0.015625
 40
0.03125
 40
0.0625
 40
0.125
 40
0.175
 40
0.25
 40
0.3
 40
0.375
 40
0.425
 40
0.5
 40
0.55
 40
0.625
 40
0.675
 40
0.75
 40
0.8
 40
0.875
 40
0.9375
 40
0.9625
 40
1.0
 40
1.0
 40
1.0
 10
211.9545685399649
 20
136.6833690063686
 30
-0.0000000000000001
 10
211.9546367964265
 20
136.6960081216227
 30
-0.0000000000000001
 10
211.9543804602215
 20
136.7198010789109
 30
-0.0000000000000001
 10
211.9533413864951
 20
136.7566691704271
 30
-0.0000000000000001
 10
211.9486994394413
 20
136.8300633569784
 30
-0.0000000000000001
 10
211.9369754349486
 20
136.9173196751187
 30
0.0
 10
211.9186804592902
 20
137.0120490363094
 30
0.0
 10
211.8924831306581
 20
137.1034401878874
 30
0.0
 10
211.861422057495
 20
137.191196987432
 30
0.0
 10
211.8230663516538
 20
137.2734966934408
 30
0.0
 10
211.7804394587824
 20
137.3508897835433
 30
0.0
 10
211.7314075205763
 20
137.4209177699158
 30
0.0
 10
211.6788620153431
 20
137.4849564867766
 30
0.0
 10
211.6210485804402
 20
137.5400067027092
 30
0.0
 10
211.5606149628172
 20
137.588216428388
 30
0.0
 10
211.4962540819804
 20
137.6261615853566
 30
0.0
 10
211.4302676538644
 20
137.6566793709692
 30
0.0
 10
211.3550038167684
 20
137.6779906836598
 30
0.0
 10
211.3066126299434
 20
137.6847907889692
 30
0.0
 10
211.2721053081316
 20
137.6876991313786
 30
0.0
 10
211.2505673086964
 20
137.6877323163687
 30
0.0
  0
SPLINE
  5
2CAC7
330
1F
100
AcDbEntity
  8
実線
100
AcDbSpline
210
0.0
220
0.0
230
1.0
 70
    24
 71
     1
 72
     4
 73
     2
 74
     0
 42
0.000000001
 43
0.0000000001
 40
0.0
 40
0.0
 40
1.0
 40
1.0
 10
184.6287833128981
 20
137.6877323163687
 30
0.0
 10
199.9430429786389
 20
137.6877323163687
 30
0.0
  0
LINE
  5
2CAC8
330
1F
100
AcDbEntity
  8
実線
100
AcDbLine
 10
144.2310589048318
 20
143.6877323163687
 30
0.0
 11
144.2310589048318
 21
142.1877323163687
 31
0.0
  0
DIMENSION
  5
2CBB0
102
{ACAD_XDICTIONARY
360
2CBBD
102
}
102
{ACAD_REACTORS
330
2CBC7
102
}
330
1F
100
AcDbEntity
  8
寸法
100
AcDbDimension
280
     0
  2
*D7
 10
274.6544273086542
 20
249.4603806944309
 30
0.0
 11
271.9044273086542
 21
199.4603806944309
 31
0.0
 70
    32
 71
     5
 42
100.0
 73
     0
 74
     0
 75
     0
  3
ｺﾋﾟｰ - ISO-25
100
AcDbAlignedDimension
 13
169.2310589048318
 23
149.4603806944309
 33
0.0
 14
169.2310589048318
 24
249.4603806944309
 34
0.0
 50
90.0
100
AcDbRotatedDimension
  0
DIMENSION
  5
2CBDA
102
{ACAD_XDICTIONARY
360
2CBE7
102
}
102
{ACAD_REACTORS
330
2CBF1
102
}
330
1F
100
AcDbEntity
  8
寸法
100
AcDbDimension
280
     0
  2
*D8
 10
257.2310589048318
 20
23.36362150138644
 30
0.0
 11
162.2310589048318
 21
26.11362150138643
 31
0.0
 70
    32
 71
     5
 42
190.0
 73
     0
 74
     0
 75
     0
  3
ｺﾋﾟｰ - ISO-25
100
AcDbAlignedDimension
 13
67.23105890483179
 23
50.18773231636868
 33
0.0
 14
257.2310589048318
 24
50.18773231636849
 34
0.0
100
AcDbRotatedDimension
  0
DIMENSION
  5
2CBF2
102
{ACAD_XDICTIONARY
360
2CBFF
102
}
102
{ACAD_REACTORS
330
2CC09
102
}
330
1F
100
AcDbEntity
  8
寸法
100
AcDbDimension
280
     0
  2
*D9
 10
52.07476389647013
 20
65.68773231636862
 30
0.0
 11
49.32476389647011
 21
48.18773231636868
 31
0.0
 70
    32
 71
     5
 42
34.99999999999993
 73
     0
 74
     0
 75
     0
  3
ｺﾋﾟｰ - ISO-25
100
AcDbAlignedDimension
 13
134.2310589048318
 23
30.68773231636868
 33
0.0
 14
61.20327217795239
 24
65.68773231636862
 34
0.0
 50
90.0
100
AcDbRotatedDimension
  0
DIMENSION
  5
2CC39
102
{ACAD_XDICTIONARY
360
2CC46
102
}
102
{ACAD_REACTORS
330
2CC50
102
}
330
1F
100
AcDbEntity
  8
寸法
100
AcDbDimension
280
     0
  2
*D10
 10
43.41843407191504
 20
143.6877323163687
 30
0.0
 11
40.66843407191502
 21
87.18773231636872
 31
0.0
 70
    32
 71
     5
 42
113.0
 73
     0
 74
     0
 75
     0
  3
ｺﾋﾟｰ - ISO-25
100
AcDbAlignedDimension
 13
134.2310589048318
 23
30.68773231636868
 33
0.0
 14
121.2310589048318
 24
143.6877323163687
 34
0.0
 50
90.0
100
AcDbRotatedDimension
  0
TEXT
  5
2CCAF
330
1F
100
AcDbEntity
  8
0
100
AcDbText
 10
362.0810329945232
 20
50.90516497261692
 30
0.0
 40
3.5
  1
A-225110
 41
0.9
 72
     1
 11
374.2310329945232
 21
52.65516497261692
 31
0.0
100
AcDbText
 73
     2
  0
LINE
  5
2CCC8
330
1F
100
AcDbEntity
  8
0
100
AcDbLine
 10
25.0
 20
277.0
 30
0.0
 11
25.0
 21
20.0
 31
0.0
  0
LINE
  5
2CCC9
330
1F
100
AcDbEntity
  8
0
100
AcDbLine
 10
405.0
 20
277.0
 30
0.0
 11
25.0
 21
277.0
 31
0.0
  0
LINE
  5
2CCCA
330
1F
100
AcDbEntity
  8
0
100
AcDbLine
 10
405.0
 20
20.0
 30
0.0
 11
405.0
 21
277.0
 31
0.0
  0
LINE
  5
2CCCB
330
1F
100
AcDbEntity
  8
0
100
AcDbLine
 10
25.0
 20
20.0
 30
0.0
 11
405.0
 21
20.0
 31
0.0
  0
VIEWPORT
  5
6B
330
50
100
AcDbEntity
 67
     1
  8
0
100
AcDbViewport
 10
433.5371052199574
 20
123.3251464112375
 30
0.0
 40
833.2744282326544
 41
415.0001327249074
 68
     1
 69
     1
 12
433.5371052199574
 22
123.3251464112375
 13
0.0
 23
0.0
 14
10.0
 24
10.0
 15
10.0
 25
10.0
 16
0.0
 26
0.0
 36
1.0
 17
0.0
 27
0.0
 37
0.0
 42
50.0
 43
0.0
 44
0.0
 45
415.0001327249074
 50
0.0
 51
0.0
 72
   100
 90
    32800
  1

281
     0
 71
     1
 74
     0
110
0.0
120
0.0
130
0.0
111
1.0
121
0.0
131
0.0
112
0.0
122
1.0
132
0.0
 79
     0
146
0.0
170
     0
 61
     5
348
276B
292
     1
282
     1
141
0.0
142
0.0
 63
   250
421
  3355443
  0
VIEWPORT
  5
6D
330
50
100
AcDbEntity
 67
     1
  8
0
100
AcDbViewport
 10
194.6747247325147
 20
118.9168694143202
 30
0.0
 40
506.9942499588641
 41
411.2802053937703
 68
     2
 69
     2
 12
200.9197229890301
 22
122.5631282670758
 13
0.0
 23
0.0
 14
10.0
 24
10.0
 15
10.0
 25
10.0
 16
0.0
 26
0.0
 36
1.0
 17
0.0
 27
0.0
 37
0.0
 42
50.0
 43
0.0
 44
0.0
 45
411.2802071812528
 50
0.0
 51
0.0
 72
   100
 90
    32864
  1

281
     0
 71
     1
 74
     0
110
0.0
120
0.0
130
0.0
111
1.0
121
0.0
131
0.0
112
0.0
122
1.0
132
0.0
 79
     0
146
0.0
170
     0
 61
     5
348
276B
292
     1
282
     1
141
0.0
142
0.0
 63
   250
421
  3355443
  0
ENDSEC
  0
SECTION
  2
OBJECTS
  0
DICTIONARY
  5
C
330
0
100
AcDbDictionary
281
     1
  3
ACAD_CIP_PREVIOUS_PRODUCT_INFO
350
2CDBE
  3
ACAD_COLOR
350
2776
  3
ACAD_DETAILVIEWSTYLE
350
2CDAE
  3
ACAD_GROUP
350
D
  3
ACAD_LAYOUT
350
1A
  3
ACAD_MATERIAL
350
2761
  3
ACAD_MLEADERSTYLE
350
247F1
  3
ACAD_MLINESTYLE
350
17
  3
ACAD_PLOTSETTINGS
350
19
  3
ACAD_PLOTSTYLENAME
350
E
  3
ACAD_SCALELIST
350
247DF
  3
ACAD_SECTIONVIEWSTYLE
350
2CDAC
  3
ACAD_TABLESTYLE
350
2777
  3
ACAD_VISUALSTYLE
350
2765
  3
ACDB_RECOMPOSE_DATA
350
2CDD6
  3
AcDbVariableDictionary
350
5E
  0
DICTIONARY
  5
279F
330
2
100
AcDbDictionary
280
     1
281
     1
  3
ACAD_LAYERFILTERS
360
2DF9
  3
ACAD_LAYERSTATES
360
2E2E
  3
ACLYDICTIONARY
360
2DF8
  0
DICTIONARY
  5
24E13
330
10
100
AcDbDictionary
280
     1
281
     1
  3
ADSK_XREC_LAYER_RECONCILED
360
24E14
  0
DICTIONARY
  5
24E15
330
A7
100
AcDbDictionary
280
     1
281
     1
  3
ADSK_XREC_LAYER_RECONCILED
360
24E16
  0
DICTIONARY
  5
24E17
330
A8
100
AcDbDictionary
280
     1
281
     1
  3
ADSK_XREC_LAYER_RECONCILED
360
24E18
  0
DICTIONARY
  5
24E19
330
A9
100
AcDbDictionary
280
     1
281
     1
  3
ADSK_XREC_LAYER_RECONCILED
360
24E1A
  0
DICTIONARY
  5
24E1B
330
AA
100
AcDbDictionary
280
     1
281
     1
  3
ADSK_XREC_LAYER_RECONCILED
360
24E1C
  0
DICTIONARY
  5
24E1D
330
AB
100
AcDbDictionary
280
     1
281
     1
  3
ADSK_XREC_LAYER_RECONCILED
360
24E1E
  0
DICTIONARY
  5
24E1F
330
AC
100
AcDbDictionary
280
     1
281
     1
  3
ADSK_XREC_LAYER_RECONCILED
360
24E20
  0
DICTIONARY
  5
24E21
330
58C
100
AcDbDictionary
280
     1
281
     1
  3
ADSK_XREC_LAYER_RECONCILED
360
24E22
  0
DICTIONARY
  5
24E23
330
1023
100
AcDbDictionary
280
     1
281
     1
  3
ADSK_XREC_LAYER_RECONCILED
360
24E24
  0
DICTIONARY
  5
24E25
330
2366
100
AcDbDictionary
280
     1
281
     1
  3
ADSK_XREC_LAYER_RECONCILED
360
24E26
  0
DICTIONARY
  5
2D98
330
1F
100
AcDbDictionary
280
     1
281
     1
  3
ACAD_SORTENTS
360
2D99
  0
DICTIONARY
  5
29CF
330
341
100
AcDbDictionary
280
     1
281
     1
  3
ACAD_SORTENTS
360
29D1
  0
DICTIONARY
  5
2CBBD
330
2CBB0
100
AcDbDictionary
280
     1
281
     1
  3
ACAD_DIMASSOC
360
2CBC7
  0
DICTIONARY
  5
2CBE7
330
2CBDA
100
AcDbDictionary
280
     1
281
     1
  3
ACAD_DIMASSOC
360
2CBF1
  0
DICTIONARY
  5
2CBFF
330
2CBF2
100
AcDbDictionary
280
     1
281
     1
  3
ACAD_DIMASSOC
360
2CC09
  0
DICTIONARY
  5
2CC46
330
2CC39
100
AcDbDictionary
280
     1
281
     1
  3
ACAD_DIMASSOC
360
2CC50
  0
XRECORD
  5
2CDBE
102
{ACAD_REACTORS
330
C
102
}
330
C
100
AcDbXrecord
280
     1
300
ACDLT
300
2014
300
ACDLT_F_S
  0
DICTIONARY
  5
2776
102
{ACAD_REACTORS
330
C
102
}
330
C
100
AcDbDictionary
281
     1
  0
DICTIONARY
  5
2CDAE
102
{ACAD_REACTORS
330
C
102
}
330
C
100
AcDbDictionary
281
     1
  3
Metric50
350
2CDAF
  0
DICTIONARY
  5
D
102
{ACAD_REACTORS
330
C
102
}
330
C
100
AcDbDictionary
281
     1
  3
*A1
350
29F6
  0
DICTIONARY
  5
1A
102
{ACAD_REACTORS
330
C
102
}
330
C
100
AcDbDictionary
281
     1
  3
Model
350
22
  3
ﾚｲｱｳﾄ1
350
51
  3
ﾚｲｱｳﾄ2
350
56
  0
DICTIONARY
  5
2761
102
{ACAD_REACTORS
330
C
102
}
330
C
100
AcDbDictionary
281
     1
  3
ByBlock
350
2763
  3
ByLayer
350
2762
  3
Global
350
2764
  0
DICTIONARY
  5
247F1
102
{ACAD_REACTORS
330
C
102
}
330
C
100
AcDbDictionary
281
     1
  3
Standard
350
247F2
  0
DICTIONARY
  5
17
102
{ACAD_REACTORS
330
C
102
}
330
C
100
AcDbDictionary
281
     1
  3
Standard
350
18
  0
DICTIONARY
  5
19
102
{ACAD_REACTORS
330
C
102
}
330
C
100
AcDbDictionary
281
     1
  3
印刷
350
E74
  0
ACDBDICTIONARYWDFLT
  5
E
102
{ACAD_REACTORS
330
C
102
}
330
C
100
AcDbDictionary
281
     1
  3
Normal
350
F
100
AcDbDictionaryWithDefault
340
F
  0
DICTIONARY
  5
247DF
102
{ACAD_REACTORS
330
C
102
}
330
C
100
AcDbDictionary
281
     1
  3
A0
350
247E0
  3
A1
350
247E1
  3
A2
350
247E2
  3
A3
350
247E3
  3
A4
350
247E4
  3
A5
350
247E5
  3
A6
350
247E6
  3
A7
350
247E7
  3
A8
350
247E8
  3
A9
350
247E9
  3
B0
350
247EA
  3
B1
350
247EB
  3
B2
350
247EC
  3
B3
350
247ED
  3
B4
350
247EE
  3
B5
350
247EF
  3
B6
350
247F0
  0
DICTIONARY
  5
2CDAC
102
{ACAD_REACTORS
330
C
102
}
330
C
100
AcDbDictionary
281
     1
  3
Metric50
350
2CDAD
  0
DICTIONARY
  5
2777
102
{ACAD_REACTORS
330
C
102
}
330
C
100
AcDbDictionary
281
     1
  3
Standard
350
2778
  3
コピー - Standard
350
2688B
  0
DICTIONARY
  5
2765
102
{ACAD_REACTORS
330
C
102
}
330
C
100
AcDbDictionary
281
     1
  3
2dWireframe
350
276B
  3
3D Hidden
350
276D
  3
3dWireframe
350
276C
  3
Basic
350
276A
  3
Brighten
350
2771
  3
ColorChange
350
2775
  3
Conceptual
350
276E
  3
Dim
350
2770
  3
EdgeColorOff
350
247DE
  3
Facepattern
350
2774
  3
Flat
350
2766
  3
FlatWithEdges
350
2767
  3
Gouraud
350
2768
  3
GouraudWithEdges
350
2769
  3
Hidden
350
2CDA6
  3
JitterOff
350
247DC
  3
Linepattern
350
2773
  3
OverhangOff
350
247DD
  3
Realistic
350
276F
  3
Shaded
350
2CDAB
  3
Shaded with edges
350
2CDAA
  3
Shades of Gray
350
2CDA7
  3
Sketchy
350
2CDA8
  3
Thicken
350
2772
  3
Wireframe
350
2CDA5
  3
X-Ray
350
2CDA9
  0
XRECORD
  5
2CDD6
102
{ACAD_REACTORS
330
C
102
}
330
C
100
AcDbXrecord
280
     1
 90
        1
330
2778
330
2688B
330
2CDAD
330
2CDAF
  0
DICTIONARY
  5
5E
102
{ACAD_REACTORS
330
C
102
}
330
C
100
AcDbDictionary
281
     1
  3
CANNOSCALE
350
24E32
  3
CMLEADERSTYLE
350
24E30
  3
CTABLESTYLE
350
2792
  3
CVIEWDETAILSTYLE
350
2CDCB
  3
CVIEWSECTIONSTYLE
350
2CDCC
  3
DIMASSOC
350
5F
  3
HIDETEXT
350
63
  3
LAYEREVAL
350
24E34
  3
LAYERNOTIFY
350
24E35
  3
LIGHTINGUNITS
350
24E33
  3
MSLTSCALE
350
24E31
  0
DICTIONARY
  5
2DF9
102
{ACAD_REACTORS
330
279F
102
}
330
279F
100
AcDbDictionary
281
     1
  0
DICTIONARY
  5
2E2E
102
{ACAD_REACTORS
330
279F
102
}
330
279F
100
AcDbDictionary
281
     1
  0
DICTIONARY
  5
2DF8
102
{ACAD_REACTORS
330
279F
102
}
330
279F
100
AcDbDictionary
281
     1
1001
ACAD
1000
<All
  0
XRECORD
  5
24E14
102
{ACAD_REACTORS
330
24E13
102
}
330
24E13
100
AcDbXrecord
280
     1
290
     1
  0
XRECORD
  5
24E16
102
{ACAD_REACTORS
330
24E15
102
}
330
24E15
100
AcDbXrecord
280
     1
290
     1
  0
XRECORD
  5
24E18
102
{ACAD_REACTORS
330
24E17
102
}
330
24E17
100
AcDbXrecord
280
     1
290
     1
  0
XRECORD
  5
24E1A
102
{ACAD_REACTORS
330
24E19
102
}
330
24E19
100
AcDbXrecord
280
     1
290
     1
  0
XRECORD
  5
24E1C
102
{ACAD_REACTORS
330
24E1B
102
}
330
24E1B
100
AcDbXrecord
280
     1
290
     1
  0
XRECORD
  5
24E1E
102
{ACAD_REACTORS
330
24E1D
102
}
330
24E1D
100
AcDbXrecord
280
     1
290
     1
  0
XRECORD
  5
24E20
102
{ACAD_REACTORS
330
24E1F
102
}
330
24E1F
100
AcDbXrecord
280
     1
290
     1
  0
XRECORD
  5
24E22
102
{ACAD_REACTORS
330
24E21
102
}
330
24E21
100
AcDbXrecord
280
     1
290
     1
  0
XRECORD
  5
24E24
102
{ACAD_REACTORS
330
24E23
102
}
330
24E23
100
AcDbXrecord
280
     1
290
     1
  0
XRECORD
  5
24E26
102
{ACAD_REACTORS
330
24E25
102
}
330
24E25
100
AcDbXrecord
280
     1
290
     1
  0
SORTENTSTABLE
  5
2D99
102
{ACAD_REACTORS
330
2D98
102
}
330
2D98
100
AcDbSortentsTable
330
1F
331
2A37E
  5
2A77B
331
2C834
  5
2C840
331
2C9E2
  5
2C9F0
331
2CA21
  5
2CA30
331
2CA58
  5
2CA65
331
2C805
  5
2C811
331
2C83C
  5
2C849
331
2C993
  5
2C9A0
331
2C9EA
  5
2C9F9
331
2CA29
  5
2CA3B
331
2CA60
  5
2CA71
331
2CA9F
  5
2CAAC
331
2A357
  5
2A368
331
2C80D
  5
2C819
331
2C844
  5
2C853
331
2C99B
  5
2C9CC
331
2CA31
  5
2CA45
331
2CA68
  5
2CA79
331
2CAA7
  5
2CAB4
331
2C84C
  5
2C85C
331
2C9FA
  5
2CA07
331
2CAAF
  5
2CABC
331
1581D
  5
29B3F
331
29B58
  5
29B85
331
2A35F
  5
2A370
331
2C815
  5
2C821
331
2C854
  5
2C862
331
2C9A3
  5
2C9D4
331
2CA02
  5
2CA0F
331
2CA78
  5
2CA85
331
2A367
  5
2A379
331
2C81D
  5
2C82C
331
2C85C
  5
2C869
331
2C9CB
  5
2C9D8
331
2CA0A
  5
2CA17
331
2CA41
  5
2CA56
331
2CA80
  5
2CA8D
331
2CAB7
  5
2CAC4
331
2A36F
  5
2A380
331
29B88
  5
29B8C
331
2C864
  5
2C992
331
2C9D3
  5
2C9E0
331
2CA12
  5
2CA20
331
2CA88
  5
2CA95
331
2CABF
  5
2CC39
331
2A377
  5
2A3F2
331
2C86C
  5
2C99A
331
2C9DB
  5
2C9E8
331
2CA1A
  5
2CA2A
331
2CA51
  5
2CA5E
331
2CA90
  5
2CA9D
331
2CAC7
  5
2CCF6
331
108D
  5
29B3C
331
29B90
  5
2A360
331
2C58E
  5
2C805
331
2A37F
  5
2BF60
331
2C835
  5
2C841
331
2C9E3
  5
2C9F1
331
2CA22
  5
2CA31
331
2CA59
  5
2CA66
331
2CA98
  5
2CAA5
331
2C806
  5
2C812
331
2C83D
  5
2C84A
331
2C994
  5
2C9A1
331
2C9EB
  5
2C9FA
331
2CA2A
  5
2CA3E
331
2CA61
  5
2CA72
331
2CAA0
  5
2CAAD
331
2C80E
  5
2C81A
331
2C845
  5
2C854
331
2C99C
  5
2C9CD
331
2C9F3
  5
2CA00
331
2CA32
  5
2CA46
331
2CA69
  5
2CA7A
331
2CAA8
  5
2CAB5
331
2C9FB
  5
2CA08
331
2CA71
  5
2CA7E
331
2A358
  5
2A369
331
29B59
  5
29B84
331
2BF5F
  5
2BF7F
331
2A360
  5
2A371
331
2C816
  5
2C822
331
2C855
  5
2C863
331
2C9A4
  5
2C9D5
331
2CA03
  5
2CA10
331
2CA3A
  5
2CA51
331
2CA79
  5
2CA86
331
2CAB0
  5
2CABD
331
29B81
  5
29B86
331
2C81E
  5
2C82E
331
2C85D
  5
2C86A
331
2C9CC
  5
2C9D9
331
2CA0B
  5
2CA18
331
2CA42
  5
2CA57
331
2CA81
  5
2CA8E
331
2CAB8
  5
2CAC5
331
2A370
  5
2A3C7
331
29B89
  5
29B8D
331
2C826
  5
2C835
331
2C865
  5
2C993
331
2C9D4
  5
2C9E1
331
2CA13
  5
2CA21
331
2CA89
  5
2CA96
331
2CAC0
  5
2CC51
331
2C82E
  5
2C83A
331
2C86D
  5
2C99B
331
2C9DC
  5
2C9E9
331
2CA52
  5
2CA5F
331
2CA91
  5
2CA9E
331
2CAC8
  5
2CD50
331
2A378
  5
2A3F3
331
29B91
  5
2A361
331
2C58F
  5
2C806
331
2A380
  5
2BF61
331
2C836
  5
2C842
331
2C9E4
  5
2C9F3
331
2CA23
  5
2CA32
331
2CA5A
  5
2CA67
331
2CA99
  5
2CAA6
331
2CBB0
  5
2CD51
331
2A351
  5
2A362
331
2C807
  5
2C813
331
2C83E
  5
2C84B
331
2C995
  5
2C9A2
331
2C9EC
  5
2C9FB
331
2CA2B
  5
2CA3F
331
2CA62
  5
2CA73
331
2CAA1
  5
2CAAE
331
2C80F
  5
2C81B
331
2C846
  5
2C855
331
2C99D
  5
2C9CE
331
2C9F4
  5
2CA01
331
2CA33
  5
2CA47
331
2CA6A
  5
2CA7B
331
2CAA9
  5
2CAB6
331
2C9FC
  5
2CA09
331
2CA72
  5
2CA7F
331
2CCAF
  5
2CD96
331
2A359
  5
2A36A
331
29B5A
  5
29B74
331
2A361
  5
2A372
331
2BF60
  5
2C58E
331
2C817
  5
2C823
331
2C9A5
  5
2C9D6
331
2CA04
  5
2CA11
331
2CA3B
  5
2CA52
331
2CA7A
  5
2CA87
331
2CAB1
  5
2CABE
331
2A369
  5
2A37A
331
2C81F
  5
2C82F
331
2C85E
  5
2C86B
331
2C9CD
  5
2C9DA
331
2CA0C
  5
2CA19
331
2CA43
  5
2CA58
331
2CA82
  5
2CA8F
331
2CAB9
  5
2CAC6
331
2A371
  5
2A3EC
331
29B8A
  5
29B8E
331
2C866
  5
2C994
331
2C9D5
  5
2C9E2
331
2CA14
  5
2CA22
331
2CA8A
  5
2CA97
331
2CAC1
  5
2CCAF
331
2C82F
  5
2C83B
331
2C9DD
  5
2C9EA
331
2CA1C
  5
2CA2B
331
2CA53
  5
2CA60
331
2CA92
  5
2CA9F
331
108F
  5
29B3D
331
2A379
  5
2A3F4
331
29A83
  5
29B40
331
29ABB
  5
29B5A
331
2C837
  5
2C843
331
2C9E5
  5
2C9F4
331
2CA24
  5
2CA33
331
2CA5B
  5
2CA68
331
2CA9A
  5
2CAA7
331
2A352
  5
2A363
331
2C808
  5
2C814
331
2C83F
  5
2C84C
331
2C996
  5
2C9A3
331
2CA2C
  5
2CA40
331
2CA63
  5
2CA74
331
2CAA2
  5
2CAAF
331
2C847
  5
2C857
331
2C99E
  5
2C9CF
331
2C9F5
  5
2CA02
331
2CA34
  5
2CA48
331
2CA6B
  5
2CA7C
331
2CAAA
  5
2CAB7
331
2C84F
  5
2C85D
331
2C9FD
  5
2CA0A
331
2CA73
  5
2CA80
331
2A35A
  5
2A36B
331
29B5B
  5
29B5C
331
2A362
  5
2A373
331
2BF61
  5
2C58F
331
2C818
  5
2C824
331
2C857
  5
2C864
331
2C9A6
  5
2C9D7
331
2CA05
  5
2CA12
331
2CA7B
  5
2CA88
331
2CAB2
  5
2CABF
331
2A36A
  5
2A37B
331
29B83
  5
29B87
331
2C820
  5
2C830
331
2C85F
  5
2C86C
331
2C9CE
  5
2C9DB
331
2CA0D
  5
2CA1A
331
2CA44
  5
2CA59
331
2CA83
  5
2CA90
331
2CABA
  5
2CAC7
331
2A372
  5
2A3ED
331
29B8B
  5
29B8F
331
2C828
  5
2C836
331
2C867
  5
2C995
331
2C9D6
  5
2C9E3
331
2CA15
  5
2CA23
331
2CA8B
  5
2CA98
331
2CAC2
  5
2CCC8
331
2C9DE
  5
2C9EB
331
2CA1D
  5
2CA2C
331
2CA54
  5
2CA61
331
2CA93
  5
2CAA0
331
2CCC8
  5
24DBD
331
1090
  5
29B3E
331
2A37A
  5
2A3F5
331
2C830
  5
2C83C
331
2C838
  5
2C844
331
2C98F
  5
2C99C
331
2C9E6
  5
2C9F5
331
2CA5C
  5
2CA69
331
2CA9B
  5
2CAA8
331
2CC39
  5
2CD95
331
2A77A
  5
2BF62
331
29B24
  5
29B75
331
2A353
  5
2A364
331
2C809
  5
2C815
331
2C840
  5
2C84F
331
2C997
  5
2C9A4
331
2C9EE
  5
2C9FC
331
2CA2D
  5
2CA41
331
2CA64
  5
2CA75
331
2CAA3
  5
2CAB0
331
29B3C
  5
24DBE
331
2C848
  5
2C858
331
2C99F
  5
2C9D0
331
2C9F6
  5
2CA03
331
2CAAB
  5
2CAB8
331
2C9FE
  5
2CA0B
331
2CA74
  5
2CA81
331
2CBDA
  5
2CD81
331
2A35B
  5
2A36C
331
2C811
  5
2C81D
331
2C850
  5
2C85E
331
2BF62
  5
2C803
331
2A363
  5
2A374
331
29B74
  5
29B59
331
2C819
  5
2C826
331
2C858
  5
2C865
331
2CA06
  5
2CA13
331
2CA7C
  5
2CA89
331
2CAB3
  5
2CAC0
331
2A36B
  5
2A37C
331
29B84
  5
29B88
331
2C821
  5
2C831
331
2C860
  5
2C86D
331
2C9CF
  5
2C9DC
331
2CA0E
  5
2CA1C
331
2CA45
  5
2CA5A
331
2CA84
  5
2CA91
331
2CABB
  5
2CAC8
331
2CBF2
  5
2CD82
331
2A373
  5
2A3EE
331
29B8C
  5
29B90
331
2C829
  5
2C837
331
2C868
  5
2C996
331
2C9D7
  5
2C9E4
331
2CA16
  5
2CA24
331
2CA8C
  5
2CA99
331
2CAC3
  5
2CCC9
331
2C9DF
  5
2C9EC
331
2CA1E
  5
2CA2D
331
2CA55
  5
2CA62
331
2CA94
  5
2CAA1
331
2CCC9
  5
108F
331
2A37B
  5
2A3F6
331
2C831
  5
2C83D
331
2C839
  5
2C845
331
2C990
  5
2C99D
331
2C9E7
  5
2C9F6
331
2CA5D
  5
2CA6A
331
2CA9C
  5
2CAA9
331
2A77B
  5
2BF6C
331
2A354
  5
2A365
331
2C80A
  5
2C816
331
2C841
  5
2C850
331
2C998
  5
2C9A5
331
2C9EF
  5
2C9FD
331
2CA2E
  5
2CA42
331
2CA65
  5
2CA76
331
2CAA4
  5
2CAB1
331
29B3D
  5
24DB4
331
2C849
  5
2C859
331
2C9F7
  5
2CA04
331
2CAAC
  5
2CAB9
331
2C9FF
  5
2CA0C
331
2CA75
  5
2CA82
331
2A35C
  5
2A36D
331
2C812
  5
2C81E
331
2C851
  5
2C85F
331
2C9A0
  5
2C9D1
331
2A364
  5
2A376
331
29B75
  5
29B58
331
2C81A
  5
2C828
331
2C859
  5
2C866
331
2CA07
  5
2CA14
331
2CA3E
  5
2CA53
331
2CA7D
  5
2CA8A
331
2CAB4
  5
2CAC1
331
2A36C
  5
2A37D
331
29B85
  5
29B89
331
2C822
  5
2C832
331
2C861
  5
2C98F
331
2C9D0
  5
2C9DD
331
2CA0F
  5
2CA1D
331
2CA46
  5
2CA5B
331
2CA85
  5
2CA92
331
2CABC
  5
2CBB0
331
2A374
  5
2A3EF
331
29B8D
  5
29B91
331
2C82A
  5
2C838
331
2C869
  5
2C997
331
2C9D8
  5
2C9E5
331
2CA17
  5
2CA27
331
2CA8D
  5
2CA9A
331
2CAC4
  5
2CCCA
331
2CA1F
  5
2CA2E
331
2CA56
  5
2CA63
331
2CA95
  5
2CAA2
331
2CCCA
  5
24DC1
331
2A37C
  5
2A3F7
331
2C832
  5
2C83E
331
2C9E0
  5
2C9EE
331
2C803
  5
2C80D
331
2C83A
  5
2C847
331
2C991
  5
2C99E
331
2C9E8
  5
2C9F7
331
2CA27
  5
2CA34
331
2CA5E
  5
2CA6B
331
2CA9D
  5
2CAAA
331
2A355
  5
2A366
331
2C80B
  5
2C817
331
2C842
  5
2C851
331
2C999
  5
2C9A6
331
2C9F0
  5
2C9FE
331
2CA2F
  5
2CA43
331
2CA66
  5
2CA77
331
2CAA5
  5
2CAB2
331
29B3E
  5
24DC2
331
2C84A
  5
2C85A
331
2C9F8
  5
2CA05
331
2CA6E
  5
2CA7D
331
2CAAD
  5
2CABA
331
2CA76
  5
2CA83
331
2A35D
  5
2A36E
331
2C813
  5
2C81F
331
2C852
  5
2C860
331
2C9A1
  5
2C9D2
331
2CA00
  5
2CA0D
331
2A365
  5
2A377
331
29B76
  5
29B81
331
2C81B
  5
2C829
331
2C85A
  5
2C867
331
2CA08
  5
2CA15
331
2CA3F
  5
2CA54
331
2CA7E
  5
2CA8B
331
2CAB5
  5
2CAC2
331
2BF6C
  5
2C804
331
2A36D
  5
2A37E
331
29B86
  5
29B8A
331
2C823
  5
2C833
331
2C862
  5
2C990
331
2C9D1
  5
2C9DE
331
2CA10
  5
2CA1E
331
2CA47
  5
2CA5C
331
2CA86
  5
2CA93
331
2CABD
  5
2CBDA
331
2A375
  5
2A3F0
331
29B8E
  5
2A35E
331
2C86A
  5
2C998
331
2C9D9
  5
2C9E6
331
2CA18
  5
2CA28
331
2CA8E
  5
2CA9B
331
2CAC5
  5
2CCCB
331
2CA57
  5
2CA64
331
2CA96
  5
2CAA3
331
2CCCB
  5
24DB9
331
2A37D
  5
2A77A
331
2C833
  5
2C83F
331
2C9E1
  5
2C9EF
331
2CA20
  5
2CA2F
331
2C804
  5
2C810
331
2C83B
  5
2C848
331
2C992
  5
2C99F
331
2C9E9
  5
2C9F8
331
2CA28
  5
2CA3A
331
2CA5F
  5
2CA6E
331
2CA9E
  5
2CAAB
331
29B27
  5
29B83
331
2A356
  5
2A367
331
2C80C
  5
2C818
331
2C843
  5
2C852
331
2C99A
  5
2C9CB
331
2C9F1
  5
2C9FF
331
2CA30
  5
2CA44
331
2CA67
  5
2CA78
331
2CAA6
  5
2CAB3
331
29B3F
  5
24DBB
331
2C84B
  5
2C85B
331
2C9F9
  5
2CA06
331
2CAAE
  5
2CABB
331
2CA77
  5
2CA84
331
2A35E
  5
2A36F
331
2C814
  5
2C820
331
2C853
  5
2C861
331
2C9A2
  5
2C9D3
331
2CA01
  5
2CA0E
331
2A366
  5
2A378
331
29B77
  5
29B76
331
2C81C
  5
2C82A
331
2C85B
  5
2C868
331
2CA09
  5
2CA16
331
2CA40
  5
2CA55
331
2CA7F
  5
2CA8C
331
2CAB6
  5
2CAC3
331
2A36E
  5
2A37F
331
29B87
  5
29B8B
331
2C824
  5
2C834
331
2C863
  5
2C991
331
2C9D2
  5
2C9DF
331
2CA11
  5
2CA1F
331
2CA48
  5
2CA5D
331
2CA87
  5
2CA94
331
2CABE
  5
2CBF2
331
29B8F
  5
2A35F
331
2A376
  5
2A3F1
331
2C82C
  5
2C839
331
2C86B
  5
2C999
331
2C9DA
  5
2C9E7
331
2CA19
  5
2CA29
331
2CA8F
  5
2CA9C
331
2CAC6
  5
2CCF5
331
2CA97
  5
2CAA4
  0
SORTENTSTABLE
  5
29D1
102
{ACAD_REACTORS
330
29CF
102
}
330
29CF
100
AcDbSortentsTable
330
341
  0
DIMASSOC
  5
2CBC7
102
{ACAD_REACTORS
330
2CBBD
102
}
330
2CBBD
100
AcDbDimAssoc
330
2CBB0
 90
        3
 70
     0
 71
     0
  1
AcDbOsnapPointRef
 72
     1
331
2CA62
 73
     2
 91
        0
 40
1.0
 10
0.0
 20
0.0
 30
2.000000000000000E+50
 75
     0
  1
AcDbOsnapPointRef
 72
    13
331
2CA66
 73
     2
 91
        0
 40
0.0
 10
0.0
 20
0.0
 30
2.000000000000000E+50
 75
     0
  0
DIMASSOC
  5
2CBF1
102
{ACAD_REACTORS
330
2CBE7
102
}
330
2CBE7
100
AcDbDimAssoc
330
2CBDA
 90
        1
 70
     0
 71
     0
  1
AcDbOsnapPointRef
 72
     1
331
2C829
 73
     2
 91
        0
 40
1.0
 10
0.0
 20
0.0
 30
2.000000000000000E+50
 75
     0
  0
DIMASSOC
  5
2CC09
102
{ACAD_REACTORS
330
2CBFF
102
}
330
2CBFF
100
AcDbDimAssoc
330
2CBF2
 90
        3
 70
     0
 71
     0
  1
AcDbOsnapPointRef
 72
    13
331
2C846
 73
     2
 91
        0
 40
0.0
 10
0.0
 20
0.0
 30
2.000000000000000E+50
 75
     0
  1
AcDbOsnapPointRef
 72
     1
331
2C58F
 73
     2
 91
        0
 40
1.0
 10
0.0
 20
0.0
 30
2.000000000000000E+50
 75
     0
  0
DIMASSOC
  5
2CC50
102
{ACAD_REACTORS
330
2CC46
102
}
330
2CC46
100
AcDbDimAssoc
330
2CC39
 90
        3
 70
     0
 71
     0
  1
AcDbOsnapPointRef
 72
    13
331
2C846
 73
     2
 91
        0
 40
0.0
 10
0.0
 20
0.0
 30
2.000000000000000E+50
 75
     0
  1
AcDbOsnapPointRef
 72
    13
331
2CA86
 73
     2
 91
        0
 40
0.0
 10
0.0
 20
0.0
 30
2.000000000000000E+50
 75
     0
  0
ACDBDETAILVIEWSTYLE
  5
2CDAF
102
{ACAD_XDICTIONARY
360
2CDD4
102
}
102
{ACAD_REACTORS
330
2CDAE
102
}
330
2CDAE
100
AcDbModelDocViewStyle
 70
     0
  3
Metric50
290
     0
100
AcDbDetailViewStyle
 70
     0
 71
     0
 90
        3
 71
     1
340
11
 62
   256
 40
5.0
340
0
 62
   256
 40
5.0
300

 40
0.0
280
     1
 71
     2
340
16
 90
       25
 62
   256
 71
     3
340
11
 62
   256
 40
5.0
 90
        0
 40
15.0
 90
        1
300
%<\AcVar ViewDetailId>% (%<\AcVar ViewScale \f "%sn">%)
 71
     4
340
16
 90
       25
 62
   256
340
16
 90
       25
 62
   256
280
     0
  0
GROUP
  5
29F6
102
{ACAD_REACTORS
330
D
102
}
330
D
100
AcDbGroup
300

 70
     1
 71
     1
340
29CE
340
29CD
340
29CC
340
29CB
340
29CA
340
29C9
340
29C8
340
29C7
340
29C6
340
29C5
340
29C4
340
29C3
340
29C2
340
29C1
340
29C0
340
29BF
340
29BE
340
29BD
340
29BC
340
29BB
340
29BA
340
29B9
340
29B8
340
29B7
  0
LAYOUT
  5
22
102
{ACAD_XDICTIONARY
360
24E2E
102
}
102
{ACAD_REACTORS
330
1A
102
}
330
1A
100
AcDbPlotSettings
  1

  2
Canon TS8130 series
  4
A4
  6

 40
4.180416584014892
 41
5.831417560577392
 42
4.180404663085937
 43
3.757080078125
 44
209.9733276367187
 45
296.9683227539062
 46
-0.0062006872036022
 47
1.756521382387688
 48
4.0
 49
2.0
140
82.0
141
57.4
142
1.0
143
1.374
 70
  3748
 72
     1
 73
     1
 74
     1
  7
monochrome.ctb
 75
     0
147
0.7277572728131227
 76
     1
 77
     2
 78
   300
148
-19.98230080583869
149
-9.983689057621745
100
AcDbLayout
  1
Model
 70
     1
 71
     0
 10
0.0
 20
0.0
 11
12.0
 21
9.0
 12
0.0
 22
0.0
 32
0.0
 14
0.0
 24
0.0
 34
0.0
 15
0.0
 25
0.0
 35
0.0
146
0.0
 13
0.0
 23
0.0
 33
0.0
 16
1.0
 26
0.0
 36
0.0
 17
0.0
 27
1.0
 37
0.0
 76
     0
330
1F
331
275F
1001
ACAD_PSEXT
1000
Canon TS8130 series
1000
Canon TS8130 series
1000
USB001
1000

1070
     0
  0
LAYOUT
  5
51
102
{ACAD_XDICTIONARY
360
2E30
102
}
102
{ACAD_REACTORS
330
1A
102
}
330
1A
100
AcDbPlotSettings
  1

  2
\\KASHIKEI2\EPSON PX-1001
  4
A3
  6

 40
3.757083415985107
 41
3.757076740264892
 42
3.757080078125
 43
3.757080078125
 44
296.9683227539062
 45
420.0172119140624
 46
0.0
 47
0.0
 48
0.0
 49
0.0
140
0.0
141
0.0
142
1.0
143
1.0
 70
   672
 72
     1
 73
     1
 74
     5
  7
monochrome.ctb
 75
    16
147
1.0
 76
     1
 77
     2
 78
   300
148
0.0
149
0.0
100
AcDbLayout
  1
ﾚｲｱｳﾄ1
 70
     1
 71
     1
 10
-3.757080078125
 20
-3.757083415985107
 11
416.2601318359374
 21
293.2112393379211
 12
0.0
 22
0.0
 32
0.0
 14
-58.82240024691737
 24
-86.72323328256494
 34
0.0
 15
448.1718497119468
 25
324.5569721112054
 35
0.0
146
0.0
 13
0.0
 23
0.0
 33
0.0
 16
1.0
 26
0.0
 36
0.0
 17
0.0
 27
1.0
 37
0.0
 76
     0
330
50
331
6B
1001
ACAD_PSEXT
1000
\\KASHIKEI2\EPSON PX-1001
1000
EPSON PX-1001
1000
\\KASHIKEI2
1000

1070
     0
  0
LAYOUT
  5
56
102
{ACAD_REACTORS
330
1A
102
}
330
1A
100
AcDbPlotSettings
  1

  2
none_device
  4
Letter_(8.50_x_11.00_Inches)
  6

 40
6.349999904632567
 41
6.349999904632567
 42
6.350006103515625
 43
6.350006103515625
 44
215.8999938964843
 45
279.3999938964843
 46
0.0
 47
0.0
 48
0.0
 49
0.0
140
0.0
141
0.0
142
1.0
143
1.0
 70
   688
 72
     1
 73
     1
 74
     5
  7
monochrome.ctb
 75
    16
147
1.0
 76
     0
 77
     2
 78
   300
148
0.0
149
0.0
100
AcDbLayout
  1
ﾚｲｱｳﾄ2
 70
     1
 71
     2
 10
-6.350006103515625
 20
-6.349999904632567
 11
273.0499877929687
 21
209.5499939918517
 12
0.0
 22
0.0
 32
0.0
 14
26.66076962115562
 24
20.31135699206657
 34
-0.0015258207003583
 15
240.039213369355
 25
182.8886381005154
 35
0.0000000349246037
146
0.0
 13
0.0
 23
0.0
 33
0.0
 16
1.0
 26
0.0
 36
0.0
 17
0.0
 27
1.0
 37
0.0
 76
     0
330
55
331
71
  0
MATERIAL
  5
2763
102
{ACAD_REACTORS
330
2761
102
}
330
2761
100
AcDbMaterial
  1
ByBlock
 73
     1
 78
     1
172
     1
176
     1
270
     1
274
     1
 94
       63
  0
MATERIAL
  5
2762
102
{ACAD_REACTORS
330
2761
102
}
330
2761
100
AcDbMaterial
  1
ByLayer
 73
     1
 78
     1
172
     1
176
     1
270
     1
274
     1
 94
       63
  0
MATERIAL
  5
2764
102
{ACAD_REACTORS
330
2761
102
}
330
2761
100
AcDbMaterial
  1
Global
 73
     1
 78
     1
172
     1
176
     1
270
     1
274
     1
 94
       63
  0
MLEADERSTYLE
  5
247F2
102
{ACAD_REACTORS
330
247F1
102
}
330
247F1
100
AcDbMLeaderStyle
179
     2
170
     2
171
     1
172
     0
 90
        2
 40
0.0
 41
0.0
173
     1
 91
-1056964608
340
14
 92
       -2
290
     1
 42
2.0
291
     1
 43
0.36
  3
Standard
 44
4.0
300

342
11
174
     1
178
     6
175
     1
176
     0
 93
-1056964608
 45
4.0
292
     0
297
     0
 46
4.0
 94
-1056964608
 47
1.0
 49
1.0
140
1.0
293
     1
141
0.0
294
     1
177
     0
142
1.0
295
     1
296
     0
143
0.125
271
     0
272
     9
273
     9
298
     0
  0
MLINESTYLE
  5
18
102
{ACAD_REACTORS
330
17
102
}
330
17
100
AcDbMlineStyle
  2
STANDARD
 70
     0
  3

 62
   256
 51
90.0
 52
90.0
 71
     2
 49
0.5
 62
   256
  6
BYLAYER
 49
-0.5
 62
   256
  6
BYLAYER
  0
PLOTSETTINGS
  5
E74
102
{ACAD_REACTORS
330
19
102
}
330
19
100
AcDbPlotSettings
  1
印刷
  2
EPSON PM-930C.pc3
  4
A4
  6

 40
3.757083177566528
 41
14.7637300491333
 42
3.757080078125
 43
3.757080078125
 44
209.9733276367186
 45
296.9683227539062
 46
-3.77
 47
-9.279999999999999
 48
0.0
 49
0.0
140
0.0
141
0.0
142
1.0
143
1.0
 70
  1716
 72
     1
 73
     0
 74
     2
  7
黒.ctb
 75
    16
147
1.0
 76
     0
 77
     2
 78
   300
148
0.0
149
0.0
  0
ACDBPLACEHOLDER
  5
F
102
{ACAD_REACTORS
330
E
102
}
330
E
  0
SCALE
  5
247E0
102
{ACAD_REACTORS
330
247DF
102
}
330
247DF
100
AcDbScale
 70
     0
300
1:1
140
1.0
141
1.0
290
     1
  0
SCALE
  5
247E1
102
{ACAD_REACTORS
330
247DF
102
}
330
247DF
100
AcDbScale
 70
     0
300
1:2
140
1.0
141
2.0
290
     0
  0
SCALE
  5
247E2
102
{ACAD_REACTORS
330
247DF
102
}
330
247DF
100
AcDbScale
 70
     0
300
1:4
140
1.0
141
4.0
290
     0
  0
SCALE
  5
247E3
102
{ACAD_REACTORS
330
247DF
102
}
330
247DF
100
AcDbScale
 70
     0
300
1:5
140
1.0
141
5.0
290
     0
  0
SCALE
  5
247E4
102
{ACAD_REACTORS
330
247DF
102
}
330
247DF
100
AcDbScale
 70
     0
300
1:8
140
1.0
141
8.0
290
     0
  0
SCALE
  5
247E5
102
{ACAD_REACTORS
330
247DF
102
}
330
247DF
100
AcDbScale
 70
     0
300
1:10
140
1.0
141
10.0
290
     0
  0
SCALE
  5
247E6
102
{ACAD_REACTORS
330
247DF
102
}
330
247DF
100
AcDbScale
 70
     0
300
1:16
140
1.0
141
16.0
290
     0
  0
SCALE
  5
247E7
102
{ACAD_REACTORS
330
247DF
102
}
330
247DF
100
AcDbScale
 70
     0
300
1:20
140
1.0
141
20.0
290
     0
  0
SCALE
  5
247E8
102
{ACAD_REACTORS
330
247DF
102
}
330
247DF
100
AcDbScale
 70
     0
300
1:30
140
1.0
141
30.0
290
     0
  0
SCALE
  5
247E9
102
{ACAD_REACTORS
330
247DF
102
}
330
247DF
100
AcDbScale
 70
     0
300
1:40
140
1.0
141
40.0
290
     0
  0
SCALE
  5
247EA
102
{ACAD_REACTORS
330
247DF
102
}
330
247DF
100
AcDbScale
 70
     0
300
1:50
140
1.0
141
50.0
290
     0
  0
SCALE
  5
247EB
102
{ACAD_REACTORS
330
247DF
102
}
330
247DF
100
AcDbScale
 70
     0
300
1:100
140
1.0
141
100.0
290
     0
  0
SCALE
  5
247EC
102
{ACAD_REACTORS
330
247DF
102
}
330
247DF
100
AcDbScale
 70
     0
300
2:1
140
2.0
141
1.0
290
     0
  0
SCALE
  5
247ED
102
{ACAD_REACTORS
330
247DF
102
}
330
247DF
100
AcDbScale
 70
     0
300
4:1
140
4.0
141
1.0
290
     0
  0
SCALE
  5
247EE
102
{ACAD_REACTORS
330
247DF
102
}
330
247DF
100
AcDbScale
 70
     0
300
8:1
140
8.0
141
1.0
290
     0
  0
SCALE
  5
247EF
102
{ACAD_REACTORS
330
247DF
102
}
330
247DF
100
AcDbScale
 70
     0
300
10:1
140
10.0
141
1.0
290
     0
  0
SCALE
  5
247F0
102
{ACAD_REACTORS
330
247DF
102
}
330
247DF
100
AcDbScale
 70
     0
300
100:1
140
100.0
141
1.0
290
     0
  0
ACDBSECTIONVIEWSTYLE
  5
2CDAD
102
{ACAD_XDICTIONARY
360
2CDD2
102
}
102
{ACAD_REACTORS
330
2CDAC
102
}
330
2CDAC
100
AcDbModelDocViewStyle
 70
     0
  3
Metric50
290
     0
100
AcDbSectionViewStyle
 70
     0
 71
     0
 90
      102
 71
     1
340
11
 62
   256
 40
5.0
340
0
340
0
 62
   256
 40
5.0
300
I, O, Q, S, X, Z
 40
10.0
 90
        0
 40
2.5
 90
        0
 71
     2
340
16
 90
       25
 62
   256
340
16
 90
       50
 62
   256
 40
5.0
 40
2.5
 40
5.0
 71
     3
340
11
 62
   256
 40
5.0
 90
        0
 40
15.0
 90
        1
300
%<\AcVar ViewSectionStartId>%-%<\AcVar ViewSectionEndId>% (%<\AcVar ViewScale \f "%sn">%)
 71
     4
 62
   256
 62
   257
300
ANSI31
 40
1.0
 90
        0
290
     0
290
     0
 90
        6
 40
0.0
 40
1.570796326794896
 40
0.2617993877991494
 40
1.308996938995747
 40
-0.2617993877991494
 40
1.832595714594046
  0
TABLESTYLE
  5
2778
102
{ACAD_XDICTIONARY
360
2CDCE
102
}
102
{ACAD_REACTORS
330
2777
102
}
330
2777
100
AcDbTableStyle
280
     0
  3
Standard
 70
     0
 71
     0
 40
1.5
 41
1.5
280
     0
281
     0
  7
Standard
140
4.5
170
     2
 62
     0
 63
     7
283
     0
 90
      512
 91
        0
  1

274
    -2
284
     1
 64
     0
275
    -2
285
     1
 65
     0
276
    -2
286
     1
 66
     0
277
    -2
287
     1
 67
     0
278
    -2
288
     1
 68
     0
279
    -2
289
     1
 69
     0
  7
Standard
140
6.0
170
     5
 62
     0
 63
     7
283
     0
 90
      512
 91
        0
  1

274
    -2
284
     1
 64
     0
275
    -2
285
     1
 65
     0
276
    -2
286
     1
 66
     0
277
    -2
287
     1
 67
     0
278
    -2
288
     1
 68
     0
279
    -2
289
     1
 69
     0
  7
Standard
140
4.5
170
     5
 62
     0
 63
     7
283
     0
 90
      512
 91
        0
  1

274
    -2
284
     1
 64
     0
275
    -2
285
     1
 65
     0
276
    -2
286
     1
 66
     0
277
    -2
287
     1
 67
     0
278
    -2
288
     1
 68
     0
279
    -2
289
     1
 69
     0
  0
TABLESTYLE
  5
2688B
102
{ACAD_XDICTIONARY
360
2CDD0
102
}
102
{ACAD_REACTORS
330
2777
102
}
330
2777
100
AcDbTableStyle
280
     0
  3
Standard
 70
     0
 71
     0
 40
1.5
 41
1.5
280
     0
281
     0
  7
ｽﾀｲﾙ1
140
4.5
170
     2
 62
     2
 63
     7
283
     0
 90
      512
 91
        0
  1

274
    -2
284
     1
 64
     0
275
    -2
285
     1
 65
     0
276
    -2
286
     1
 66
     0
277
    -2
287
     1
 67
     0
278
    -2
288
     1
 68
     0
279
    -2
289
     1
 69
     0
  7
Standard
140
6.0
170
     5
 62
     0
 63
     7
283
     0
 90
      512
 91
        0
  1

274
    -2
284
     1
 64
     0
275
    -2
285
     1
 65
     0
276
    -2
286
     1
 66
     0
277
    -2
287
     1
 67
     0
278
    -2
288
     1
 68
     0
279
    -2
289
     1
 69
     0
  7
ｽﾀｲﾙ1
140
4.5
170
     5
 62
     2
 63
     7
283
     0
 90
      512
 91
        0
  1

274
    -2
284
     1
 64
     0
275
    -2
285
     1
 65
     0
276
    -2
286
     1
 66
     0
277
    -2
287
     1
 67
     0
278
    -2
288
     1
 68
     0
279
    -2
289
     1
 69
     0
  0
VISUALSTYLE
  5
276B
102
{ACAD_REACTORS
330
2765
102
}
330
2765
100
AcDbVisualStyle
  2
2dWireframe
 70
     4
177
     3
291
     0
 70
    58
 90
        0
176
     1
 90
        2
176
     1
 90
        0
176
     1
 90
        0
176
     1
 40
0.6
176
     1
 40
30.0
176
     1
 62
     7
420
 16777215
176
     1
 90
        1
176
     1
 90
        4
176
     1
 62
     7
176
     1
 62
   257
176
     1
 90
        1
176
     1
 90
        1
176
     1
 40
1.0
176
     1
 90
        0
176
     1
 62
   257
176
     1
 40
1.0
176
     1
 90
        1
176
     1
 90
        6
176
     1
 90
        2
176
     1
 62
     7
176
     1
 90
        5
176
     1
 90
        0
176
     1
 90
        0
176
     1
290
     0
176
     1
 90
        1
176
     1
 40
0.0
176
     1
 90
        0
176
     1
290
     1
176
     1
290
     1
176
     1
290
     0
176
     1
290
     0
176
     1
290
     0
176
     1
290
     0
176
     1
290
     0
176
     1
290
     0
176
     1
290
     0
176
     1
 90
       50
176
     1
 40
0.0
176
     1
 40
1.0
176
     1
 90
        0
176
     1
 62
    18
420
        0
176
     1
 90
       50
176
     1
 90
        3
176
     1
 62
     5
420
      255
176
     1
290
     0
176
     1
 90
       50
176
     1
 90
       50
176
     1
 90
       50
176
     1
290
     0
176
     1
 90
       50
176
     1
 62
   256
176
     0
 40
1.0
176
     0
 90
        2
176
     1
  1
strokes_ogs.tif
176
     1
290
     0
176
     1
 40
1.0
176
     1
 40
1.0
176
     1
  0
VISUALSTYLE
  5
276D
102
{ACAD_REACTORS
330
2765
102
}
330
2765
100
AcDbVisualStyle
  2
3D Hidden
 70
     6
177
     3
291
     0
 70
    58
 90
        1
176
     1
 90
        2
176
     1
 90
        2
176
     1
 90
        0
176
     1
 40
0.6
176
     1
 40
30.0
176
     1
 62
     7
420
 16777215
176
     1
 90
        2
176
     1
 90
        2
176
     1
 62
     7
176
     1
 62
   257
176
     1
 90
        2
176
     1
 90
        1
176
     1
 40
40.0
176
     1
 90
        0
176
     1
 62
   257
176
     1
 40
1.0
176
     1
 90
        1
176
     1
 90
        6
176
     1
 90
        2
176
     1
 62
     7
176
     1
 90
        3
176
     1
 90
        0
176
     1
 90
        0
176
     1
290
     0
176
     1
 90
        1
176
     1
 40
0.0
176
     1
 90
        0
176
     1
290
     0
176
     1
290
     1
176
     1
290
     1
176
     1
290
     0
176
     1
290
     0
176
     1
290
     0
176
     1
290
     0
176
     1
290
     0
176
     1
290
     0
176
     1
 90
       50
176
     1
 40
0.0
176
     1
 40
1.0
176
     1
 90
        0
176
     1
 62
    18
420
        0
176
     1
 90
       50
176
     1
 90
        3
176
     1
 62
     5
420
      255
176
     1
290
     0
176
     1
 90
       50
176
     1
 90
       50
176
     1
 90
       50
176
     1
290
     0
176
     1
 90
       50
176
     1
 62
   256
176
     0
 40
1.0
176
     0
 90
        2
176
     1
  1
strokes_ogs.tif
176
     1
290
     0
176
     1
 40
1.0
176
     1
 40
1.0
176
     1
  0
VISUALSTYLE
  5
276C
102
{ACAD_REACTORS
330
2765
102
}
330
2765
100
AcDbVisualStyle
  2
3dWireframe
 70
     5
177
     3
291
     0
 70
    58
 90
        0
176
     1
 90
        2
176
     1
 90
        0
176
     1
 90
        0
176
     1
 40
0.6
176
     1
 40
30.0
176
     1
 62
     7
420
 16777215
176
     1
 90
        1
176
     1
 90
        4
176
     1
 62
     7
176
     1
 62
   257
176
     1
 90
        1
176
     1
 90
        1
176
     1
 40
1.0
176
     1
 90
        0
176
     1
 62
   257
176
     1
 40
1.0
176
     1
 90
        1
176
     1
 90
        6
176
     1
 90
        2
176
     1
 62
     7
176
     1
 90
        5
176
     1
 90
        0
176
     1
 90
        0
176
     1
290
     0
176
     1
 90
        1
176
     1
 40
0.0
176
     1
 90
        0
176
     1
290
     0
176
     1
290
     1
176
     1
290
     1
176
     1
290
     0
176
     1
290
     0
176
     1
290
     0
176
     1
290
     0
176
     1
290
     0
176
     1
290
     0
176
     1
 90
       50
176
     1
 40
0.0
176
     1
 40
1.0
176
     1
 90
        0
176
     1
 62
    18
420
        0
176
     1
 90
       50
176
     1
 90
        3
176
     1
 62
     5
420
      255
176
     1
290
     0
176
     1
 90
       50
176
     1
 90
       50
176
     1
 90
       50
176
     1
290
     0
176
     1
 90
       50
176
     1
 62
   256
176
     0
 40
1.0
176
     0
 90
        2
176
     1
  1
strokes_ogs.tif
176
     1
290
     0
176
     1
 40
1.0
176
     1
 40
1.0
176
     1
  0
VISUALSTYLE
  5
276A
102
{ACAD_REACTORS
330
2765
102
}
330
2765
100
AcDbVisualStyle
  2
Basic
 70
     7
177
     3
291
     1
 70
    58
 90
        1
176
     1
 90
        0
176
     1
 90
        1
176
     1
 90
        0
176
     1
 40
0.6
176
     1
 40
30.0
176
     1
 62
     7
420
 16777215
176
     1
 90
        0
176
     1
 90
        4
176
     1
 62
     7
176
     1
 62
   257
176
     1
 90
        1
176
     1
 90
        1
176
     1
 40
1.0
176
     1
 90
        8
176
     1
 62
     7
176
     1
 40
1.0
176
     1
 90
        1
176
     1
 90
        6
176
     1
 90
        2
176
     1
 62
     7
176
     1
 90
        5
176
     1
 90
        0
176
     1
 90
        0
176
     1
290
     0
176
     1
 90
        1
176
     1
 40
0.0
176
     1
 90
        0
176
     1
290
     0
176
     1
290
     1
176
     1
290
     1
176
     1
290
     0
176
     1
290
     0
176
     1
290
     0
176
     1
290
     0
176
     1
290
     0
176
     1
290
     0
176
     1
 90
       50
176
     1
 40
0.0
176
     1
 40
1.0
176
     1
 90
        0
176
     1
 62
    18
420
        0
176
     1
 90
       50
176
     1
 90
        3
176
     1
 62
     5
420
      255
176
     1
290
     0
176
     1
 90
       50
176
     1
 90
       50
176
     1
 90
       50
176
     1
290
     0
176
     1
 90
       50
176
     1
 62
   256
176
     0
 40
1.0
176
     0
 90
        2
176
     1
  1
strokes_ogs.tif
176
     1
290
     0
176
     1
 40
1.0
176
     1
 40
1.0
176
     1
  0
VISUALSTYLE
  5
2771
102
{ACAD_REACTORS
330
2765
102
}
330
2765
100
AcDbVisualStyle
  2
Brighten
 70
    12
177
     3
291
     1
 70
    58
 90
        2
176
     1
 90
        2
176
     1
 90
        0
176
     1
 90
        0
176
     1
 40
0.6
176
     1
 40
30.0
176
     1
 62
     7
420
 16777215
176
     1
 90
        1
176
     1
 90
        4
176
     1
 62
     7
176
     1
 62
   257
176
     1
 90
        1
176
     1
 90
        1
176
     1
 40
1.0
176
     1
 90
        8
176
     1
 62
     7
176
     1
 40
1.0
176
     1
 90
        1
176
     1
 90
        6
176
     1
 90
        2
176
     1
 62
     7
176
     1
 90
        5
176
     1
 90
        0
176
     1
 90
        0
176
     1
290
     0
176
     1
 90
        1
176
     1
 40
50.0
176
     1
 90
        0
176
     1
290
     0
176
     1
290
     1
176
     1
290
     1
176
     1
290
     0
176
     1
290
     0
176
     1
290
     0
176
     1
290
     0
176
     1
290
     0
176
     1
290
     0
176
     1
 90
       50
176
     1
 40
0.0
176
     1
 40
1.0
176
     1
 90
        0
176
     1
 62
    18
420
        0
176
     1
 90
       50
176
     1
 90
        3
176
     1
 62
     5
420
      255
176
     1
290
     0
176
     1
 90
       50
176
     1
 90
       50
176
     1
 90
       50
176
     1
290
     0
176
     1
 90
       50
176
     1
 62
   256
176
     0
 40
1.0
176
     0
 90
        2
176
     1
  1
strokes_ogs.tif
176
     1
290
     0
176
     1
 40
1.0
176
     1
 40
1.0
176
     1
  0
VISUALSTYLE
  5
2775
102
{ACAD_REACTORS
330
2765
102
}
330
2765
100
AcDbVisualStyle
  2
ColorChange
 70
    16
177
     3
291
     1
 70
    58
 90
        2
176
     1
 90
        2
176
     1
 90
        3
176
     1
 90
        0
176
     1
 40
0.6
176
     1
 40
30.0
176
     1
 62
     8
420
  8421504
176
     1
 90
        1
176
     1
 90
        4
176
     1
 62
     7
176
     1
 62
   257
176
     1
 90
        1
176
     1
 90
        1
176
     1
 40
1.0
176
     1
 90
        8
176
     1
 62
     8
420
  8421504
176
     1
 40
1.0
176
     1
 90
        1
176
     1
 90
        6
176
     1
 90
        2
176
     1
 62
     7
176
     1
 90
        5
176
     1
 90
        0
176
     1
 90
        0
176
     1
290
     0
176
     1
 90
        1
176
     1
 40
0.0
176
     1
 90
        0
176
     1
290
     0
176
     1
290
     1
176
     1
290
     1
176
     1
290
     0
176
     1
290
     0
176
     1
290
     0
176
     1
290
     0
176
     1
290
     0
176
     1
290
     0
176
     1
 90
       50
176
     1
 40
0.0
176
     1
 40
1.0
176
     1
 90
        0
176
     1
 62
    18
420
        0
176
     1
 90
       50
176
     1
 90
        3
176
     1
 62
     5
420
      255
176
     1
290
     0
176
     1
 90
       50
176
     1
 90
       50
176
     1
 90
       50
176
     1
290
     0
176
     1
 90
       50
176
     1
 62
   256
176
     0
 40
1.0
176
     0
 90
        2
176
     1
  1
strokes_ogs.tif
176
     1
290
     0
176
     1
 40
1.0
176
     1
 40
1.0
176
     1
  0
VISUALSTYLE
  5
276E
102
{ACAD_REACTORS
330
2765
102
}
330
2765
100
AcDbVisualStyle
  2
Conceptual
 70
     9
177
     3
291
     0
 70
    58
 90
        3
176
     1
 90
        2
176
     1
 90
        0
176
     1
 90
        0
176
     1
 40
0.6
176
     1
 40
30.0
176
     1
 62
     7
420
 16777215
176
     1
 90
        2
176
     1
 90
        2
176
     1
 62
     7
176
     1
 62
   257
176
     1
 90
        1
176
     1
 90
        1
176
     1
 40
40.0
176
     1
 90
        8
176
     1
 62
     7
176
     1
 40
1.0
176
     1
 90
        1
176
     1
 90
        6
176
     1
 90
        2
176
     1
 62
     7
176
     1
 90
        3
176
     1
 90
        0
176
     1
 90
        0
176
     1
290
     0
176
     1
 90
        1
176
     1
 40
0.0
176
     1
 90
        0
176
     1
290
     0
176
     1
290
     1
176
     1
290
     1
176
     1
290
     0
176
     1
290
     0
176
     1
290
     0
176
     1
290
     0
176
     1
290
     0
176
     1
290
     0
176
     1
 90
       50
176
     1
 40
0.0
176
     1
 40
1.0
176
     1
 90
        0
176
     1
 62
    18
420
        0
176
     1
 90
       50
176
     1
 90
        3
176
     1
 62
     5
420
      255
176
     1
290
     0
176
     1
 90
       50
176
     1
 90
       50
176
     1
 90
       50
176
     1
290
     0
176
     1
 90
       50
176
     1
 62
   256
176
     0
 40
1.0
176
     0
 90
        2
176
     1
  1
strokes_ogs.tif
176
     1
290
     0
176
     1
 40
1.0
176
     1
 40
1.0
176
     1
  0
VISUALSTYLE
  5
2770
102
{ACAD_REACTORS
330
2765
102
}
330
2765
100
AcDbVisualStyle
  2
Dim
 70
    11
177
     3
291
     1
 70
    58
 90
        2
176
     1
 90
        2
176
     1
 90
        0
176
     1
 90
        0
176
     1
 40
0.6
176
     1
 40
30.0
176
     1
 62
     7
420
 16777215
176
     1
 90
        1
176
     1
 90
        4
176
     1
 62
     7
176
     1
 62
   257
176
     1
 90
        1
176
     1
 90
        1
176
     1
 40
1.0
176
     1
 90
        8
176
     1
 62
     7
176
     1
 40
1.0
176
     1
 90
        1
176
     1
 90
        6
176
     1
 90
        2
176
     1
 62
     7
176
     1
 90
        5
176
     1
 90
        0
176
     1
 90
        0
176
     1
290
     0
176
     1
 90
        1
176
     1
 40
-50.0
176
     1
 90
        0
176
     1
290
     0
176
     1
290
     1
176
     1
290
     1
176
     1
290
     0
176
     1
290
     0
176
     1
290
     0
176
     1
290
     0
176
     1
290
     0
176
     1
290
     0
176
     1
 90
       50
176
     1
 40
0.0
176
     1
 40
1.0
176
     1
 90
        0
176
     1
 62
    18
420
        0
176
     1
 90
       50
176
     1
 90
        3
176
     1
 62
     5
420
      255
176
     1
290
     0
176
     1
 90
       50
176
     1
 90
       50
176
     1
 90
       50
176
     1
290
     0
176
     1
 90
       50
176
     1
 62
   256
176
     0
 40
1.0
176
     0
 90
        2
176
     1
  1
strokes_ogs.tif
176
     1
290
     0
176
     1
 40
1.0
176
     1
 40
1.0
176
     1
  0
VISUALSTYLE
  5
247DE
102
{ACAD_REACTORS
330
2765
102
}
330
2765
100
AcDbVisualStyle
  2
EdgeColorOff
 70
    22
177
     3
291
     1
 70
    58
 90
        2
176
     0
 90
        2
176
     0
 90
        0
176
     0
 90
        0
176
     0
 40
0.6
176
     0
 40
30.0
176
     0
 62
     7
420
 16777215
176
     0
 90
        1
176
     0
 90
        4
176
     0
 62
     7
176
     0
 62
   257
176
     0
 90
        1
176
     0
 90
        1
176
     0
 40
1.0
176
     0
 90
        8
176
     2
 62
     7
176
     0
 40
1.0
176
     0
 90
        1
176
     0
 90
        6
176
     0
 90
        2
176
     0
 62
     7
176
     0
 90
        5
176
     0
 90
        0
176
     0
 90
        0
176
     0
290
     0
176
     0
 90
        1
176
     0
 40
0.0
176
     0
 90
        0
176
     0
290
     0
176
     1
290
     1
176
     1
290
     1
176
     1
290
     0
176
     1
290
     0
176
     1
290
     0
176
     1
290
     0
176
     1
290
     0
176
     1
290
     0
176
     1
 90
       50
176
     1
 40
0.0
176
     1
 40
1.0
176
     1
 90
        0
176
     1
 62
    18
420
        0
176
     1
 90
       50
176
     1
 90
        3
176
     1
 62
     5
420
      255
176
     1
290
     0
176
     1
 90
       50
176
     1
 90
       50
176
     1
 90
       50
176
     1
290
     0
176
     1
 90
       50
176
     1
 62
   256
176
     0
 40
1.0
176
     0
 90
        2
176
     1
  1
strokes_ogs.tif
176
     1
290
     0
176
     1
 40
1.0
176
     1
 40
1.0
176
     1
  0
VISUALSTYLE
  5
2774
102
{ACAD_REACTORS
330
2765
102
}
330
2765
100
AcDbVisualStyle
  2
Facepattern
 70
    15
177
     3
291
     1
 70
    58
 90
        2
176
     1
 90
        2
176
     1
 90
        0
176
     1
 90
        0
176
     1
 40
0.6
176
     1
 40
30.0
176
     1
 62
     7
420
 16777215
176
     1
 90
        1
176
     1
 90
        4
176
     1
 62
     7
176
     1
 62
   257
176
     1
 90
        1
176
     1
 90
        1
176
     1
 40
1.0
176
     1
 90
        8
176
     1
 62
     7
176
     1
 40
1.0
176
     1
 90
        1
176
     1
 90
        6
176
     1
 90
        2
176
     1
 62
     7
176
     1
 90
        5
176
     1
 90
        0
176
     1
 90
        0
176
     1
290
     0
176
     1
 90
        1
176
     1
 40
0.0
176
     1
 90
        0
176
     1
290
     0
176
     1
290
     1
176
     1
290
     1
176
     1
290
     0
176
     1
290
     0
176
     1
290
     0
176
     1
290
     0
176
     1
290
     0
176
     1
290
     0
176
     1
 90
       50
176
     1
 40
0.0
176
     1
 40
1.0
176
     1
 90
        0
176
     1
 62
    18
420
        0
176
     1
 90
       50
176
     1
 90
        3
176
     1
 62
     5
420
      255
176
     1
290
     0
176
     1
 90
       50
176
     1
 90
       50
176
     1
 90
       50
176
     1
290
     0
176
     1
 90
       50
176
     1
 62
   256
176
     0
 40
1.0
176
     0
 90
        2
176
     1
  1
strokes_ogs.tif
176
     1
290
     0
176
     1
 40
1.0
176
     1
 40
1.0
176
     1
  0
VISUALSTYLE
  5
2766
102
{ACAD_REACTORS
330
2765
102
}
330
2765
100
AcDbVisualStyle
  2
Flat
 70
     0
177
     3
291
     1
 70
    58
 90
        2
176
     1
 90
        1
176
     1
 90
        1
176
     1
 90
        2
176
     1
 40
0.6
176
     1
 40
30.0
176
     1
 62
     7
420
 16777215
176
     1
 90
        0
176
     1
 90
        4
176
     1
 62
     7
176
     1
 62
   257
176
     1
 90
        1
176
     1
 90
        1
176
     1
 40
1.0
176
     1
 90
        8
176
     1
 62
     7
176
     1
 40
1.0
176
     1
 90
        1
176
     1
 90
        6
176
     1
 90
        2
176
     1
 62
     7
176
     1
 90
        5
176
     1
 90
        0
176
     1
 90
        0
176
     1
290
     0
176
     1
 90
       13
176
     1
 40
0.0
176
     1
 90
        0
176
     1
290
     0
176
     1
290
     1
176
     1
290
     1
176
     1
290
     0
176
     1
290
     0
176
     1
290
     0
176
     1
290
     0
176
     1
290
     0
176
     1
290
     0
176
     1
 90
       50
176
     1
 40
0.0
176
     1
 40
1.0
176
     1
 90
        0
176
     1
 62
    18
420
        0
176
     1
 90
       50
176
     1
 90
        3
176
     1
 62
     5
420
      255
176
     1
290
     0
176
     1
 90
       50
176
     1
 90
       50
176
     1
 90
       50
176
     1
290
     0
176
     1
 90
       50
176
     1
 62
   256
176
     0
 40
1.0
176
     0
 90
        2
176
     1
  1
strokes_ogs.tif
176
     1
290
     0
176
     1
 40
1.0
176
     1
 40
1.0
176
     1
  0
VISUALSTYLE
  5
2767
102
{ACAD_REACTORS
330
2765
102
}
330
2765
100
AcDbVisualStyle
  2
FlatWithEdges
 70
     1
177
     3
291
     1
 70
    58
 90
        2
176
     1
 90
        1
176
     1
 90
        1
176
     1
 90
        2
176
     1
 40
0.6
176
     1
 40
30.0
176
     1
 62
     7
420
 16777215
176
     1
 90
        1
176
     1
 90
        4
176
     1
 62
     7
176
     1
 62
   257
176
     1
 90
        1
176
     1
 90
        1
176
     1
 40
1.0
176
     1
 90
        0
176
     1
 62
   257
176
     1
 40
1.0
176
     1
 90
        1
176
     1
 90
        6
176
     1
 90
        2
176
     1
 62
     7
176
     1
 90
        5
176
     1
 90
        0
176
     1
 90
        0
176
     1
290
     0
176
     1
 90
       13
176
     1
 40
0.0
176
     1
 90
        0
176
     1
290
     0
176
     1
290
     1
176
     1
290
     1
176
     1
290
     0
176
     1
290
     0
176
     1
290
     0
176
     1
290
     0
176
     1
290
     0
176
     1
290
     0
176
     1
 90
       50
176
     1
 40
0.0
176
     1
 40
1.0
176
     1
 90
        0
176
     1
 62
    18
420
        0
176
     1
 90
       50
176
     1
 90
        3
176
     1
 62
     5
420
      255
176
     1
290
     0
176
     1
 90
       50
176
     1
 90
       50
176
     1
 90
       50
176
     1
290
     0
176
     1
 90
       50
176
     1
 62
   256
176
     0
 40
1.0
176
     0
 90
        2
176
     1
  1
strokes_ogs.tif
176
     1
290
     0
176
     1
 40
1.0
176
     1
 40
1.0
176
     1
  0
VISUALSTYLE
  5
2768
102
{ACAD_REACTORS
330
2765
102
}
330
2765
100
AcDbVisualStyle
  2
Gouraud
 70
     2
177
     3
291
     1
 70
    58
 90
        2
176
     1
 90
        2
176
     1
 90
        1
176
     1
 90
        2
176
     1
 40
0.6
176
     1
 40
30.0
176
     1
 62
     7
420
 16777215
176
     1
 90
        0
176
     1
 90
        4
176
     1
 62
     7
176
     1
 62
   257
176
     1
 90
        1
176
     1
 90
        1
176
     1
 40
1.0
176
     1
 90
        0
176
     1
 62
     7
176
     1
 40
1.0
176
     1
 90
        1
176
     1
 90
        6
176
     1
 90
        2
176
     1
 62
     7
176
     1
 90
        5
176
     1
 90
        0
176
     1
 90
        0
176
     1
290
     0
176
     1
 90
       13
176
     1
 40
0.0
176
     1
 90
        0
176
     1
290
     0
176
     1
290
     1
176
     1
290
     1
176
     1
290
     0
176
     1
290
     0
176
     1
290
     0
176
     1
290
     0
176
     1
290
     0
176
     1
290
     0
176
     1
 90
       50
176
     1
 40
0.0
176
     1
 40
1.0
176
     1
 90
        0
176
     1
 62
    18
420
        0
176
     1
 90
       50
176
     1
 90
        3
176
     1
 62
     5
420
      255
176
     1
290
     0
176
     1
 90
       50
176
     1
 90
       50
176
     1
 90
       50
176
     1
290
     0
176
     1
 90
       50
176
     1
 62
   256
176
     0
 40
1.0
176
     0
 90
        2
176
     1
  1
strokes_ogs.tif
176
     1
290
     0
176
     1
 40
1.0
176
     1
 40
1.0
176
     1
  0
VISUALSTYLE
  5
2769
102
{ACAD_REACTORS
330
2765
102
}
330
2765
100
AcDbVisualStyle
  2
GouraudWithEdges
 70
     3
177
     3
291
     1
 70
    58
 90
        2
176
     1
 90
        2
176
     1
 90
        1
176
     1
 90
        2
176
     1
 40
0.6
176
     1
 40
30.0
176
     1
 62
     7
420
 16777215
176
     1
 90
        1
176
     1
 90
        4
176
     1
 62
     7
176
     1
 62
   257
176
     1
 90
        1
176
     1
 90
        1
176
     1
 40
1.0
176
     1
 90
        0
176
     1
 62
   257
176
     1
 40
1.0
176
     1
 90
        1
176
     1
 90
        6
176
     1
 90
        2
176
     1
 62
     7
176
     1
 90
        5
176
     1
 90
        0
176
     1
 90
        0
176
     1
290
     0
176
     1
 90
       13
176
     1
 40
0.0
176
     1
 90
        0
176
     1
290
     0
176
     1
290
     1
176
     1
290
     1
176
     1
290
     0
176
     1
290
     0
176
     1
290
     0
176
     1
290
     0
176
     1
290
     0
176
     1
290
     0
176
     1
 90
       50
176
     1
 40
0.0
176
     1
 40
1.0
176
     1
 90
        0
176
     1
 62
    18
420
        0
176
     1
 90
       50
176
     1
 90
        3
176
     1
 62
     5
420
      255
176
     1
290
     0
176
     1
 90
       50
176
     1
 90
       50
176
     1
 90
       50
176
     1
290
     0
176
     1
 90
       50
176
     1
 62
   256
176
     0
 40
1.0
176
     0
 90
        2
176
     1
  1
strokes_ogs.tif
176
     1
290
     0
176
     1
 40
1.0
176
     1
 40
1.0
176
     1
  0
VISUALSTYLE
  5
2CDA6
102
{ACAD_REACTORS
330
2765
102
}
330
2765
100
AcDbVisualStyle
  2
Hidden
 70
     6
177
     3
291
     0
 70
    58
 90
        1
176
     1
 90
        2
176
     1
 90
        2
176
     1
 90
        0
176
     1
 40
0.6
176
     1
 40
30.0
176
     1
 62
     7
420
 16777215
176
     1
 90
        2
176
     1
 90
        2
176
     1
 62
     7
176
     1
 62
   257
176
     1
 90
        2
176
     1
 90
        1
176
     1
 40
40.0
176
     1
 90
        0
176
     1
 62
   257
176
     1
 40
1.0
176
     1
 90
        1
176
     1
 90
        6
176
     1
 90
        2
176
     1
 62
     7
176
     1
 90
        3
176
     1
 90
        0
176
     1
 90
        0
176
     1
290
     0
176
     1
 90
        1
176
     1
 40
0.0
176
     1
 90
        0
176
     1
290
     0
176
     1
290
     1
176
     1
290
     1
176
     1
290
     0
176
     1
290
     0
176
     1
290
     0
176
     1
290
     0
176
     1
290
     0
176
     1
290
     0
176
     1
 90
       50
176
     1
 40
0.0
176
     1
 40
1.0
176
     1
 90
        0
176
     1
 62
    18
420
        0
176
     1
 90
       50
176
     1
 90
        3
176
     1
 62
     5
420
      255
176
     1
290
     0
176
     1
 90
       50
176
     1
 90
       50
176
     1
 90
       50
176
     1
290
     0
176
     1
 90
       50
176
     1
 62
   256
176
     0
 40
1.0
176
     0
 90
        2
176
     1
  1
strokes_ogs.tif
176
     1
290
     0
176
     1
 40
1.0
176
     1
 40
1.0
176
     1
  0
VISUALSTYLE
  5
247DC
102
{ACAD_REACTORS
330
2765
102
}
330
2765
100
AcDbVisualStyle
  2
JitterOff
 70
    20
177
     3
291
     1
 70
    58
 90
        2
176
     0
 90
        2
176
     0
 90
        0
176
     0
 90
        0
176
     0
 40
0.6
176
     0
 40
30.0
176
     0
 62
     7
420
 16777215
176
     0
 90
        1
176
     0
 90
        4
176
     0
 62
     7
176
     0
 62
   257
176
     0
 90
        1
176
     0
 90
        1
176
     0
 40
1.0
176
     0
 90
       10
176
     2
 62
     7
176
     0
 40
1.0
176
     0
 90
        1
176
     0
 90
        6
176
     0
 90
        2
176
     0
 62
     7
176
     0
 90
        5
176
     0
 90
        0
176
     0
 90
        0
176
     0
290
     0
176
     0
 90
        1
176
     0
 40
0.0
176
     0
 90
        0
176
     0
290
     0
176
     1
290
     1
176
     1
290
     1
176
     1
290
     0
176
     1
290
     0
176
     1
290
     0
176
     1
290
     0
176
     1
290
     0
176
     1
290
     0
176
     1
 90
       50
176
     1
 40
0.0
176
     1
 40
1.0
176
     1
 90
        0
176
     1
 62
    18
420
        0
176
     1
 90
       50
176
     1
 90
        3
176
     1
 62
     5
420
      255
176
     1
290
     0
176
     1
 90
       50
176
     1
 90
       50
176
     1
 90
       50
176
     1
290
     0
176
     1
 90
       50
176
     1
 62
   256
176
     0
 40
1.0
176
     0
 90
        2
176
     1
  1
strokes_ogs.tif
176
     1
290
     0
176
     1
 40
1.0
176
     1
 40
1.0
176
     1
  0
VISUALSTYLE
  5
2773
102
{ACAD_REACTORS
330
2765
102
}
330
2765
100
AcDbVisualStyle
  2
Linepattern
 70
    14
177
     3
291
     1
 70
    58
 90
        2
176
     1
 90
        2
176
     1
 90
        0
176
     1
 90
        0
176
     1
 40
0.6
176
     1
 40
30.0
176
     1
 62
     7
420
 16777215
176
     1
 90
        1
176
     1
 90
        4
176
     1
 62
     7
176
     1
 62
   257
176
     1
 90
        7
176
     1
 90
        7
176
     1
 40
1.0
176
     1
 90
        8
176
     1
 62
     7
176
     1
 40
1.0
176
     1
 90
        1
176
     1
 90
        6
176
     1
 90
        2
176
     1
 62
     7
176
     1
 90
        5
176
     1
 90
        0
176
     1
 90
        0
176
     1
290
     0
176
     1
 90
        1
176
     1
 40
0.0
176
     1
 90
        0
176
     1
290
     0
176
     1
290
     1
176
     1
290
     1
176
     1
290
     0
176
     1
290
     0
176
     1
290
     0
176
     1
290
     0
176
     1
290
     0
176
     1
290
     0
176
     1
 90
       50
176
     1
 40
0.0
176
     1
 40
1.0
176
     1
 90
        0
176
     1
 62
    18
420
        0
176
     1
 90
       50
176
     1
 90
        3
176
     1
 62
     5
420
      255
176
     1
290
     0
176
     1
 90
       50
176
     1
 90
       50
176
     1
 90
       50
176
     1
290
     0
176
     1
 90
       50
176
     1
 62
   256
176
     0
 40
1.0
176
     0
 90
        2
176
     1
  1
strokes_ogs.tif
176
     1
290
     0
176
     1
 40
1.0
176
     1
 40
1.0
176
     1
  0
VISUALSTYLE
  5
247DD
102
{ACAD_REACTORS
330
2765
102
}
330
2765
100
AcDbVisualStyle
  2
OverhangOff
 70
    21
177
     3
291
     1
 70
    58
 90
        2
176
     0
 90
        2
176
     0
 90
        0
176
     0
 90
        0
176
     0
 40
0.6
176
     0
 40
30.0
176
     0
 62
     7
420
 16777215
176
     0
 90
        1
176
     0
 90
        4
176
     0
 62
     7
176
     0
 62
   257
176
     0
 90
        1
176
     0
 90
        1
176
     0
 40
1.0
176
     0
 90
        9
176
     2
 62
     7
176
     0
 40
1.0
176
     0
 90
        1
176
     0
 90
        6
176
     0
 90
        2
176
     0
 62
     7
176
     0
 90
        5
176
     0
 90
        0
176
     0
 90
        0
176
     0
290
     0
176
     0
 90
        1
176
     0
 40
0.0
176
     0
 90
        0
176
     0
290
     0
176
     1
290
     1
176
     1
290
     1
176
     1
290
     0
176
     1
290
     0
176
     1
290
     0
176
     1
290
     0
176
     1
290
     0
176
     1
290
     0
176
     1
 90
       50
176
     1
 40
0.0
176
     1
 40
1.0
176
     1
 90
        0
176
     1
 62
    18
420
        0
176
     1
 90
       50
176
     1
 90
        3
176
     1
 62
     5
420
      255
176
     1
290
     0
176
     1
 90
       50
176
     1
 90
       50
176
     1
 90
       50
176
     1
290
     0
176
     1
 90
       50
176
     1
 62
   256
176
     0
 40
1.0
176
     0
 90
        2
176
     1
  1
strokes_ogs.tif
176
     1
290
     0
176
     1
 40
1.0
176
     1
 40
1.0
176
     1
  0
VISUALSTYLE
  5
276F
102
{ACAD_REACTORS
330
2765
102
}
330
2765
100
AcDbVisualStyle
  2
Realistic
 70
     8
177
     3
291
     0
 70
    58
 90
        2
176
     1
 90
        2
176
     1
 90
        0
176
     1
 90
        0
176
     1
 40
0.6
176
     1
 40
30.0
176
     1
 62
     7
420
 16777215
176
     1
 90
        1
176
     1
 90
        0
176
     1
 62
     7
176
     1
 62
   257
176
     1
 90
        1
176
     1
 90
        1
176
     1
 40
1.0
176
     1
 90
        8
176
     1
 62
     8
420
  7895160
176
     1
 40
1.0
176
     1
 90
        1
176
     1
 90
        6
176
     1
 90
        2
176
     1
 62
     7
176
     1
 90
        5
176
     1
 90
        0
176
     1
 90
        0
176
     1
290
     0
176
     1
 90
       13
176
     1
 40
0.0
176
     1
 90
        0
176
     1
290
     0
176
     1
290
     1
176
     1
290
     1
176
     1
290
     0
176
     1
290
     0
176
     1
290
     0
176
     1
290
     0
176
     1
290
     0
176
     1
290
     0
176
     1
 90
       50
176
     1
 40
0.0
176
     1
 40
1.0
176
     1
 90
        0
176
     1
 62
    18
420
        0
176
     1
 90
       50
176
     1
 90
        3
176
     1
 62
     5
420
      255
176
     1
290
     0
176
     1
 90
       50
176
     1
 90
       50
176
     1
 90
       50
176
     1
290
     0
176
     1
 90
       50
176
     1
 62
   256
176
     0
 40
1.0
176
     0
 90
        2
176
     1
  1
strokes_ogs.tif
176
     1
290
     0
176
     1
 40
1.0
176
     1
 40
1.0
176
     1
  0
VISUALSTYLE
  5
2CDAB
102
{ACAD_REACTORS
330
2765
102
}
330
2765
100
AcDbVisualStyle
  2
Shaded
 70
    27
177
     3
291
     0
 70
    58
 90
        2
176
     1
 90
        2
176
     1
 90
        1
176
     1
 90
        2
176
     1
 40
0.6
176
     1
 40
30.0
176
     1
 62
     7
420
 16777215
176
     1
 90
        0
176
     1
 90
        4
176
     1
 62
     7
176
     1
 62
   257
176
     1
 90
        1
176
     1
 90
        1
176
     1
 40
1.0
176
     1
 90
        8
176
     1
 62
   257
176
     1
 40
1.0
176
     1
 90
        1
176
     1
 90
        6
176
     1
 90
        2
176
     1
 62
     8
420
  7895160
176
     1
 90
        3
176
     1
 90
        0
176
     1
 90
        0
176
     1
290
     0
176
     1
 90
        5
176
     1
 40
0.0
176
     1
 90
        0
176
     1
290
     0
176
     1
290
     1
176
     1
290
     1
176
     1
290
     0
176
     1
290
     0
176
     1
290
     0
176
     1
290
     0
176
     1
290
     0
176
     1
290
     0
176
     1
 90
       50
176
     1
 40
0.0
176
     1
 40
1.0
176
     1
 90
        0
176
     1
 62
    18
420
        0
176
     1
 90
       50
176
     1
 90
        3
176
     1
 62
     5
420
      255
176
     1
290
     0
176
     1
 90
       50
176
     1
 90
       50
176
     1
 90
       50
176
     1
290
     0
176
     1
 90
       50
176
     1
 62
   256
176
     0
 40
1.0
176
     0
 90
        2
176
     1
  1
strokes_ogs.tif
176
     1
290
     0
176
     1
 40
1.0
176
     1
 40
1.0
176
     1
  0
VISUALSTYLE
  5
2CDAA
102
{ACAD_REACTORS
330
2765
102
}
330
2765
100
AcDbVisualStyle
  2
Shaded with edges
 70
    26
177
     3
291
     0
 70
    58
 90
        2
176
     1
 90
        2
176
     1
 90
        1
176
     1
 90
        2
176
     1
 40
0.6
176
     1
 40
30.0
176
     1
 62
     7
420
 16777215
176
     1
 90
        1
176
     1
 90
       10
176
     1
 62
     7
176
     1
 62
   257
176
     1
 90
        2
176
     1
 90
        1
176
     1
 40
1.0
176
     1
 90
        8
176
     1
 62
   257
176
     1
 40
1.0
176
     1
 90
        1
176
     1
 90
        6
176
     1
 90
        2
176
     1
 62
     7
176
     1
 90
        3
176
     1
 90
        0
176
     1
 90
        0
176
     1
290
     0
176
     1
 90
        5
176
     1
 40
0.0
176
     1
 90
        0
176
     1
290
     0
176
     1
290
     1
176
     1
290
     1
176
     1
290
     0
176
     1
290
     0
176
     1
290
     0
176
     1
290
     0
176
     1
290
     0
176
     1
290
     0
176
     1
 90
       50
176
     1
 40
0.0
176
     1
 40
1.0
176
     1
 90
        0
176
     1
 62
    18
420
        0
176
     1
 90
       50
176
     1
 90
        3
176
     1
 62
     5
420
      255
176
     1
290
     0
176
     1
 90
       50
176
     1
 90
       50
176
     1
 90
       50
176
     1
290
     0
176
     1
 90
       50
176
     1
 62
   256
176
     0
 40
1.0
176
     0
 90
        2
176
     1
  1
strokes_ogs.tif
176
     1
290
     0
176
     1
 40
1.0
176
     1
 40
1.0
176
     1
  0
VISUALSTYLE
  5
2CDA7
102
{ACAD_REACTORS
330
2765
102
}
330
2765
100
AcDbVisualStyle
  2
Shades of Gray
 70
    23
177
     3
291
     0
 70
    58
 90
        2
176
     1
 90
        2
176
     1
 90
        3
176
     1
 90
        0
176
     1
 40
0.6
176
     1
 40
30.0
176
     1
 62
     7
420
 16777215
176
     1
 90
        2
176
     1
 90
        2
176
     1
 62
     7
176
     1
 62
     7
176
     1
 90
        1
176
     1
 90
        1
176
     1
 40
40.0
176
     1
 90
        8
176
     1
 62
     7
176
     1
 40
1.0
176
     1
 90
        1
176
     1
 90
        6
176
     1
 90
        2
176
     1
 62
     7
176
     1
 90
        3
176
     1
 90
        0
176
     1
 90
        0
176
     1
290
     0
176
     1
 90
        1
176
     1
 40
0.0
176
     1
 90
        0
176
     1
290
     0
176
     1
290
     1
176
     1
290
     1
176
     1
290
     0
176
     1
290
     0
176
     1
290
     0
176
     1
290
     0
176
     1
290
     0
176
     1
290
     0
176
     1
 90
       50
176
     1
 40
0.0
176
     1
 40
1.0
176
     1
 90
        0
176
     1
 62
    18
420
        0
176
     1
 90
       50
176
     1
 90
        3
176
     1
 62
     5
420
      255
176
     1
290
     0
176
     1
 90
       50
176
     1
 90
       50
176
     1
 90
       50
176
     1
290
     0
176
     1
 90
       50
176
     1
 62
   256
176
     0
 40
1.0
176
     0
 90
        2
176
     1
  1
strokes_ogs.tif
176
     1
290
     0
176
     1
 40
1.0
176
     1
 40
1.0
176
     1
  0
VISUALSTYLE
  5
2CDA8
102
{ACAD_REACTORS
330
2765
102
}
330
2765
100
AcDbVisualStyle
  2
Sketchy
 70
    24
177
     3
291
     0
 70
    58
 90
        1
176
     1
 90
        2
176
     1
 90
        2
176
     1
 90
        0
176
     1
 40
0.6
176
     1
 40
30.0
176
     1
 62
     7
420
 16777215
176
     1
 90
        2
176
     1
 90
        2
176
     1
 62
     7
176
     1
 62
     7
176
     1
 90
        1
176
     1
 90
        1
176
     1
 40
40.0
176
     1
 90
       11
176
     1
 62
     7
176
     1
 40
1.0
176
     1
 90
        1
176
     1
 90
        6
176
     1
 90
        2
176
     1
 62
     7
176
     1
 90
        6
176
     1
 90
        0
176
     1
 90
        0
176
     1
290
     0
176
     1
 90
        1
176
     1
 40
0.0
176
     1
 90
        0
176
     1
290
     0
176
     1
290
     1
176
     1
290
     1
176
     1
290
     0
176
     1
290
     0
176
     1
290
     0
176
     1
290
     0
176
     1
290
     0
176
     1
290
     0
176
     1
 90
       50
176
     1
 40
0.0
176
     1
 40
1.0
176
     1
 90
        0
176
     1
 62
    18
420
        0
176
     1
 90
       50
176
     1
 90
        3
176
     1
 62
     5
420
      255
176
     1
290
     0
176
     1
 90
       50
176
     1
 90
       50
176
     1
 90
       50
176
     1
290
     0
176
     1
 90
       50
176
     1
 62
   256
176
     0
 40
1.0
176
     0
 90
        2
176
     1
  1
strokes_ogs.tif
176
     1
290
     0
176
     1
 40
1.0
176
     1
 40
1.0
176
     1
  0
VISUALSTYLE
  5
2772
102
{ACAD_REACTORS
330
2765
102
}
330
2765
100
AcDbVisualStyle
  2
Thicken
 70
    13
177
     3
291
     1
 70
    58
 90
        2
176
     1
 90
        2
176
     1
 90
        0
176
     1
 90
        0
176
     1
 40
0.6
176
     1
 40
30.0
176
     1
 62
     7
420
 16777215
176
     1
 90
        1
176
     1
 90
        4
176
     1
 62
     7
176
     1
 62
   257
176
     1
 90
        1
176
     1
 90
        1
176
     1
 40
1.0
176
     1
 90
       12
176
     1
 62
     7
176
     1
 40
1.0
176
     1
 90
        1
176
     1
 90
        6
176
     1
 90
        2
176
     1
 62
     7
176
     1
 90
        5
176
     1
 90
        0
176
     1
 90
        0
176
     1
290
     0
176
     1
 90
        1
176
     1
 40
0.0
176
     1
 90
        0
176
     1
290
     0
176
     1
290
     1
176
     1
290
     1
176
     1
290
     0
176
     1
290
     0
176
     1
290
     0
176
     1
290
     0
176
     1
290
     0
176
     1
290
     0
176
     1
 90
       50
176
     1
 40
0.0
176
     1
 40
1.0
176
     1
 90
        0
176
     1
 62
    18
420
        0
176
     1
 90
       50
176
     1
 90
        3
176
     1
 62
     5
420
      255
176
     1
290
     0
176
     1
 90
       50
176
     1
 90
       50
176
     1
 90
       50
176
     1
290
     0
176
     1
 90
       50
176
     1
 62
   256
176
     0
 40
1.0
176
     0
 90
        2
176
     1
  1
strokes_ogs.tif
176
     1
290
     0
176
     1
 40
1.0
176
     1
 40
1.0
176
     1
  0
VISUALSTYLE
  5
2CDA5
102
{ACAD_REACTORS
330
2765
102
}
330
2765
100
AcDbVisualStyle
  2
Wireframe
 70
     5
177
     3
291
     0
 70
    58
 90
        0
176
     1
 90
        2
176
     1
 90
        0
176
     1
 90
        0
176
     1
 40
0.6
176
     1
 40
30.0
176
     1
 62
     7
420
 16777215
176
     1
 90
        1
176
     1
 90
        4
176
     1
 62
     7
176
     1
 62
   257
176
     1
 90
        1
176
     1
 90
        1
176
     1
 40
1.0
176
     1
 90
        0
176
     1
 62
   257
176
     1
 40
1.0
176
     1
 90
        1
176
     1
 90
        6
176
     1
 90
        2
176
     1
 62
     7
176
     1
 90
        3
176
     1
 90
        0
176
     1
 90
        0
176
     1
290
     0
176
     1
 90
        1
176
     1
 40
0.0
176
     1
 90
        0
176
     1
290
     0
176
     1
290
     1
176
     1
290
     1
176
     1
290
     0
176
     1
290
     0
176
     1
290
     0
176
     1
290
     0
176
     1
290
     0
176
     1
290
     0
176
     1
 90
       50
176
     1
 40
0.0
176
     1
 40
1.0
176
     1
 90
        0
176
     1
 62
    18
420
        0
176
     1
 90
       50
176
     1
 90
        3
176
     1
 62
     5
420
      255
176
     1
290
     0
176
     1
 90
       50
176
     1
 90
       50
176
     1
 90
       50
176
     1
290
     0
176
     1
 90
       50
176
     1
 62
   256
176
     0
 40
1.0
176
     0
 90
        2
176
     1
  1
strokes_ogs.tif
176
     1
290
     0
176
     1
 40
1.0
176
     1
 40
1.0
176
     1
  0
VISUALSTYLE
  5
2CDA9
102
{ACAD_REACTORS
330
2765
102
}
330
2765
100
AcDbVisualStyle
  2
X-Ray
 70
    25
177
     3
291
     0
 70
    58
 90
        2
176
     1
 90
        2
176
     1
 90
        1
176
     1
 90
        1
176
     1
 40
0.5
176
     1
 40
30.0
176
     1
 62
     7
420
 16777215
176
     1
 90
        1
176
     1
 90
        0
176
     1
 62
     7
176
     1
 62
   257
176
     1
 90
        1
176
     1
 90
        1
176
     1
 40
1.0
176
     1
 90
        8
176
     1
 62
     7
176
     1
 40
1.0
176
     1
 90
        1
176
     1
 90
        6
176
     1
 90
        2
176
     1
 62
     7
176
     1
 90
        3
176
     1
 90
        0
176
     1
 90
        0
176
     1
290
     0
176
     1
 90
       13
176
     1
 40
0.0
176
     1
 90
        0
176
     1
290
     0
176
     1
290
     1
176
     1
290
     1
176
     1
290
     0
176
     1
290
     0
176
     1
290
     0
176
     1
290
     0
176
     1
290
     0
176
     1
290
     0
176
     1
 90
       50
176
     1
 40
0.0
176
     1
 40
1.0
176
     1
 90
        0
176
     1
 62
    18
420
        0
176
     1
 90
       50
176
     1
 90
        3
176
     1
 62
     5
420
      255
176
     1
290
     0
176
     1
 90
       50
176
     1
 90
       50
176
     1
 90
       50
176
     1
290
     0
176
     1
 90
       50
176
     1
 62
   256
176
     0
 40
1.0
176
     0
 90
        2
176
     1
  1
strokes_ogs.tif
176
     1
290
     0
176
     1
 40
1.0
176
     1
 40
1.0
176
     1
  0
DICTIONARYVAR
  5
24E32
102
{ACAD_REACTORS
330
5E
102
}
330
5E
100
DictionaryVariables
280
     0
  1
1:1
  0
DICTIONARYVAR
  5
24E30
102
{ACAD_REACTORS
330
5E
102
}
330
5E
100
DictionaryVariables
280
     0
  1
STANDARD
  0
DICTIONARYVAR
  5
2792
102
{ACAD_REACTORS
330
5E
102
}
330
5E
100
DictionaryVariables
280
     0
  1
STANDARD
  0
DICTIONARYVAR
  5
2CDCB
102
{ACAD_REACTORS
330
5E
102
}
330
5E
100
DictionaryVariables
280
     0
  1
Metric50
  0
DICTIONARYVAR
  5
2CDCC
102
{ACAD_REACTORS
330
5E
102
}
330
5E
100
DictionaryVariables
280
     0
  1
Metric50
  0
DICTIONARYVAR
  5
5F
102
{ACAD_REACTORS
330
5E
102
}
330
5E
100
DictionaryVariables
280
     0
  1
2
  0
DICTIONARYVAR
  5
63
102
{ACAD_REACTORS
330
5E
102
}
330
5E
100
DictionaryVariables
280
     0
  1
1
  0
DICTIONARYVAR
  5
24E34
102
{ACAD_REACTORS
330
5E
102
}
330
5E
100
DictionaryVariables
280
     0
  1
1
  0
DICTIONARYVAR
  5
24E35
102
{ACAD_REACTORS
330
5E
102
}
330
5E
100
DictionaryVariables
280
     0
  1
15
  0
DICTIONARYVAR
  5
24E33
102
{ACAD_REACTORS
330
5E
102
}
330
5E
100
DictionaryVariables
280
     0
  1
0
  0
DICTIONARYVAR
  5
24E31
102
{ACAD_REACTORS
330
5E
102
}
330
5E
100
DictionaryVariables
280
     0
  1
0
  0
DICTIONARY
  5
2CDD4
330
2CDAF
100
AcDbDictionary
280
     1
281
     1
  3
ACAD_XREC_ROUNDTRIP
360
2CDD5
  0
DICTIONARY
  5
24E2E
330
22
100
AcDbDictionary
280
     1
281
     1
  3
AcPublish_PlotSettingsOverride
360
2CDCA
  0
DICTIONARY
  5
2E30
330
51
100
AcDbDictionary
280
     1
281
     1
  0
DICTIONARY
  5
2CDD2
330
2CDAD
100
AcDbDictionary
280
     1
281
     1
  3
ACAD_XREC_ROUNDTRIP
360
2CDD3
  0
DICTIONARY
  5
2CDCE
330
2778
100
AcDbDictionary
280
     1
281
     1
  3
ACAD_ROUNDTRIP_2008_TABLESTYLE_CELLSTYLEMAP
360
2CDCF
  0
DICTIONARY
  5
2CDD0
330
2688B
100
AcDbDictionary
280
     1
281
     1
  3
ACAD_ROUNDTRIP_2008_TABLESTYLE_CELLSTYLEMAP
360
2CDD1
  0
XRECORD
  5
2CDD5
102
{ACAD_REACTORS
330
2CDD4
102
}
330
2CDD4
100
AcDbXrecord
280
     1
102
DISPLAYNAME
  1
Metric50
102
FLAGS
 90
        0
  0
PLOTSETTINGS
  5
2CDCA
102
{ACAD_REACTORS
330
24E2E
102
}
330
24E2E
100
AcDbPlotSettings
  1

  2
Canon TS8130 series
  4
A4
  6

 40
4.180416584014892
 41
5.831417560577392
 42
4.180404663085937
 43
3.757080078125
 44
209.9733276367187
 45
296.9683227539062
 46
-51.12956845309316
 47
-215.9556399507234
 48
4.0
 49
2.0
140
82.0
141
57.4
142
1.0
143
1.374
 70
  3748
 72
     1
 73
     1
 74
     0
  7
monochrome.ctb
 75
     0
147
0.7277572728131227
 76
     1
 77
     2
 78
   300
148
118.9983303135179
149
138.548363127921
1001
ACAD_PSEXT
1000
Canon TS8130 series
1000
Canon TS8130 series
1000
USB001
1000

1070
     0
  0
XRECORD
  5
2CDD3
102
{ACAD_REACTORS
330
2CDD2
102
}
330
2CDD2
100
AcDbXrecord
280
     1
102
DISPLAYNAME
  1
Metric50
102
FLAGS
 90
        0
  0
CELLSTYLEMAP
  5
2CDCF
102
{ACAD_REACTORS
330
2CDCE
102
}
330
2CDCE
100
AcDbCellStyleMap
 90
        3
300
CELLSTYLE
  1
TABLEFORMAT_BEGIN
 90
        5
170
     1
 91
        0
 92
    32768
 62
   257
 93
        1
300
CONTENTFORMAT
  1
CONTENTFORMAT_BEGIN
 90
        0
 91
        0
 92
      512
 93
        0
300

 40
0.0
140
1.0
 94
        5
 62
     0
340
11
144
6.0
309
CONTENTFORMAT_END
171
     1
301
MARGIN
  1
CELLMARGIN_BEGIN
 40
1.5
 40
1.5
 40
1.5
 40
1.5
 40
0.18
 40
0.18
309
CELLMARGIN_END
 94
        6
 95
        1
302
GRIDFORMAT
  1
GRIDFORMAT_BEGIN
 90
        0
 91
        1
 62
     0
 92
       -2
340
0
 93
        0
 40
0.045
309
GRIDFORMAT_END
 95
        2
302
GRIDFORMAT
  1
GRIDFORMAT_BEGIN
 90
        0
 91
        1
 62
     0
 92
       -2
340
0
 93
        0
 40
0.045
309
GRIDFORMAT_END
 95
        4
302
GRIDFORMAT
  1
GRIDFORMAT_BEGIN
 90
        0
 91
        1
 62
     0
 92
       -2
340
0
 93
        0
 40
0.045
309
GRIDFORMAT_END
 95
        8
302
GRIDFORMAT
  1
GRIDFORMAT_BEGIN
 90
        0
 91
        1
 62
     0
 92
       -2
340
0
 93
        0
 40
0.045
309
GRIDFORMAT_END
 95
       16
302
GRIDFORMAT
  1
GRIDFORMAT_BEGIN
 90
        0
 91
        1
 62
     0
 92
       -2
340
0
 93
        0
 40
0.045
309
GRIDFORMAT_END
 95
       32
302
GRIDFORMAT
  1
GRIDFORMAT_BEGIN
 90
        0
 91
        1
 62
     0
 92
       -2
340
0
 93
        0
 40
0.045
309
GRIDFORMAT_END
309
TABLEFORMAT_END
  1
CELLSTYLE_BEGIN
 90
        1
 91
        1
300
_TITLE
309
CELLSTYLE_END
300
CELLSTYLE
  1
TABLEFORMAT_BEGIN
 90
        5
170
     1
 91
        0
 92
        0
 62
   257
 93
        1
300
CONTENTFORMAT
  1
CONTENTFORMAT_BEGIN
 90
        0
 91
        0
 92
      512
 93
        0
300

 40
0.0
140
1.0
 94
        5
 62
     0
340
11
144
4.5
309
CONTENTFORMAT_END
171
     1
301
MARGIN
  1
CELLMARGIN_BEGIN
 40
1.5
 40
1.5
 40
1.5
 40
1.5
 40
0.18
 40
0.18
309
CELLMARGIN_END
 94
        6
 95
        1
302
GRIDFORMAT
  1
GRIDFORMAT_BEGIN
 90
        0
 91
        1
 62
     0
 92
       -2
340
0
 93
        0
 40
0.045
309
GRIDFORMAT_END
 95
        2
302
GRIDFORMAT
  1
GRIDFORMAT_BEGIN
 90
        0
 91
        1
 62
     0
 92
       -2
340
0
 93
        0
 40
0.045
309
GRIDFORMAT_END
 95
        4
302
GRIDFORMAT
  1
GRIDFORMAT_BEGIN
 90
        0
 91
        1
 62
     0
 92
       -2
340
0
 93
        0
 40
0.045
309
GRIDFORMAT_END
 95
        8
302
GRIDFORMAT
  1
GRIDFORMAT_BEGIN
 90
        0
 91
        1
 62
     0
 92
       -2
340
0
 93
        0
 40
0.045
309
GRIDFORMAT_END
 95
       16
302
GRIDFORMAT
  1
GRIDFORMAT_BEGIN
 90
        0
 91
        1
 62
     0
 92
       -2
340
0
 93
        0
 40
0.045
309
GRIDFORMAT_END
 95
       32
302
GRIDFORMAT
  1
GRIDFORMAT_BEGIN
 90
        0
 91
        1
 62
     0
 92
       -2
340
0
 93
        0
 40
0.045
309
GRIDFORMAT_END
309
TABLEFORMAT_END
  1
CELLSTYLE_BEGIN
 90
        2
 91
        1
300
_HEADER
309
CELLSTYLE_END
300
CELLSTYLE
  1
TABLEFORMAT_BEGIN
 90
        5
170
     1
 91
        0
 92
        0
 62
   257
 93
        1
300
CONTENTFORMAT
  1
CONTENTFORMAT_BEGIN
 90
        0
 91
        0
 92
      512
 93
        0
300

 40
0.0
140
1.0
 94
        2
 62
     0
340
11
144
4.5
309
CONTENTFORMAT_END
171
     1
301
MARGIN
  1
CELLMARGIN_BEGIN
 40
1.5
 40
1.5
 40
1.5
 40
1.5
 40
0.18
 40
0.18
309
CELLMARGIN_END
 94
        6
 95
        1
302
GRIDFORMAT
  1
GRIDFORMAT_BEGIN
 90
        0
 91
        1
 62
     0
 92
       -2
340
0
 93
        0
 40
0.045
309
GRIDFORMAT_END
 95
        2
302
GRIDFORMAT
  1
GRIDFORMAT_BEGIN
 90
        0
 91
        1
 62
     0
 92
       -2
340
0
 93
        0
 40
0.045
309
GRIDFORMAT_END
 95
        4
302
GRIDFORMAT
  1
GRIDFORMAT_BEGIN
 90
        0
 91
        1
 62
     0
 92
       -2
340
0
 93
        0
 40
0.045
309
GRIDFORMAT_END
 95
        8
302
GRIDFORMAT
  1
GRIDFORMAT_BEGIN
 90
        0
 91
        1
 62
     0
 92
       -2
340
0
 93
        0
 40
0.045
309
GRIDFORMAT_END
 95
       16
302
GRIDFORMAT
  1
GRIDFORMAT_BEGIN
 90
        0
 91
        1
 62
     0
 92
       -2
340
0
 93
        0
 40
0.045
309
GRIDFORMAT_END
 95
       32
302
GRIDFORMAT
  1
GRIDFORMAT_BEGIN
 90
        0
 91
        1
 62
     0
 92
       -2
340
0
 93
        0
 40
0.045
309
GRIDFORMAT_END
309
TABLEFORMAT_END
  1
CELLSTYLE_BEGIN
 90
        3
 91
        2
300
_DATA
309
CELLSTYLE_END
  0
CELLSTYLEMAP
  5
2CDD1
102
{ACAD_REACTORS
330
2CDD0
102
}
330
2CDD0
100
AcDbCellStyleMap
 90
        3
300
CELLSTYLE
  1
TABLEFORMAT_BEGIN
 90
        5
170
     1
 91
        0
 92
    32768
 62
   257
 93
        1
300
CONTENTFORMAT
  1
CONTENTFORMAT_BEGIN
 90
        0
 91
        0
 92
      512
 93
        0
300

 40
0.0
140
1.0
 94
        5
 62
     0
340
11
144
6.0
309
CONTENTFORMAT_END
171
     1
301
MARGIN
  1
CELLMARGIN_BEGIN
 40
1.5
 40
1.5
 40
1.5
 40
1.5
 40
0.18
 40
0.18
309
CELLMARGIN_END
 94
        6
 95
        1
302
GRIDFORMAT
  1
GRIDFORMAT_BEGIN
 90
        0
 91
        1
 62
     0
 92
       -2
340
0
 93
        0
 40
0.045
309
GRIDFORMAT_END
 95
        2
302
GRIDFORMAT
  1
GRIDFORMAT_BEGIN
 90
        0
 91
        1
 62
     0
 92
       -2
340
0
 93
        0
 40
0.045
309
GRIDFORMAT_END
 95
        4
302
GRIDFORMAT
  1
GRIDFORMAT_BEGIN
 90
        0
 91
        1
 62
     0
 92
       -2
340
0
 93
        0
 40
0.045
309
GRIDFORMAT_END
 95
        8
302
GRIDFORMAT
  1
GRIDFORMAT_BEGIN
 90
        0
 91
        1
 62
     0
 92
       -2
340
0
 93
        0
 40
0.045
309
GRIDFORMAT_END
 95
       16
302
GRIDFORMAT
  1
GRIDFORMAT_BEGIN
 90
        0
 91
        1
 62
     0
 92
       -2
340
0
 93
        0
 40
0.045
309
GRIDFORMAT_END
 95
       32
302
GRIDFORMAT
  1
GRIDFORMAT_BEGIN
 90
        0
 91
        1
 62
     0
 92
       -2
340
0
 93
        0
 40
0.045
309
GRIDFORMAT_END
309
TABLEFORMAT_END
  1
CELLSTYLE_BEGIN
 90
        1
 91
        1
300
_TITLE
309
CELLSTYLE_END
300
CELLSTYLE
  1
TABLEFORMAT_BEGIN
 90
        5
170
     1
 91
        0
 92
        0
 62
   257
 93
        1
300
CONTENTFORMAT
  1
CONTENTFORMAT_BEGIN
 90
        0
 91
        0
 92
      512
 93
        0
300

 40
0.0
140
1.0
 94
        5
 62
     2
340
10EC
144
4.5
309
CONTENTFORMAT_END
171
     1
301
MARGIN
  1
CELLMARGIN_BEGIN
 40
1.5
 40
1.5
 40
1.5
 40
1.5
 40
0.18
 40
0.18
309
CELLMARGIN_END
 94
        6
 95
        1
302
GRIDFORMAT
  1
GRIDFORMAT_BEGIN
 90
        0
 91
        1
 62
     0
 92
       -2
340
0
 93
        0
 40
0.045
309
GRIDFORMAT_END
 95
        2
302
GRIDFORMAT
  1
GRIDFORMAT_BEGIN
 90
        0
 91
        1
 62
     0
 92
       -2
340
0
 93
        0
 40
0.045
309
GRIDFORMAT_END
 95
        4
302
GRIDFORMAT
  1
GRIDFORMAT_BEGIN
 90
        0
 91
        1
 62
     0
 92
       -2
340
0
 93
        0
 40
0.045
309
GRIDFORMAT_END
 95
        8
302
GRIDFORMAT
  1
GRIDFORMAT_BEGIN
 90
        0
 91
        1
 62
     0
 92
       -2
340
0
 93
        0
 40
0.045
309
GRIDFORMAT_END
 95
       16
302
GRIDFORMAT
  1
GRIDFORMAT_BEGIN
 90
        0
 91
        1
 62
     0
 92
       -2
340
0
 93
        0
 40
0.045
309
GRIDFORMAT_END
 95
       32
302
GRIDFORMAT
  1
GRIDFORMAT_BEGIN
 90
        0
 91
        1
 62
     0
 92
       -2
340
0
 93
        0
 40
0.045
309
GRIDFORMAT_END
309
TABLEFORMAT_END
  1
CELLSTYLE_BEGIN
 90
        2
 91
        1
300
_HEADER
309
CELLSTYLE_END
300
CELLSTYLE
  1
TABLEFORMAT_BEGIN
 90
        5
170
     1
 91
        0
 92
        0
 62
   257
 93
        1
300
CONTENTFORMAT
  1
CONTENTFORMAT_BEGIN
 90
        0
 91
        0
 92
      512
 93
        0
300

 40
0.0
140
1.0
 94
        2
 62
     2
340
10EC
144
4.5
309
CONTENTFORMAT_END
171
     1
301
MARGIN
  1
CELLMARGIN_BEGIN
 40
1.5
 40
1.5
 40
1.5
 40
1.5
 40
0.18
 40
0.18
309
CELLMARGIN_END
 94
        6
 95
        1
302
GRIDFORMAT
  1
GRIDFORMAT_BEGIN
 90
        0
 91
        1
 62
     0
 92
       -2
340
0
 93
        0
 40
0.045
309
GRIDFORMAT_END
 95
        2
302
GRIDFORMAT
  1
GRIDFORMAT_BEGIN
 90
        0
 91
        1
 62
     0
 92
       -2
340
0
 93
        0
 40
0.045
309
GRIDFORMAT_END
 95
        4
302
GRIDFORMAT
  1
GRIDFORMAT_BEGIN
 90
        0
 91
        1
 62
     0
 92
       -2
340
0
 93
        0
 40
0.045
309
GRIDFORMAT_END
 95
        8
302
GRIDFORMAT
  1
GRIDFORMAT_BEGIN
 90
        0
 91
        1
 62
     0
 92
       -2
340
0
 93
        0
 40
0.045
309
GRIDFORMAT_END
 95
       16
302
GRIDFORMAT
  1
GRIDFORMAT_BEGIN
 90
        0
 91
        1
 62
     0
 92
       -2
340
0
 93
        0
 40
0.045
309
GRIDFORMAT_END
 95
       32
302
GRIDFORMAT
  1
GRIDFORMAT_BEGIN
 90
        0
 91
        1
 62
     0
 92
       -2
340
0
 93
        0
 40
0.045
309
GRIDFORMAT_END
309
TABLEFORMAT_END
  1
CELLSTYLE_BEGIN
 90
        3
 91
        2
300
_DATA
309
CELLSTYLE_END
  0
ENDSEC
  0
SECTION
  2
ACDSDATA
 70
     2
 71
     6
  0
ACDSSCHEMA
 90
        0
  1
AcDb_Thumbnail_Schema
  2
AcDbDs::ID
280
    10
 91
        8
  2
Thumbnail_Data
280
    15
 91
        0
101
ACDSRECORD
 95
        0
 90
        1
  2
AcDbDs::TreatedAsObjectData
280
     1
291
     1
101
ACDSRECORD
 95
        0
 90
        2
  2
AcDbDs::Legacy
280
     1
291
     1
101
ACDSRECORD
  1
AcDbDs::ID
 90
        3
  2
AcDs:Indexable
280
     1
291
     1
101
ACDSRECORD
  1
AcDbDs::ID
 90
        4
  2
AcDbDs::HandleAttribute
280
     7
282
     1
  0
ACDSSCHEMA
 90
        1
  1
AcDbDs::TreatedAsObjectDataSchema
  2
AcDbDs::TreatedAsObjectData
280
     1
 91
        0
  0
ACDSSCHEMA
 90
        2
  1
AcDbDs::LegacySchema
  2
AcDbDs::Legacy
280
     1
 91
        0
  0
ACDSSCHEMA
 90
        3
  1
AcDbDs::IndexedPropertySchema
  2
AcDs:Indexable
280
     1
 91
        0
  0
ACDSSCHEMA
 90
        4
  1
AcDbDs::HandleAttributeSchema
  2
AcDbDs::HandleAttribute
280
     7
 91
        1
284
     1
  0
ACDSRECORD
 90
        0
  2
AcDbDs::ID
280
    10
320
22
  2
Thumbnail_Data
280
    15
 94
     2302
310
89504E470D0A1A0A0000000D49484452000001000000007F080300000037AFECF400000300504C5445000000000000FFFFFF0000000000000000000000000000000000000000000000000000330000660000990000CC0000FF0033000033330033660033990033CC0033FF0066000066330066660066990066CC0066FF0099
310
000099330099660099990099CC0099FF00CC0000CC3300CC6600CC9900CCCC00CCFF00FF0000FF3300FF6600FF9900FFCC00FFFF3300003300333300663300993300CC3300FF3333003333333333663333993333CC3333FF3366003366333366663366993366CC3366FF3399003399333399663399993399CC3399FF33CC00
310
33CC3333CC6633CC9933CCCC33CCFF33FF0033FF3333FF6633FF9933FFCC33FFFF6600006600336600666600996600CC6600FF6633006633336633666633996633CC6633FF6666006666336666666666996666CC6666FF6699006699336699666699996699CC6699FF66CC0066CC3366CC6666CC9966CCCC66CCFF66FF0066
310
FF3366FF6666FF9966FFCC66FFFF9900009900339900669900999900CC9900FF9933009933339933669933999933CC9933FF9966009966339966669966999966CC9966FF9999009999339999669999999999CC9999FF99CC0099CC3399CC6699CC9999CCCC99CCFF99FF0099FF3399FF6699FF9999FFCC99FFFFCC0000CC00
310
33CC0066CC0099CC00CCCC00FFCC3300CC3333CC3366CC3399CC33CCCC33FFCC6600CC6633CC6666CC6699CC66CCCC66FFCC9900CC9933CC9966CC9999CC99CCCC99FFCCCC00CCCC33CCCC66CCCC99CCCCCCCCCCFFCCFF00CCFF33CCFF66CCFF99CCFFCCCCFFFFFF0000FF0033FF0066FF0099FF00CCFF00FFFF3300FF3333
310
FF3366FF3399FF33CCFF33FFFF6600FF6633FF6666FF6699FF66CCFF66FFFF9900FF9933FF9966FF9999FF99CCFF99FFFFCC00FFCC33FFCC66FFCC99FFCCCCFFCCFFFFFF00FFFF33FFFF66FFFF99FFFFCCFFFFFF0000000D0D0D1A1A1A2828283535354343435050505D5D5D6B6B6B787878868686939393A1A1A1AEAEAEBB
310
BBBBC9C9C9D6D6D6E4E4E4F1F1F1FFFFFF000000000000000000000000000000000000000000000000000000000000C11FEF66000005B94944415478DAED9D4D9AA52A0C867B076CC349EF7F01771B8C32EEE937BF4744F9977854241CA97EEAA93AA5B67949421240FFD08FB73FDC03FF896B570390D6B52F8017C0930070
310
C7A1E81000C0BDD7D291B9434F1FD95003D800E81600900380AF01E85B03D07DBB1BC0D51EEB986BE35FEF7100F86D00B85E3251007047DF0A02808366301200151C831FD400A570A38B130000505F8D063200A00A00B30E04F2A33500DC09A0D6A158FDC063A321ACD23D0300CE13A6F2AB36007027804A87229435907FBE
310
B1E95093E704FDDE5671FFE343E59039C806B08C86A03887FC1D00F4190D5781E7A120CD570704106ABCF1C7B0BDBF1120360289003C9D37461F75BD83302C802D0D5A2222D8911356159C371816C09608CFDD6C83E2D50E14D6408545402800DBF9584252B5BA403330E0D080201500AD466E855EC4D77A03B02941655C10
310
0CC0DA81A160E201AD03003C026201ACF2D9C40CB3F8347FF900A2EB6028005BFCB32883B6CD03B0A56C7B55830E01307C977FC4EA0C1603F04D20292CE4AEFB2D007B0BED346033E3088FE9E559F549DBF4200480C86FCC57F8EFD320CD04807C1F1AA1F4DAFD1E00F351A802FE25A402C85666A0C911880100F14D8F0500
310
7F675969117F9636004070AE0F342080CFEF7F69B300630E0980CD1F0C076071871600ED03002807406BD1000C8319C03204F8015F0400B94C4A14804FB4AF3ECD7C5B1BCCBFBFCA68C0FCBB6DCBDF960F617E467CDEFC6D040DC0A201E47CE06A02362C5CD55FBE06E47D00157D4008002500F24781B9E92D0C74C360A401
310
342A009B08918EE3000B205B18EA1F402E6939180A7B00E29CF89A5018680EC0A63071323447C2C8E4022E504614395C920C3507407E51274987B5D3812280E06C740DA05E1607BC09219B0F6B8AEB019EFCC51283ECA2A82B10686BF61495C450AB8F0BAE097ABA88B5241C1745A9BA7A463E800DC352150DCAE28C6B4907
310
0047008B1BF4264668D7FA870080808011D5017029E3E01AE075F94AC153001A5A033601919B2367C83F04003B37948A8FBAFCF201246EC09F07447DCDA57C00818CF12C687D99C80000C2B98FCF58786819F508006807000904707CAD5F04E0FE95A2EE16BBD380666B851B9940BD030FECF1130980731FA1982AD052D0E0
310
009EE9FF6E007CBBE1753000E1292ABCC4B15583E20010130001D7EEAC9268020302C8AE0857B99BBDDC1F7601008575F2D9CE1F1240C6ACB3721EDA41211D406ED3D40DDB2A5BED1C9D78A5902700B4991BEC17007A00001A1400DF07D0983E803F0CF2478141B3416A9C03F507804E89BFD4C43E5FD3FC5F4D220124E6AD
310
2A7F8FC4DF2A83C7CA832300385522EDC9046AC95079BB9827F724550358D920F2DBC5C2AEEF11006325EFD700BE9C10690D405F0120672827E5EF1240B05DA0160C0D01201AE4AB0F0FF08E3E2BFF034E30E8DE7C80B37CA0F6D6C6B9874DA05F00F985AC4031D4CF9940358F3B0BA0D1E46802A07E09C5EB3DC8338117C0
310
0BE005406E37483A469A0FB4567A7B94000F40D7CF15DE32167FDFA0914E2D7B055DD3495385E6ED40DC2A6B7E7DD15F870FF84B319FD18089A7012900AE066C5B69F634220A1F3A049022E00328E41588B6E6F402A0D06A724BF5015C00FA048042C614AEB9EF5D031800F2C172A2E6190049CFB703B01645A66A2E508E03
310
9225D4719A5507D056039005B093EC572A425151C45C68AAD50C89683FF3BA130032001875CE3D00F119D34927D8707274CA96308A0C5446FECCC1390D88175626059774F9658BF50153A9869347A0787A5C02803D00AD34807800F26AA0789A724603BC1E7A180065EA5B8AA125A5516057795CB88C9E00B8EC65DD3718A8
310
6BF19CB34EB015005EFB62669805C03DA9D4CB9882CCB1DD860976219BB96162CA45C6088D0A453AFD026025031C00410E8CE4A9D50F00E035CDDE337410801D1F1ED480739339285F6ED7041EAB09FEFABBC63821DFFBBEC153EF1BC4FBBE41491A4087B89C3BB4C7778E76DC5E002F808B01FCFABBC7476DFF032C62151C
310
CA3041020000000049454E44AE426082
  0
ACDSRECORD
 90
        0
  2
AcDbDs::ID
280
    10
320
51
  2
Thumbnail_Data
280
    15
 94
     4181
310
89504E470D0A1A0A0000000D4948445200000100000000B5080300000087DCD12600000300504C5445000000000000FFFFFF0000000000000000000000000000000000000000000000000000330000660000990000CC0000FF0033000033330033660033990033CC0033FF0066000066330066660066990066CC0066FF0099
310
000099330099660099990099CC0099FF00CC0000CC3300CC6600CC9900CCCC00CCFF00FF0000FF3300FF6600FF9900FFCC00FFFF3300003300333300663300993300CC3300FF3333003333333333663333993333CC3333FF3366003366333366663366993366CC3366FF3399003399333399663399993399CC3399FF33CC00
310
33CC3333CC6633CC9933CCCC33CCFF33FF0033FF3333FF6633FF9933FFCC33FFFF6600006600336600666600996600CC6600FF6633006633336633666633996633CC6633FF6666006666336666666666996666CC6666FF6699006699336699666699996699CC6699FF66CC0066CC3366CC6666CC9966CCCC66CCFF66FF0066
310
FF3366FF6666FF9966FFCC66FFFF9900009900339900669900999900CC9900FF9933009933339933669933999933CC9933FF9966009966339966669966999966CC9966FF9999009999339999669999999999CC9999FF99CC0099CC3399CC6699CC9999CCCC99CCFF99FF0099FF3399FF6699FF9999FFCC99FFFFCC0000CC00
310
33CC0066CC0099CC00CCCC00FFCC3300CC3333CC3366CC3399CC33CCCC33FFCC6600CC6633CC6666CC6699CC66CCCC66FFCC9900CC9933CC9966CC9999CC99CCCC99FFCCCC00CCCC33CCCC66CCCC99CCCCCCCCCCFFCCFF00CCFF33CCFF66CCFF99CCFFCCCCFFFFFF0000FF0033FF0066FF0099FF00CCFF00FFFF3300FF3333
310
FF3366FF3399FF33CCFF33FFFF6600FF6633FF6666FF6699FF66CCFF66FFFF9900FF9933FF9966FF9999FF99CCFF99FFFFCC00FFCC33FFCC66FFCC99FFCCCCFFCCFFFFFF00FFFF33FFFF66FFFF99FFFFCCFFFFFF0000000D0D0D1A1A1A2828283535354343435050505D5D5D6B6B6B787878868686939393A1A1A1AEAEAEBB
310
BBBBC9C9C9D6D6D6E4E4E4F1F1F1FFFFFF000000000000000000000000000000000000000000000000000000000000C11FEF6600000D104944415478DAED9D4992B33A0C80FF1B700D367DFF03F81A5E694DD55B69FFF02CD93218830319A8EAA44348823E24599207FEE1776FFFFD43F8E6ED07C00088EA907667DBC7BEE1
310
017CEFF5FF01E000BEC9FBCB00BEE9DAFF007C10800E03F830004085B2FFD85D51A6D80026DBA700E0E300F8D86617007C0C80FAE957767E18805E1FF0411A80083C9EC9B58305C39F680214007C23809F0FF8F900F78448F27B62172C1FFE70007814007EAD0FF8E5029FA3014CDB6D6C4C6512EA00D70228F0324FFB7200
310
DCDCF9090E01B05F7A7935004103BC8F7C8106D02AF34BE4BFDB0734D6DF5E170AB35FA4F131AD048D7082ECCA23DEE7040B1F30DC09CABEF0AE64E88656809177AAF66A00F7074237B500439DE04B2FE3653E204FFD37728106006F81400000570040CC3E77E3A6A56DB40F2061CDC3018C0B845E1AD06D6CB3BC6D1445B1
310
AC09D2CE82F68E11DECD701B802381106C2543D8531112110C8562F57BFDD32201A6FF4D3EA01208ED00C83F55D4DB8655104A3BBF054030808A93516E1B6EF10580D90298EFD1003ECEC8887F3182D2CD1704E65C0FC695C5F31C5F3EE72B09CC0CC02C019819A9866CB08CCF8F39C1FDC05E8DF5FEB308809B00C21800C8
310
E3CA0701980F67835846827B009CF8F37E73F74A02A5029CF6017BB9C03CC3E300CCD540C87BAC54FD1253C4C650387C669EF3F0FB050092FED98719C90EFF5801C05BBC130088EAE7E177F2C2E64F85E88DFC69FABA3BC94D00564564F253AF9785C252B5A8AB1ED01CADA9D82CB356BCCCDB8E030804C002002B7A01E096
310
B23891522974AFA5AC15FAE5AF86A180750DF0DDC4909B00F4F8801D02609315BD4684F6939AFD4DEC752F00AAB748DBE51A80B2C93FE304F71038D9561340FFFA6A001BEEB1AA0162BAE635E0800F98F7375CAFBD1550270009C2445F9E28F68BF31DB2D06F48496CDE3FC3695501732E5A231015180F00A4D8F76A27D806
310
C010C060025EDE6B008034E82539335601F2E14F2517E8F401FB00D64D1B33209BF6BB747C81D9117816401AFB8395925866EEE300C0DAFC192330AD00251001D81642739F3408C0581FA02B1AA050398557AC65D0D63626E21184D0B289C0769FFB89A93EC700F048860639A211440D20D690E5609700C09DAE31E432F101
310
C4470108BD114E038CC6E7C10168A701CE1F6A210B3FD010D4CA65F05A00D2E9FDFDA9BF3F63E905010AA06A010D1132B3ED3CD1C0A30591BA0F804E27A82665BC9F330562045A1313D05213E072046822103E5828E07505913E00F1BBB4FD42A5D646415500D8FAB976EF05299A7224AC02C07ACF507B1C701280EB165825
310
53A997C0FE443401E70202804C647DC411E600B0C4340E807CAD56B140F98BAE54DE1278632016E08FE9890793E5FFFDFD09963D66BEC02CFB5ED661B87A016E8053103CDA822600265431686E2E131823CB0060B507678C0F20A7CA5BC42070BE1100C4336E74F0EF22A0A7556A515E0FA01591FEF9020D9160E040D2A304
310
805F196D32A689DAC0914211E99E9BB1E62ACB82C86500EA6735A16C025AD40C06E06896182BD415004103E07A0DA85C2B0A20B345AB15DCD65697B9360C570C2998E1B23142D01409D64CD688376539EE943FF10BA0A8027456CB2500AF4A863217E84514184F85FF3AE3040B02C218A157A7C3986442DCB90AB1841C4B47
310
18C3E18BFA905E5F130C15390C00B0A20140E76FAF7E8001803701209C2AE669A70C005B0EBEAA1771980FD0DB1B0A05FC893980543DA100DE4903A0A601C6A6950880951F6CB3ACB8FB7C271F209B80114405B346316EA300DCA1884CA7DED409C64E4F8C8E3D2B3C4DF9D11ED42813785DC748B86EC9049206908868AAE4
310
732145E8098577CB26BB6385BBFB05FCB85521F6B2971F4BAD2F007813D0472B428F00A02BFECAE5F8152728F5F2814A61D15BF980DA996626B003201C7A3A17B8C107E88D8A1D3402880D466F3ABC67026C9418101985E97CD7F40D5AB17C91ABD5040669C0CE28B1A10000B67201A20199095CEC031A4789C900A017801D
310
1CA4845EDFA9A8E8211FA774A90FBCA963C4EA3431ECED99D3B609304A902EFDB6FC470835CC193A5E16D7FBE363516145F3A6323132AC42F2D4920DA2AE5516A5C1DFBB71C061005A370C904067DB9B0068CB6FEDA515C05E5B9E79D83B00142B58C996E064B7A0FC5962BB5A036065D1D3BCE47271CF503B80BCC7CB7806
310
D3610418AF3B19D07144033600F0E9F13739C150E5320364E897D8FAB7423F8AC1FD9A390AB9605779766E029571343D93A6CAA939420C60474A190474B886520680F3F20E003DC406D0D8A6016C4D1A69BC30E63E80CDEB236B66F402881305E68A1D19D956E18827B41A106B1FAE3B806B49130284431A30AC6364DED07F
310
FFDB668C0091C8751728121D38F9156669149E0700451FE4E5C9D05CCD03431E6CC5B302C64BC27ACD272F7F3EA6416D23909B4171D870EBE4E9BE7AC02C5F7DE525C2287F7C5E3562726A61F778FD2FA71E9B6FC0EB003415448ED7038A09534EA54335C8696A90DB3F00DBE3FE13A6DEA13BF49A56604C41249F34E70C5A
310
01C9A842690CA8260415890FC612FEA4710DC179940389E900313E4E1ACB4911837C006F4F9DF02AADC7A5BC09A8861358ADE20F6BB6549B12C001486B75D138A0AAEDFD3E009365FB8B5C8EB6C4DCBD21B045ABA2B64B00BC41117BA90090E383F833DC0788ABC87402609EAD98B1105A01D5A0721500BEF148C6F3281FB0
310
A7D658E85B1973C57D35001142610245E05E29340CF401324429D22C5434DF075B0040F8298452D62A00960B40889EF1021FC0CF0E451FC0BF5E74CF5D00BAEA01B549052300280A800E8570A3E5D2D9F501389A0DB21972500E97A7C1D8000D60F861E215D8F5E9AF430342DBBF1F098EF001D33C85CD8E475A9F7D6CEF37
310
9C26360430EEC7F4384D2B0B7B9801403E9C6FF48D0E00B419F43E80BB273C6D0273A901180303B5A701CA6A40DE3574A90F48424933464E039825002E08F249CDB609A8BF09F39C78900FC8D6F46C01007D1A90BE366980D789C945374C03FCAED65AB010096E3583971745250020B528BC0D021980F501E03A8837579E6C
310
0500D704427B00C83697D56E1EFC9B5120E86BC4AE4723247ABE1924E5131A6267E9D0D9A22854678D756980CFF1FD9A15BC842302705758E71A403AC9E5CC215695C4A48A4C0440CC123E09005C0540A5CACF9CAD589D08F061902A4FA1D999AAAC8B3C2D7CA9A0282EF3981B2A9633D207CCE487E604B7001007BE00B3F1
310
242BE91751955BA1044B1300C03E80413E608ED58C541667B3FF421F7918F8C6D6EF20B2B2017258484FC49B1FE50366B1A34CA511E0B11F40816402B44E9C7AC6A01C4E207547895D634D45517959DDEB00A4C290F640BC2BD7DE65BA0268A871D845765C59340DABAC4603DD0086748CCCF59E423F679455C9759C160271
310
4581150B907E136B165BDD012D00E035C9D0360023914EA140DB0AFB886A6FD2D0153EE0C0F880130056041A9566F3E0CABC9BEF4D03259B34405C298094C92F1820710A0068656703C69F4BB32B5398E8E70E87B868B753781B00D60748ECDD6C6D08000866EF82591DDA4C304B6878303A268D4DA302E6BE74F8061F1009
310
C431224E1D20AD1C6383488D52717F840F60992F40B69658368BF13080790B407CE94128A3015EEF75D3656CF5012D2650594A0B3A3A471B340034144ED09A00163E10CE03C076008082065CBD965858522C2D21149F75BE138F033854121BD033B43F4C2A1BEFA9A5DD0787C376FA80410B2A1E0340FF992E0070AC244684
310
3A900C7D2C002856951D024056760D04C0D101E1DDCDE02D3E60288023DB5D3EC08BA7EF07D05B0F38EB03B48E8FFC698A6FE97700007D00FC625805004DDF7A15800145D1260D88730AD374481720BE16C0A01B2CF49B00BCD604FA95E61C8001DB0FC00FC02700383125F04334E06300F46E668649E7760B00FC5A1FF029
310
F71EFF01F801F801F801787300CB82576E4BDA369735780E005C119C3C0B22F442BE28EC126F52F92400EBA9A6BB07D6026C722F232FF4FA1F13BA5A0BD1FCC82702D09B00A495FC96EDC5488A550CA8813C1480393114D5BB5C8E54132ED05C0D73DFF6480D88EEB066D31D5F4A0A7681D2434DA074E1A257AF797C797F09
310
803BC8476A40E9B3E8492FD451109B61FB21ED8F355AFF7D8F6E0598DAEBCA4AAE4110844510DAED5FC8A287CCF01F1D08659A5C5B45C8EF77C79263E8FEB8846B4DFA1C003C440388C68BBE1D9917378FBAB23F3FBEB322749B0F088D5E76E6482EA6FB5F2FF2FEF2FFF702903480B9C1F2EAEA8DABCEF73F1D8033DD30DD
310
C6FA31DA9EAD0FBA9ADA48BBED473633ACC76940B87B94BF89127F5AC2AD959AA22273DCDE91CF04A06B00D8BDA57663C31518C623DFC504B8362FC22BF4C2847C7009B921A40E79DF2A90DB9EBC8D136411EA820B7F455FB27430BFC9710900E8714F368125F800084A1FDA311BD2423481CAAD9DF51600BD0DE019A1B068
310
FCE0627A7B0D330050BD674709005201E1B1B980DC0A2C91CEA2B74F8F264D0C4071D48393A1A530FE94044170ED7B148CD16C4AB26C14446EDF968D57B8B456845B0E12017CDDF603F003E000EC4EDEFFD837B240E81B75E007E01F7EF7F6DFFFC74965CB58BC5AB50000000049454E44AE426082
  0
ENDSEC
  0
EOF
