  0
SECTION
  2
HEADER
  9
$ACADVER
  1
AC1027
  9
$ACADMAINTVER
 70
    57
  9
$DWGCODEPAGE
  3
ANSI_932
  9
$LASTSAVEDBY
  1
kashikeiQC
  9
$REQUIREDVERSIONS
160
                 0
  9
$INSBASE
 10
0.0
 20
0.0
 30
0.0
  9
$EXTMIN
 10
5.0
 20
0.0
 30
-0.0000000000000016
  9
$EXTMAX
 10
425.0
 20
297.0
 30
0.0000000000000249
  9
$LIMMIN
 10
0.0
 20
0.0
  9
$LIMMAX
 10
420.0
 20
297.0
  9
$ORTHOMODE
 70
     0
  9
$REGENMODE
 70
     1
  9
$FILLMODE
 70
     1
  9
$QTEXTMODE
 70
     0
  9
$MIRRTEXT
 70
     1
  9
$LTSCALE
 40
0.3
  9
$ATTMODE
 70
     1
  9
$TEXTSIZE
 40
2.5
  9
$TRACEWID
 40
1.0
  9
$TEXTSTYLE
  7
Standard
  9
$CLAYER
  8
寸法
  9
$CELTYPE
  6
ByLayer
  9
$CECOLOR
 62
   256
  9
$CELTSCALE
 40
1.0
  9
$DISPSILH
 70
     0
  9
$DIMSCALE
 40
1.0
  9
$DIMASZ
 40
2.5
  9
$DIMEXO
 40
0.625
  9
$DIMDLI
 40
3.75
  9
$DIMRND
 40
0.0
  9
$DIMDLE
 40
0.0
  9
$DIMEXE
 40
1.25
  9
$DIMTP
 40
0.0
  9
$DIMTM
 40
0.0
  9
$DIMTXT
 40
3.5
  9
$DIMCEN
 40
2.5
  9
$DIMTSZ
 40
0.0
  9
$DIMTOL
 70
     0
  9
$DIMLIM
 70
     0
  9
$DIMTIH
 70
     0
  9
$DIMTOH
 70
     0
  9
$DIMSE1
 70
     0
  9
$DIMSE2
 70
     0
  9
$DIMTAD
 70
     1
  9
$DIMZIN
 70
     8
  9
$DIMBLK
  1

  9
$DIMASO
 70
     1
  9
$DIMSHO
 70
     1
  9
$DIMPOST
  1

  9
$DIMAPOST
  1

  9
$DIMALT
 70
     0
  9
$DIMALTD
 70
     3
  9
$DIMALTF
 40
0.03937007874016
  9
$DIMLFAC
 40
1.0
  9
$DIMTOFL
 70
     1
  9
$DIMTVP
 40
0.0
  9
$DIMTIX
 70
     0
  9
$DIMSOXD
 70
     0
  9
$DIMSAH
 70
     0
  9
$DIMBLK1
  1

  9
$DIMBLK2
  1

  9
$DIMSTYLE
  2
ｺﾋﾟｰ - ISO-25
  9
$DIMCLRD
 70
     0
  9
$DIMCLRE
 70
     0
  9
$DIMCLRT
 70
     2
  9
$DIMTFAC
 40
1.0
  9
$DIMGAP
 40
1.0
  9
$DIMJUST
 70
     0
  9
$DIMSD1
 70
     0
  9
$DIMSD2
 70
     0
  9
$DIMTOLJ
 70
     0
  9
$DIMTZIN
 70
     8
  9
$DIMALTZ
 70
     0
  9
$DIMALTTZ
 70
     0
  9
$DIMUPT
 70
     0
  9
$DIMDEC
 70
     1
  9
$DIMTDEC
 70
     1
  9
$DIMALTU
 70
     2
  9
$DIMALTTD
 70
     3
  9
$DIMTXSTY
  7
寸法
  9
$DIMAUNIT
 70
     0
  9
$DIMADEC
 70
     0
  9
$DIMALTRND
 40
0.0
  9
$DIMAZIN
 70
     0
  9
$DIMDSEP
 70
    46
  9
$DIMATFIT
 70
     3
  9
$DIMFRAC
 70
     0
  9
$DIMLDRBLK
  1

  9
$DIMLUNIT
 70
     2
  9
$DIMLWD
 70
    -2
  9
$DIMLWE
 70
    -2
  9
$DIMTMOVE
 70
     0
  9
$DIMFXL
 40
1.0
  9
$DIMFXLON
 70
     0
  9
$DIMJOGANG
 40
0.7853981633974483
  9
$DIMTFILL
 70
     0
  9
$DIMTFILLCLR
 70
     0
  9
$DIMARCSYM
 70
     0
  9
$DIMLTYPE
  6

  9
$DIMLTEX1
  6

  9
$DIMLTEX2
  6

  9
$DIMTXTDIRECTION
 70
     0
  9
$LUNITS
 70
     2
  9
$LUPREC
 70
     4
  9
$SKETCHINC
 40
1.0
  9
$FILLETRAD
 40
1.0
  9
$AUNITS
 70
     0
  9
$AUPREC
 70
     0
  9
$MENU
  1
.
  9
$ELEVATION
 40
0.0
  9
$PELEVATION
 40
0.0
  9
$THICKNESS
 40
0.0
  9
$LIMCHECK
 70
     0
  9
$CHAMFERA
 40
0.0
  9
$CHAMFERB
 40
0.0
  9
$CHAMFERC
 40
20.0
  9
$CHAMFERD
 40
0.0
  9
$SKPOLY
 70
     0
  9
$TDCREATE
 40
2452970.700528056
  9
$TDUCREATE
 40
2452970.325528056
  9
$TDUPDATE
 40
2458814.750182558
  9
$TDUUPDATE
 40
2458814.375182558
  9
$TDINDWG
 40
2.1188226505
  9
$TDUSRTIMER
 40
2.1188215394
  9
$USRTIMER
 70
     1
  9
$ANGBASE
 50
0.0
  9
$ANGDIR
 70
     0
  9
$PDMODE
 70
     3
  9
$PDSIZE
 40
-3.0
  9
$PLINEWID
 40
0.0
  9
$SPLFRAME
 70
     0
  9
$SPLINETYPE
 70
     6
  9
$SPLINESEGS
 70
     8
  9
$HANDSEED
  5
2DAFC
  9
$SURFTAB1
 70
     6
  9
$SURFTAB2
 70
     6
  9
$SURFTYPE
 70
     6
  9
$SURFU
 70
     6
  9
$SURFV
 70
     6
  9
$UCSBASE
  2

  9
$UCSNAME
  2

  9
$UCSORG
 10
0.0
 20
0.0
 30
0.0
  9
$UCSXDIR
 10
1.0
 20
0.0
 30
0.0
  9
$UCSYDIR
 10
0.0
 20
1.0
 30
0.0
  9
$UCSORTHOREF
  2

  9
$UCSORTHOVIEW
 70
     0
  9
$UCSORGTOP
 10
0.0
 20
0.0
 30
0.0
  9
$UCSORGBOTTOM
 10
0.0
 20
0.0
 30
0.0
  9
$UCSORGLEFT
 10
0.0
 20
0.0
 30
0.0
  9
$UCSORGRIGHT
 10
0.0
 20
0.0
 30
0.0
  9
$UCSORGFRONT
 10
0.0
 20
0.0
 30
0.0
  9
$UCSORGBACK
 10
0.0
 20
0.0
 30
0.0
  9
$PUCSBASE
  2

  9
$PUCSNAME
  2

  9
$PUCSORG
 10
0.0
 20
0.0
 30
0.0
  9
$PUCSXDIR
 10
1.0
 20
0.0
 30
0.0
  9
$PUCSYDIR
 10
0.0
 20
1.0
 30
0.0
  9
$PUCSORTHOREF
  2

  9
$PUCSORTHOVIEW
 70
     0
  9
$PUCSORGTOP
 10
0.0
 20
0.0
 30
0.0
  9
$PUCSORGBOTTOM
 10
0.0
 20
0.0
 30
0.0
  9
$PUCSORGLEFT
 10
0.0
 20
0.0
 30
0.0
  9
$PUCSORGRIGHT
 10
0.0
 20
0.0
 30
0.0
  9
$PUCSORGFRONT
 10
0.0
 20
0.0
 30
0.0
  9
$PUCSORGBACK
 10
0.0
 20
0.0
 30
0.0
  9
$USERI1
 70
     0
  9
$USERI2
 70
     0
  9
$USERI3
 70
     0
  9
$USERI4
 70
     0
  9
$USERI5
 70
     0
  9
$USERR1
 40
0.0
  9
$USERR2
 40
0.0
  9
$USERR3
 40
0.0
  9
$USERR4
 40
0.0
  9
$USERR5
 40
0.0
  9
$WORLDVIEW
 70
     1
  9
$SHADEDGE
 70
     3
  9
$SHADEDIF
 70
    70
  9
$TILEMODE
 70
     1
  9
$MAXACTVP
 70
    64
  9
$PINSBASE
 10
0.0
 20
0.0
 30
0.0
  9
$PLIMCHECK
 70
     0
  9
$PEXTMIN
 10
-58.82240024691737
 20
-86.72323328256494
 30
0.0
  9
$PEXTMAX
 10
448.1718497119468
 20
324.5569721112054
 30
0.0
  9
$PLIMMIN
 10
-3.757080078125
 20
-3.757083415985106
  9
$PLIMMAX
 10
416.2601318359373
 20
293.2112393379211
  9
$UNITMODE
 70
     0
  9
$VISRETAIN
 70
     1
  9
$PLINEGEN
 70
     0
  9
$PSLTSCALE
 70
     1
  9
$TREEDEPTH
 70
  3020
  9
$CMLSTYLE
  2
Standard
  9
$CMLJUST
 70
     0
  9
$CMLSCALE
 40
20.0
  9
$PROXYGRAPHICS
 70
     1
  9
$MEASUREMENT
 70
     1
  9
$CELWEIGHT
370
    -1
  9
$ENDCAPS
280
     0
  9
$JOINSTYLE
280
     0
  9
$LWDISPLAY
290
     0
  9
$INSUNITS
 70
     4
  9
$HYPERLINKBASE
  1

  9
$STYLESHEET
  1
MONOCHROME.CTB
  9
$XEDIT
290
     1
  9
$CEPSNTYPE
380
     0
  9
$PSTYLEMODE
290
     1
  9
$FINGERPRINTGUID
  2
{FDEAD578-A652-11D2-9A35-0060089B3A3F}
  9
$VERSIONGUID
  2
{2D17D98E-48EB-4E2E-BE28-BF2A98B405CF}
  9
$EXTNAMES
290
     1
  9
$PSVPSCALE
 40
0.0
  9
$OLESTARTUP
290
     0
  9
$SORTENTS
280
   127
  9
$INDEXCTL
280
     0
  9
$HIDETEXT
280
     1
  9
$XCLIPFRAME
280
     0
  9
$HALOGAP
280
     0
  9
$OBSCOLOR
 70
   257
  9
$OBSLTYPE
280
     0
  9
$INTERSECTIONDISPLAY
280
     0
  9
$INTERSECTIONCOLOR
 70
   257
  9
$DIMASSOC
280
     2
  9
$PROJECTNAME
  1

  9
$CAMERADISPLAY
290
     0
  9
$LENSLENGTH
 40
50.0
  9
$CAMERAHEIGHT
 40
0.0
  9
$STEPSPERSEC
 40
2.0
  9
$STEPSIZE
 40
6.0
  9
$3DDWFPREC
 40
2.0
  9
$PSOLWIDTH
 40
0.25
  9
$PSOLHEIGHT
 40
4.0
  9
$LOFTANG1
 40
1.570796326794896
  9
$LOFTANG2
 40
1.570796326794896
  9
$LOFTMAG1
 40
0.0
  9
$LOFTMAG2
 40
0.0
  9
$LOFTPARAM
 70
     7
  9
$LOFTNORMALS
280
     1
  9
$LATITUDE
 40
37.795
  9
$LONGITUDE
 40
-122.394
  9
$NORTHDIRECTION
 40
0.0
  9
$TIMEZONE
 70
 -8000
  9
$LIGHTGLYPHDISPLAY
280
     1
  9
$TILEMODELIGHTSYNCH
280
     1
  9
$CMATERIAL
347
2762
  9
$SOLIDHIST
280
     1
  9
$SHOWHIST
280
     1
  9
$DWFFRAME
280
     2
  9
$DGNFRAME
280
     0
  9
$REALWORLDSCALE
290
     1
  9
$INTERFERECOLOR
 62
     1
  9
$INTERFEREOBJVS
345
276F
  9
$INTERFEREVPVS
346
276C
  9
$CSHADOW
280
     0
  9
$SHADOWPLANELOCATION
 40
0.0
  0
ENDSEC
  0
SECTION
  2
CLASSES
  0
CLASS
  1
ACDBDICTIONARYWDFLT
  2
AcDbDictionaryWithDefault
  3
ObjectDBX Classes
 90
        0
 91
        1
280
     0
281
     0
  0
CLASS
  1
DICTIONARYVAR
  2
AcDbDictionaryVar
  3
ObjectDBX Classes
 90
        0
 91
       11
280
     0
281
     0
  0
CLASS
  1
DIMASSOC
  2
AcDbDimAssoc
  3
"AcDbDimAssoc|Product Desc:     AcDim ARX App For Dimension|Company:          Autodesk, Inc.|WEB Address:      www.autodesk.com"
 90
        0
 91
        4
280
     0
281
     0
  0
CLASS
  1
PLOTSETTINGS
  2
AcDbPlotSettings
  3
ObjectDBX Classes
 90
        0
 91
        2
280
     0
281
     0
  0
CLASS
  1
MATERIAL
  2
AcDbMaterial
  3
ObjectDBX Classes
 90
     1153
 91
        3
280
     0
281
     0
  0
CLASS
  1
VISUALSTYLE
  2
AcDbVisualStyle
  3
ObjectDBX Classes
 90
     4095
 91
       26
280
     0
281
     0
  0
CLASS
  1
TABLESTYLE
  2
AcDbTableStyle
  3
ObjectDBX Classes
 90
     4095
 91
        2
280
     0
281
     0
  0
CLASS
  1
SORTENTSTABLE
  2
AcDbSortentsTable
  3
ObjectDBX Classes
 90
        0
 91
        3
280
     0
281
     0
  0
CLASS
  1
ACAD_EVALUATION_GRAPH
  2
AcDbEvalGraph
  3
ObjectDBX Classes
 90
     1153
 91
        0
280
     0
281
     0
  0
CLASS
  1
ACAECUSTOBJ
  2
AcAeEditorObj
  3
AcAeEditorObj
 90
     1024
 91
        0
280
     0
281
     0
  0
CLASS
  1
ACDB_DYNAMICBLOCKPURGEPREVENTER_VERSION
  2
AcDbDynamicBlockPurgePreventer
  3
ObjectDBX Classes
 90
     1153
 91
        0
280
     0
281
     0
  0
CLASS
  1
ACAD_TABLE
  2
AcDbTable
  3
ObjectDBX Classes
 90
     1025
 91
        0
280
     0
281
     1
  0
CLASS
  1
SCALE
  2
AcDbScale
  3
ObjectDBX Classes
 90
     1153
 91
       17
280
     0
281
     0
  0
CLASS
  1
MLEADERSTYLE
  2
AcDbMLeaderStyle
  3
ACDB_MLEADERSTYLE_CLASS
 90
     4095
 91
        1
280
     0
281
     0
  0
CLASS
  1
TABLECONTENT
  2
AcDbTableContent
  3
ObjectDBX Classes
 90
     1152
 91
        0
280
     0
281
     0
  0
CLASS
  1
TABLEGEOMETRY
  2
AcDbTableGeometry
  3
ObjectDBX Classes
 90
     1152
 91
        0
280
     0
281
     0
  0
CLASS
  1
ACDBSECTIONVIEWSTYLE
  2
AcDbSectionViewStyle
  3
ObjectDBX Classes
 90
     1025
 91
        1
280
     0
281
     0
  0
CLASS
  1
ACDBDETAILVIEWSTYLE
  2
AcDbDetailViewStyle
  3
ObjectDBX Classes
 90
     1025
 91
        1
280
     0
281
     0
  0
CLASS
  1
CELLSTYLEMAP
  2
AcDbCellStyleMap
  3
ObjectDBX Classes
 90
     1152
 91
        4
280
     0
281
     0
  0
ENDSEC
  0
SECTION
  2
TABLES
  0
TABLE
  2
VPORT
  5
8
330
0
100
AcDbSymbolTable
 70
     1
  0
VPORT
  5
275F
330
8
100
AcDbSymbolTableRecord
100
AcDbViewportTableRecord
  2
*Active
 70
     0
 10
0.0
 20
0.0
 11
1.0
 21
1.0
 12
206.8907460653181
 22
153.9456820319832
 13
0.0
 23
0.0
 14
10.0
 24
10.0
 15
10.0
 25
10.0
 16
0.0
 26
0.0
 36
1.0
 17
0.0
 27
0.0
 37
0.0
 40
262.6109605982079
 41
2.367088607594936
 42
50.0
 43
0.0
 44
0.0
 50
0.0
 51
0.0
 71
     0
 72
   100
 73
     1
 74
     3
 75
     0
 76
     0
 77
     0
 78
     0
281
     0
 65
     1
110
0.0
120
0.0
130
0.0
111
1.0
121
0.0
131
0.0
112
0.0
122
1.0
132
0.0
 79
     0
146
0.0
348
276B
 60
     3
 61
     5
292
     1
282
     1
141
0.0
142
0.0
 63
   250
421
  3355443
1001
ACAD_NAV_VCDISPLAY
1070
     3
  0
ENDTAB
  0
TABLE
  2
LTYPE
  5
5
330
0
100
AcDbSymbolTable
 70
     5
  0
LTYPE
  5
14
330
5
100
AcDbSymbolTableRecord
100
AcDbLinetypeTableRecord
  2
ByBlock
 70
     0
  3

 72
    65
 73
     0
 40
0.0
  0
LTYPE
  5
15
330
5
100
AcDbSymbolTableRecord
100
AcDbLinetypeTableRecord
  2
ByLayer
 70
     0
  3

 72
    65
 73
     0
 40
0.0
  0
LTYPE
  5
16
330
5
100
AcDbSymbolTableRecord
100
AcDbLinetypeTableRecord
  2
Continuous
 70
     0
  3
Solid line
 72
    65
 73
     0
 40
0.0
  0
LTYPE
  5
A5
330
5
100
AcDbSymbolTableRecord
100
AcDbLinetypeTableRecord
  2
CENTER
 70
     0
  3
Center ____ _ ____ _ ____ _ ____ _ ____ _ ____
 72
    65
 73
     4
 40
50.8
 49
31.75
 74
     0
 49
-6.349999999999997
 74
     0
 49
6.349999999999997
 74
     0
 49
-6.349999999999997
 74
     0
  0
LTYPE
  5
A6
330
5
100
AcDbSymbolTableRecord
100
AcDbLinetypeTableRecord
  2
HIDDEN
 70
     0
  3
Hidden __ __ __ __ __ __ __ __ __ __ __ __ __ _
 72
    65
 73
     2
 40
9.524999999999996
 49
6.349999999999997
 74
     0
 49
-3.174999999999998
 74
     0
  0
LTYPE
  5
2365
330
5
100
AcDbSymbolTableRecord
100
AcDbLinetypeTableRecord
  2
DIVIDE
 70
     0
  3
Divide ____ . . ____ . . ____ . . ____ . . ____
 72
    65
 73
     6
 40
31.74999999999999
 49
12.7
 74
     0
 49
-6.349999999999997
 74
     0
 49
0.0
 74
     0
 49
-6.349999999999997
 74
     0
 49
0.0
 74
     0
 49
-6.349999999999997
 74
     0
  0
ENDTAB
  0
TABLE
  2
LAYER
  5
2
102
{ACAD_XDICTIONARY
360
279F
102
}
330
0
100
AcDbSymbolTable
 70
    12
  0
LAYER
  5
10
102
{ACAD_XDICTIONARY
360
24E13
102
}
330
2
100
AcDbSymbolTableRecord
100
AcDbLayerTableRecord
  2
0
 70
     0
 62
     7
  6
Continuous
370
    -3
390
F
347
2764
348
0
  0
LAYER
  5
A7
102
{ACAD_XDICTIONARY
360
24E15
102
}
330
2
100
AcDbSymbolTableRecord
100
AcDbLayerTableRecord
  2
破線
 70
     0
 62
     4
  6
HIDDEN
370
    20
390
F
347
2764
348
0
  0
LAYER
  5
A8
102
{ACAD_XDICTIONARY
360
24E17
102
}
330
2
100
AcDbSymbolTableRecord
100
AcDbLayerTableRecord
  2
一点鎖線
 70
     0
 62
     5
  6
CENTER
370
    15
390
F
347
2764
348
0
  0
LAYER
  5
A9
102
{ACAD_XDICTIONARY
360
24E19
102
}
330
2
100
AcDbSymbolTableRecord
100
AcDbLayerTableRecord
  2
補助線
 70
     0
 62
     8
  6
Continuous
290
     0
370
    -3
390
F
347
2764
348
0
  0
LAYER
  5
AA
102
{ACAD_XDICTIONARY
360
24E1B
102
}
330
2
100
AcDbSymbolTableRecord
100
AcDbLayerTableRecord
  2
実線
 70
     0
 62
     7
  6
Continuous
370
    -3
390
F
347
2764
348
0
  0
LAYER
  5
AB
102
{ACAD_XDICTIONARY
360
24E1D
102
}
330
2
100
AcDbSymbolTableRecord
100
AcDbLayerTableRecord
  2
寸法
 70
     0
 62
     3
  6
Continuous
370
    15
390
F
347
2764
348
0
  0
LAYER
  5
AC
102
{ACAD_XDICTIONARY
360
24E1F
102
}
330
2
100
AcDbSymbolTableRecord
100
AcDbLayerTableRecord
  2
文字
 70
     0
 62
     2
  6
Continuous
370
    15
390
F
347
2764
348
0
  0
LAYER
  5
185
330
2
100
AcDbSymbolTableRecord
100
AcDbLayerTableRecord
  2
Defpoints
 70
     0
 62
     7
  6
Continuous
290
     0
370
    -3
390
F
347
2764
348
0
  0
LAYER
  5
58C
102
{ACAD_XDICTIONARY
360
24E21
102
}
330
2
100
AcDbSymbolTableRecord
100
AcDbLayerTableRecord
  2
細線
 70
     0
 62
     6
  6
Continuous
370
     9
390
F
347
2764
348
0
  0
LAYER
  5
1023
102
{ACAD_XDICTIONARY
360
24E23
102
}
330
2
100
AcDbSymbolTableRecord
100
AcDbLayerTableRecord
  2
太線
 70
     0
 62
     3
  6
Continuous
370
    40
390
F
347
2764
348
0
  0
LAYER
  5
2366
102
{ACAD_XDICTIONARY
360
24E25
102
}
330
2
100
AcDbSymbolTableRecord
100
AcDbLayerTableRecord
  2
二点鎖線
 70
     0
 62
     1
  6
DIVIDE
370
    20
390
F
347
2764
348
0
  0
LAYER
  5
2BFD0
330
2
100
AcDbSymbolTableRecord
100
AcDbLayerTableRecord
  2
寸法2
 70
     0
 62
     3
  6
Continuous
370
     9
390
F
347
2764
348
0
1001
AcAecLayerStandard
1000

1000

  0
ENDTAB
  0
TABLE
  2
STYLE
  5
3
330
0
100
AcDbSymbolTable
 70
    17
  0
STYLE
  5
11
330
3
100
AcDbSymbolTableRecord
100
AcDbTextStyleTableRecord
  2
Standard
 70
     0
 40
2.5
 41
0.8
 50
0.0
 71
     0
 42
2.5
  3
romans.shx
  4
bigfont.shx
  0
STYLE
  5
A4
330
3
100
AcDbSymbolTableRecord
100
AcDbTextStyleTableRecord
  2

 70
     1
 40
0.0
 41
1.0
 50
0.0
 71
     0
 42
2.5
  3
ltypeshp.shx
  4

  0
STYLE
  5
2A5
330
3
100
AcDbSymbolTableRecord
100
AcDbTextStyleTableRecord
  2
寸法
 70
     0
 40
0.0
 41
0.75
 50
0.0
 71
     0
 42
2.5
  3
romans.shx
  4
bigfont.shx
  0
STYLE
  5
109D
330
3
100
AcDbSymbolTableRecord
100
AcDbTextStyleTableRecord
  2
縦書き
 70
     4
 40
3.0
 41
0.8
 50
0.0
 71
     0
 42
3.0
  3
romans.shx
  4
bigfont.shx
  0
STYLE
  5
10EC
330
3
100
AcDbSymbolTableRecord
100
AcDbTextStyleTableRecord
  2
ｽﾀｲﾙ1
 70
     0
 40
3.0
 41
0.8
 50
0.0
 71
     0
 42
3.0
  3
romans.shx
  4
bigfont.shx
  0
STYLE
  5
114D
330
3
100
AcDbSymbolTableRecord
100
AcDbTextStyleTableRecord
  2
ｽﾀｲﾙ2
 70
     0
 40
9.0
 41
1.0
 50
0.0
 71
     0
 42
9.0
  3
swisscbo.ttf
  4

1001
ACAD
1000
Swis721 BdCnOul BT
1071
       82
  0
STYLE
  5
2367
330
3
100
AcDbSymbolTableRecord
100
AcDbTextStyleTableRecord
  2
ｽﾀｲﾙ3
 70
     0
 40
2.0
 41
1.0
 50
0.0
 71
     0
 42
2.0
  3
isocp.shx
  4
bigfont.shx
  0
STYLE
  5
2368
330
3
100
AcDbSymbolTableRecord
100
AcDbTextStyleTableRecord
  2
ｽﾀｲﾙ4
 70
     0
 40
4.5
 41
1.0
 50
0.0
 71
     0
 42
4.5
  3
swisscbo.ttf
  4

1001
ACAD
1000
Swis721 BdCnOul BT
1071
       82
  0
STYLE
  5
3AB5
330
3
100
AcDbSymbolTableRecord
100
AcDbTextStyleTableRecord
  2
スタイル1
 70
     0
 40
3.0
 41
0.8
 50
0.0
 71
     0
 42
3.0
  3
romans.shx
  4
bigfont.shx
  0
STYLE
  5
3E4F
330
3
100
AcDbSymbolTableRecord
100
AcDbTextStyleTableRecord
  2
hhhhhhhhhhhhhhhhhh
 70
     0
 40
1.5
 41
0.8
 50
0.0
 71
     0
 42
1.0
  3
bold.shx
  4
bigfont.shx
  0
STYLE
  5
3E50
330
3
100
AcDbSymbolTableRecord
100
AcDbTextStyleTableRecord
  2
書き込み
 70
     0
 40
2.5
 41
0.75
 50
0.0
 71
     0
 42
1.0
  3
romand.shx
  4
bigfont.shx
  0
STYLE
  5
24822
330
3
100
AcDbSymbolTableRecord
100
AcDbTextStyleTableRecord
  2
ﾛｺﾞ
 70
     0
 40
14.0
 41
0.7
 50
0.0
 71
     0
 42
2.5
  3
swisscbo.ttf
  4

1001
ACAD
1000
Swis721 BdCnOul BT
1071
       82
  0
STYLE
  5
264FC
330
3
100
AcDbSymbolTableRecord
100
AcDbTextStyleTableRecord
  2
寸法２
 70
     0
 40
1.8
 41
0.8
 50
0.0
 71
     0
 42
1.8
  3
romans.shx
  4
bigfont.shx
  0
STYLE
  5
264FD
330
3
100
AcDbSymbolTableRecord
100
AcDbTextStyleTableRecord
  2
カシケイ
 70
     0
 40
3.0
 41
0.8
 50
0.0
 71
     0
 42
2.5
  3
swisscbo.ttf
  4

1001
ACAD
1000
Swis721 BdCnOul BT
1071
       82
  0
STYLE
  5
29418
330
3
100
AcDbSymbolTableRecord
100
AcDbTextStyleTableRecord
  2
スタイル6
 70
     0
 40
3.0
 41
1.0
 50
0.0
 71
     0
 42
3.0
  3
swissc.ttf
  4

1001
ACAD
1000
Swis721 Cn BT
1071
       34
  0
STYLE
  5
29419
330
3
100
AcDbSymbolTableRecord
100
AcDbTextStyleTableRecord
  2
スタイル3
 70
     0
 40
9.0
 41
1.0
 50
0.0
 71
     0
 42
2.5
  3
swisscbo.ttf
  4

1001
ACAD
1000
Swis721 BdCnOul BT
1071
       82
  0
STYLE
  5
2A7F0
330
3
100
AcDbSymbolTableRecord
100
AcDbTextStyleTableRecord
  2
BIGFONT
 70
     0
 40
0.0
 41
1.0
 50
0.0
 71
     0
 42
20.0
  3
txt.shx
  4
bigfont
  0
ENDTAB
  0
TABLE
  2
VIEW
  5
6
330
0
100
AcDbSymbolTable
 70
     0
  0
ENDTAB
  0
TABLE
  2
UCS
  5
7
330
0
100
AcDbSymbolTable
 70
     0
  0
ENDTAB
  0
TABLE
  2
APPID
  5
9
330
0
100
AcDbSymbolTable
 70
    13
  0
APPID
  5
12
330
9
100
AcDbSymbolTableRecord
100
AcDbRegAppTableRecord
  2
ACAD
 70
     0
  0
APPID
  5
2789
330
9
100
AcDbSymbolTableRecord
100
AcDbRegAppTableRecord
  2
ACAD_PSEXT
 70
     0
  0
APPID
  5
28B6
330
9
100
AcDbSymbolTableRecord
100
AcDbRegAppTableRecord
  2
ACAD_EXEMPT_FROM_CAD_STANDARDS
 70
     0
  0
APPID
  5
2977
330
9
100
AcDbSymbolTableRecord
100
AcDbRegAppTableRecord
  2
ACAUTHENVIRON
 70
     0
  0
APPID
  5
29B0
330
9
100
AcDbSymbolTableRecord
100
AcDbRegAppTableRecord
  2
AcDbDynamicBlockTrueName
 70
     0
  0
APPID
  5
29B1
330
9
100
AcDbSymbolTableRecord
100
AcDbRegAppTableRecord
  2
AcDbDynamicBlockGUID
 70
     0
  0
APPID
  5
29B3
330
9
100
AcDbSymbolTableRecord
100
AcDbRegAppTableRecord
  2
AcDbBlockRepETag
 70
     0
  0
APPID
  5
24823
330
9
100
AcDbSymbolTableRecord
100
AcDbRegAppTableRecord
  2
ACAD_DSTYLE_DIMJAG
 70
     0
  0
APPID
  5
24824
330
9
100
AcDbSymbolTableRecord
100
AcDbRegAppTableRecord
  2
ACAD_DSTYLE_DIMTALN
 70
     0
  0
APPID
  5
2867E
330
9
100
AcDbSymbolTableRecord
100
AcDbRegAppTableRecord
  2
ACAD_DSTYLE_DIMRADIAL_EXTENSION
 70
     0
  0
APPID
  5
2A28D
330
9
100
AcDbSymbolTableRecord
100
AcDbRegAppTableRecord
  2
AcadAnnoPO
 70
     0
  0
APPID
  5
2BFD1
330
9
100
AcDbSymbolTableRecord
100
AcDbRegAppTableRecord
  2
AcAecLayerStandard
 70
     0
  0
APPID
  5
2DACF
330
9
100
AcDbSymbolTableRecord
100
AcDbRegAppTableRecord
  2
ACAD_NAV_VCDISPLAY
 70
     0
  0
ENDTAB
  0
TABLE
  2
DIMSTYLE
  5
A
330
0
100
AcDbSymbolTable
 70
     3
100
AcDbDimStyleTable
 71
     2
340
FF
340
27
  0
DIMSTYLE
105
27
330
A
100
AcDbSymbolTableRecord
100
AcDbDimStyleTableRecord
  2
ISO-25
 70
     0
 41
2.5
 42
0.625
 43
3.75
 44
1.25
 73
     0
 74
     0
 77
     1
 78
     8
140
2.5
141
2.5
143
0.03937007874016
147
0.625
171
     3
172
     1
271
     2
272
     2
274
     3
278
    44
283
     0
284
     8
340
11
  0
DIMSTYLE
105
FF
102
{ACAD_REACTORS
330
2D881
330
2D899
330
2D8B1
330
2D93A
102
}
330
A
100
AcDbSymbolTableRecord
100
AcDbDimStyleTableRecord
  2
ｺﾋﾟｰ - ISO-25
 70
     0
 41
2.5
 42
0.625
 43
3.75
 44
1.25
 73
     0
 74
     0
 77
     1
 78
     8
140
3.5
141
2.5
143
0.03937007874016
147
1.0
171
     3
172
     1
178
     2
271
     1
272
     1
274
     3
283
     0
284
     8
340
2A5
1001
ACAD_DSTYLE_DIMJAG
1070
   388
1040
1.5
1001
ACAD_DSTYLE_DIMTALN
1070
   392
1070
     0
  0
ENDTAB
  0
TABLE
  2
BLOCK_RECORD
  5
1
330
0
100
AcDbSymbolTable
 70
    13
  0
BLOCK_RECORD
  5
1F
102
{ACAD_XDICTIONARY
360
2D98
102
}
330
1
100
AcDbSymbolTableRecord
100
AcDbBlockTableRecord
  2
*Model_Space
340
22
 70
     0
280
     1
281
     0
  0
BLOCK_RECORD
  5
50
330
1
100
AcDbSymbolTableRecord
100
AcDbBlockTableRecord
  2
*Paper_Space
340
51
 70
     0
280
     1
281
     0
  0
BLOCK_RECORD
  5
55
330
1
100
AcDbSymbolTableRecord
100
AcDbBlockTableRecord
  2
*Paper_Space0
340
56
 70
     0
280
     1
281
     0
  0
BLOCK_RECORD
  5
341
102
{ACAD_XDICTIONARY
360
29CF
102
}
330
1
100
AcDbSymbolTableRecord
100
AcDbBlockTableRecord
  2
_None
340
0
 70
     0
280
     1
281
     0
1001
AcDbDynamicBlockGUID
1000
{FDCFC2F5-9095-49BF-99B6-274B4C3B84BC}
1001
AcDbBlockRepETag
1070
     1
1071
       24
  0
BLOCK_RECORD
  5
429
330
1
100
AcDbSymbolTableRecord
100
AcDbBlockTableRecord
  2
_DotSmall
340
0
 70
     0
280
     1
281
     0
  0
BLOCK_RECORD
  5
10CB
330
1
100
AcDbSymbolTableRecord
100
AcDbBlockTableRecord
  2
mark
340
0
310
2800000020000000200000000100080000000000000400000000000000000000000000000000000000000000000080000080000000808000800000008000800080800000C0C0C000C0DCC000F0CAA6000020400000206000002080000020A0000020C0000020E00000400000004020000040400000406000004080000040A0
310
000040C0000040E00000600000006020000060400000606000006080000060A0000060C0000060E00000800000008020000080400000806000008080000080A0000080C0000080E00000A0000000A0200000A0400000A0600000A0800000A0A00000A0C00000A0E00000C0000000C0200000C0400000C0600000C0800000C0
310
A00000C0C00000C0E00000E0000000E0200000E0400000E0600000E0800000E0A00000E0C00000E0E00040000000400020004000400040006000400080004000A0004000C0004000E00040200000402020004020400040206000402080004020A0004020C0004020E000404000004040200040404000404060004040800040
310
40A0004040C0004040E00040600000406020004060400040606000406080004060A0004060C0004060E00040800000408020004080400040806000408080004080A0004080C0004080E00040A0000040A0200040A0400040A0600040A0800040A0A00040A0C00040A0E00040C0000040C0200040C0400040C0600040C08000
310
40C0A00040C0C00040C0E00040E0000040E0200040E0400040E0600040E0800040E0A00040E0C00040E0E00080000000800020008000400080006000800080008000A0008000C0008000E00080200000802020008020400080206000802080008020A0008020C0008020E00080400000804020008040400080406000804080
310
008040A0008040C0008040E00080600000806020008060400080606000806080008060A0008060C0008060E00080800000808020008080400080806000808080008080A0008080C0008080E00080A0000080A0200080A0400080A0600080A0800080A0A00080A0C00080A0E00080C0000080C0200080C0400080C0600080C0
310
800080C0A00080C0C00080C0E00080E0000080E0200080E0400080E0600080E0800080E0A00080E0C00080E0E000C0000000C0002000C0004000C0006000C0008000C000A000C000C000C000E000C0200000C0202000C0204000C0206000C0208000C020A000C020C000C020E000C0400000C0402000C0404000C0406000C0
310
408000C040A000C040C000C040E000C0600000C0602000C0604000C0606000C0608000C060A000C060C000C060E000C0800000C0802000C0804000C0806000C0808000C080A000C080C000C080E000C0A00000C0A02000C0A04000C0A06000C0A08000C0A0A000C0A0C000C0A0E000C0C00000C0C02000C0C04000C0C06000
310
C0C08000C0C0A000F0FBFF00A4A0A000808080000000FF0000FF000000FFFF00FF000000FF00FF00FFFF0000FFFFFF0000000000000000000000000000000000000000000000000000000000000000000000000000000000000000000000000000000000000000000000000000000000000000000000000000000000000000
310
00000000000000000000000000000000000000000000000000000000000000000000000000000000000000000000000000000000000000000000000000000000000000000000000000000000000000000000000000000000000000000000000000000000000000000000000000000000000000000000000000000000000000
310
FF0000FF0000000000000000000000000000000000000000000000000000FFFFFF0000FFFFFF0000000000000000000000000000000000000000000000FF0000FF0000FF0000FF0000000000000000000000000000000000000000FFFF0000FF00000000FF0000FFFF0000000000000000000000000000000000FF0000FFFF
310
000000FF0000FFFF0000FF000000000000000000FFFFFFFF0000FF0000FF000000FFFF00FF000000FF0000FF0000FFFFFFFF0000FF0000FFFFFF0000FF000000FF00000000FF000000FF0000FFFFFF0000FF0000FF0000FF000000FF000000FF00FFFFFFFF00FF000000FF000000FF0000FF0000FF00000000FFFF00000000
310
FF00FF0000FF00FF00000000FFFF00000000FF0000FF000000FF000000000000FF00FF0000FF00FF000000000000FF000000FF0000FF0000FF00000000000000FF00FF0000FF00FF00000000000000FF0000FF0000FF000000FFFF0000000000FF00FF0000FF00FF0000000000FFFF000000FF0000FF0000FF0000FF000000
310
00FF00FFFFFFFF00FF00000000FF0000FF0000FF0000FF0000FFFFFF00FF00000000FFFF000000FF00000000FF00FFFFFF0000FF0000FFFFFFFF0000FF00FFFF00000000FF00FF000000FFFF00FF0000FFFFFFFF000000000000000000FF0000FF00000000FF000000FF0000FF0000000000000000000000000000000000FF
310
FF00FFFF00000000FFFF00FFFF0000000000000000000000000000000000000000FF0000FF0000FF0000FF0000000000000000000000000000000000000000000000FFFFFF0000FFFFFF0000000000000000000000000000000000000000000000000000FF0000FF0000000000000000000000000000000000000000000000
310
00000000000000000000000000000000000000000000000000000000000000000000000000000000000000000000000000000000000000000000000000000000000000000000000000000000000000000000000000000000000000000000000000000000000000000000000000000000000000000000000000000000000000
310
0000000000000000000000000000000000000000000000000000000000000000000000000000000000000000000000000000000000000000
102
{BLKREFS
331
2D6C7
102
}
 70
     4
280
     1
281
     0
  0
BLOCK_RECORD
  5
2D20
330
1
100
AcDbSymbolTableRecord
100
AcDbBlockTableRecord
  2
A$C34DA08B7
340
0
 70
     4
280
     1
281
     0
  0
BLOCK_RECORD
  5
2D24
330
1
100
AcDbSymbolTableRecord
100
AcDbBlockTableRecord
  2
A$C04A47E41
340
0
 70
     4
280
     1
281
     0
  0
BLOCK_RECORD
  5
2D46
330
1
100
AcDbSymbolTableRecord
100
AcDbBlockTableRecord
  2
A$C2FFA21FC
340
0
 70
     4
280
     1
281
     0
  0
BLOCK_RECORD
  5
2D882
330
1
100
AcDbSymbolTableRecord
100
AcDbBlockTableRecord
  2
*D7
340
0
 70
     0
280
     1
281
     0
  0
BLOCK_RECORD
  5
2D89A
330
1
100
AcDbSymbolTableRecord
100
AcDbBlockTableRecord
  2
*D8
340
0
 70
     0
280
     1
281
     0
  0
BLOCK_RECORD
  5
2D8B2
330
1
100
AcDbSymbolTableRecord
100
AcDbBlockTableRecord
  2
*D9
340
0
 70
     0
280
     1
281
     0
  0
BLOCK_RECORD
  5
2D93B
330
1
100
AcDbSymbolTableRecord
100
AcDbBlockTableRecord
  2
*D10
340
0
 70
     0
280
     1
281
     0
  0
ENDTAB
  0
ENDSEC
  0
SECTION
  2
BLOCKS
  0
BLOCK
  5
20
330
1F
100
AcDbEntity
  8
0
100
AcDbBlockBegin
  2
*Model_Space
 70
     0
 10
0.0
 20
0.0
 30
0.0
  3
*Model_Space
  1

  0
ENDBLK
  5
21
330
1F
100
AcDbEntity
  8
0
100
AcDbBlockEnd
  0
BLOCK
  5
52
330
50
100
AcDbEntity
 67
     1
  8
0
100
AcDbBlockBegin
  2
*Paper_Space
 70
     0
 10
0.0
 20
0.0
 30
0.0
  3
*Paper_Space
  1

  0
ENDBLK
  5
53
330
50
100
AcDbEntity
 67
     1
  8
0
100
AcDbBlockEnd
  0
BLOCK
  5
57
330
55
100
AcDbEntity
 67
     1
  8
0
100
AcDbBlockBegin
  2
*Paper_Space0
 70
     0
 10
0.0
 20
0.0
 30
0.0
  3
*Paper_Space0
  1

  0
VIEWPORT
  5
71
330
55
100
AcDbEntity
 67
     1
  8
0
348
276B
100
AcDbViewport
 10
133.3499908447265
 20
101.5999970436096
 30
0.0
 40
381.3957395593834
 41
218.2856291881582
 68
     0
 69
     0
 12
133.3499908447265
 22
101.5999970436096
 13
0.0
 23
0.0
 14
10.0
 24
10.0
 15
10.0
 25
10.0
 16
0.0
 26
0.0
 36
1.0
 17
0.0
 27
0.0
 37
0.0
 42
50.0
 43
0.0
 44
0.0
 45
218.2856291881582
 50
0.0
 51
0.0
 72
   100
 90
    32800
  1

281
     0
 71
     1
 74
     0
110
0.0
120
0.0
130
0.0
111
1.0
121
0.0
131
0.0
112
0.0
122
1.0
132
0.0
 79
     0
146
0.0
170
     0
 61
     5
292
     1
282
     1
141
0.0
142
0.0
 63
   250
421
  3355443
  0
VIEWPORT
  5
73
330
55
100
AcDbEntity
 67
     1
  8
0
348
276B
100
AcDbViewport
 10
133.349993944168
 20
101.599993944168
 30
0.0
 40
213.3599903106689
 41
162.5599903106689
 68
     0
 69
     0
 12
210.0
 22
148.5
 13
0.0
 23
0.0
 14
10.0
 24
10.0
 15
10.0
 25
10.0
 16
0.0
 26
0.0
 36
1.0
 17
0.0
 27
0.0
 37
0.0
 42
50.0
 43
0.0
 44
0.0
 45
324.0677920111345
 50
0.0
 51
0.0
 72
   100
 90
    32864
  1

281
     0
 71
     1
 74
     0
110
0.0
120
0.0
130
0.0
111
1.0
121
0.0
131
0.0
112
0.0
122
1.0
132
0.0
 79
     0
146
0.0
170
     0
 61
     5
292
     1
282
     1
141
0.0
142
0.0
 63
   250
421
  3355443
  0
ENDBLK
  5
58
330
55
100
AcDbEntity
 67
     1
  8
0
100
AcDbBlockEnd
  0
BLOCK
  5
342
330
341
100
AcDbEntity
  8
0
100
AcDbBlockBegin
  2
_None
 70
     0
 10
0.0
 20
0.0
 30
0.0
  3
_None
  1

  0
LINE
  5
29B7
102
{ACAD_REACTORS
330
29F6
102
}
330
341
100
AcDbEntity
  8
0
100
AcDbLine
 10
7.618927466172911
 20
14.9090276980656
 30
0.0
 11
13.53608213148402
 21
23.35960033891454
 31
0.0
1001
AcDbBlockRepETag
1070
     1
1071
        0
1005
29B7
  0
LINE
  5
29B8
102
{ACAD_REACTORS
330
29F6
102
}
330
341
100
AcDbEntity
  8
0
100
AcDbLine
 10
7.618927466172911
 20
14.9090276980656
 30
0.0
 11
8.516181951946554
 21
13.62761549266754
 31
0.0
1001
AcDbBlockRepETag
1070
     1
1071
        1
1005
29B8
  0
LINE
  5
29B9
102
{ACAD_REACTORS
330
29F6
102
}
330
341
100
AcDbEntity
  8
0
100
AcDbLine
 10
21.97323679679512
 20
14.90902769806559
 30
0.0
 11
21.07598231102148
 21
16.19043990346365
 31
0.0
1001
AcDbBlockRepETag
1070
     1
1071
        2
1005
29B9
  0
LINE
  5
29BA
102
{ACAD_REACTORS
330
29F6
102
}
330
341
100
AcDbEntity
  8
0
100
AcDbLine
 10
21.97323679679512
 20
14.90902769806559
 30
0.0
 11
16.056082131484
 21
6.458455057216696
 31
0.0
1001
AcDbBlockRepETag
1070
     1
1071
        3
1005
29BA
  0
LINE
  5
29BB
102
{ACAD_REACTORS
330
29F6
102
}
330
341
100
AcDbEntity
  8
0
100
AcDbLine
 10
15.556082131484
 20
21.42363521294154
 30
0.0
 11
19.54408298552672
 21
15.72817974235458
 31
0.0
1001
AcDbBlockRepETag
1070
     1
1071
        4
1005
29BB
  0
LINE
  5
29BC
102
{ACAD_REACTORS
330
29F6
102
}
330
341
100
AcDbEntity
  8
0
100
AcDbLine
 10
9.761293059265804
 20
14.49945167592111
 30
0.0
 11
8.516181951946544
 21
13.62761549266753
 31
0.0
1001
AcDbBlockRepETag
1070
     1
1071
        5
1005
29BC
  0
LINE
  5
29BD
102
{ACAD_REACTORS
330
29F6
102
}
330
341
100
AcDbEntity
  8
0
100
AcDbLine
 10
10.04808127744132
 20
14.08987565377662
 30
0.0
 11
8.802970170122067
 21
13.21803947052303
 31
0.0
1001
AcDbBlockRepETag
1070
     1
1071
        6
1005
29BD
  0
LINE
  5
29BE
102
{ACAD_REACTORS
330
29F6
102
}
330
341
100
AcDbEntity
  8
0
100
AcDbLine
 10
14.03608213148402
 20
5.744381053845643
 30
0.0
 11
14.03608213148402
 21
24.07367434228561
 31
0.0
1001
AcDbBlockRepETag
1070
     1
1071
        7
1005
29BE
  0
LINE
  5
29BF
102
{ACAD_REACTORS
330
29F6
102
}
330
341
100
AcDbEntity
  8
0
100
AcDbLine
 10
15.556082131484
 20
5.744381053845647
 30
0.0
 11
15.556082131484
 21
21.42363521294154
 31
0.0
1001
AcDbBlockRepETag
1070
     1
1071
        8
1005
29BF
  0
LINE
  5
29C0
102
{ACAD_REACTORS
330
29F6
102
}
330
341
100
AcDbEntity
  8
0
100
AcDbLine
 10
13.53608213148402
 20
6.458455057216702
 30
0.0
 11
13.53608213148402
 21
9.108494186560758
 31
0.0
1001
AcDbBlockRepETag
1070
     1
1071
        9
1005
29C0
  0
LINE
  5
29C1
102
{ACAD_REACTORS
330
29F6
102
}
330
341
100
AcDbEntity
  8
0
100
AcDbLine
 10
16.056082131484
 20
6.458455057216702
 30
0.0
 11
16.056082131484
 21
9.108494186560747
 31
0.0
1001
AcDbBlockRepETag
1070
     1
1071
       10
1005
29C1
  0
LINE
  5
29C2
102
{ACAD_REACTORS
330
29F6
102
}
330
341
100
AcDbEntity
  8
0
100
AcDbLine
 10
14.03608213148402
 20
24.0736743422856
 30
0.0
 11
14.79608213148402
 21
25.15906682740961
 31
0.0
1001
AcDbBlockRepETag
1070
     1
1071
       11
1005
29C2
  0
LINE
  5
29C3
102
{ACAD_REACTORS
330
29F6
102
}
330
341
100
AcDbEntity
  8
0
100
AcDbLine
 10
13.53608213148402
 20
20.70956120957047
 30
0.0
 11
9.474504841090279
 21
14.90902769806561
 31
0.0
1001
AcDbBlockRepETag
1070
     1
1071
       12
1005
29C3
  0
LINE
  5
29C4
102
{ACAD_REACTORS
330
29F6
102
}
330
341
100
AcDbEntity
  8
0
100
AcDbLine
 10
16.056082131484
 20
9.108494186560752
 30
0.0
 11
20.11765942187774
 21
14.90902769806561
 31
0.0
1001
AcDbBlockRepETag
1070
     1
1071
       13
1005
29C4
  0
LINE
  5
29C5
102
{ACAD_REACTORS
330
29F6
102
}
330
341
100
AcDbEntity
  8
0
100
AcDbLine
 10
15.556082131484
 20
5.744381053845644
 30
0.0
 11
14.79608213148401
 21
4.658988568721648
 31
0.0
1001
AcDbBlockRepETag
1070
     1
1071
       14
1005
29C5
  0
LINE
  5
29C6
102
{ACAD_REACTORS
330
29F6
102
}
330
341
100
AcDbEntity
  8
0
100
AcDbLine
 10
14.03608213148402
 20
5.744381053845644
 30
0.0
 11
14.79608213148401
 21
4.658988568721648
 31
0.0
1001
AcDbBlockRepETag
1070
     1
1071
       15
1005
29C6
  0
LINE
  5
29C7
102
{ACAD_REACTORS
330
29F6
102
}
330
341
100
AcDbEntity
  8
0
100
AcDbLine
 10
8.802970170122078
 20
13.21803947052304
 30
0.0
 11
13.53608213148402
 21
6.458455057216702
 31
0.0
1001
AcDbBlockRepETag
1070
     1
1071
       16
1005
29C7
  0
LINE
  5
29C8
102
{ACAD_REACTORS
330
29F6
102
}
330
341
100
AcDbEntity
  8
0
100
AcDbLine
 10
10.04808127744132
 20
14.08987565377662
 30
0.0
 11
13.53608213148402
 21
9.10849418656076
 31
0.0
1001
AcDbBlockRepETag
1070
     1
1071
       17
1005
29C8
  0
LINE
  5
29C9
102
{ACAD_REACTORS
330
29F6
102
}
330
341
100
AcDbEntity
  8
0
100
AcDbLine
 10
13.53608213148402
 20
20.70956120957048
 30
0.0
 11
13.53608213148402
 21
23.35960033891454
 31
0.0
1001
AcDbBlockRepETag
1070
     1
1071
       18
1005
29C9
  0
LINE
  5
29CA
102
{ACAD_REACTORS
330
29F6
102
}
330
341
100
AcDbEntity
  8
0
100
AcDbLine
 10
19.83087120370222
 20
15.31860372021007
 30
0.0
 11
21.07598231102148
 21
16.19043990346365
 31
0.0
1001
AcDbBlockRepETag
1070
     1
1071
       19
1005
29CA
  0
LINE
  5
29CB
102
{ACAD_REACTORS
330
29F6
102
}
330
341
100
AcDbEntity
  8
0
100
AcDbLine
 10
19.54408298552669
 20
15.72817974235456
 30
0.0
 11
20.78919409284595
 21
16.60001592560815
 31
0.0
1001
AcDbBlockRepETag
1070
     1
1071
       20
1005
29CB
  0
LINE
  5
29CC
102
{ACAD_REACTORS
330
29F6
102
}
330
341
100
AcDbEntity
  8
0
100
AcDbLine
 10
19.83087120370224
 20
15.31860372021007
 30
0.0
 11
20.11765942187774
 21
14.90902769806561
 31
0.0
1001
AcDbBlockRepETag
1070
     1
1071
       21
1005
29CC
  0
LINE
  5
29CD
102
{ACAD_REACTORS
330
29F6
102
}
330
341
100
AcDbEntity
  8
0
100
AcDbLine
 10
20.78919409284596
 20
16.60001592560815
 30
0.0
 11
14.79608213148402
 21
25.15906682740961
 31
0.0
1001
AcDbBlockRepETag
1070
     1
1071
       22
1005
29CD
  0
LINE
  5
29CE
102
{ACAD_REACTORS
330
29F6
102
}
330
341
100
AcDbEntity
  8
0
100
AcDbLine
 10
9.761293059265804
 20
14.49945167592111
 30
0.0
 11
9.474504841090279
 21
14.90902769806561
 31
0.0
1001
AcDbBlockRepETag
1070
     1
1071
       23
1005
29CE
  0
ENDBLK
  5
343
330
341
100
AcDbEntity
  8
0
100
AcDbBlockEnd
  0
BLOCK
  5
42B
330
429
100
AcDbEntity
  8
0
100
AcDbBlockBegin
  2
_DotSmall
 70
     0
 10
0.0
 20
0.0
 30
0.0
  3
_DotSmall
  1

  0
LWPOLYLINE
  5
42A
330
429
100
AcDbEntity
  8
0
  6
ByBlock
 62
     0
100
AcDbPolyline
 90
        2
 70
     1
 43
0.5
 10
-0.0625
 20
0.0
 42
1.0
 10
0.0625
 20
0.0
 42
1.0
  0
ENDBLK
  5
42C
330
429
100
AcDbEntity
  8
0
100
AcDbBlockEnd
  0
BLOCK
  5
10EA
330
10CB
100
AcDbEntity
  8
0
100
AcDbBlockBegin
  2
mark
 70
     0
 10
0.0
 20
0.0
 30
0.0
  3
mark
  1

  4
柏原計器(株)マーク
  0
LINE
  5
10CC
330
10CB
100
AcDbEntity
  8
実線
100
AcDbLine
 10
45.0
 20
-8.5
 30
0.0
 11
27.0
 21
-21.10373568777475
 31
0.0
  0
LINE
  5
10CD
330
10CB
100
AcDbEntity
  8
実線
100
AcDbLine
 10
45.0
 20
-8.5
 30
0.0
 11
27.0
 21
4.103735687774785
 31
0.0
  0
LINE
  5
10CE
330
10CB
100
AcDbEntity
  8
実線
100
AcDbLine
 10
46.0
 20
-4.317109183163836
 30
0.0
 11
27.0
 21
8.986834042820532
 31
0.0
  0
LINE
  5
10CF
330
10CB
100
AcDbEntity
  8
実線
100
AcDbLine
 10
46.0
 20
-12.6828908168361
 30
0.0
 11
27.0
 21
-25.9868340428206
 31
0.0
  0
LINE
  5
10D0
330
10CB
100
AcDbEntity
  8
実線
100
AcDbLine
 10
5.0
 20
-8.5
 30
0.0
 11
23.0
 21
-21.10373568777475
 31
0.0
  0
LINE
  5
10D1
330
10CB
100
AcDbEntity
  8
実線
100
AcDbLine
 10
4.0
 20
-12.6828908168361
 30
0.0
 11
22.99999999999994
 21
-25.98683404282056
 31
0.0
  0
LINE
  5
10D2
330
10CB
100
AcDbEntity
  8
実線
100
AcDbLine
 10
5.0
 20
-8.5
 30
0.0
 11
23.0
 21
4.103735687774785
 31
0.0
  0
LINE
  5
10D3
330
10CB
100
AcDbEntity
  8
実線
100
AcDbLine
 10
4.0
 20
-4.317109183163863
 30
0.0
 11
23.0
 21
8.986834042820587
 31
0.0
  0
LINE
  5
10D4
330
10CB
100
AcDbEntity
  8
実線
100
AcDbLine
 10
4.0
 20
-4.317109183163863
 30
0.0
 11
4.0
 21
0.0
 31
0.0
  0
LINE
  5
10D5
330
10CB
100
AcDbEntity
  8
実線
100
AcDbLine
 10
0.0
 20
0.0
 30
0.0
 11
0.0
 21
-17.0
 31
0.0
  0
LINE
  5
10D6
330
10CB
100
AcDbEntity
  8
実線
100
AcDbLine
 10
0.0
 20
-17.0
 30
0.0
 11
4.0
 21
-17.0
 31
0.0
  0
LINE
  5
10D7
330
10CB
100
AcDbEntity
  8
実線
100
AcDbLine
 10
4.0
 20
-17.0
 30
0.0
 11
4.0
 21
-12.6828908168361
 31
0.0
  0
LINE
  5
10D8
330
10CB
100
AcDbEntity
  8
実線
100
AcDbLine
 10
4.0
 20
0.0
 30
0.0
 11
0.0
 21
0.0
 31
0.0
  0
LINE
  5
10D9
330
10CB
100
AcDbEntity
  8
実線
100
AcDbLine
 10
27.0
 20
-21.10373568777475
 30
0.0
 11
27.0
 21
-25.9868340428206
 31
0.0
  0
LINE
  5
10DA
330
10CB
100
AcDbEntity
  8
実線
100
AcDbLine
 10
23.0
 20
-21.1037356877747
 30
0.0
 11
22.99999999999994
 21
-25.98683404282056
 31
0.0
  0
ARC
  5
10DB
330
10CB
100
AcDbEntity
  8
実線
100
AcDbCircle
 10
25.0
 20
-12.5
 30
0.0
 40
6.0
100
AcDbArc
 50
180.0
 51
0.0
  0
ARC
  5
10DC
330
10CB
100
AcDbEntity
  8
実線
100
AcDbCircle
 10
25.0
 20
-12.5
 30
0.0
 40
3.0
100
AcDbArc
 50
180.0
 51
0.0
  0
ARC
  5
10DD
330
10CB
100
AcDbEntity
  8
実線
100
AcDbCircle
 10
25.0
 20
-4.5
 30
0.0
 40
6.0
100
AcDbArc
 50
0.0
 51
180.0
  0
ARC
  5
10DE
330
10CB
100
AcDbEntity
  8
実線
100
AcDbCircle
 10
25.0
 20
-4.5
 30
0.0
 40
3.0
100
AcDbArc
 50
0.0
 51
180.0
  0
LINE
  5
10DF
330
10CB
100
AcDbEntity
  8
実線
100
AcDbLine
 10
22.0
 20
-4.499999999999943
 30
0.0
 11
22.0
 21
-12.50000000000005
 31
0.0
  0
LINE
  5
10E0
330
10CB
100
AcDbEntity
  8
実線
100
AcDbLine
 10
19.0
 20
-4.499999999999943
 30
0.0
 11
19.0
 21
-12.50000000000005
 31
0.0
  0
LINE
  5
10E1
330
10CB
100
AcDbEntity
  8
実線
100
AcDbLine
 10
23.0
 20
8.986834042820587
 30
0.0
 11
23.0
 21
4.103735687774785
 31
0.0
  0
LINE
  5
10E2
330
10CB
100
AcDbEntity
  8
実線
100
AcDbLine
 10
28.0
 20
-4.499999999999971
 30
0.0
 11
28.0
 21
-12.50000000000005
 31
0.0
  0
LINE
  5
10E3
330
10CB
100
AcDbEntity
  8
実線
100
AcDbLine
 10
31.0
 20
-4.499999999999943
 30
0.0
 11
31.0
 21
-12.50000000000005
 31
0.0
  0
LINE
  5
10E4
330
10CB
100
AcDbEntity
  8
実線
100
AcDbLine
 10
27.0
 20
8.986834042820532
 30
0.0
 11
27.0
 21
4.103735687774785
 31
0.0
  0
LINE
  5
10E5
330
10CB
100
AcDbEntity
  8
実線
100
AcDbLine
 10
50.0
 20
0.0
 30
0.0
 11
50.0
 21
-17.0
 31
0.0
  0
LINE
  5
10E6
330
10CB
100
AcDbEntity
  8
実線
100
AcDbLine
 10
46.0
 20
0.0
 30
0.0
 11
46.0
 21
-4.317109183163836
 31
0.0
  0
LINE
  5
10E7
330
10CB
100
AcDbEntity
  8
実線
100
AcDbLine
 10
46.0
 20
-17.0
 30
0.0
 11
50.0
 21
-17.0
 31
0.0
  0
LINE
  5
10E8
330
10CB
100
AcDbEntity
  8
実線
100
AcDbLine
 10
46.0
 20
-12.6828908168361
 30
0.0
 11
46.0
 21
-17.0
 31
0.0
  0
LINE
  5
10E9
330
10CB
100
AcDbEntity
  8
実線
100
AcDbLine
 10
50.0
 20
0.0
 30
0.0
 11
46.0
 21
0.0
 31
0.0
  0
ENDBLK
  5
10EB
330
10CB
100
AcDbEntity
  8
0
100
AcDbBlockEnd
  0
BLOCK
  5
2D22
330
2D20
100
AcDbEntity
  8
0
100
AcDbBlockBegin
  2
A$C34DA08B7
 70
     0
 10
0.0
 20
0.0
 30
0.0
  3
A$C34DA08B7
  1

  0
LINE
  5
2D21
330
2D20
100
AcDbEntity
  8
実線
100
AcDbLine
 10
3.443694327872606
 20
-0.000000348593062
 30
0.0
 11
0.0000000833857712
 21
3.443693895893829
 31
0.0
  0
ENDBLK
  5
2D23
330
2D20
100
AcDbEntity
  8
0
100
AcDbBlockEnd
  0
BLOCK
  5
2D26
330
2D24
100
AcDbEntity
  8
0
100
AcDbBlockBegin
  2
A$C04A47E41
 70
     0
 10
0.0
 20
0.0
 30
0.0
  3
A$C04A47E41
  1

  0
LINE
  5
2D25
330
2D24
100
AcDbEntity
  8
実線
100
AcDbLine
 10
0.0
 20
0.0
 30
0.0
 11
-3.443694244486835
 21
3.44369424448689
 31
0.0
  0
ENDBLK
  5
2D27
330
2D24
100
AcDbEntity
  8
0
100
AcDbBlockEnd
  0
BLOCK
  5
2D4F
330
2D46
100
AcDbEntity
  8
0
100
AcDbBlockBegin
  2
A$C2FFA21FC
 70
     0
 10
0.0
 20
0.0
 30
0.0
  3
A$C2FFA21FC
  1

  0
LINE
  5
2D47
330
2D46
100
AcDbEntity
  8
実線
100
AcDbLine
 10
1.673649195882091
 20
5.714196736163046
 30
0.0
 11
4.040546862123335
 21
5.714196736163046
 31
0.0
  0
LINE
  5
2D48
330
2D46
100
AcDbEntity
  8
実線
100
AcDbLine
 10
-0.0000001942917152
 20
1.673649679747881
 30
0.0
 11
-0.0000001942917152
 21
4.040547345989124
 31
0.0
  0
LINE
  5
2D49
330
2D46
100
AcDbEntity
  8
実線
100
AcDbLine
 10
-0.0000001942917152
 20
4.040547345989238
 30
0.0
 11
1.673649195882091
 21
5.714196736162987
 31
0.0
  0
LINE
  5
2D4A
330
2D46
100
AcDbEntity
  8
実線
100
AcDbLine
 10
1.673649195882091
 20
0.0000002895740749
 30
0.0
 11
4.040546862123335
 21
0.0000002895740749
 31
0.0
  0
LINE
  5
2D4B
330
2D46
100
AcDbEntity
  8
実線
100
AcDbLine
 10
-0.0000001942917152
 20
1.673649679747881
 30
0.0
 11
1.673649195882035
 21
0.0000002895740749
 31
0.0
  0
LINE
  5
2D4C
330
2D46
100
AcDbEntity
  8
実線
100
AcDbLine
 10
5.714196252297256
 20
1.673649679747881
 30
0.0
 11
5.714196252297256
 21
4.040547345989124
 31
0.0
  0
LINE
  5
2D4D
330
2D46
100
AcDbEntity
  8
実線
100
AcDbLine
 10
5.714196252297256
 20
4.040547345989238
 30
0.0
 11
4.040546862123449
 21
5.714196736162987
 31
0.0
  0
LINE
  5
2D4E
330
2D46
100
AcDbEntity
  8
実線
100
AcDbLine
 10
5.714196252297256
 20
1.673649679747881
 30
0.0
 11
4.040546862123505
 21
0.0000002895740749
 31
0.0
  0
ENDBLK
  5
2D50
330
2D46
100
AcDbEntity
  8
0
100
AcDbBlockEnd
  0
BLOCK
  5
2D883
330
2D882
100
AcDbEntity
  8
0
100
AcDbBlockBegin
  2
*D7
 70
     1
 10
0.0
 20
0.0
 30
0.0
  3
*D7
  1

  0
LINE
  5
2D999
330
2D882
100
AcDbEntity
  8
寸法
 62
     0
440
 16777216
370
    -2
100
AcDbLine
 10
169.0443837621546
 20
148.2870554353026
 30
0.0
 11
292.1397236717357
 21
148.2870554353025
 31
0.0
  0
LINE
  5
2D99A
330
2D882
100
AcDbEntity
  8
寸法
 62
     0
440
 16777216
370
    -2
100
AcDbLine
 10
169.0443837621546
 20
248.2870554353026
 30
0.0
 11
292.1397236717357
 21
248.2870554353026
 31
0.0
  0
LINE
  5
2D99B
330
2D882
100
AcDbEntity
  8
寸法
 62
     0
440
 16777216
370
    -2
100
AcDbLine
 10
290.8897236717357
 20
150.7870554353026
 30
0.0
 11
290.8897236717357
 21
245.7870554353025
 31
0.0
  0
SOLID
  5
2D99C
330
2D882
100
AcDbEntity
  8
寸法
 62
     0
440
 16777216
100
AcDbTrace
 10
290.473057005069
 20
150.7870554353026
 30
0.0
 11
291.3063903384024
 21
150.7870554353026
 31
0.0
 12
290.8897236717357
 22
148.2870554353025
 32
0.0
 13
290.8897236717357
 23
148.2870554353025
 33
0.0
  0
SOLID
  5
2D99D
330
2D882
100
AcDbEntity
  8
寸法
 62
     0
440
 16777216
100
AcDbTrace
 10
290.473057005069
 20
245.7870554353025
 30
0.0
 11
291.3063903384024
 21
245.7870554353025
 31
0.0
 12
290.8897236717357
 22
248.2870554353026
 32
0.0
 13
290.8897236717357
 23
248.2870554353026
 33
0.0
  0
MTEXT
  5
2D99E
330
2D882
100
AcDbEntity
  8
寸法
 62
     2
440
 16777216
100
AcDbMText
 10
288.1397236717357
 20
198.2870554353026
 30
0.0
 40
3.5
 41
0.0
 46
0.0
 71
     5
 72
     1
  1
100
  7
寸法
 11
0.0000000000000001
 21
1.0
 31
0.0
 73
     1
 44
1.0
  0
POINT
  5
2D99F
330
2D882
100
AcDbEntity
  8
Defpoints
 62
     0
440
 16777216
100
AcDbPoint
 10
168.4193837621546
 20
148.2870554353026
 30
0.0
  0
POINT
  5
2D9A0
330
2D882
100
AcDbEntity
  8
Defpoints
 62
     0
440
 16777216
100
AcDbPoint
 10
168.4193837621546
 20
248.2870554353026
 30
0.0
  0
POINT
  5
2D9A1
330
2D882
100
AcDbEntity
  8
Defpoints
 62
     0
440
 16777216
100
AcDbPoint
 10
290.8897236717357
 20
248.2870554353026
 30
0.0
  0
ENDBLK
  5
2D884
330
2D882
100
AcDbEntity
  8
0
100
AcDbBlockEnd
  0
BLOCK
  5
2D89B
330
2D89A
100
AcDbEntity
  8
0
100
AcDbBlockBegin
  2
*D8
 70
     1
 10
0.0
 20
0.0
 30
0.0
  3
*D8
  1

  0
LINE
  5
2DA9D
330
2D89A
100
AcDbEntity
  8
寸法
 62
     0
440
 16777216
370
    -2
100
AcDbLine
 10
48.41938326215473
 20
44.12277676604065
 30
0.0
 11
48.41938326215473
 21
23.0223409720835
 31
0.0
  0
LINE
  5
2DA9E
330
2D89A
100
AcDbEntity
  8
寸法
 62
     0
440
 16777216
370
    -2
100
AcDbLine
 10
273.4193832621545
 20
44.12277676604065
 30
0.0
 11
273.4193832621545
 21
23.0223409720835
 31
0.0
  0
LINE
  5
2DA9F
330
2D89A
100
AcDbEntity
  8
寸法
 62
     0
440
 16777216
370
    -2
100
AcDbLine
 10
50.91938326215473
 20
24.2723409720835
 30
0.0
 11
270.9193832621545
 21
24.2723409720835
 31
0.0
  0
SOLID
  5
2DAA0
330
2D89A
100
AcDbEntity
  8
寸法
 62
     0
440
 16777216
100
AcDbTrace
 10
50.91938326215473
 20
24.68900763875018
 30
0.0
 11
50.91938326215473
 21
23.85567430541683
 31
0.0
 12
48.41938326215473
 22
24.2723409720835
 32
0.0
 13
48.41938326215473
 23
24.2723409720835
 33
0.0
  0
SOLID
  5
2DAA1
330
2D89A
100
AcDbEntity
  8
寸法
 62
     0
440
 16777216
100
AcDbTrace
 10
270.9193832621545
 20
24.68900763875018
 30
0.0
 11
270.9193832621545
 21
23.85567430541683
 31
0.0
 12
273.4193832621545
 22
24.2723409720835
 32
0.0
 13
273.4193832621545
 23
24.2723409720835
 33
0.0
  0
MTEXT
  5
2DAA2
330
2D89A
100
AcDbEntity
  8
寸法
 62
     2
440
 16777216
100
AcDbMText
 10
160.9193832621546
 20
27.0223409720835
 30
0.0
 40
3.5
 41
0.0
 46
0.0
 71
     5
 72
     1
  1
225
  7
寸法
 73
     1
 44
1.0
  0
POINT
  5
2DAA3
330
2D89A
100
AcDbEntity
  8
Defpoints
 62
     0
440
 16777216
100
AcDbPoint
 10
48.41938326215473
 20
44.74777676604065
 30
0.0
  0
POINT
  5
2DAA4
330
2D89A
100
AcDbEntity
  8
Defpoints
 62
     0
440
 16777216
100
AcDbPoint
 10
273.4193832621545
 20
44.74777676604065
 30
0.0
  0
POINT
  5
2DAA5
330
2D89A
100
AcDbEntity
  8
Defpoints
 62
     0
440
 16777216
100
AcDbPoint
 10
273.4193832621545
 20
24.2723409720835
 30
0.0
  0
ENDBLK
  5
2D89C
330
2D89A
100
AcDbEntity
  8
0
100
AcDbBlockEnd
  0
BLOCK
  5
2D8B3
330
2D8B2
100
AcDbEntity
  8
0
100
AcDbBlockBegin
  2
*D9
 70
     1
 10
0.0
 20
0.0
 30
0.0
  3
*D9
  1

  0
LINE
  5
2D9BE
330
2D8B2
100
AcDbEntity
  8
寸法
 62
     0
440
 16777216
370
    -2
100
AcDbLine
 10
134.692693490987
 20
28.69777572992289
 30
0.0
 11
37.37550618585919
 21
28.69777572992293
 31
0.0
  0
LINE
  5
2D9BF
330
2D8B2
100
AcDbEntity
  8
寸法
 62
     0
440
 16777216
370
    -2
100
AcDbLine
 10
41.71429214068914
 20
63.69777676604065
 30
0.0
 11
37.37550618585919
 21
63.69777676604065
 31
0.0
  0
LINE
  5
2D9C0
330
2D8B2
100
AcDbEntity
  8
寸法
 62
     0
440
 16777216
370
    -2
100
AcDbLine
 10
38.62550618585919
 20
31.19777572992293
 30
0.0
 11
38.62550618585919
 21
61.19777676604065
 31
0.0
  0
SOLID
  5
2D9C1
330
2D8B2
100
AcDbEntity
  8
寸法
 62
     0
440
 16777216
100
AcDbTrace
 10
38.20883951919253
 20
31.19777572992293
 30
0.0
 11
39.04217285252585
 21
31.19777572992293
 31
0.0
 12
38.62550618585919
 22
28.69777572992293
 32
0.0
 13
38.62550618585919
 23
28.69777572992293
 33
0.0
  0
SOLID
  5
2D9C2
330
2D8B2
100
AcDbEntity
  8
寸法
 62
     0
440
 16777216
100
AcDbTrace
 10
38.20883951919253
 20
61.19777676604065
 30
0.0
 11
39.04217285252586
 21
61.19777676604065
 31
0.0
 12
38.62550618585919
 22
63.69777676604065
 32
0.0
 13
38.62550618585919
 23
63.69777676604065
 33
0.0
  0
MTEXT
  5
2D9C3
330
2D8B2
100
AcDbEntity
  8
寸法
 62
     2
440
 16777216
100
AcDbMText
 10
35.87550618585918
 20
46.19777624798178
 30
0.0
 40
3.5
 41
0.0
 46
0.0
 71
     5
 72
     1
  1
35
  7
寸法
 11
0.0000000000000001
 21
1.0
 31
0.0
 73
     1
 44
1.0
  0
POINT
  5
2D9C4
330
2D8B2
100
AcDbEntity
  8
Defpoints
 62
     0
440
 16777216
100
AcDbPoint
 10
135.3176934909871
 20
28.69777572992289
 30
0.0
  0
POINT
  5
2D9C5
330
2D8B2
100
AcDbEntity
  8
Defpoints
 62
     0
440
 16777216
100
AcDbPoint
 10
42.33929214068914
 20
63.69777676604065
 30
0.0
  0
POINT
  5
2D9C6
330
2D8B2
100
AcDbEntity
  8
Defpoints
 62
     0
440
 16777216
100
AcDbPoint
 10
38.62550618585919
 20
63.69777676604065
 30
0.0
  0
ENDBLK
  5
2D8B4
330
2D8B2
100
AcDbEntity
  8
0
100
AcDbBlockEnd
  0
BLOCK
  5
2D93C
330
2D93B
100
AcDbEntity
  8
0
100
AcDbBlockBegin
  2
*D10
 70
     1
 10
0.0
 20
0.0
 30
0.0
  3
*D10
  1

  0
LINE
  5
2D9D9
330
2D93B
100
AcDbEntity
  8
寸法
 62
     0
440
 16777216
370
    -2
100
AcDbLine
 10
134.692693490987
 20
28.69777572992289
 30
0.0
 11
30.69877202511835
 21
28.69777572992293
 31
0.0
  0
LINE
  5
2D9DA
330
2D93B
100
AcDbEntity
  8
寸法
 62
     0
440
 16777216
370
    -2
100
AcDbLine
 10
119.7943835621004
 20
141.6977767660406
 30
0.0
 11
30.69877202511838
 21
141.6977767660406
 31
0.0
  0
LINE
  5
2D9DB
330
2D93B
100
AcDbEntity
  8
寸法
 62
     0
440
 16777216
370
    -2
100
AcDbLine
 10
31.94877202511835
 20
31.19777572992293
 30
0.0
 11
31.94877202511837
 21
139.1977767660406
 31
0.0
  0
SOLID
  5
2D9DC
330
2D93B
100
AcDbEntity
  8
寸法
 62
     0
440
 16777216
100
AcDbTrace
 10
31.53210535845168
 20
31.19777572992293
 30
0.0
 11
32.36543869178503
 21
31.19777572992293
 31
0.0
 12
31.94877202511835
 22
28.69777572992293
 32
0.0
 13
31.94877202511835
 23
28.69777572992293
 33
0.0
  0
SOLID
  5
2D9DD
330
2D93B
100
AcDbEntity
  8
寸法
 62
     0
440
 16777216
100
AcDbTrace
 10
31.5321053584517
 20
139.1977767660406
 30
0.0
 11
32.36543869178504
 21
139.1977767660406
 31
0.0
 12
31.94877202511837
 22
141.6977767660406
 32
0.0
 13
31.94877202511837
 23
141.6977767660406
 33
0.0
  0
MTEXT
  5
2D9DE
330
2D93B
100
AcDbEntity
  8
寸法
 62
     2
440
 16777216
100
AcDbMText
 10
29.19877202511834
 20
85.19777624798178
 30
0.0
 40
3.5
 41
0.0
 46
0.0
 71
     5
 72
     1
  1
113
  7
寸法
 11
0.0000000000000001
 21
1.0
 31
0.0
 73
     1
 44
1.0
  0
POINT
  5
2D9DF
330
2D93B
100
AcDbEntity
  8
Defpoints
 62
     0
440
 16777216
100
AcDbPoint
 10
135.3176934909871
 20
28.69777572992289
 30
0.0
  0
POINT
  5
2D9E0
330
2D93B
100
AcDbEntity
  8
Defpoints
 62
     0
440
 16777216
100
AcDbPoint
 10
120.4193835621004
 20
141.6977767660406
 30
0.0
  0
POINT
  5
2D9E1
330
2D93B
100
AcDbEntity
  8
Defpoints
 62
     0
440
 16777216
100
AcDbPoint
 10
31.94877202511837
 20
141.6977767660406
 30
0.0
  0
ENDBLK
  5
2D93D
330
2D93B
100
AcDbEntity
  8
0
100
AcDbBlockEnd
  0
ENDSEC
  0
SECTION
  2
ENTITIES
  0
TEXT
  5
108D
330
1F
100
AcDbEntity
  8
文字
100
AcDbText
 10
293.0
 20
27.25
 30
0.0
 40
3.0
  1

 41
0.8
 72
     1
 11
293.0
 21
28.75
 31
0.0
100
AcDbText
 73
     2
  0
TEXT
  5
108F
330
1F
100
AcDbEntity
  8
文字
100
AcDbText
 10
333.0
 20
27.5
 30
0.0
 40
3.0
  1

 41
0.8
 72
     1
 11
333.0
 21
29.0
 31
0.0
100
AcDbText
 73
     2
  0
TEXT
  5
1090
330
1F
100
AcDbEntity
  8
文字
100
AcDbText
 10
353.0
 20
27.5
 30
0.0
 40
3.0
  1

 41
0.8
 72
     1
 11
353.0
 21
29.0
 31
0.0
100
AcDbText
 73
     2
  0
MTEXT
  5
1581D
330
1F
100
AcDbEntity
  8
実線
 62
     2
100
AcDbMText
 10
196.5671900572592
 20
248.2436849630891
 30
0.0
 40
2.5
 41
0.0
 46
0.0
 71
     9
 72
     1
  1

  7
寸法
 73
     1
 44
1.0
  0
LINE
  5
29A83
330
1F
100
AcDbEntity
  8
0
100
AcDbLine
 10
215.0
 20
272.0
 30
0.0
 11
215.0
 21
287.0
 31
0.0
  0
LINE
  5
29ABB
330
1F
100
AcDbEntity
  8
0
100
AcDbLine
 10
400.0
 20
148.5
 30
0.0
 11
415.0
 21
148.5
 31
0.0
  0
LINE
  5
29B24
330
1F
100
AcDbEntity
  8
0
100
AcDbLine
 10
214.9999999999999
 20
25.0
 30
0.0
 11
214.9999999999999
 21
10.0
 31
0.0
  0
LINE
  5
29B27
330
1F
100
AcDbEntity
  8
0
100
AcDbLine
 10
29.99999999999926
 20
148.4999999999989
 30
0.0
 11
15.0
 21
148.4999999999988
 31
0.0
  0
LINE
  5
29B3C
330
1F
100
AcDbEntity
  8
補助線
100
AcDbLine
 10
5.0
 20
297.0
 30
0.0
 11
5.0
 21
0.0
 31
0.0
  0
LINE
  5
29B3D
330
1F
100
AcDbEntity
  8
補助線
100
AcDbLine
 10
425.0
 20
297.0
 30
0.0
 11
5.0
 21
297.0
 31
0.0
  0
LINE
  5
29B3E
330
1F
100
AcDbEntity
  8
補助線
100
AcDbLine
 10
425.0
 20
0.0
 30
0.0
 11
425.0
 21
297.0
 31
0.0
  0
LINE
  5
29B3F
330
1F
100
AcDbEntity
  8
補助線
100
AcDbLine
 10
5.0
 20
0.0
 30
0.0
 11
425.0
 21
0.0
 31
0.0
  0
LINE
  5
29B58
330
1F
100
AcDbEntity
  8
0
100
AcDbLine
 10
24.99999999999926
 20
217.7499999999989
 30
0.0
 11
14.9999999999996
 21
217.7499999999988
 31
0.0
  0
LINE
  5
29B59
330
1F
100
AcDbEntity
  8
0
100
AcDbLine
 10
24.99999999999926
 20
79.24999999999887
 30
0.0
 11
15.00000000000039
 21
79.24999999999882
 31
0.0
  0
LINE
  5
29B5A
330
1F
100
AcDbEntity
  8
0
100
AcDbLine
 10
405.0
 20
217.75
 30
0.0
 11
415.0
 21
217.75
 31
0.0
  0
LINE
  5
29B5B
330
1F
100
AcDbEntity
  8
0
100
AcDbLine
 10
405.0
 20
79.25
 30
0.0
 11
415.0
 21
79.25
 31
0.0
  0
LINE
  5
29B74
330
1F
100
AcDbEntity
  8
0
100
AcDbLine
 10
115.0
 20
277.0
 30
0.0
 11
115.0
 21
286.9999999999998
 31
0.0
  0
LINE
  5
29B75
330
1F
100
AcDbEntity
  8
0
100
AcDbLine
 10
315.0
 20
277.0
 30
0.0
 11
315.0
 21
287.0000000000002
 31
0.0
  0
LINE
  5
29B76
330
1F
100
AcDbEntity
  8
0
100
AcDbLine
 10
114.9999999999999
 20
20.0
 30
0.0
 11
114.9999999999999
 21
10.0
 31
0.0
  0
LINE
  5
29B77
330
1F
100
AcDbEntity
  8
0
100
AcDbLine
 10
315.0
 20
20.0
 30
0.0
 11
315.0
 21
10.0
 31
0.0
  0
TEXT
  5
29B81
330
1F
100
AcDbEntity
  8
0
100
AcDbText
 10
56.8738103311756
 20
279.47215302696
 30
0.0
 40
5.0
  1
1
 41
0.8
 72
     1
 11
58.49285795022321
 21
281.97215302696
 31
0.0
100
AcDbText
 73
     2
  0
TEXT
  5
29B83
330
1F
100
AcDbEntity
  8
0
100
AcDbText
 10
156.5880960454612
 20
279.4721530269602
 30
0.0
 40
5.0
  1
2
 41
0.8
 72
     1
 11
158.4928579502231
 21
281.9721530269601
 31
0.0
100
AcDbText
 73
     2
  0
TEXT
  5
29B84
330
1F
100
AcDbEntity
  8
0
100
AcDbText
 10
256.5880960454613
 20
279.47215302696
 30
0.0
 40
5.0
  1
3
 41
0.8
 72
     1
 11
258.4928579502232
 21
281.97215302696
 31
0.0
100
AcDbText
 73
     2
  0
TEXT
  5
29B85
330
1F
100
AcDbEntity
  8
0
100
AcDbText
 10
356.4928579502232
 20
279.47215302696
 30
0.0
 40
5.0
  1
4
 41
0.8
 72
     1
 11
358.4928579502232
 21
281.97215302696
 31
0.0
100
AcDbText
 73
     2
  0
TEXT
  5
29B86
330
1F
100
AcDbEntity
  8
0
100
AcDbText
 10
56.87381033117555
 20
12.84246760572546
 30
0.0
 40
5.0
  1
1
 41
0.8
 72
     1
 11
58.49285795022317
 21
15.34246760572546
 31
0.0
100
AcDbText
 73
     2
  0
TEXT
  5
29B87
330
1F
100
AcDbEntity
  8
0
100
AcDbText
 10
156.5880960454612
 20
12.84246760572563
 30
0.0
 40
5.0
  1
2
 41
0.8
 72
     1
 11
158.4928579502231
 21
15.34246760572563
 31
0.0
100
AcDbText
 73
     2
  0
TEXT
  5
29B88
330
1F
100
AcDbEntity
  8
0
100
AcDbText
 10
256.5880960454613
 20
12.84246760572546
 30
0.0
 40
5.0
  1
3
 41
0.8
 72
     1
 11
258.4928579502232
 21
15.34246760572546
 31
0.0
100
AcDbText
 73
     2
  0
TEXT
  5
29B89
330
1F
100
AcDbEntity
  8
0
100
AcDbText
 10
356.4928579502232
 20
12.84246760572546
 30
0.0
 40
5.0
  1
4
 41
0.8
 72
     1
 11
358.4928579502232
 21
15.34246760572546
 31
0.0
100
AcDbText
 73
     2
  0
TEXT
  5
29B8A
330
1F
100
AcDbEntity
  8
0
100
AcDbText
 10
18.58632463146319
 20
250.0319149255158
 30
0.0
 40
5.0
  1
A
 41
0.8
 72
     1
 11
20.30061034574891
 21
252.5319149255158
 31
0.0
100
AcDbText
 73
     2
  0
TEXT
  5
29B8B
330
1F
100
AcDbEntity
  8
0
100
AcDbText
 10
18.2053722505112
 20
180.7819149255158
 30
0.0
 40
5.0
  1
B
 41
0.8
 72
     1
 11
20.3006103457493
 21
183.2819149255158
 31
0.0
100
AcDbText
 73
     2
  0
TEXT
  5
29B8C
330
1F
100
AcDbEntity
  8
0
100
AcDbText
 10
18.30061034574891
 20
111.5319149255158
 30
0.0
 40
5.0
  1
C
 41
0.8
 72
     1
 11
20.30061034574891
 21
114.0319149255158
 31
0.0
100
AcDbText
 73
     2
  0
TEXT
  5
29B8D
330
1F
100
AcDbEntity
  8
0
100
AcDbText
 10
18.20537225051081
 20
42.28191492551693
 30
0.0
 40
5.0
  1
D
 41
0.8
 72
     1
 11
20.30061034574891
 21
44.78191492551693
 31
0.0
100
AcDbText
 73
     2
  0
TEXT
  5
29B8E
330
1F
100
AcDbEntity
  8
0
100
AcDbText
 10
408.0524664877939
 20
250.0319149255158
 30
0.0
 40
5.0
  1
A
 41
0.8
 72
     1
 11
409.7667522020797
 21
252.5319149255158
 31
0.0
100
AcDbText
 73
     2
  0
TEXT
  5
29B8F
330
1F
100
AcDbEntity
  8
0
100
AcDbText
 10
407.6715141068421
 20
180.7819149255158
 30
0.0
 40
5.0
  1
B
 41
0.8
 72
     1
 11
409.7667522020802
 21
183.2819149255158
 31
0.0
100
AcDbText
 73
     2
  0
TEXT
  5
29B90
330
1F
100
AcDbEntity
  8
0
100
AcDbText
 10
407.7667522020797
 20
111.5319149255158
 30
0.0
 40
5.0
  1
C
 41
0.8
 72
     1
 11
409.7667522020797
 21
114.0319149255158
 31
0.0
100
AcDbText
 73
     2
  0
TEXT
  5
29B91
330
1F
100
AcDbEntity
  8
0
100
AcDbText
 10
407.6715141068416
 20
42.28191492551693
 30
0.0
 40
5.0
  1
D
 41
0.8
 72
     1
 11
409.7667522020797
 21
44.78191492551693
 31
0.0
100
AcDbText
 73
     2
  0
LINE
  5
2A351
330
1F
100
AcDbEntity
  8
0
100
AcDbLine
 10
280.0
 20
20.0
 30
0.0
 11
280.0
 21
68.0
 31
0.0
  0
LINE
  5
2A352
330
1F
100
AcDbEntity
  8
0
100
AcDbLine
 10
280.0
 20
35.0
 30
0.0
 11
405.0
 21
35.0
 31
0.0
  0
LINE
  5
2A353
330
1F
100
AcDbEntity
  8
0
100
AcDbLine
 10
280.0
 20
58.0
 30
0.0
 11
405.0
 21
58.0
 31
0.0
  0
LINE
  5
2A354
330
1F
100
AcDbEntity
  8
0
100
AcDbLine
 10
280.0
 20
68.0
 30
0.0
 11
405.0
 21
68.0
 31
0.0
  0
LINE
  5
2A355
330
1F
100
AcDbEntity
  8
0
100
AcDbLine
 10
292.5
 20
35.0
 30
0.0
 11
292.5
 21
20.0
 31
0.0
  0
LINE
  5
2A356
330
1F
100
AcDbEntity
  8
0
100
AcDbLine
 10
305.0
 20
35.0
 30
0.0
 11
305.0
 21
20.0
 31
0.0
  0
LINE
  5
2A357
330
1F
100
AcDbEntity
  8
0
100
AcDbLine
 10
317.5
 20
35.0
 30
0.0
 11
317.5
 21
20.0
 31
0.0
  0
LINE
  5
2A358
330
1F
100
AcDbEntity
  8
0
100
AcDbLine
 10
330.0
 20
35.0
 30
0.0
 11
330.0
 21
20.0
 31
0.0
  0
LINE
  5
2A359
330
1F
100
AcDbEntity
  8
0
100
AcDbLine
 10
342.5
 20
58.0
 30
0.0
 11
342.5
 21
20.0
 31
0.0
  0
LINE
  5
2A35A
330
1F
100
AcDbEntity
  8
0
100
AcDbLine
 10
373.7499999999998
 20
46.49999999999999
 30
0.0
 11
373.7499999999998
 21
35.0
 31
0.0
  0
LINE
  5
2A35B
330
1F
100
AcDbEntity
  8
0
100
AcDbLine
 10
301.5
 20
68.0
 30
0.0
 11
301.5
 21
58.0
 31
0.0
  0
LINE
  5
2A35C
330
1F
100
AcDbEntity
  8
0
100
AcDbLine
 10
280.0
 20
31.0
 30
0.0
 11
342.5
 21
31.0
 31
0.0
  0
TEXT
  5
2A35D
330
1F
100
AcDbEntity
  8
0
100
AcDbText
 10
287.96
 20
61.5
 30
0.0
 40
3.0
  1
品名
 41
0.9
 72
     1
 11
290.75
 21
63.0
 31
0.0
100
AcDbText
 73
     2
  0
TEXT
  5
2A35E
330
1F
100
AcDbEntity
  8
0
100
AcDbText
 10
283.37
 20
31.5
 30
0.0
 40
3.0
  1
承認
 41
0.9
 72
     1
 11
286.25
 21
33.0
 31
0.0
100
AcDbText
 73
     2
  0
TEXT
  5
2A35F
330
1F
100
AcDbEntity
  8
0
100
AcDbText
 10
295.96
 20
31.5
 30
0.0
 40
3.0
  1
検図
 41
0.9
 72
     1
 11
298.75
 21
33.0
 31
0.0
100
AcDbText
 73
     2
  0
TEXT
  5
2A360
330
1F
100
AcDbEntity
  8
0
100
AcDbText
 10
308.46
 20
31.5
 30
0.0
 40
3.0
  1
製図
 41
0.9
 72
     1
 11
311.25
 21
33.0
 31
0.0
100
AcDbText
 73
     2
  0
TEXT
  5
2A361
330
1F
100
AcDbEntity
  8
0
100
AcDbText
 10
319.43
 20
31.5
 30
0.0
 40
3.0
  1
年月日
 41
0.9
 72
     1
 11
323.75
 21
33.0
 31
0.0
100
AcDbText
 73
     2
  0
TEXT
  5
2A362
330
1F
100
AcDbEntity
  8
0
100
AcDbText
 10
333.37
 20
31.5
 30
0.0
 40
3.0
  1
尺度
 41
0.9
 72
     1
 11
336.25
 21
33.0
 31
0.0
100
AcDbText
 73
     2
  0
TEXT
  5
2A363
330
1F
100
AcDbEntity
  8
0
100
AcDbText
 10
347.5141191097012
 20
25.47732717604083
 30
0.0
 40
5.0
  1
柏原計器工業株式会社
 41
0.9
 72
     1
 11
373.9141191097012
 21
27.97732717604083
 31
0.0
100
AcDbText
 73
     2
  0
TEXT
  5
2A364
330
1F
100
AcDbEntity
  8
0
100
AcDbText
 10
331.75
 20
23.75
 30
0.0
 40
3.5
  1
free
 41
0.9
 72
     1
 11
336.25
 21
25.5
 31
0.0
100
AcDbText
 73
     2
  0
TEXT
  5
2A365
330
1F
100
AcDbEntity
  8
0
100
AcDbText
 10
306.5860329945234
 20
50.90516497261692
 30
0.0
 40
3.5
  1
外観図
 41
0.9
 72
     1
 11
311.7310329945234
 21
52.65516497261693
 31
0.0
100
AcDbText
 73
     2
  0
TEXT
  5
2A366
330
1F
100
AcDbEntity
  8
0
100
AcDbText
 10
318.7335983023971
 20
61.25
 30
0.0
 40
3.5
  1
ハイブリッド式水道メーター　25mm
 41
0.9
 72
     1
 11
352.3935983023971
 21
63.0
 31
0.0
100
AcDbText
 73
     2
  0
LINE
  5
2A367
330
1F
100
AcDbEntity
  8
0
100
AcDbLine
 10
404.9999999999998
 20
46.49999999999999
 30
0.0
 11
280.0
 21
46.5
 31
0.0
  0
LINE
  5
2A369
330
1F
100
AcDbEntity
  8
0
100
AcDbLine
 10
347.5
 20
57.99999999999999
 30
0.0
 11
347.5
 21
46.5
 31
0.0
  0
TEXT
  5
2A36A
330
1F
100
AcDbEntity
  8
0
100
AcDbText
 10
343.8012444219987
 20
53.78915733104803
 30
0.0
 40
3.0
  1
図
 41
0.9
 72
     1
 11
345.0612444219987
 21
55.28915733104803
 31
0.0
100
AcDbText
 73
     2
  0
TEXT
  5
2A36B
330
1F
100
AcDbEntity
  8
0
100
AcDbText
 10
343.74
 20
48.125
 30
0.0
 40
3.0
  1
番
 41
0.9
 72
     1
 11
345.0
 21
49.62499999999999
 31
0.0
100
AcDbText
 73
     2
  0
LINE
  5
2A36C
330
1F
100
AcDbEntity
  8
0
100
AcDbLine
 10
285.0
 20
46.49999999999999
 30
0.0
 11
285.0
 21
35.0
 31
0.0
  0
TEXT
  5
2A36D
330
1F
100
AcDbEntity
  8
0
100
AcDbText
 10
281.3012444219987
 20
42.28915733104803
 30
0.0
 40
3.0
  1
摘
 41
0.9
 72
     1
 11
282.5612444219986
 21
43.78915733104803
 31
0.0
100
AcDbText
 73
     2
  0
TEXT
  5
2A36E
330
1F
100
AcDbEntity
  8
0
100
AcDbText
 10
281.24
 20
36.625
 30
0.0
 40
3.0
  1
要
 41
0.9
 72
     1
 11
282.5
 21
38.125
 31
0.0
100
AcDbText
 73
     2
  0
LINE
  5
2A36F
330
1F
100
AcDbEntity
  8
0
100
AcDbLine
 10
285.0
 20
57.99999999999999
 30
0.0
 11
285.0
 21
46.5
 31
0.0
  0
TEXT
  5
2A370
330
1F
100
AcDbEntity
  8
0
100
AcDbText
 10
281.3912444219986
 20
53.78915733104803
 30
0.0
 40
3.0
  1
名
 41
0.9
 72
     1
 11
282.5612444219986
 21
55.28915733104803
 31
0.0
100
AcDbText
 73
     2
  0
TEXT
  5
2A371
330
1F
100
AcDbEntity
  8
0
100
AcDbText
 10
281.24
 20
48.125
 30
0.0
 40
3.0
  1
称
 41
0.9
 72
     1
 11
282.5
 21
49.62499999999999
 31
0.0
100
AcDbText
 73
     2
  0
LINE
  5
2A372
330
1F
100
AcDbEntity
  8
0
  6
CENTER
 48
0.2
370
    15
100
AcDbLine
 10
380.3743237194039
 20
40.70717840942182
 30
0.0
 11
402.3661932218493
 21
40.70717840942182
 31
0.0
  0
LINE
  5
2A373
330
1F
100
AcDbEntity
  8
0
  6
CENTER
 48
0.2
370
    15
100
AcDbLine
 10
385.6829979138538
 20
45.02275052681983
 30
0.0
 11
385.6829979138538
 21
36.39160629202383
 31
0.0
  0
CIRCLE
  5
2A374
330
1F
100
AcDbEntity
  8
0
100
AcDbCircle
 10
385.6829979138538
 20
40.70717840942182
 30
0.0
 40
3.616483184024218
  0
CIRCLE
  5
2A375
330
1F
100
AcDbEntity
  8
0
100
AcDbCircle
 10
385.6829979138538
 20
40.70717840942182
 30
0.0
 40
2.153012167676263
  0
LINE
  5
2A376
330
1F
100
AcDbEntity
  8
0
100
AcDbLine
 10
391.435352056124
 20
42.86019057709808
 30
0.0
 11
391.435352056124
 21
38.5377720924151
 31
0.0
  0
LINE
  5
2A377
330
1F
100
AcDbEntity
  8
0
100
AcDbLine
 10
391.435352056124
 20
38.5377720924151
 30
0.0
 11
400.8293035353752
 21
37.0906952253976
 31
0.0
  0
LINE
  5
2A378
330
1F
100
AcDbEntity
  8
0
100
AcDbLine
 10
400.8293035353752
 20
37.0906952253976
 30
0.0
 11
400.8293035353752
 21
44.32366159344603
 31
0.0
  0
LINE
  5
2A379
330
1F
100
AcDbEntity
  8
0
100
AcDbLine
 10
400.8293035353752
 20
44.32366159344603
 30
0.0
 11
391.435352056124
 21
42.86019057709808
 31
0.0
  0
TEXT
  5
2A37A
330
1F
100
AcDbEntity
  8
0
100
AcDbText
 10
343.8012444219987
 20
42.28915733104803
 30
0.0
 40
3.0
  1
材
 41
0.9
 72
     1
 11
345.0612444219987
 21
43.78915733104803
 31
0.0
100
AcDbText
 73
     2
  0
TEXT
  5
2A37B
330
1F
100
AcDbEntity
  8
0
100
AcDbText
 10
343.74
 20
36.625
 30
0.0
 40
3.0
  1
質
 41
0.9
 72
     1
 11
345.0
 21
38.125
 31
0.0
100
AcDbText
 73
     2
  0
LINE
  5
2A37C
330
1F
100
AcDbEntity
  8
0
100
AcDbLine
 10
347.5
 20
46.49999999999999
 30
0.0
 11
347.5
 21
35.0
 31
0.0
  0
TEXT
  5
2A37D
330
1F
100
AcDbEntity
  8
0
100
AcDbText
 10
375.0512444219986
 20
42.72828299788964
 30
0.0
 40
3.0
  1
投
 41
0.9
 72
     1
 11
376.3112444219985
 21
44.22828299788965
 31
0.0
100
AcDbText
 73
     2
  0
TEXT
  5
2A37E
330
1F
100
AcDbEntity
  8
0
100
AcDbText
 10
374.9899999999998
 20
35.74674936600604
 30
0.0
 40
3.0
  1
法
 41
0.9
 72
     1
 11
376.2499999999998
 21
37.24674936600604
 31
0.0
100
AcDbText
 73
     2
  0
LINE
  5
2A37F
330
1F
100
AcDbEntity
  8
0
100
AcDbLine
 10
378.7499999999998
 20
46.49999999999999
 30
0.0
 11
378.7499999999998
 21
35.0
 31
0.0
  0
TEXT
  5
2A380
330
1F
100
AcDbEntity
  8
0
100
AcDbText
 10
375.0512444219986
 20
39.32506030432351
 30
0.0
 40
3.0
  1
影
 41
0.9
 72
     1
 11
376.3112444219985
 21
40.82506030432351
 31
0.0
100
AcDbText
 73
     2
  0
TEXT
  5
2A77A
330
1F
100
AcDbEntity
  8
0
100
AcDbText
 10
317.8166666666667
 20
26.58703627890884
 30
0.0
 40
3.5
  1
2019.
 41
0.8
 72
     1
 11
323.75
 21
28.33703627890884
 31
0.0
100
AcDbText
 73
     2
  0
TEXT
  5
2A77B
330
1F
100
AcDbEntity
  8
0
100
AcDbText
 10
317.55
 20
21.53356531963255
 30
0.0
 40
3.5
  1
11.20
 41
0.8
 72
     1
 11
323.75
 21
23.28356531963255
 31
0.0
100
AcDbText
 73
     2
  0
TEXT
  5
2BF6C
330
1F
100
AcDbEntity
  8
0
100
AcDbText
 10
301.9060329945233
 20
39.40516497261692
 30
0.0
 40
3.5
  1
PDH-25
 41
0.9
 72
     1
 11
311.7310329945234
 21
41.15516497261692
 31
0.0
100
AcDbText
 73
     2
  0
TEXT
  5
2CB93
330
1F
100
AcDbEntity
  8
寸法
100
AcDbText
 10
227.7396002927408
 20
102.2022096198308
 30
0.0
 40
3.5
  1
φ41.9～山11　上水
 41
0.9
  7
寸法
100
AcDbText
  0
SOLID
  5
2CB94
330
1F
100
AcDbEntity
  8
寸法
100
AcDbTrace
 10
266.5672506415136
 20
87.51038193896652
 30
0.0
 11
265.439148120934
 21
85.24080140191285
 31
0.0
 12
267.2423523010674
 22
87.021830822181
 32
0.0
 13
267.2423523010674
 23
87.021830822181
 33
0.0
1001
ACAD
1000
DSTYLE
1002
{
1070
   147
1040
1.0
1070
    77
1070
     0
1002
}
  0
LWPOLYLINE
  5
2CB95
330
1F
100
AcDbEntity
  8
寸法
100
AcDbPolyline
 90
        3
 70
     0
 43
0.0
 10
266.9048014712904
 20
87.26610638057378
 10
276.3337995216058
 20
100.2955152039104
 10
222.40580692306
 20
100.2523838709589
1001
ACAD
1000
DSTYLE
1002
{
1070
   147
1040
1.0
1070
    77
1070
     0
1002
}
  0
TEXT
  5
2CB96
330
1F
100
AcDbEntity
  8
寸法
100
AcDbText
 10
227.8992725381063
 20
94.74293394564249
 30
0.0
 40
3.5
  1
φ39.0～山14　金門
 41
0.9
  7
寸法
100
AcDbText
  0
LINE
  5
2D465
102
{ACAD_REACTORS
330
2D8B0
102
}
330
1F
100
AcDbEntity
  8
実線
100
AcDbLine
 10
273.4193832621545
 20
82.64777676604062
 30
0.0
 11
273.4193832621545
 21
44.7477767660406
 31
0.0
  0
LINE
  5
2D467
330
1F
100
AcDbEntity
  8
実線
100
AcDbLine
 10
124.6693832621545
 20
101.3455467660405
 30
0.0
 11
124.6693832621545
 21
100.9787387660405
 31
0.0
  0
LINE
  5
2D469
330
1F
100
AcDbEntity
  8
実線
100
AcDbLine
 10
258.8693832621546
 20
42.7477767660406
 30
0.0
 11
271.4193832621545
 21
42.7477767660406
 31
0.0
  0
LINE
  5
2D46A
330
1F
100
AcDbEntity
  8
実線
100
AcDbLine
 10
62.96938326215467
 20
42.74777676604065
 30
0.0
 11
65.55178026215457
 21
45.3301737660406
 31
0.0
  0
LINE
  5
2D46D
330
1F
100
AcDbEntity
  8
実線
100
AcDbLine
 10
202.4193482621545
 20
95.69777676604065
 30
0.0
 11
208.4234952621546
 21
95.69777676604065
 31
0.0
  0
LINE
  5
2D46E
330
1F
100
AcDbEntity
  8
実線
100
AcDbLine
 10
68.15345426215458
 20
81.80552876604053
 30
0.0
 11
115.9911712621545
 21
84.31259776604065
 31
0.0
  0
LINE
  5
2D474
330
1F
100
AcDbEntity
  8
細線
100
AcDbLine
 10
128.4193832621545
 20
93.89626176604059
 30
0.0
 11
196.3938492621546
 21
93.87733676604055
 31
0.0
  0
LINE
  5
2D47B
330
1F
100
AcDbEntity
  8
実線
100
AcDbLine
 10
258.8693832621546
 20
219.2370554353025
 30
0.0
 11
255.7552792621546
 21
216.1229514353026
 31
0.0
  0
LINE
  5
2D47C
330
1F
100
AcDbEntity
  8
実線
100
AcDbLine
 10
50.41938326215472
 20
219.2370554353026
 30
0.0
 11
48.41938326215473
 21
217.2370554353027
 31
0.0
  0
LINE
  5
2D47D
330
1F
100
AcDbEntity
  8
実線
100
AcDbLine
 10
273.4193832621545
 20
217.2370554353026
 30
0.0
 11
273.4193832621545
 21
198.2870554353026
 31
0.0
  0
LINE
  5
2D47E
330
1F
100
AcDbEntity
  8
実線
100
AcDbLine
 10
96.63473126215469
 20
176.7210754353024
 30
0.0
 11
95.53473126215454
 21
176.9150354353025
 31
0.0
  0
LINE
  5
2D480
330
1F
100
AcDbEntity
  8
実線
100
AcDbLine
 10
123.4193832621545
 20
102.2437647660406
 30
0.0
 11
123.4193832621545
 21
102.0672517660406
 31
0.0
  0
LINE
  5
2D482
330
1F
100
AcDbEntity
  8
実線
100
AcDbLine
 10
125.4193832621545
 20
99.67970076604061
 30
0.0
 11
125.4193832621545
 21
94.85247676604068
 31
0.0
  0
LINE
  5
2D484
330
1F
100
AcDbEntity
  8
実線
100
AcDbLine
 10
62.96938326215467
 20
84.64777676604063
 30
0.0
 11
62.96938326215467
 21
42.74777676604065
 31
0.0
  0
LINE
  5
2D485
330
1F
100
AcDbEntity
  8
実線
100
AcDbLine
 10
211.4193832621545
 20
92.70188776604063
 30
0.0
 11
211.4193832621545
 21
89.88359776604061
 31
0.0
  0
LINE
  5
2D486
330
1F
100
AcDbEntity
  8
実線
100
AcDbLine
 10
160.3778642621546
 20
31.54078276604059
 30
0.0
 11
139.2284572621545
 21
31.54078276604059
 31
0.0
  0
LINE
  5
2D48C
330
1F
100
AcDbEntity
  8
実線
100
AcDbLine
 10
50.41938326215472
 20
177.3370554353026
 30
0.0
 11
62.96938326215467
 21
177.3370554353026
 31
0.0
  0
LINE
  5
2D48D
330
1F
100
AcDbEntity
  8
実線
100
AcDbLine
 10
271.4193832621545
 20
177.3370554353026
 30
0.0
 11
271.4193832621545
 21
219.2370554353025
 31
0.0
  0
LINE
  5
2D48E
330
1F
100
AcDbEntity
  8
実線
100
AcDbLine
 10
94.50404726215449
 20
177.0967734353024
 30
0.0
 11
94.3377342569618
 21
178.0399824647522
 31
0.0
  0
LINE
  5
2D490
330
1F
100
AcDbEntity
  8
実線
100
AcDbLine
 10
50.41938326215472
 20
84.64777676604063
 30
0.0
 11
48.41938326215473
 21
82.64777676604062
 31
0.0
  0
LINE
  5
2D491
330
1F
100
AcDbEntity
  8
細線
100
AcDbLine
 10
128.3170142621545
 20
65.72257176604063
 30
0.0
 11
128.3170492621545
 21
65.71423576604065
 31
0.0
  0
LINE
  5
2D492
330
1F
100
AcDbEntity
  8
実線
100
AcDbLine
 10
239.0942472621546
 20
46.29511976604056
 30
0.0
 11
195.2089542621545
 21
33.24146176604063
 31
0.0
  0
LINE
  5
2D495
330
1F
100
AcDbEntity
  8
実線
100
AcDbLine
 10
201.3412292621547
 20
94.85247676604068
 30
0.0
 11
201.3412292621547
 21
95.14468276604059
 31
0.0
  0
LINE
  5
2D496
330
1F
100
AcDbEntity
  8
実線
100
AcDbLine
 10
239.0942472621546
 20
46.29511976604056
 30
0.0
 11
239.0442462621545
 21
46.31044776604062
 31
0.0
  0
LINE
  5
2D497
330
1F
100
AcDbEntity
  8
実線
100
AcDbLine
 10
202.1693832621545
 20
100.9787387660405
 30
0.0
 11
203.0060502621545
 21
101.4617887660405
 31
0.0
  0
LINE
  5
2D4A4
330
1F
100
AcDbEntity
  8
実線
100
AcDbLine
 10
258.8693832621546
 20
198.2870554353026
 30
0.0
 11
258.8693832621546
 21
177.3370554353026
 31
0.0
  0
LINE
  5
2D4A5
330
1F
100
AcDbEntity
  8
実線
100
AcDbLine
 10
62.96938326215467
 20
198.2870554353026
 30
0.0
 11
62.96938326215467
 21
219.2370554353026
 31
0.0
  0
LINE
  5
2D4A7
330
1F
100
AcDbEntity
  8
実線
100
AcDbLine
 10
48.41938326215473
 20
217.2370554353027
 30
0.0
 11
48.41938326215473
 21
198.2870554353026
 31
0.0
  0
LINE
  5
2D4A9
330
1F
100
AcDbEntity
  8
実線
100
AcDbLine
 10
124.6693832621545
 20
93.55343876604058
 30
0.0
 11
124.4193832621545
 21
93.40910176604065
 31
0.0
  0
LINE
  5
2D4AB
330
1F
100
AcDbEntity
  8
実線
100
AcDbLine
 10
255.7298002621546
 20
45.88735976604062
 30
0.0
 11
258.8693832621546
 21
42.7477767660406
 31
0.0
  0
LINE
  5
2D4AD
330
1F
100
AcDbEntity
  8
実線
100
AcDbLine
 10
191.5210742621545
 20
28.69777676604065
 30
0.0
 11
135.3176922621546
 21
28.69777676604065
 31
0.0
  0
LINE
  5
2D4AF
330
1F
100
AcDbEntity
  8
実線
100
AcDbLine
 10
187.6103102621543
 20
31.54078276604059
 30
0.0
 11
166.4609022621546
 21
31.54078276604059
 31
0.0
  0
LINE
  5
2D4B0
330
1F
100
AcDbEntity
  8
実線
100
AcDbLine
 10
50.41938326215472
 20
84.64777676604063
 30
0.0
 11
50.41938326215472
 21
42.74777676604065
 31
0.0
  0
LINE
  5
2D4B1
330
1F
100
AcDbEntity
  8
実線
100
AcDbLine
 10
271.4193832621545
 20
84.64777676604063
 30
0.0
 11
271.4193832621545
 21
42.7477767660406
 31
0.0
  0
LINE
  5
2D4BF
330
1F
100
AcDbEntity
  8
実線
100
AcDbLine
 10
96.63473126215469
 20
176.7210754353024
 30
0.0
 11
96.7910153300415
 21
177.6074028203068
 31
0.0
  0
LINE
  5
2D4C1
330
1F
100
AcDbEntity
  8
実線
100
AcDbLine
 10
273.4193832621545
 20
198.2870554353026
 30
0.0
 11
273.4193832621545
 21
179.3370554353024
 31
0.0
  0
LINE
  5
2D4C2
330
1F
100
AcDbEntity
  8
実線
100
AcDbLine
 10
94.66288826215441
 20
177.0687654353026
 30
0.0
 11
94.50404726215449
 21
177.0967734353024
 31
0.0
  0
LINE
  5
2D4C4
330
1F
100
AcDbEntity
  8
実線
100
AcDbLine
 10
201.4193832621545
 20
96.6991487660406
 30
0.0
 11
201.4193832621545
 21
99.67970076604061
 31
0.0
  0
LINE
  5
2D4C5
330
1F
100
AcDbEntity
  8
実線
100
AcDbLine
 10
271.4193832621545
 20
42.7477767660406
 30
0.0
 11
273.4193832621545
 21
44.7477767660406
 31
0.0
  0
LINE
  5
2D4C9
330
1F
100
AcDbEntity
  8
実線
100
AcDbLine
 10
48.41938326215473
 20
82.64777676604062
 30
0.0
 11
48.41938326215473
 21
44.74777676604065
 31
0.0
  0
LINE
  5
2D4CD
330
1F
100
AcDbEntity
  8
実線
100
AcDbLine
 10
255.7552792621546
 20
180.4511604353026
 30
0.0
 11
258.8693832621546
 21
177.3370554353026
 31
0.0
  0
LINE
  5
2D4D4
330
1F
100
AcDbEntity
  8
実線
100
AcDbLine
 10
108.3193832621546
 20
174.6607564353025
 30
0.0
 11
112.4193832621545
 21
173.9378154353025
 31
0.0
  0
LINE
  5
2D4D5
330
1F
100
AcDbEntity
  8
実線
100
AcDbLine
 10
108.3193832621546
 20
174.6607564353025
 30
0.0
 11
108.1530702621544
 21
175.6039664353025
 31
0.0
  0
LINE
  5
2D4D7
330
1F
100
AcDbEntity
  8
実線
100
AcDbLine
 10
271.4193832621545
 20
84.64777676604063
 30
0.0
 11
258.8693832621546
 21
84.64777676604063
 31
0.0
  0
LINE
  5
2D4D9
330
1F
100
AcDbEntity
  8
実線
100
AcDbLine
 10
64.35122826215456
 20
83.26593176604058
 30
0.0
 11
62.96938326215467
 21
84.64777676604063
 31
0.0
  0
LINE
  5
2D4DA
330
1F
100
AcDbEntity
  8
実線
100
AcDbLine
 10
213.9076962621546
 20
86.93055476604056
 30
0.0
 11
251.6381292621545
 21
80.41337776604065
 31
0.0
  0
LINE
  5
2D4DD
330
1F
100
AcDbEntity
  8
実線
100
AcDbLine
 10
124.7031312621545
 20
100.9787387660405
 30
0.0
 11
124.6693832621545
 21
100.9787387660405
 31
0.0
  0
LINE
  5
2D4DE
330
1F
100
AcDbEntity
  8
実線
100
AcDbLine
 10
258.8693832621546
 20
177.3370554353026
 30
0.0
 11
271.4193832621545
 21
177.3370554353026
 31
0.0
  0
LINE
  5
2D4E0
330
1F
100
AcDbEntity
  8
実線
100
AcDbLine
 10
211.0512742621545
 20
87.33658676604056
 30
0.0
 11
208.9511112621544
 21
87.69934776604058
 31
0.0
  0
LINE
  5
2D4E1
330
1F
100
AcDbEntity
  8
実線
100
AcDbLine
 10
239.2488102621546
 20
46.34943576604064
 30
0.0
 11
239.3003892621546
 21
46.33362476604065
 31
0.0
  0
LINE
  5
2D4E2
330
1F
100
AcDbEntity
  8
実線
100
AcDbLine
 10
50.41938326215472
 20
42.74777676604065
 30
0.0
 11
62.96938326215467
 21
42.74777676604065
 31
0.0
  0
LINE
  5
2D4EF
330
1F
100
AcDbEntity
  8
実線
100
AcDbLine
 10
48.41938326215473
 20
179.3370554353024
 30
0.0
 11
50.41938326215472
 21
177.3370554353026
 31
0.0
  0
LINE
  5
2D4F0
330
1F
100
AcDbEntity
  8
実線
100
AcDbLine
 10
94.66288826215441
 20
177.0687654353026
 30
0.0
 11
94.65787326278435
 21
177.9835333204485
 31
0.0
  0
LINE
  5
2D4F1
330
1F
100
AcDbEntity
  8
実線
100
AcDbLine
 10
62.96938326215467
 20
177.3370554353026
 30
0.0
 11
62.96938326215467
 21
198.2870554353026
 31
0.0
  0
LINE
  5
2D4F2
330
1F
100
AcDbEntity
  8
実線
100
AcDbLine
 10
48.41938326215473
 20
198.2870554353026
 30
0.0
 11
48.41938326215473
 21
179.3370554353024
 31
0.0
  0
LINE
  5
2D4F4
330
1F
100
AcDbEntity
  8
実線
100
AcDbLine
 10
203.4193832621545
 20
103.0672227660406
 30
0.0
 11
203.4193832621545
 21
103.2437407660406
 31
0.0
  0
LINE
  5
2D4F6
330
1F
100
AcDbEntity
  8
実線
100
AcDbLine
 10
62.96938326215467
 20
84.64777676604063
 30
0.0
 11
50.41938326215472
 21
84.64777676604063
 31
0.0
  0
LINE
  5
2D4F7
330
1F
100
AcDbEntity
  8
実線
100
AcDbLine
 10
258.8693832621546
 20
84.64777676604063
 30
0.0
 11
256.0288652621546
 21
81.80725876604061
 31
0.0
  0
LINE
  5
2D4FB
330
1F
100
AcDbEntity
  8
実線
100
AcDbLine
 10
62.96938326215467
 20
219.2370554353026
 30
0.0
 11
50.41938326215472
 21
219.2370554353026
 31
0.0
  0
LINE
  5
2D4FC
330
1F
100
AcDbEntity
  8
実線
100
AcDbLine
 10
251.7885182621544
 20
47.33839576604061
 30
0.0
 11
239.3003892621546
 21
46.33362476604065
 31
0.0
  0
LINE
  5
2D505
330
1F
100
AcDbEntity
  8
実線
100
AcDbLine
 10
50.41938326215472
 20
177.3370554353026
 30
0.0
 11
50.41938326215472
 21
219.2370554353026
 31
0.0
  0
LINE
  5
2D506
330
1F
100
AcDbEntity
  8
実線
100
AcDbLine
 10
271.4193832621545
 20
177.3370554353026
 30
0.0
 11
273.4193832621545
 21
179.3370554353024
 31
0.0
  0
LINE
  5
2D507
330
1F
100
AcDbEntity
  8
実線
100
AcDbLine
 10
102.5193832621546
 20
175.6697444353024
 30
0.0
 11
102.6780112621545
 21
176.5693664353026
 31
0.0
  0
LINE
  5
2D50B
330
1F
100
AcDbEntity
  8
実線
100
AcDbLine
 10
202.1693832621545
 20
101.9654327660405
 30
0.0
 11
202.1693832621545
 21
102.3432677660406
 31
0.0
  0
LINE
  5
2D50C
102
{ACAD_REACTORS
330
2D8B0
102
}
330
1F
100
AcDbEntity
  8
実線
100
AcDbLine
 10
48.41938326215473
 20
44.74777676604065
 30
0.0
 11
50.41938326215472
 21
42.74777676604065
 31
0.0
  0
LINE
  5
2D50D
330
1F
100
AcDbEntity
  8
実線
100
AcDbLine
 10
202.1693832621545
 20
100.9787387660405
 30
0.0
 11
124.7031312621545
 21
100.9787387660405
 31
0.0
  0
LINE
  5
2D50F
330
1F
100
AcDbEntity
  8
実線
100
AcDbLine
 10
273.4193832621545
 20
82.64777676604062
 30
0.0
 11
271.4193832621545
 21
84.64777676604063
 31
0.0
  0
LINE
  5
2D511
330
1F
100
AcDbEntity
  8
実線
100
AcDbLine
 10
207.5269972621545
 20
43.86355976604057
 30
0.0
 11
229.9519382621545
 21
45.6678277660406
 31
0.0
  0
LINE
  5
2D512
330
1F
100
AcDbEntity
  8
実線
100
AcDbLine
 10
213.9076962621546
 20
86.93055476604056
 30
0.0
 11
213.8543742621546
 21
86.90370876604061
 31
0.0
  0
LINE
  5
2D513
330
1F
100
AcDbEntity
  8
実線
100
AcDbLine
 10
124.6693832621545
 20
103.3455837660406
 30
0.0
 11
124.6693832621545
 21
102.9677547660406
 31
0.0
  0
LINE
  5
2D517
330
1F
100
AcDbEntity
  8
細線
100
AcDbLine
 10
128.3170492621545
 20
51.49302076604066
 30
0.0
 11
128.3170492621545
 21
65.71423576604065
 31
0.0
  0
LINE
  5
2D51B
330
1F
100
AcDbEntity
  8
実線
100
AcDbLine
 10
258.8693832621546
 20
42.7477767660406
 30
0.0
 11
258.8693832621546
 21
84.64777676604063
 31
0.0
  0
LINE
  5
2D520
330
1F
100
AcDbEntity
  8
実線
100
AcDbLine
 10
273.4193832621545
 20
217.2370554353026
 30
0.0
 11
271.4193832621545
 21
219.2370554353025
 31
0.0
  0
LINE
  5
2D521
330
1F
100
AcDbEntity
  8
実線
100
AcDbLine
 10
62.96938326215467
 20
177.3370554353026
 30
0.0
 11
66.42108526215452
 21
180.7887574353026
 31
0.0
  0
LINE
  5
2D522
330
1F
100
AcDbEntity
  8
実線
100
AcDbLine
 10
271.4193832621545
 20
219.2370554353025
 30
0.0
 11
258.8693832621546
 21
219.2370554353025
 31
0.0
  0
LINE
  5
2D524
330
1F
100
AcDbEntity
  8
実線
100
AcDbLine
 10
66.42108526215452
 20
215.7853544353027
 30
0.0
 11
62.96938326215467
 21
219.2370554353026
 31
0.0
  0
LINE
  5
2D525
330
1F
100
AcDbEntity
  8
実線
100
AcDbLine
 10
258.8693832621546
 20
219.2370554353025
 30
0.0
 11
258.8693832621546
 21
198.2870554353026
 31
0.0
  0
LINE
  5
2D526
330
1F
100
AcDbEntity
  8
実線
100
AcDbLine
 10
112.4193832621545
 20
173.9378154353025
 30
0.0
 11
112.5756672621546
 21
174.8241424353025
 31
0.0
  0
LINE
  5
2D527
330
1F
100
AcDbEntity
  8
実線
100
AcDbLine
 10
95.53473126215454
 20
176.9150354353025
 30
0.0
 11
95.3684183293525
 21
177.8582450542032
 31
0.0
  0
ARC
  5
2D52F
330
1F
100
AcDbEntity
  8
実線
100
AcDbCircle
 10
-123.9193832621545
 20
94.85247676604068
 30
0.0
 40
1.5
210
0.0
220
0.0
230
-1.0
100
AcDbArc
 50
180.0
 51
239.9999999999999
  0
ARC
  5
2D531
330
1F
100
AcDbEntity
  8
実線
100
AcDbCircle
 10
128.4193832621545
 20
86.48089776604072
 30
0.0
 40
8.0
100
AcDbArc
 50
120.0
 51
167.441102999999
  0
ARC
  5
2D535
330
1F
100
AcDbEntity
  8
実線
100
AcDbCircle
 10
-139.4489812621546
 20
205.3009717660407
 30
0.0
 40
173.0000000000001
210
0.0
220
0.0
230
-1.0
100
AcDbArc
 50
277.652749999999
 51
293.2830449999985
  0
ARC
  5
2D536
330
1F
100
AcDbEntity
  8
実線
100
AcDbCircle
 10
-163.4193832621545
 20
383.6977767660406
 30
0.0
 40
353.0
210
0.0
220
0.0
230
-1.0
100
AcDbArc
 50
275.4886289999967
 51
277.652749999999
  0
ARC
  5
2D53A
330
1F
100
AcDbEntity
  8
実線
100
AcDbCircle
 10
-123.9193832621545
 20
99.67970076604061
 30
0.0
 40
1.5
210
0.0
220
0.0
230
-1.0
100
AcDbArc
 50
120.0
 51
180.0
  0
CIRCLE
  5
2D53F
330
1F
100
AcDbEntity
  8
実線
100
AcDbCircle
 10
-208.2279852621546
 20
92.83095676604062
 30
0.0
 40
1.0
210
0.0
220
0.0
230
-1.0
  0
ARC
  5
2D542
330
1F
100
AcDbEntity
  8
実線
100
AcDbCircle
 10
-202.9193832621545
 20
99.67970076604061
 30
0.0
 40
1.5
210
0.0
220
0.0
230
-1.0
100
AcDbArc
 50
0.0
 51
60.0
  0
ELLIPSE
  5
2D543
330
1F
100
AcDbEntity
  8
実線
100
AcDbEllipse
 10
191.5204962621546
 20
30.69808076604062
 30
0.0
 11
1.377107687785702
 21
-1.451168711541034
 31
0.0
210
0.0
220
0.0
230
-1.0
 40
0.9997109999999999
 41
5.634122205385967
 42
7.042259009881882
  0
ELLIPSE
  5
2D545
330
1F
100
AcDbEntity
  8
実線
100
AcDbEllipse
 10
239.3289602621544
 20
45.35326476604064
 30
0.0
 11
0.2930799581624232
 21
0.9560879343049531
 31
0.0
210
0.0
220
0.0
230
1.0
 40
0.995547
 41
0.3792641309178867
 42
0.5886208636397377
  0
ELLIPSE
  5
2D549
330
1F
100
AcDbEntity
  8
実線
100
AcDbEllipse
 10
161.1577502621544
 20
383.6977767660406
 30
0.0
 11
0.0000000000000217
 21
353.9849731036919
 31
0.0
210
0.0
220
0.0
230
1.0
 40
0.008727
 41
3.173933142604591
 42
3.210100873609774
  0
ELLIPSE
  5
2D54B
330
1F
100
AcDbEntity
  8
実線
100
AcDbEllipse
 10
69.96394026215465
 20
177.2607114353025
 30
0.0
 11
0.8682409030562393
 21
4.924038762465242
 31
0.0
210
0.0
220
0.0
230
1.0
 40
0.9999970000000114
 41
0.0004895851759188
 42
0.9615926889533879
  0
ELLIPSE
  5
2D54D
102
{ACAD_REACTORS
330
2D8C8
330
2D951
102
}
330
1F
100
AcDbEntity
  8
実線
100
AcDbEllipse
 10
135.3182712621546
 20
30.69808076604062
 30
0.0
 11
-1.377107687785702
 21
-1.451168711541034
 31
0.0
210
0.0
220
0.0
230
1.0
 40
0.9997109999999999
 41
5.972030131768386
 42
7.042259009881882
  0
ELLIPSE
  5
2D54E
330
1F
100
AcDbEntity
  8
実線
100
AcDbEllipse
 10
160.3692482621545
 20
30.54317076604059
 30
0.0
 11
-0.9920094219885298
 21
0.1261638089389478
 31
0.0
210
0.0
220
0.0
230
1.0
 40
0.997616
 41
3.268392623234121
 42
4.829974921599801
  0
ELLIPSE
  5
2D54F
330
1F
100
AcDbEntity
  8
実線
100
AcDbEllipse
 10
162.1685312621546
 20
29.71976276604062
 30
0.0
 11
-0.5257923257145685
 21
0.8631629579917133
 31
0.0
210
0.0
220
0.0
230
-0.9999999999999998
 40
0.961974
 41
3.706084893485978
 42
5.25942859236505
  0
ELLIPSE
  5
2D551
330
1F
100
AcDbEntity
  8
実線
100
AcDbEllipse
 10
208.4152662621546
 20
92.69365976604056
 30
0.0
 11
2.127138730305198
 21
2.127138730305198
 31
0.0
210
0.0
220
0.0
230
-1.0
 40
0.9972649999999999
 41
5.499156671652537
 42
7.067213942706636
  0
ELLIPSE
  5
2D553
330
1F
100
AcDbEntity
  8
実線
100
AcDbEllipse
 10
166.4695182621544
 20
30.54317076604059
 30
0.0
 11
-0.9920094219886117
 21
-0.1261638089383033
 31
0.0
210
0.0
220
0.0
230
1.0
 40
0.997616
 41
4.594803039170221
 42
6.156385337535931
  0
ELLIPSE
  5
2D555
330
1F
100
AcDbEntity
  8
実線
100
AcDbEllipse
 10
164.6702352621546
 20
29.71976276604062
 30
0.0
 11
0.5257923257135749
 21
0.86316295799247
 31
0.0
210
0.0
220
0.0
230
-1.0
 40
0.961974
 41
1.023756714815871
 42
2.577100413694731
  0
ELLIPSE
  5
2D556
330
1F
100
AcDbEntity
  8
実線
100
AcDbEllipse
 10
239.3836992621546
 20
45.33648476604059
 30
0.0
 11
0.9603640807858731
 21
-0.2943907715162454
 31
0.0
210
0.0
220
0.0
230
1.0
 40
0.995547
 41
1.950060457712755
 42
2.159417190434619
  0
ELLIPSE
  5
2D558
330
1F
100
AcDbEntity
  8
実線
100
AcDbEllipse
 10
214.4235002621544
 20
89.88774076604055
 30
0.0
 11
-2.684165914132977
 21
-1.351383834759525
 31
0.0
210
0.0
220
0.0
230
0.9999999999999998
 40
0.9982829999999999
 41
5.817459331420782
 42
7.215701446549831
  0
ELLIPSE
  5
2D559
330
1F
100
AcDbEntity
  8
実線
100
AcDbEllipse
 10
229.6290342621546
 20
45.5717797660406
 30
0.0
 11
9.62147275327894
 21
0.7765176893909209
 31
0.0
210
0.0
220
0.0
230
-0.9999999999999998
 40
0.007231
 41
4.746539571602006
 42
6.264976020840432
  0
ELLIPSE
  5
2D55A
330
1F
100
AcDbEntity
  8
実線
100
AcDbEllipse
 10
69.96394026215465
 20
219.3133994353025
 30
0.0
 11
-0.8682408948765798
 21
4.924038763907534
 31
0.0
210
0.0
220
0.0
230
1.0
 40
0.9999970000000033
 41
2.179247507412274
 42
3.141103070075046
  0
ELLIPSE
  5
2D55B
330
1F
100
AcDbEntity
  8
実線
100
AcDbEllipse
 10
163.4193842621546
 20
96.6991487660406
 30
0.0
 11
-37.99999963952104
 21
0.0000000000000023
 31
0.0
210
0.0
220
0.0
230
-1.0
 40
0.053787
 41
3.141592653589792
 42
3.169250126653027
  0
ELLIPSE
  5
2D55D
330
1F
100
AcDbEntity
  8
実線
100
AcDbEllipse
 10
165.6810172621544
 20
383.6977767660406
 30
0.0
 11
-0.0000000000000217
 21
-353.9849731036919
 31
0.0
210
0.0
220
0.0
230
1.0
 40
0.008727
 41
6.214677087159606
 42
6.250844818164787
  0
SPLINE
  5
2D568
330
1F
100
AcDbEntity
  8
実線
100
AcDbSpline
210
0.0
220
0.0
230
1.0
 70
    24
 71
     3
 72
    30
 73
    26
 74
     0
 42
0.000000001
 43
0.0000000001
 40
0.0
 40
0.0
 40
0.0
 40
0.0
 40
0.0726922720811344
 40
0.0726922720811344
 40
0.1499679160743723
 40
0.1499679160743723
 40
0.2272435600676101
 40
0.2272435600676101
 40
0.304519204060848
 40
0.304519204060848
 40
0.3817948480540859
 40
0.3817948480540859
 40
0.4590704920473237
 40
0.4590704920473237
 40
0.5363461360405616
 40
0.5363461360405616
 40
0.6908974240270375
 40
0.6908974240270375
 40
0.7681730680202782
 40
0.7681730680202782
 40
0.8454487120135187
 40
0.8454487120135187
 40
0.9227243560067591
 40
0.9227243560067591
 40
1.0
 40
1.0
 40
1.0
 40
1.0
 10
102.6035340967535
 20
175.6549067262451
 30
0.0
 10
102.6035408593332
 20
175.6549055338199
 30
0.0
 10
102.5854219008135
 20
175.6581003950693
 30
0.0
 10
102.5101702875515
 20
175.6713692848292
 30
0.0
 10
102.4513228446972
 20
175.6817456767501
 30
0.0
 10
102.2961167635824
 20
175.7091126964206
 30
0.0
 10
102.1996779003361
 20
175.7261174699999
 30
0.0
 10
101.9795226622216
 20
175.7649367784237
 30
0.0
 10
101.8532699194254
 20
175.7871985433672
 30
0.0
 10
101.577792368539
 20
175.8357726681678
 30
0.0
 10
101.4309358405323
 20
175.8616674363486
 30
0.0
 10
101.1184340380914
 20
175.9167699356391
 30
0.0
 10
100.954597855798
 20
175.9456586749936
 30
0.0
 10
100.6251872303758
 20
176.0037426559875
 30
0.0
 10
100.4555276139388
 20
176.033658223902
 30
0.0
 10
99.96048351464061
 20
176.1209478552488
 30
0.0
 10
99.63862256371841
 20
176.1777006249328
 30
0.0
 10
99.22647445213465
 20
176.2503734570531
 30
0.0
 10
99.09882561775567
 20
176.2728813906102
 30
0.0
 10
98.87736716461494
 20
176.3119304910048
 30
0.0
 10
98.7813056958239
 20
176.3288687197593
 30
0.0
 10
98.62564047569822
 20
176.3563166980252
 30
0.0
 10
98.56636795817214
 20
176.3667680420797
 30
0.0
 10
98.48748454075531
 20
176.3806773169008
 30
0.0
 10
98.4684391411988
 20
176.3840355347009
 30
0.0
 10
98.47069917308365
 20
176.3836370301024
 30
0.0
  0
SPLINE
  5
2D56D
330
1F
100
AcDbEntity
  8
実線
100
AcDbSpline
210
0.0
220
0.0
230
1.0
 70
    24
 71
     3
 72
    12
 73
     8
 74
     0
 42
0.000000001
 43
0.0000000001
 40
0.0
 40
0.0
 40
0.0
 40
0.0
 40
0.2500000000000029
 40
0.2500000000000029
 40
0.5000000000000059
 40
0.5000000000000059
 40
1.0
 40
1.0
 40
1.0
 40
1.0
 10
95.53473646745192
 20
176.9150347283781
 30
0.0
 10
95.53472661838965
 20
176.9150364650334
 30
0.0
 10
95.51219637603843
 20
176.9190091546418
 30
0.0
 10
95.42335462592928
 20
176.9346743521994
 30
0.0
 10
95.35835020563125
 20
176.9461363853632
 30
0.0
 10
95.11567094134877
 20
176.9889272873147
 30
0.0
 10
94.89143436876771
 20
177.0284662451224
 30
0.0
 10
94.6628883079777
 20
177.0687650819743
 30
0.0
  0
SPLINE
  5
2D56E
330
1F
100
AcDbEntity
  8
実線
100
AcDbSpline
210
0.0000299525774148
220
0.0000518742617442
230
0.999999998205952
 70
     8
 71
     2
 72
     6
 73
     3
 74
     0
 42
0.000000001
 43
0.0000000001
 40
0.0
 40
0.0
 40
0.0
 40
1.0
 40
1.0
 40
1.0
 10
203.0197126719947
 20
101.4767599936307
 30
0.0000000000000001
 10
202.5885706116536
 20
101.7257037181629
 30
0.0
 10
202.1574294506099
 20
101.9746486203522
 30
0.0
  0
SPLINE
  5
2D572
330
1F
100
AcDbEntity
  8
実線
100
AcDbSpline
210
0.0
220
0.0
230
1.0
 70
    24
 71
     3
 72
    12
 73
     8
 74
     0
 42
0.000000001
 43
0.0000000001
 40
0.0
 40
0.0
 40
0.0
 40
0.0
 40
0.1885901210025178
 40
0.1885901210025178
 40
0.9365658666488176
 40
0.9365658666488176
 40
1.0
 40
1.0
 40
1.0
 40
1.0
 10
124.3170490533048
 20
172.7538204030043
 30
0.0
 10
120.9490123745388
 20
173.3476961414864
 30
0.0
 10
117.5809756957731
 20
173.9415718799687
 30
0.0
 10
100.8548175376202
 20
176.8908448468481
 30
0.0
 10
87.46577240438844
 20
179.2516947497601
 30
0.0
 10
72.97266438810743
 20
181.8072207273526
 30
0.0
 10
71.83962697954917
 20
182.0070057926334
 30
0.0
 10
70.7065895709909
 20
182.2067908579145
 30
0.0
  0
SPLINE
  5
2D573
330
1F
100
AcDbEntity
  8
実線
100
AcDbSpline
210
0.0
220
0.0
230
1.0
 70
     8
 71
     3
 72
    10
 73
     6
 74
     0
 42
0.000000001
 43
0.0000000001
 40
0.0
 40
0.0
 40
0.0
 40
0.0
 40
0.5
 40
0.5
 40
1.0
 40
1.0
 40
1.0
 40
1.0
 10
199.6659622278585
 20
36.58258024657039
 30
-0.0000000000000001
 10
200.4468342580776
 20
37.27896892390209
 30
-0.0000000000000001
 10
201.1728775132247
 20
38.03697562765291
 30
-0.0000000000000001
 10
202.4922695962921
 20
39.6492556352203
 30
0.0
 10
203.0867937682788
 20
40.50350844785407
 30
0.0000000000000001
 10
203.6152327898685
 20
41.40654824059582
 30
0.0000000000000002
  0
SPLINE
  5
2D578
330
1F
100
AcDbEntity
  8
細線
100
AcDbSpline
210
0.0000000000000056
220
-0.0000000000000029
230
1.0
 70
     8
 71
     3
 72
    28
 73
    24
 74
     0
 42
0.000000001
 43
0.0000000001
 40
0.0
 40
0.0
 40
0.0
 40
0.0
 40
0.0149462350274139
 40
0.0231726580732858
 40
0.0313990811191577
 40
0.0478519272109016
 40
0.0643047733026454
 40
0.097210465486133
 40
0.1301161576696207
 40
0.2617389264035711
 40
0.3933616951375216
 40
0.459173079504497
 40
0.5249844638714724
 40
0.5907958482384476
 40
0.6566072326054228
 40
0.7224186169723981
 40
0.7882300013393732
 40
0.8540413857063484
 40
0.8869470778898358
 40
0.9198527700733235
 40
0.9527584622568111
 40
0.985664154440299
 40
1.0
 40
1.0
 40
1.0
 40
1.0
 10
198.9943326523709
 20
75.58799463284777
 30
-0.0000000000000013
 10
199.0045871184049
 20
75.64847466510781
 30
-0.0000000000000013
 10
199.0185519237491
 20
75.73039144597714
 30
-0.0000000000000013
 10
199.0345920084135
 20
75.81929083066426
 30
-0.0000000000000012
 10
199.0539203823481
 20
75.92239373683423
 30
-0.0000000000000012
 10
199.0810150355921
 20
76.06056046265155
 30
-0.0000000000000012
 10
199.1247275063274
 20
76.27186296149409
 30
-0.0000000000000012
 10
199.1826474673694
 20
76.52952226515481
 30
-0.0000000000000012
 10
199.3353940665415
 20
77.14254713162768
 30
-0.0000000000000011
 10
199.6116582589857
 20
78.0263120409648
 30
-0.0000000000000011
 10
199.9868895198904
 20
78.91870598103117
 30
-0.000000000000001
 10
200.3174249773031
 20
79.57184674951141
 30
-0.0000000000000009
 10
200.5841016420536
 20
80.04306697574561
 30
-0.0000000000000009
 10
200.8646324923839
 20
80.49188537080249
 30
-0.0000000000000009
 10
201.1736640807219
 20
80.94769953816518
 30
-0.0000000000000008
 10
201.5095465168974
 20
81.41524667250569
 30
-0.0000000000000008
 10
201.8838510232586
 20
81.92207220473978
 30
-0.0000000000000008
 10
202.2257940960713
 20
82.38829689095723
 30
-0.0000000000000007
 10
202.5175694698555
 20
82.80215191168281
 30
-0.0000000000000007
 10
202.7394853416954
 20
83.12772544135203
 30
-0.0000000000000007
 10
202.9715970391703
 20
83.4858843361215
 30
-0.0000000000000007
 10
203.1491365959639
 20
83.77454063279655
 30
-0.0000000000000007
 10
203.2603574919122
 20
83.96388594716936
 30
-0.0000000000000007
 10
203.2944814984873
 20
84.0230304469088
 30
-0.0000000000000007
  0
SPLINE
  5
2D57A
330
1F
100
AcDbEntity
  8
実線
100
AcDbSpline
210
0.0
220
0.0
230
1.0
 70
     8
 71
     3
 72
    10
 73
     6
 74
     0
 42
0.000000001
 43
0.0000000001
 40
0.0
 40
0.0
 40
0.0
 40
0.0
 40
0.673186235681408
 40
0.673186235681408
 40
1.0
 40
1.0
 40
1.0
 40
1.0
 10
134.0044520154665
 20
32.02952107245216
 30
0.0
 10
134.6687930383823
 20
31.97415668657362
 30
0.0
 10
135.3332936019758
 20
31.92067461712094
 30
0.0
 10
136.3206054774298
 20
31.84402641190799
 30
0.0
 10
136.6433080175204
 20
31.81942053472865
 30
0.0
 10
136.9660434886446
 20
31.79525866025278
 30
0.0
  0
SPLINE
  5
2D57D
330
1F
100
AcDbEntity
  8
実線
100
AcDbSpline
210
0.0
220
0.0
230
1.0
 70
    24
 71
     3
 72
    10
 73
     6
 74
     0
 42
0.000000001
 43
0.0000000001
 40
0.0
 40
0.0
 40
0.0
 40
0.0
 40
0.1885901210025178
 40
0.1885901210025178
 40
0.2903494675202701
 40
0.2903494675202701
 40
0.2903494675202701
 40
0.2903494675202701
 10
124.3170490533048
 20
223.8202913170217
 30
0.0
 10
120.9490123745388
 20
223.2264155785395
 30
0.0
 10
117.5809756957731
 20
222.6325398400574
 30
0.0
 10
112.3956157677452
 20
221.7182209800615
 30
0.0
 10
110.5777201649194
 20
221.397676937172
 30
0.0
 10
108.7594030337629
 20
221.0770585674648
 30
0.0
  0
SPLINE
  5
2D57E
330
1F
100
AcDbEntity
  8
実線
100
AcDbSpline
210
0.0
220
0.0
230
1.0
 70
    24
 71
     3
 72
    10
 73
     6
 74
     0
 42
0.000000001
 43
0.0000000001
 40
0.3119797390215506
 40
0.3119797390215506
 40
0.3119797390215506
 40
0.3119797390215506
 40
0.9365658666488176
 40
0.9365658666488176
 40
1.0
 40
1.0
 40
1.0
 40
1.0
 10
107.5998265368296
 20
220.87259394486
 30
0.0
 10
96.43816556207468
 20
218.9044919654898
 30
0.0
 10
85.26183194430064
 20
216.9338028032772
 30
0.0
 10
72.97266438810743
 20
214.7668909926735
 30
0.0
 10
71.83962697954917
 20
214.5671059273928
 30
0.0
 10
70.7065895709909
 20
214.3673208621117
 30
0.0
  0
SPLINE
  5
2D582
330
1F
100
AcDbEntity
  8
実線
100
AcDbSpline
210
0.0
220
0.0
230
1.0
 70
    12
 71
     2
 72
     6
 73
     3
 74
     0
 42
0.000000001
 43
0.0000000001
 40
0.0
 40
0.0
 40
0.0
 40
1.0
 40
1.0
 40
1.0
 10
165.6528993080521
 20
29.73676004463584
 30
-0.0000000000000001
 41
0.5000004812994405
 10
165.6529329699369
 20
29.73872321221933
 30
-0.0000000000000001
 41
0.4999995187005596
 10
165.652958927189
 20
29.74068650269902
 30
-0.0000000000000001
 41
0.5000004812994405
  0
SPLINE
  5
2D584
330
1F
100
AcDbEntity
  8
実線
100
AcDbSpline
210
0.0
220
0.0
230
1.0
 70
     8
 71
     2
 72
     6
 73
     3
 74
     0
 42
0.000000001
 43
0.0000000001
 40
0.0
 40
0.0
 40
0.0
 40
1.0
 40
1.0
 40
1.0
 10
123.4152542638342
 20
102.0674107297784
 30
0.0
 10
124.0423105964145
 20
101.7053452886267
 30
0.0
 10
124.6693660791607
 20
101.3432781148946
 30
0.0
  0
SPLINE
  5
2D585
330
1F
100
AcDbEntity
  8
実線
100
AcDbSpline
210
0.0000000000000001
220
-0.00000000000001
230
1.0
 70
     8
 71
     3
 72
    71
 73
    67
 74
     0
 42
0.000000001
 43
0.0000000001
 40
0.0
 40
0.0
 40
0.0
 40
0.0
 40
0.0662047662227391
 40
0.0662047662227391
 40
0.0837731763723502
 40
0.0837731763723502
 40
0.1013415865219613
 40
0.1013415865219613
 40
0.1364784068211836
 40
0.1364784068211836
 40
0.1716152271204069
 40
0.1716152271204069
 40
0.189183637270018
 40
0.189183637270018
 40
0.2067520474196291
 40
0.2067520474196291
 40
0.2770256880180746
 40
0.2770256880180746
 40
0.3121625083172969
 40
0.3121625083172969
 40
0.3472993286165192
 40
0.3472993286165192
 40
0.3824361489157424
 40
0.3824361489157424
 40
0.4175729692149647
 40
0.4175729692149647
 40
0.4527097895141869
 40
0.4527097895141869
 40
0.4878466098134103
 40
0.4878466098134103
 40
0.5229834301126325
 40
0.5229834301126325
 40
0.5405518402622436
 40
0.5405518402622436
 40
0.5581202504118548
 40
0.5581202504118548
 40
0.6283938910103003
 40
0.6283938910103003
 40
0.6459623011599114
 40
0.6459623011599114
 40
0.6635307113095226
 40
0.6635307113095226
 40
0.698667531608746
 40
0.698667531608746
 40
0.7338043519079683
 40
0.7338043519079683
 40
0.7513727620575792
 40
0.7513727620575792
 40
0.7689411722071906
 40
0.7865095823568025
 40
0.7865095823568025
 40
0.8040779925064136
 40
0.8040779925064136
 40
0.8392148128056359
 40
0.8392148128056359
 40
0.874351633104858
 40
0.874351633104858
 40
0.8919200432544702
 40
0.8919200432544702
 40
0.9094884534040815
 40
0.9094884534040815
 40
0.9797620940025259
 40
0.9797620940025259
 40
0.9973305041521379
 40
0.9973305041521379
 40
1.0
 40
1.0
 40
1.0
 40
1.0
 10
203.4193135499982
 20
103.244536758435
 30
-0.0000000000000001
 10
203.4260109644285
 20
103.2225648107532
 30
0.0
 10
203.147754124235
 20
103.2007091760659
 30
0.0000000000000004
 10
202.431642716665
 20
103.1726656881577
 30
0.0000000000000004
 10
202.2604270787608
 20
103.1667221238625
 30
0.0000000000000004
 10
201.8786665217265
 20
103.154887194489
 30
0.0000000000000004
 10
201.6687426185167
 20
103.1490111223538
 30
0.0000000000000004
 10
200.983057182686
 20
103.1314897968149
 30
0.0000000000000004
 10
200.4515476908607
 20
103.119921175716
 30
0.0000000000000004
 10
199.2420149238103
 20
103.096520947544
 30
0.0000000000000004
 10
198.5639938173303
 20
103.0848386082535
 30
0.0000000000000004
 10
197.4347359877133
 20
103.0673137282539
 30
0.0000000000000004
 10
197.0388953402209
 20
103.061453245124
 30
0.0000000000000004
 10
196.2117289333519
 20
103.0496407689406
 30
0.0000000000000004
 10
195.7829215741258
 20
103.0437290507615
 30
0.0000000000000004
 10
193.5644677656842
 20
103.0143209278221
 30
0.0000000000000004
 10
191.5542429214078
 20
102.991279261912
 30
0.0000000000000004
 10
188.1851708136166
 20
102.956041188468
 30
0.0000000000000004
 10
186.9961673039403
 20
102.9442836588272
 30
0.0000000000000004
 10
184.552369154188
 20
102.9208526311297
 30
0.0000000000000004
 10
183.2928217082874
 20
102.9090916221668
 30
0.0000000000000004
 10
180.6998854389828
 20
102.8858149573877
 30
0.0000000000000004
 10
179.3664961188974
 20
102.8742740719155
 30
0.0000000000000004
 10
176.6246260642201
 20
102.8507655037754
 30
0.0000000000000004
 10
175.209800575042
 20
102.8388699298318
 30
0.0000000000000004
 10
172.3493382419094
 20
102.8153827650087
 30
0.0000000000000004
 10
170.9006406960607
 20
102.8036597051787
 30
0.0000000000000004
 10
167.9660603375705
 20
102.7799347307991
 30
0.0000000000000004
 10
166.4942767334235
 20
102.768195864035
 30
0.0000000000000004
 10
163.5548353626426
 20
102.7448900836719
 30
0.0000000000000004
 10
162.0850670666166
 20
102.7331558323645
 30
0.0000000000000004
 10
159.8803421784421
 20
102.7155142001574
 30
0.0000000000000004
 10
159.1454216799734
 20
102.7096396152014
 30
0.0000000000000004
 10
157.6755560160502
 20
102.6978848016121
 30
0.0000000000000004
 10
156.9409219650211
 20
102.69200687121
 30
0.0000000000000004
 10
153.3066261644826
 20
102.6626866386934
 30
0.0000000000000003
 10
150.4910347831749
 20
102.6394235385233
 30
0.0000000000000003
 10
147.0867752956515
 20
102.6099301155481
 30
0.0000000000000003
 10
146.4103702810898
 20
102.6039747105389
 30
0.0000000000000003
 10
145.0840023974294
 20
102.5921682048503
 30
0.0000000000000003
 10
144.432463749275
 20
102.5863036812639
 30
0.0000000000000003
 10
142.5121330783571
 20
102.5688085603136
 30
0.0000000000000003
 10
141.2775251158884
 20
102.5572448612976
 30
0.0000000000000003
 10
138.8986279872042
 20
102.5338387615879
 30
0.0000000000000003
 10
137.7543332887123
 20
102.5221456726647
 30
0.0000000000000003
 10
136.1074365211241
 20
102.5045863451131
 30
0.0000000000000003
 10
135.5689166187626
 20
102.498707045666
 30
0.0000000000000003
 10
134.5238201371851
 20
102.486900034552
 30
0.0000000000000003
 10
133.5097239570236
 20
102.4750494907833
 30
0.0000000000000003
 10
132.5572805120002
 20
102.4632545965901
 30
0.0000000000000003
 10
131.6357760063124
 20
102.4514851515317
 30
0.0000000000000003
 10
131.1895609353219
 20
102.4455998991617
 30
0.0000000000000003
 10
129.9078099019059
 20
102.4280054982994
 30
0.0000000000000003
 10
129.1271193748953
 20
102.4162320700632
 30
0.0000000000000003
 10
127.7089395510263
 20
102.3928799377609
 30
0.0000000000000003
 10
127.0714608200633
 20
102.3813449299182
 30
0.0000000000000003
 10
126.2233232238659
 20
102.3638340314689
 30
0.0000000000000003
 10
125.9586642294227
 20
102.357947712003
 30
0.0000000000000003
 10
125.4660650620603
 20
102.3461513028132
 30
0.0000000000000003
 10
125.2375103103777
 20
102.3402235190312
 30
0.0000000000000003
 10
124.1974427226259
 20
102.3107884579816
 30
0.0000000000000003
 10
123.6914874648655
 20
102.2875214607176
 30
0.0000000000000003
 10
123.4552038077417
 20
102.258435252308
 30
0.0000000000000001
 10
123.4279835827817
 20
102.2526224674365
 30
0.0000000000000001
 10
123.4200740562987
 20
102.2458749377606
 30
0.0
 10
123.4195027539626
 20
102.2449831966765
 30
0.0
 10
123.4194042339968
 20
102.2440900304569
 30
0.0
  0
SPLINE
  5
2D591
330
1F
100
AcDbEntity
  8
実線
100
AcDbSpline
210
0.0
220
0.0
230
1.0
 70
    24
 71
     2
 72
     6
 73
     3
 74
     0
 42
0.000000001
 43
0.0000000001
 40
0.0
 40
0.0
 40
0.0
 40
1.0
 40
1.0
 40
1.0
 10
98.30077374287341
 20
177.3467822469258
 30
0.0
 10
98.38618989304542
 20
176.8623468041444
 30
0.0
 10
98.47160604298551
 20
176.3779113613631
 30
0.0
  0
SPLINE
  5
2D596
330
1F
100
AcDbEntity
  8
実線
100
AcDbSpline
210
0.0
220
0.0
230
1.0
 70
     8
 71
     3
 72
     8
 73
     4
 74
     0
 42
0.000000001
 43
0.0000000001
 40
0.0
 40
0.0
 40
0.0
 40
0.0
 40
1.0
 40
1.0
 40
1.0
 40
1.0
 10
137.4904015469899
 20
31.73533274995481
 30
0.0
 10
138.0669622555406
 20
31.6455124618551
 30
0.0
 10
138.646318250542
 20
31.58069685738133
 30
0.0
 10
139.228457164158
 20
31.54078276810145
 30
0.0
  0
SPLINE
  5
2D597
330
1F
100
AcDbEntity
  8
細線
100
AcDbSpline
210
0.0
220
0.0
230
1.0
 70
     8
 71
     3
 72
    10
 73
     6
 74
     0
 42
0.000000001
 43
0.0000000001
 40
0.0
 40
0.0
 40
0.0
 40
0.0
 40
0.5731150032611204
 40
0.9397957447422211
 40
1.0
 40
1.0
 40
1.0
 40
1.0
 10
203.2944815081962
 20
84.02303044130771
 30
-0.0000000000000006
 10
203.7968806737697
 20
84.50706467255782
 30
-0.0000000000000006
 10
204.5028973795029
 20
85.17538599756552
 30
-0.0000000000000005
 10
205.0761464455727
 20
85.68393067181849
 30
-0.0000000000000005
 10
205.281575722941
 20
85.85750846709784
 30
-0.0000000000000005
 10
205.3097418298644
 20
85.88111678955561
 30
-0.0000000000000005
  0
SPLINE
  5
2D59C
330
1F
100
AcDbEntity
  8
実線
100
AcDbSpline
210
0.0
220
0.0
230
1.0
 70
     8
 71
     3
 72
    16
 73
    12
 74
     0
 42
0.000000001
 43
0.0000000001
 40
0.0
 40
0.0
 40
0.0
 40
0.0
 40
0.0001135887493829
 40
0.0001135887493829
 40
0.4994273236904162
 40
0.4994273236904162
 40
0.74960920583914
 40
0.74960920583914
 40
0.9998864112506279
 40
0.9998864112506279
 40
1.0
 40
1.0
 40
1.0
 40
1.0
 10
136.9660463541713
 20
31.7952572111667
 30
0.0
 10
136.9660662840158
 20
31.79525574104139
 30
0.0
 10
136.9660862138532
 20
31.7952542708257
 30
0.0
 10
137.0537137490096
 20
31.78878962297574
 30
0.0
 10
137.1412103259124
 20
31.78057188684625
 30
0.0
 10
137.2722282982939
 20
31.76560719491454
 30
0.0
 10
137.3159186772382
 20
31.7601710494896
 30
0.0
 10
137.4031935976688
 20
31.74841707330347
 30
0.0
 10
137.4467825275908
 20
31.74209831030504
 30
0.0
 10
137.4903209106173
 20
31.73533671546045
 30
0.0
 10
137.49034065865
 20
31.73533364846003
 30
0.0
 10
137.4903604066683
 20
31.73533058136911
 30
0.0
  0
SPLINE
  5
2D59D
330
1F
100
AcDbEntity
  8
実線
100
AcDbSpline
210
0.0
220
0.0
230
1.0
 70
     8
 71
     3
 72
    12
 73
     8
 74
     0
 42
0.000000001
 43
0.0000000001
 40
0.0
 40
0.0
 40
0.0
 40
0.0
 40
0.25
 40
0.25
 40
0.5
 40
0.5
 40
1.0
 40
1.0
 40
1.0
 40
1.0
 10
201.4193835864789
 20
96.69914885721219
 30
0.0
 10
201.4193835864789
 20
96.56700696193821
 30
0.0
 10
201.4453172920958
 20
96.43735041826769
 30
0.0
 10
201.5454862027548
 20
96.19499947386179
 30
0.0
 10
201.619616208739
 20
96.08397660506213
 30
0.0
 10
201.8960509561816
 20
95.80675840870048
 30
0.0
 10
202.1550541904826
 20
95.69777651121427
 30
0.0
 10
202.4193484704079
 20
95.69777651121427
 30
0.0
  0
SPLINE
  5
2D5A6
330
1F
100
AcDbEntity
  8
実線
100
AcDbSpline
210
0.0
220
0.0
230
1.0
 70
     8
 71
     3
 72
    70
 73
    66
 74
     0
 42
0.000000001
 43
0.0000000001
 40
0.0
 40
0.0
 40
0.0
 40
0.0
 40
0.0062672843604481
 40
0.0062672843604481
 40
0.0274610462520416
 40
0.0274610462520416
 40
0.0486548081436362
 40
0.0486548081436362
 40
0.0910423319268267
 40
0.0910423319268267
 40
0.1334298557100159
 40
0.1334298557100159
 40
0.1758173794932064
 40
0.1758173794932064
 40
0.2182049032763957
 40
0.2182049032763957
 40
0.2393986651679903
 40
0.2393986651679903
 40
0.2605924270595849
 40
0.2605924270595849
 40
0.3029799508427742
 40
0.3029799508427742
 40
0.3453674746259635
 40
0.3453674746259635
 40
0.3665612365175581
 40
0.3665612365175581
 40
0.3877549984091526
 40
0.3877549984091526
 40
0.4301425221923421
 40
0.4301425221923421
 40
0.4513362840839366
 40
0.4513362840839366
 40
0.4725300459755312
 40
0.4725300459755312
 40
0.5149175697587204
 40
0.5149175697587204
 40
0.5573050935419111
 40
0.5573050935419111
 40
0.5784988554335057
 40
0.5784988554335057
 40
0.5996926173250989
 40
0.5996926173250989
 40
0.6420801411082895
 40
0.6420801411082895
 40
0.663273902999883
 40
0.663273902999883
 40
0.6844676648914775
 40
0.6844676648914775
 40
0.726855188674668
 40
0.726855188674668
 40
0.7692427124578574
 40
0.7692427124578574
 40
0.7904364743494519
 40
0.7904364743494519
 40
0.8116302362410465
 40
0.8116302362410465
 40
0.8540177600242358
 40
0.8540177600242358
 40
0.8964052838074263
 40
0.8964052838074263
 40
0.9387928075906156
 40
0.9387928075906156
 40
0.9811803313738048
 40
0.9811803313738048
 40
1.0
 40
1.0
 40
1.0
 40
1.0
 10
202.1572658838738
 20
103.9574985919837
 30
0.0
 10
202.1509719680123
 20
103.9554339368385
 30
0.0
 10
202.1422383052895
 20
103.9533650358056
 30
0.0
 10
202.0932542060005
 20
103.9442765574389
 30
0.0
 10
202.0272427772304
 20
103.9372349570864
 30
0.0
 10
201.838150128654
 20
103.9231791964721
 30
0.0000000000000004
 10
201.7159152516313
 20
103.9162207726799
 30
0.0000000000000004
 10
201.2682775543185
 20
103.8953576468305
 30
0.0000000000000004
 10
200.8622796113946
 20
103.88135526465
 30
0.0000000000000004
 10
199.8378308281426
 20
103.8536068772259
 30
0.0000000000000004
 10
199.2194049334159
 20
103.8397603780546
 30
0.0000000000000004
 10
197.7616124122405
 20
103.8114821234449
 30
0.0000000000000004
 10
196.9367051641788
 20
103.7975846848019
 30
0.0000000000000004
 10
195.1077770576191
 20
103.7698714808859
 30
0.0000000000000004
 10
194.1028925023092
 20
103.7558711332914
 30
0.0000000000000004
 10
192.4585912531104
 20
103.7349897786762
 30
0.0000000000000004
 10
191.8875900941234
 20
103.7280390303776
 30
0.0000000000000004
 10
190.6986477468445
 20
103.7140217965604
 30
0.0000000000000004
 10
190.0830223626753
 20
103.7069533676381
 30
0.0000000000000004
 10
188.1922364426441
 20
103.6858958152611
 30
0.0000000000000004
 10
186.8662513445056
 20
103.6720810945803
 30
0.0000000000000004
 10
184.0858763799976
 20
103.6443817680024
 30
0.0000000000000004
 10
182.6314950107157
 20
103.6303390441548
 30
0.0000000000000004
 10
180.3504500818112
 20
103.609318298316
 30
0.0000000000000004
 10
179.5736638361582
 20
103.6023099781701
 30
0.0000000000000004
 10
178.0099021905144
 20
103.5883541005418
 30
0.0000000000000004
 10
177.2200862551208
 20
103.5813517736105
 30
0.0000000000000004
 10
174.8272545665384
 20
103.5603989942903
 30
0.0000000000000004
 10
173.2009527287277
 20
103.5466057870489
 30
0.0000000000000004
 10
170.7147382017037
 20
103.5257738280304
 30
0.0000000000000004
 10
169.8781822015489
 20
103.518760546182
 30
0.0000000000000004
 10
168.1891010034761
 20
103.5046799893912
 30
0.0000000000000004
 10
167.3347370653694
 20
103.4976065502269
 30
0.0000000000000004
 10
164.7845984897894
 20
103.4766372726737
 30
0.0000000000000004
 10
163.0904768903356
 20
103.4628054167927
 30
0.0000000000000004
 10
159.7138704331998
 20
103.4349163711122
 30
0.0000000000000004
 10
158.0313836141956
 20
103.4211010616226
 30
0.0000000000000004
 10
155.5166079603086
 20
103.4001415561167
 30
0.0000000000000004
 10
154.6769637865798
 20
103.3930459385815
 30
0.0000000000000004
 10
153.0223900137668
 20
103.3789635686507
 30
0.0000000000000004
 10
152.2059296503386
 20
103.3719710910165
 30
0.0000000000000004
 10
149.7883414024622
 20
103.3511298334535
 30
0.0000000000000004
 10
148.2188739730966
 20
103.3373207116994
 30
0.0000000000000004
 10
145.9278298702215
 20
103.3163722792224
 30
0.0000000000000004
 10
145.1747077868342
 20
103.3093923690169
 30
0.0000000000000004
 10
143.6899571855695
 20
103.2954332950327
 30
0.0000000000000004
 10
142.9556911161053
 20
103.2884283758904
 30
0.0000000000000004
 10
140.8081965082847
 20
103.2674061651344
 30
0.0000000000000004
 10
139.4522886417407
 20
103.2533642638466
 30
0.0000000000000004
 10
136.8870479243253
 20
103.2256536391058
 30
0.0000000000000004
 10
135.6777253270943
 20
103.2118232378953
 30
0.0000000000000004
 10
133.9757754182019
 20
103.190774739275
 30
0.0000000000000004
 10
133.4257435871448
 20
103.1837301995673
 30
0.0000000000000004
 10
132.3709665774881
 20
103.1697028282362
 30
0.0000000000000004
 10
131.8686711905948
 20
103.1627537800336
 30
0.0000000000000004
 10
130.4352154799212
 20
103.1418704508755
 30
0.0000000000000004
 10
129.5771791248796
 20
103.1278739789557
 30
0.0000000000000004
 10
128.0542780033713
 20
103.1001508409943
 30
0.0000000000000004
 10
127.389014283608
 20
103.0862445312212
 30
0.0000000000000004
 10
126.2613296931315
 20
103.0579707666572
 30
0.0000000000000004
 10
125.8107047532849
 20
103.0441359553474
 30
0.0000000000000004
 10
125.1270050088556
 20
103.0163842322296
 30
0.0000000000000004
 10
124.8939567918505
 20
103.0023886723549
 30
0.0000000000000004
 10
124.7164421520606
 20
102.9822985295098
 30
-0.0000000000000001
 10
124.683635746981
 20
102.9761251547619
 30
-0.0000000000000001
 10
124.6731074581962
 20
102.9698997781175
 30
0.0
  0
SPLINE
  5
2D5A7
330
1F
100
AcDbEntity
  8
細線
100
AcDbSpline
210
-0.0000000000000031
220
0.0000000000000003
230
1.0
 70
     8
 71
     3
 72
    14
 73
    10
 74
     0
 42
0.000000001
 43
0.0000000001
 40
0.0
 40
0.0
 40
0.0
 40
0.0
 40
0.24879843321474
 40
0.3740102596412349
 40
0.4992220860677303
 40
0.6244339124942253
 40
0.7496457389207202
 40
0.8748575653472151
 40
1.0
 40
1.0
 40
1.0
 40
1.0
 10
198.4646150678618
 20
55.56588503674332
 30
0.000000000000001
 10
198.270747814252
 20
57.22679266100056
 30
0.0000000000000011
 10
198.0631665107708
 20
59.71975168673657
 30
0.0000000000000013
 10
197.9692249196981
 20
63.05122741465572
 30
0.0000000000000015
 10
197.9915728517808
 20
65.55966887376951
 30
0.0000000000000021
 10
198.1087500420269
 20
68.08090441005282
 30
0.0
 10
198.3164737588056
 20
70.59746944005495
 30
-0.000000000000002
 10
198.6099326995472
 20
73.0979113565843
 30
-0.0000000000000014
 10
198.8581928625658
 20
74.75899943716314
 30
-0.0000000000000013
 10
198.9943327597659
 20
75.58799526791654
 30
-0.0000000000000013
  0
SPLINE
  5
2D5AC
330
1F
100
AcDbEntity
  8
実線
100
AcDbSpline
210
0.0
220
0.0
230
1.0
 70
    24
 71
     3
 72
    26
 73
    22
 74
     0
 42
0.000000001
 43
0.0000000001
 40
0.0068742445972368
 40
0.0068742445972368
 40
0.0068742445972368
 40
0.0068742445972368
 40
0.0669303343659364
 40
0.136433936331675
 40
0.1996509213620914
 40
0.2565812894571854
 40
0.3072250406169578
 40
0.3426063051577638
 40
0.3741065459782948
 40
0.4017257630785504
 40
0.4255362733619993
 40
0.4503431333035728
 40
0.4875517457619873
 40
0.5310729529116544
 40
0.5809067547525753
 40
0.6370531512847494
 40
0.6995121425081761
 40
0.7670003084084336
 40
0.8405776321342774
 40
0.9202441136857084
 40
1.0
 40
1.0
 40
1.0
 40
1.0
 10
202.1459199977016
 20
172.2884412611128
 30
0.0
 10
203.136595677448
 20
172.4810091059971
 30
0.0
 10
205.2737916915587
 20
172.8964379279078
 30
0.0
 10
208.4538050095889
 20
173.5145698997284
 30
0.0
 10
211.5822569213465
 20
174.1226793494583
 30
0.0
 10
214.3995997417682
 20
174.6703153178386
 30
0.0
 10
216.7577689559248
 20
175.1286969786853
 30
0.0
 10
218.6964468458746
 20
175.5055377862519
 30
0.0
 10
220.2553156936756
 20
175.8085511947927
 30
0.0
 10
221.6233152244224
 20
176.0744633664796
 30
0.0
 10
222.8809018115762
 20
176.3189134360579
 30
0.0
 10
224.2966735353477
 20
176.594111581393
 30
0.0
 10
226.0375897713816
 20
176.9325114175359
 30
0.0
 10
228.191346449968
 20
177.351159306527
 30
0.0
 10
230.657497794648
 20
177.8305305672862
 30
0.0
 10
233.4360438054214
 20
178.3706251998136
 30
0.0
 10
236.5058133903954
 20
178.9673279607222
 30
0.0
 10
239.8631207706658
 20
179.6199224071694
 30
0.0
 10
243.5042801673276
 20
180.3276920963121
 30
0.0
 10
247.3478059236192
 20
181.0747978209987
 30
0.0
 10
249.9776118810239
 20
181.5859803159711
 30
0.0
 10
251.2932522630815
 20
181.8417149001495
 30
0.0
  0
SPLINE
  5
2D5B3
330
1F
100
AcDbEntity
  8
実線
100
AcDbSpline
210
0.0
220
0.0
230
1.0
 70
     8
 71
     3
 72
    10
 73
     6
 74
     0
 42
0.000000001
 43
0.0000000001
 40
0.0
 40
0.0
 40
0.0
 40
0.0
 40
0.5
 40
0.5
 40
1.0
 40
1.0
 40
1.0
 40
1.0
 10
187.6103100087998
 20
31.54078276810145
 30
0.0
 10
188.4323652405915
 20
31.59714661038595
 30
0.0
 10
189.2501960903073
 20
31.70339708590063
 30
0.0
 10
190.8662408390535
 20
32.01435744134301
 30
0.0
 10
191.6624005422998
 20
32.21843648341418
 30
0.0
 10
192.4465968295271
 20
32.47152062771159
 30
0.0
  0
SPLINE
  5
2D5B7
330
1F
100
AcDbEntity
  8
実線
100
AcDbSpline
210
0.0
220
0.0
230
1.0
 70
     8
 71
     3
 72
    12
 73
     8
 74
     0
 42
0.000000001
 43
0.0000000001
 40
0.0
 40
0.0
 40
0.0
 40
0.0
 40
0.5000000000000017
 40
0.5000000000000017
 40
0.7500000000000008
 40
0.7500000000000008
 40
1.0
 40
1.0
 40
1.0
 40
1.0
 10
205.3992871655694
 20
90.2597548767663
 30
0.0
 10
205.0460556131495
 20
90.91753096674556
 30
0.0000000000000001
 10
204.6107016322853
 20
91.51134818452504
 30
0.0000000000000001
 10
203.8377552691723
 20
92.30868027146408
 30
0.0000000000000002
 10
203.5585942146456
 20
92.5592342904402
 30
0.0000000000000002
 10
202.9727563280746
 20
93.01543333285655
 30
0.0000000000000002
 10
202.6646739192065
 20
93.22279651760856
 30
0.0000000000000002
 10
202.3411927221687
 20
93.40910137671428
 30
-0.0000000000000002
  0
SPLINE
  5
2D5B9
330
1F
100
AcDbEntity
  8
実線
100
AcDbSpline
210
0.0
220
0.0
230
1.0
 70
    24
 71
     3
 72
    18
 73
    14
 74
     0
 42
0.000000001
 43
0.0000000001
 40
0.0
 40
0.0
 40
0.0
 40
0.0
 40
0.0697903719869067
 40
0.1392938804869815
 40
0.2025107805057247
 40
0.2594410720431375
 40
0.3100847550992187
 40
0.3454659720607159
 40
0.3769661705209825
 40
0.4045853504800203
 40
0.4283958287440471
 40
0.453202655326348
 40
0.4538922612799914
 40
0.4538922612799914
 40
0.4538922612799914
 40
0.4538922612799914
 10
251.2932522630815
 20
214.7323968198765
 30
0.0
 10
250.1419998680205
 20
214.9561776163239
 30
0.0
 10
247.8442271385952
 20
215.4028193897978
 30
0.0
 10
244.5036371052509
 20
216.0521643131815
 30
0.0
 10
241.3751851934933
 20
216.6602737629113
 30
0.0
 10
238.5578423730715
 20
217.2079097312917
 30
0.0
 10
236.1996731589147
 20
217.6662913921384
 30
0.0
 10
234.260995268965
 20
218.0431321997053
 30
0.0
 10
232.7021264211642
 20
218.3461456082459
 30
0.0
 10
231.3341268904171
 20
218.6120577799327
 30
0.0
 10
230.0765403032635
 20
218.8565078495112
 30
0.0
 10
229.2631802718517
 20
219.0146090238572
 30
0.0
 10
228.8425946210398
 20
219.0963625926809
 30
0.0
 10
228.8312189759017
 20
219.0985737940995
 30
0.0
  0
SPLINE
  5
2D5BD
330
1F
100
AcDbEntity
  8
実線
100
AcDbSpline
210
0.0
220
0.0
230
1.0
 70
    12
 71
     2
 72
     6
 73
     3
 74
     0
 42
0.000000001
 43
0.0000000001
 40
0.8531309843115321
 40
0.8531309843115321
 40
0.8531309843115321
 40
1.0
 40
1.0
 40
1.0
 10
124.9775325046151
 20
224.0009846314839
 30
0.0
 41
0.9939494783802787
 10
124.6203954376507
 20
223.8737794690823
 30
0.0
 41
0.9967600100075888
 10
124.3170490533048
 20
223.8202913170217
 30
0.0
 41
0.9999999999999994
  0
SPLINE
  5
2D5BE
330
1F
100
AcDbEntity
  8
実線
100
AcDbSpline
210
0.0000000000000013
220
0.0000000000000008
230
-1.0
 70
     8
 71
     3
 72
    14
 73
    10
 74
     0
 42
0.000000001
 43
0.0000000001
 40
0.0
 40
0.0
 40
0.0
 40
0.0
 40
0.25
 40
0.25
 40
0.5
 40
0.5
 40
0.75
 40
0.75
 40
1.0
 40
1.0
 40
1.0
 40
1.0
 10
202.0907001070073
 20
93.55343894390847
 30
-0.0000000000000002
 10
201.9762553057312
 20
93.61955948454591
 30
-0.0000000000000002
 10
201.872928685344
 20
93.69910384234222
 30
-0.0000000000000002
 10
201.6878603629989
 20
93.8842543704929
 30
-0.0000000000000002
 10
201.6069549239069
 20
93.98990028614909
 30
-0.0000000000000002
 10
201.476714820504
 20
94.21579163480826
 30
-0.0000000000000002
 10
201.4256545443068
 20
94.33934162342342
 30
-0.0000000000000002
 10
201.3584098541123
 20
94.59118931797519
 30
-0.0000000000000001
 10
201.341229581654
 20
94.72021344125812
 30
-0.0000000000000001
 10
201.341229581654
 20
94.85247704960041
 30
-0.0000000000000001
  0
SPLINE
  5
2D5C0
330
1F
100
AcDbEntity
  8
実線
100
AcDbSpline
210
0.0
220
0.0
230
1.0
 70
     8
 71
     3
 72
    14
 73
    10
 74
     0
 42
0.000000001
 43
0.0000000001
 40
0.0
 40
0.0
 40
0.0
 40
0.0
 40
0.25
 40
0.25
 40
0.5
 40
0.5
 40
0.75
 40
0.75
 40
1.0
 40
1.0
 40
1.0
 40
1.0
 10
64.35122819046637
 20
83.26593190722666
 30
0.0
 10
64.60041564957987
 20
83.01674444811323
 30
0.0
 10
64.8711633586995
 20
82.79796516247944
 30
0.0
 10
65.4540885423821
 20
82.41883835774713
 30
0.0
 10
65.77030034933568
 20
82.25732736932497
 30
0.0
 10
66.42131124160596
 20
82.0069885464963
 30
0.0
 10
66.75678842428465
 20
81.91659544703608
 30
0.0
 10
67.44790903030434
 20
81.80613877127376
 30
0.0
 10
67.80152532319267
 20
81.78708510915027
 30
0.0
 10
68.15345424782981
 20
81.80552892255597
 30
0.0
  0
SPLINE
  5
2D5C1
330
1F
100
AcDbEntity
  8
実線
100
AcDbSpline
210
0.0
220
0.0
230
1.0
 70
    24
 71
     2
 72
     6
 73
     3
 74
     0
 42
0.000000001
 43
0.0000000001
 40
0.0
 40
0.0
 40
0.0
 40
1.0
 40
1.0
 40
1.0
 10
102.6025211894089
 20
175.6491623735988
 30
0.0
 10
102.6823416778009
 20
176.1018455250946
 30
0.0
 10
102.7621621661988
 20
176.5545286763652
 30
0.0
  0
SPLINE
  5
2D5CB
330
1F
100
AcDbEntity
  8
実線
100
AcDbSpline
210
0.000000000000127
220
0.0000000000008257
230
1.0
 70
     8
 71
     3
 72
    14
 73
    10
 74
     0
 42
0.000000001
 43
0.0000000001
 40
0.0
 40
0.0
 40
0.0
 40
0.0
 40
0.25
 40
0.25
 40
0.5
 40
0.5
 40
0.75
 40
0.75
 40
1.0
 40
1.0
 40
1.0
 40
1.0
 10
213.8543738908545
 20
86.9037089988542
 30
0.0000000000000001
 10
213.6513078235721
 20
86.93250972471798
 30
0.0000000000000001
 10
213.4463135768296
 20
86.96164765357956
 30
0.0000000000000001
 10
213.0221915736874
 20
87.02309019418811
 30
0.0000000000000001
 10
212.8013560834584
 20
87.05564776277492
 30
0.0000000000000001
 10
212.3397558036877
 20
87.12573301553355
 30
-0.0000000000000002
 10
212.0988513601797
 20
87.16325776186193
 30
-0.0000000000000002
 10
211.5858502450099
 20
87.245969618462
 30
-0.0000000000000002
 10
211.3214359037832
 20
87.289921681405
 30
-0.0000000000000001
 10
211.0512743706463
 20
87.33658668106642
 30
-0.0000000000000001
  0
SPLINE
  5
2D5D2
330
1F
100
AcDbEntity
  8
実線
100
AcDbSpline
210
0.0
220
0.0
230
1.0
 70
     8
 71
     3
 72
     9
 73
     5
 74
     0
 42
0.000000001
 43
0.0000000001
 40
0.5790764093597884
 40
0.5790764093597884
 40
0.5790764093597884
 40
0.5790764093597884
 40
0.7621800052698358
 40
1.0
 40
1.0
 40
1.0
 40
1.0
 10
199.7214046152476
 20
224.9170554353026
 30
0.0
 10
199.5070280957071
 20
224.9915628976779
 30
0.0
 10
199.0181023888207
 20
225.1738370564424
 30
0.0
 10
198.5392855741347
 20
225.3815785289083
 30
0.0
 10
195.2074266432781
 20
228.7094210531807
 30
0.0
  0
SPLINE
  5
2D5D6
330
1F
100
AcDbEntity
  8
実線
100
AcDbSpline
210
0.0
220
0.0
230
1.0
 70
     8
 71
     2
 72
     6
 73
     3
 74
     0
 42
0.000000001
 43
0.0000000001
 40
0.0
 40
0.0
 40
0.0
 40
1.0
 40
1.0
 40
1.0
 10
124.6809167416615
 20
102.9744090267037
 30
0.0
 10
124.0480668074974
 20
102.6089960708066
 30
0.0
 10
123.4152160479232
 20
102.2435848795669
 30
0.0
  0
SPLINE
  5
2D5D7
330
1F
100
AcDbEntity
  8
細線
100
AcDbSpline
210
0.00000000000482
220
0.000000000002024
230
-1.0
 70
     8
 71
     3
 72
    15
 73
    11
 74
     0
 42
0.000000001
 43
0.0000000001
 40
0.0
 40
0.0
 40
0.0
 40
0.0
 40
0.0861481002737292
 40
0.1786563570242253
 40
0.2711646137747216
 40
0.3636728705252175
 40
0.5486893840262101
 40
0.7337058975272021
 40
0.9187224110281944
 40
1.0
 40
1.0
 40
1.0
 40
1.0
 10
122.1446109132648
 20
81.82326589983802
 30
-0.000000000000001
 10
122.1128509457396
 20
81.890847930238
 30
-0.000000000000001
 10
122.0562648365155
 20
82.01147403827997
 30
-0.000000000000001
 10
121.9837193944499
 20
82.172095656622
 30
-0.000000000000001
 10
121.9027374621071
 20
82.35567954114282
 30
-0.000000000000001
 10
121.8019356881366
 20
82.58996198333921
 30
-0.000000000000001
 10
121.6794061421162
 20
82.88383869984057
 30
0.0000000000000014
 10
121.5416085014453
 20
83.22506128059377
 30
0.0000000000000007
 10
121.4290944833803
 20
83.50817703142261
 30
0.0000000000000008
 10
121.3642114920899
 20
83.67084553912372
 30
0.0000000000000008
 10
121.3444806425627
 20
83.72022624170496
 30
0.0000000000000007
  0
SPLINE
  5
2D5DD
330
1F
100
AcDbEntity
  8
細線
100
AcDbSpline
210
0.0000000000000163
220
0.0000000000000066
230
1.0
 70
     8
 71
     3
 72
    30
 73
    26
 74
     0
 42
0.000000001
 43
0.0000000001
 40
0.0
 40
0.0
 40
0.0
 40
0.0
 40
0.015646960550939
 40
0.0234704408264085
 40
0.0312939211018779
 40
0.0469408816528169
 40
0.0625878422037559
 40
0.0938817633056338
 40
0.1251756844075117
 40
0.1877635266112676
 40
0.2503513688150235
 40
0.3129392110187793
 40
0.3755270532225352
 40
0.4381148954262911
 40
0.5007027376300469
 40
0.5632905798338028
 40
0.6258784220375589
 40
0.6884662642413148
 40
0.7510541064450706
 40
0.8136419486488261
 40
0.844935869750704
 40
0.8762297908525821
 40
0.938817633056338
 40
0.9701115541582158
 40
1.0
 40
1.0
 40
1.0
 40
1.0
 10
128.3170143075297
 20
65.72257212055602
 30
0.0000000000000016
 10
128.3166213782583
 20
65.81684256371261
 30
0.0000000000000016
 10
128.3161148664712
 20
65.99560590857118
 30
0.0000000000000017
 10
128.3082662318904
 20
66.27447474949514
 30
0.0000000000000017
 10
128.2971898695909
 20
66.53142545433581
 30
0.0000000000000017
 10
128.2780624173033
 20
66.84582697231451
 30
0.0000000000000017
 10
128.2338012708678
 20
67.3573761806741
 30
0.0000000000000016
 10
128.1559429661852
 20
67.98334451235354
 30
0.0000000000000024
 10
127.9842071357568
 20
68.97095770103579
 30
-0.0000000000000026
 10
127.6963679151452
 20
70.13944946177854
 30
-0.0000000000000013
 10
127.2681097420456
 20
71.44472095670022
 30
-0.0000000000000017
 10
126.798173425258
 20
72.63248811798529
 30
-0.0000000000000016
 10
126.3042534601522
 20
73.73977962422753
 30
-0.0000000000000015
 10
125.7999282583962
 20
74.77567604391881
 30
-0.0000000000000015
 10
125.3079539109665
 20
75.73261479627217
 30
-0.0000000000000014
 10
124.8297879374477
 20
76.63827960878404
 30
-0.0000000000000014
 10
124.3742030569167
 20
77.49175861012258
 30
-0.0000000000000013
 10
123.9352665507031
 20
78.31514322427143
 30
-0.0000000000000013
 10
123.5221312829062
 20
79.09451077042557
 30
-0.0000000000000012
 10
123.1957673996253
 20
79.71941933913808
 30
-0.0000000000000012
 10
122.9493375824804
 20
80.19694245547624
 30
-0.0000000000000011
 10
122.7170057211328
 20
80.65306520008745
 30
-0.0000000000000011
 10
122.4948254737
 20
81.09940233047002
 30
-0.0000000000000011
 10
122.2946397393557
 20
81.5108469234782
 30
-0.0000000000000011
 10
122.1946905222758
 20
81.71896664665712
 30
-0.000000000000001
 10
122.1446107603474
 20
81.82326622527703
 30
-0.000000000000001
  0
SPLINE
  5
2D5E3
330
1F
100
AcDbEntity
  8
実線
100
AcDbSpline
210
-0.000026141873455
220
-0.0000452746239037
230
-0.9999999986334055
 70
     8
 71
     2
 72
     6
 73
     3
 74
     0
 42
0.000000001
 43
0.0000000001
 40
0.0
 40
0.0
 40
0.0
 40
1.0
 40
1.0
 40
1.0
 10
203.4236178922179
 20
103.2435456533089
 30
0.0000000000000001
 10
202.7907694887667
 20
103.6089554929007
 30
0.0
 10
202.1579219565319
 20
103.9743670302803
 30
0.0
  0
SPLINE
  5
2D5E7
330
1F
100
AcDbEntity
  8
実線
100
AcDbSpline
210
0.0
220
0.0
230
1.0
 70
     8
 71
     3
 72
    16
 73
    12
 74
     0
 42
0.000000001
 43
0.0000000001
 40
0.0
 40
0.0
 40
0.0
 40
0.0
 40
0.2500000000000046
 40
0.2500000000000046
 40
0.5000000000000091
 40
0.5000000000000091
 40
0.6250000000000068
 40
0.6250000000000068
 40
0.7500000000000046
 40
0.7500000000000046
 40
1.0
 40
1.0
 40
1.0
 40
1.0
 10
251.6381292875285
 20
80.41337746772809
 30
0.0
 10
252.0346659732288
 20
80.34488368887982
 30
0.0
 10
252.4313142992178
 20
80.32497647778711
 30
0.0
 10
253.2248263079937
 20
80.37888671185028
 30
0.0
 10
253.6237616545157
 20
80.454706881915
 30
0.0
 10
254.1911684903094
 20
80.63473130057523
 30
0.0
 10
254.3764373999522
 20
80.70584793543069
 30
0.0
 10
254.7391564026407
 20
80.87054357254508
 30
0.0
 10
254.9176585703574
 20
80.9648234500276
 30
0.0
 10
255.430795204411
 20
81.27675746038267
 30
0.0
 10
255.7443258129751
 20
81.5227187377107
 30
0.0
 10
256.0288653480202
 20
81.80725827275544
 30
0.0
  0
SPLINE
  5
2D5EA
330
1F
100
AcDbEntity
  8
実線
100
AcDbSpline
210
0.0
220
0.0
230
1.0
 70
     8
 71
     3
 72
    18
 73
    14
 74
     0
 42
0.000000001
 43
0.0000000001
 40
0.0
 40
0.0
 40
0.0
 40
0.0
 40
0.2500000000000027
 40
0.2500000000000027
 40
0.3750000000000034
 40
0.3750000000000034
 40
0.5000000000000041
 40
0.5000000000000041
 40
0.6250000000000048
 40
0.6250000000000048
 40
0.7500000000000055
 40
0.7500000000000055
 40
1.0
 40
1.0
 40
1.0
 40
1.0
 10
133.5631320266579
 20
29.73808806678761
 30
0.0
 10
133.3666184935603
 20
30.09751440026304
 30
0.0
 10
133.1306591091377
 20
30.42575471031893
 30
0.0
 10
132.7195349064932
 20
30.87290442144194
 30
0.0
 10
132.5718584074768
 20
31.01515169484901
 30
0.0
 10
132.2612625684382
 20
31.27949436022033
 30
0.0
 10
132.0992489495138
 20
31.40105767722253
 30
0.0
 10
131.7621754254614
 20
31.62357659782254
 30
0.0
 10
131.5871148507897
 20
31.72453114381943
 30
0.0
 10
131.2237448167084
 20
31.90551250087374
 30
0.0
 10
131.0342919714439
 20
31.98583982871071
 30
0.0
 10
130.4588938371485
 20
32.1891665398432
 30
0.0
 10
130.0633358796372
 20
32.27702884598495
 30
0.0
 10
129.6555700112158
 20
32.31621055640363
 30
0.0
  0
SPLINE
  5
2D5ED
330
1F
100
AcDbEntity
  8
実線
100
AcDbSpline
210
0.0
220
0.0
230
1.0
 70
     8
 71
     3
 72
    70
 73
    66
 74
     0
 42
0.000000001
 43
0.0000000001
 40
0.0
 40
0.0
 40
0.0
 40
0.0
 40
0.0209586253220514
 40
0.0209586253220514
 40
0.0561002632904462
 40
0.0561002632904462
 40
0.1263835392272359
 40
0.1263835392272359
 40
0.1615251771956307
 40
0.1615251771956307
 40
0.1966668151640255
 40
0.1966668151640255
 40
0.2318084531324203
 40
0.2318084531324203
 40
0.2493792721166176
 40
0.2493792721166176
 40
0.266950091100815
 40
0.266950091100815
 40
0.3372333670376048
 40
0.3372333670376048
 40
0.3548041860218022
 40
0.3548041860218022
 40
0.3723750050059996
 40
0.3723750050059996
 40
0.4075166429743942
 40
0.4075166429743942
 40
0.4426582809427888
 40
0.4426582809427888
 40
0.4602290999269862
 40
0.4602290999269862
 40
0.4777999189111836
 40
0.4777999189111836
 40
0.5480831948479731
 40
0.5480831948479731
 40
0.5656540138321705
 40
0.5656540138321705
 40
0.583224832816368
 40
0.583224832816368
 40
0.6183664707847627
 40
0.6183664707847627
 40
0.6535081087531573
 40
0.6535081087531573
 40
0.6710789277373546
 40
0.6710789277373546
 40
0.6886497467215519
 40
0.6886497467215519
 40
0.758933022658341
 40
0.758933022658341
 40
0.7765038416425384
 40
0.7765038416425384
 40
0.7940746606267358
 40
0.7940746606267358
 40
0.8292162985951303
 40
0.8292162985951303
 40
0.8643579365635252
 40
0.8643579365635252
 40
0.8819287555477226
 40
0.8819287555477226
 40
0.8994995745319201
 40
0.8994995745319201
 40
0.9697828504687091
 40
0.9697828504687091
 40
0.9873536694529068
 40
0.9873536694529068
 40
1.0
 40
1.0
 40
1.0
 40
1.0
 10
123.419358228854
 20
102.0675438650065
 30
0.0
 10
123.4202041683897
 20
102.0745783542211
 30
0.0000000000000001
 10
123.4503498546303
 20
102.0816251563466
 30
0.0000000000000001
 10
123.6091381354174
 20
102.1005045159881
 30
0.0000000000000003
 10
123.7920005970782
 20
102.1122786882008
 30
0.0000000000000003
 10
124.575343418232
 20
102.1473271065059
 30
0.0000000000000003
 10
125.4078048949514
 20
102.1705259999565
 30
0.0000000000000003
 10
127.1229737773369
 20
102.2057561014261
 30
0.0000000000000003
 10
127.7772299714506
 20
102.2177074104393
 30
0.0000000000000003
 10
129.2143037587416
 20
102.2411142130469
 30
0.0000000000000003
 10
129.9992515929923
 20
102.2526858525836
 30
0.0000000000000003
 10
131.6994551627165
 20
102.2760893000542
 30
0.0000000000000003
 10
132.614712222713
 20
102.2877743638705
 30
0.0000000000000003
 10
134.0870379485554
 20
102.3052838475625
 30
0.0000000000000003
 10
134.5944235126726
 20
102.3111261095119
 30
0.0000000000000003
 10
135.6431741633739
 20
102.3229340269629
 30
0.0000000000000003
 10
136.1815548859661
 20
102.3288669655862
 30
0.0000000000000003
 10
138.9279371007653
 20
102.3583288852251
 30
0.0000000000000003
 10
141.3113881866231
 20
102.3813714621816
 30
0.0000000000000003
 10
144.5222388999336
 20
102.410717512574
 30
0.0000000000000003
 10
145.1761177641341
 20
102.4165832269852
 30
0.0000000000000003
 10
146.5078019723669
 20
102.4283369633847
 30
0.0000000000000003
 10
147.1839964080302
 20
102.4342104232422
 30
0.0000000000000003
 10
149.2236976640979
 20
102.4518037187412
 30
0.0000000000000003
 10
150.6057105979546
 20
102.4635801405829
 30
0.0000000000000003
 10
153.4131400634999
 20
102.4868754932376
 30
0.0000000000000003
 10
154.838557849351
 20
102.498411691047
 30
0.0000000000000003
 10
157.0096656130191
 20
102.5160233251446
 30
0.0000000000000003
 10
157.73887743568
 20
102.5219261345748
 30
0.0000000000000003
 10
159.2085473313159
 20
102.5337447750173
 30
0.0000000000000003
 10
159.9490499266517
 20
102.5396605356593
 30
0.0000000000000003
 10
163.6334016062214
 20
102.568953820347
 30
0.0000000000000003
 10
166.5602300603123
 20
102.5922725976299
 30
0.0000000000000003
 10
170.1933170622941
 20
102.6213910831713
 30
0.0000000000000003
 10
170.9186473902041
 20
102.6272277438371
 30
0.0000000000000003
 10
172.3666828416253
 20
102.6390273093012
 30
0.0000000000000003
 10
173.0906699080499
 20
102.644985008871
 30
0.0000000000000003
 10
175.2323224580136
 20
102.662691666741
 30
0.0000000000000003
 10
176.6279096841
 20
102.6743053358516
 30
0.0000000000000004
 10
179.3564670596099
 20
102.6975429265144
 30
0.0000000000000004
 10
180.6894327890802
 20
102.7092882553197
 30
0.0000000000000004
 10
182.6414913164603
 20
102.7268441129405
 30
0.0000000000000004
 10
183.284261545274
 20
102.7326876574793
 30
0.0000000000000004
 10
184.5536779816448
 20
102.7444016805432
 30
0.0000000000000004
 10
185.1820489823633
 20
102.7502899043007
 30
0.0000000000000004
 10
188.2485688217737
 20
102.7797595044759
 30
0.0000000000000004
 10
190.4811446966012
 20
102.8028374791895
 30
0.0000000000000004
 10
193.0022729221016
 20
102.8321738034031
 30
0.0000000000000004
 10
193.4928642319407
 20
102.8380601384975
 30
0.0000000000000004
 10
194.446305573321
 20
102.8498339481804
 30
0.0000000000000004
 10
194.9105374562393
 20
102.8557398208895
 30
0.0000000000000004
 10
196.2482715534609
 20
102.8733502315157
 30
0.0000000000000004
 10
197.0671093441656
 20
102.8850320857989
 30
0.0000000000000004
 10
198.5633831993425
 20
102.9084545571299
 30
0.0000000000000004
 10
199.2408080782531
 20
102.9200640904772
 30
0.0000000000000004
 10
200.1503671958958
 20
102.9375107987797
 30
0.0000000000000004
 10
200.4357508783026
 20
102.9433527759674
 30
0.0000000000000004
 10
200.9703341378636
 20
102.9551392422244
 30
0.0000000000000004
 10
201.220141829097
 20
102.9610813899652
 30
0.0000000000000004
 10
202.3689133500754
 20
102.990647258823
 30
0.0000000000000004
 10
202.9622518925653
 20
103.0137981122692
 30
0.0000000000000004
 10
203.3093430834415
 20
103.0429766458403
 30
-0.0000000000000001
 10
203.358803919049
 20
103.0488006006991
 30
-0.0000000000000001
 10
203.4090213268107
 20
103.0588464251543
 30
0.0
 10
203.4195326648687
 20
103.0630683158846
 30
0.0
 10
203.4193758735808
 20
103.0673126999357
 30
0.0
  0
SPLINE
  5
2D5F0
330
1F
100
AcDbEntity
  8
実線
100
AcDbSpline
210
0.0
220
0.0
230
1.0
 70
     8
 71
     3
 72
     8
 73
     4
 74
     0
 42
0.000000001
 43
0.0000000001
 40
0.0
 40
0.0
 40
0.0
 40
0.0
 40
1.0
 40
1.0
 40
1.0
 40
1.0
 10
64.36392166185624
 20
83.24617900749547
 30
0.0
 10
64.36233166283727
 20
83.2524781774253
 30
0.0
 10
64.35809517397139
 20
83.25906492372167
 30
0.0
 10
64.35122819046637
 20
83.26593190722666
 30
0.0
  0
SPLINE
  5
2D5F1
330
1F
100
AcDbEntity
  8
実線
100
AcDbSpline
210
0.0
220
0.0
230
1.0
 70
     8
 71
     3
 72
     8
 73
     4
 74
     0
 42
0.000000001
 43
0.0000000001
 40
0.0
 40
0.0
 40
0.0
 40
0.0
 40
1.0
 40
1.0
 40
1.0
 40
1.0
 10
162.4219404550383
 20
33.86022875736302
 30
0.0000000000000032
 10
163.0868140587247
 20
33.84934646482236
 30
0.0000000000000032
 10
163.7519531142327
 20
33.84934646482236
 30
0.0000000000000032
 10
164.4168267179191
 20
33.86022875736302
 30
0.0000000000000032
  0
SPLINE
  5
2D5F3
330
1F
100
AcDbEntity
  8
細線
100
AcDbSpline
210
-0.000000000000018
220
-0.0000000000000097
230
-1.0
 70
     8
 71
     3
 72
     8
 73
     4
 74
     0
 42
0.000000001
 43
0.0000000001
 40
0.0
 40
0.0
 40
0.0
 40
0.0
 40
1.0
 40
1.0
 40
1.0
 40
1.0
 10
136.2499402841149
 20
34.05592777037681
 30
0.0000000000000249
 10
130.9493469298295
 20
40.8236658777547
 30
-0.0000000000000018
 10
128.3170490533048
 20
46.03440077384772
 30
0.0000000000000004
 10
128.3170490533048
 20
51.4930203739234
 30
0.0000000000000008
  0
SPLINE
  5
2D5F4
330
1F
100
AcDbEntity
  8
実線
100
AcDbSpline
210
0.0000000000000002
220
0.0000000000000005
230
1.0
 70
     8
 71
     3
 72
     8
 73
     4
 74
     0
 42
0.000000001
 43
0.0000000001
 40
0.0
 40
0.0
 40
0.0
 40
0.0
 40
1.0
 40
1.0
 40
1.0
 40
1.0
 10
65.55178052703467
 20
45.33017345177011
 30
0.0
 10
65.56723463006846
 20
45.34562755480396
 30
0.0
 10
65.56647806317322
 20
45.36430659793278
 30
-0.0000000000000001
 10
65.54952915833403
 20
45.38621700020605
 30
0.0
  0
SPLINE
  5
2D5F5
330
1F
100
AcDbEntity
  8
実線
100
AcDbSpline
210
0.0
220
0.0
230
1.0
 70
     8
 71
     3
 72
    10
 73
     6
 74
     0
 42
0.000000001
 43
0.0000000001
 40
0.0
 40
0.0
 40
0.0
 40
0.0
 40
0.9882339677077196
 40
0.9882339677077196
 40
1.0
 40
1.0
 40
1.0
 40
1.0
 10
129.6555700112158
 20
32.31621055640363
 30
0.0
 10
129.6579683433747
 20
32.32757004902214
 30
0.0
 10
129.6603769887235
 20
32.33892855644985
 30
0.0
 10
129.6628246898403
 20
32.35042130859381
 30
0.0
 10
129.6628534910244
 20
32.3505565325479
 30
0.0
 10
129.6628822936624
 20
32.35069175636312
 30
0.0
  0
SPLINE
  5
2D5F7
330
1F
100
AcDbEntity
  8
実線
100
AcDbSpline
210
-0.0000000000005536
220
0.0000000000002527
230
1.0
 70
     8
 71
     3
 72
     8
 73
     4
 74
     0
 42
0.000000001
 43
0.0000000001
 40
0.0
 40
0.0
 40
0.0
 40
0.0
 40
1.0
 40
1.0
 40
1.0
 40
1.0
 10
161.257634170709
 20
29.89790499471093
 30
-0.0000000000000006
 10
161.2336652210965
 20
29.82950699449111
 30
-0.0000000000000006
 10
161.2099367452424
 20
29.77709883925991
 30
0.0000000000000003
 10
161.1858082457685
 20
29.74068650269902
 30
-0.0000000000000001
  0
SPLINE
  5
2D5FA
330
1F
100
AcDbEntity
  8
実線
100
AcDbSpline
210
0.0
220
0.0
230
1.0
 70
     8
 71
     3
 72
    20
 73
    16
 74
     0
 42
0.000000001
 43
0.0000000001
 40
0.0
 40
0.0
 40
0.0
 40
0.0
 40
0.2499999999999951
 40
0.2499999999999951
 40
0.3749999999999958
 40
0.3749999999999958
 40
0.4999999999999968
 40
0.4999999999999968
 40
0.6249999999999975
 40
0.6249999999999975
 40
0.7499999999999984
 40
0.7499999999999984
 40
0.8749999999999991
 40
0.8749999999999991
 40
1.0
 40
1.0
 40
1.0
 40
1.0
 10
71.06663093202155
 20
46.3895058334167
 30
0.0
 10
70.60632929253052
 20
46.58758158540023
 30
0.0
 10
70.12842439548717
 20
46.71298081972401
 30
0.0
 10
69.38564178354567
 20
46.79404504571204
 30
0.0
 10
69.13455999710937
 20
46.8024615385425
 30
0.0
 10
68.64010796576303
 20
46.7823291575911
 30
0.0
 10
68.39470245140296
 20
46.75406000981603
 30
0.0
 10
67.90755576072228
 20
46.66088247188816
 30
0.0
 10
67.66417697490942
 20
46.59518843906822
 30
0.0
 10
67.19592426219604
 20
46.430396477106
 30
0.0
 10
66.96960377953565
 20
46.33128171742781
 30
0.0
 10
66.532401120553
 20
46.09998612024571
 30
0.0
 10
66.32041403912831
 20
45.96696320002894
 30
0.0
 10
65.91813819924869
 20
45.67009163656701
 30
0.0
 10
65.72894618971304
 20
45.50733911444821
 30
0.0
 10
65.55178052703467
 20
45.33017345177007
 30
0.0
  0
SPLINE
  5
2D5FC
330
1F
100
AcDbEntity
  8
実線
100
AcDbSpline
210
0.0
220
0.0
230
1.0
 70
     8
 71
     3
 72
    12
 73
     8
 74
     0
 42
0.000000001
 43
0.0000000001
 40
0.0
 40
0.0
 40
0.0
 40
0.0
 40
0.5
 40
0.5
 40
0.75
 40
0.75
 40
1.0
 40
1.0
 40
1.0
 40
1.0
 10
194.7568561344819
 20
32.95979698592748
 30
0.0
 10
194.4250319144435
 20
32.60070336156031
 30
0.0
 10
194.151074289552
 20
32.19992567099723
 30
0.0
 10
193.8307345874682
 20
31.54520123513441
 30
0.0
 10
193.7389361398834
 20
31.31669178908612
 30
0.0
 10
193.5910183669186
 20
30.85276488110128
 30
0.0
 10
193.5340702358264
 20
30.61593518390032
 30
0.0
 10
193.4944607509981
 20
30.37414544420301
 30
0.0
  0
SPLINE
  5
2D601
330
1F
100
AcDbEntity
  8
実線
100
AcDbSpline
210
0.0
220
0.0
230
1.0
 70
     8
 71
     3
 72
    14
 73
    10
 74
     0
 42
0.000000001
 43
0.0000000001
 40
0.0
 40
0.0
 40
0.0
 40
0.0
 40
0.4999999999999968
 40
0.4999999999999968
 40
0.6249999999999974
 40
0.6249999999999974
 40
0.7499999999999975
 40
0.7499999999999975
 40
1.0
 40
1.0
 40
1.0
 40
1.0
 10
129.6628822936624
 20
32.35069175636312
 30
0.0
 10
130.3167924708677
 20
32.30454856999063
 30
0.0
 10
130.9739484797492
 20
32.25961723447336
 30
0.0
 10
131.8660228836547
 20
32.19525843185784
 30
0.0
 10
132.0479959316194
 20
32.1819785873887
 30
0.0
 10
132.4211550144171
 20
32.15432214451323
 30
0.0
 10
132.6135916687367
 20
32.1398497649513
 30
0.0
 10
133.1975811955867
 20
32.09511181673259
 30
0.0
 10
133.5949918174813
 20
32.06364437903881
 30
0.0
 10
134.0044520154665
 20
32.02952107245216
 30
0.0
  0
SPLINE
  5
2D604
330
1F
100
AcDbEntity
  8
細線
100
AcDbSpline
210
0.0
220
0.0
230
1.0
 70
     8
 71
     3
 72
    15
 73
    11
 74
     0
 42
0.000000001
 43
0.0000000001
 40
0.0
 40
0.0
 40
0.0
 40
0.0
 40
0.0398128844778651
 40
0.2352700793401815
 40
0.4307272742024978
 40
0.6261844690648142
 40
0.8216416639271304
 40
0.9193702613582887
 40
0.9682345600738678
 40
1.0
 40
1.0
 40
1.0
 40
1.0
 10
203.1260161954385
 20
45.53304952161299
 30
0.0000000000000002
 10
203.1100930468447
 20
45.54683416670569
 30
0.0000000000000002
 10
203.0023549575744
 20
45.64364546090711
 30
0.0000000000000002
 10
202.6707408993227
 20
45.99870035590686
 30
0.0000000000000003
 10
201.991781540863
 20
47.02443549314216
 30
0.0000000000000004
 10
201.1768626340731
 20
48.55489268951271
 30
0.0000000000000005
 10
200.429278418703
 20
50.19839391238815
 30
0.0000000000000006
 10
199.8736056917428
 20
51.53067305387957
 30
0.0000000000000007
 10
199.5817298844713
 20
52.25373678021218
 30
0.0000000000000007
 10
199.447013963082
 20
52.59487241216453
 30
0.0000000000000007
 10
199.392986921227
 20
52.73209915915511
 30
0.0000000000000008
  0
SPLINE
  5
2D60B
330
1F
100
AcDbEntity
  8
実線
100
AcDbSpline
210
0.0
220
0.0
230
1.0
 70
     8
 71
     3
 72
    14
 73
    10
 74
     0
 42
0.000000001
 43
0.0000000001
 40
0.0
 40
0.0
 40
0.0
 40
0.0
 40
0.2499999999999999
 40
0.2499999999999999
 40
0.5
 40
0.5
 40
0.7499999999999997
 40
0.7499999999999997
 40
1.0
 40
1.0
 40
1.0
 40
1.0
 10
208.9511112077651
 20
87.69934784897577
 30
-0.0000000000000001
 10
208.5758785270259
 20
87.76425964337182
 30
-0.0000000000000001
 10
208.2151617512705
 20
87.87022411458902
 30
-0.0000000000000001
 10
207.5216937576522
 20
88.161243671729
 30
-0.0000000000000001
 10
207.1863852214272
 20
88.34914017294119
 30
-0.0000000000000001
 10
206.5762883414075
 20
88.78856564551062
 30
-0.0000000000000001
 10
206.2972103567079
 20
89.0413014984789
 30
0.0
 10
205.7950563017694
 20
89.61345269953625
 30
0.0
 10
205.5794230645984
 20
89.92423284718928
 30
0.0
 10
205.3992871655694
 20
90.2597548767663
 30
0.0
  0
SPLINE
  5
2D60C
330
1F
100
AcDbEntity
  8
実線
100
AcDbSpline
210
-0.0000000000000983
220
-0.0000000000000438
230
1.0
 70
     8
 71
     3
 72
    14
 73
    10
 74
     0
 42
0.000000001
 43
0.0000000001
 40
0.0
 40
0.0
 40
0.0
 40
0.0
 40
0.2500000000000009
 40
0.2500000000000009
 40
0.5000000000000019
 40
0.5000000000000019
 40
0.7500000000000009
 40
0.7500000000000009
 40
1.0
 40
1.0
 40
1.0
 40
1.0
 10
165.4269188895268
 20
31.46030567213632
 30
-0.0000000000000005
 10
165.4244549688708
 20
31.67148078383661
 30
-0.0000000000000004
 10
165.3688885964015
 20
31.89265171693143
 30
-0.0000000000000004
 10
165.2249100783506
 20
32.33056897137112
 30
-0.0000000000000004
 10
165.1348244237067
 20
32.54712413881691
 30
-0.0000000000000004
 10
164.9425780167316
 20
32.96276659411205
 30
-0.0000000000000004
 10
164.8398795246148
 20
33.16176329050927
 30
-0.0000000000000004
 10
164.6308651919939
 20
33.53203574175143
 30
-0.0000000000000003
 10
164.5239493616266
 20
33.70395963551783
 30
0.0000000000000032
 10
164.4168267179193
 20
33.86022875736302
 30
0.0000000000000032
  0
SPLINE
  5
2D612
330
1F
100
AcDbEntity
  8
実線
100
AcDbSpline
210
0.0
220
0.0
230
1.0
 70
     8
 71
     3
 72
     8
 73
     4
 74
     0
 42
0.000000001
 43
0.0000000001
 40
0.8339132681281235
 40
0.8339132681281235
 40
0.8339132681281235
 40
0.8339132681281235
 40
1.0
 40
1.0
 40
1.0
 40
1.0
 10
125.0079758780785
 20
172.6035696125842
 30
0.0
 10
124.769709893272
 20
172.6685748326204
 30
0.0
 10
124.5438463834239
 20
172.7138299145517
 30
0.0
 10
124.3170490533048
 20
172.7538204030043
 30
0.0
  0
SPLINE
  5
2D613
330
1F
100
AcDbEntity
  8
細線
100
AcDbSpline
210
0.0
220
0.0
230
1.0
 70
     8
 71
     3
 72
    25
 73
    21
 74
     0
 42
0.000000001
 43
0.0000000001
 40
0.0
 40
0.0
 40
0.0
 40
0.0
 40
0.014044190974735
 40
0.0472133555427371
 40
0.0803825201107393
 40
0.1467208492467436
 40
0.2130591783827479
 40
0.2793975075187523
 40
0.3457358366547565
 40
0.4784124949267652
 40
0.6110891531987739
 40
0.6774274823347782
 40
0.7437658114707825
 40
0.8101041406067867
 40
0.8432733051747888
 40
0.8764424697427909
 40
0.9096116343107931
 40
0.9261962165947943
 40
0.9427807988787954
 40
1.0
 40
1.0
 40
1.0
 40
1.0
 10
199.3929869155665
 20
52.73209918598792
 30
0.0000000000000008
 10
199.3850601543229
 20
52.76102414490275
 30
0.0000000000000008
 10
199.3588816192914
 20
52.85449027042517
 30
0.0000000000000008
 10
199.3172620161251
 20
52.99556558465872
 30
0.0000000000000008
 10
199.2425520544611
 20
53.23442861714545
 30
0.0000000000000008
 10
199.1498913391551
 20
53.50541478651263
 30
0.0000000000000008
 10
199.0432168272104
 20
53.7954943363311
 30
0.0000000000000008
 10
198.9440135928357
 20
54.05286530195565
 30
0.0000000000000008
 10
198.8255939314645
 20
54.35278837779623
 30
0.0000000000000009
 10
198.7077416777053
 20
54.65405862586131
 30
0.0000000000000009
 10
198.6245928724383
 20
54.88766932768408
 30
0.0000000000000009
 10
198.5721769760402
 20
55.05355719154364
 30
0.0000000000000009
 10
198.5425121427302
 20
55.15757950331033
 30
0.0000000000000009
 10
198.5204238369645
 20
55.24549651337406
 30
0.0000000000000009
 10
198.5037950510659
 20
55.31930625101006
 30
0.000000000000001
 10
198.4950371671009
 20
55.36180381226774
 30
0.000000000000001
 10
198.4900383840102
 20
55.38904085473013
 30
0.000000000000001
 10
198.48758552658
 20
55.40361011101521
 30
0.000000000000001
 10
198.4815796639423
 20
55.44160659620775
 30
0.000000000000001
 10
198.4731910726739
 20
55.50211540161511
 30
0.000000000000001
 10
198.4646150769431
 20
55.56588496932318
 30
0.000000000000001
  0
SPLINE
  5
2D616
330
1F
100
AcDbEntity
  8
実線
100
AcDbSpline
210
0.0
220
0.0
230
1.0
 70
     8
 71
     3
 72
     8
 73
     4
 74
     0
 42
0.000000001
 43
0.0000000001
 40
0.0
 40
0.0
 40
0.0
 40
0.0
 40
1.0
 40
1.0
 40
1.0
 40
1.0
 10
195.2089545812089
 20
33.24146128271059
 30
0.0
 10
195.0354648321479
 20
33.18985684272372
 30
0.0
 10
194.8796925438005
 20
33.09272812466975
 30
0.0
 10
194.7568561344751
 20
32.95979698593612
 30
0.0
  0
SPLINE
  5
2D619
330
1F
100
AcDbEntity
  8
実線
100
AcDbSpline
210
0.0
220
0.0
230
1.0
 70
     8
 71
     3
 72
    16
 73
    12
 74
     0
 42
0.000000001
 43
0.0000000001
 40
0.0
 40
0.0
 40
0.0
 40
0.0
 40
0.0294468254182474
 40
0.1740032604915698
 40
0.3130222854552547
 40
0.4470259481156867
 40
0.5762666549824668
 40
0.7008003629144408
 40
0.8205182625146621
 40
0.9351520850720955
 40
1.0
 40
1.0
 40
1.0
 40
1.0
 10
255.747916390261
 20
216.1274787396728
 30
0.0
 10
255.7165927298413
 20
216.0914417568563
 30
0.0
 10
255.527510808944
 20
215.8829031711693
 30
0.0
 10
255.1223127340893
 20
215.5718981138699
 30
0.0
 10
254.5488806459848
 20
215.2135588418184
 30
0.0
 10
253.9510119327961
 20
214.9499451252975
 30
0.0
 10
253.3483433565418
 20
214.7701887663377
 30
0.0
 10
252.7506688800411
 20
214.6696333602386
 30
0.0
 10
252.1695975067069
 20
214.6432729368329
 30
0.0
 10
251.6845349194523
 20
214.6713329486075
 30
0.0
 10
251.3987876800349
 20
214.7224075267907
 30
0.0
 10
251.2959471856861
 20
214.7447585347394
 30
0.0
  0
SPLINE
  5
2D61D
330
1F
100
AcDbEntity
  8
実線
100
AcDbSpline
210
0.0000000000000983
220
-0.0000000000000438
230
1.0
 70
     8
 71
     3
 72
    14
 73
    10
 74
     0
 42
0.000000001
 43
0.0000000001
 40
0.0
 40
0.0
 40
0.0
 40
0.0
 40
0.25
 40
0.25
 40
0.5
 40
0.5
 40
0.75
 40
0.75
 40
1.0
 40
1.0
 40
1.0
 40
1.0
 10
162.4219404550383
 20
33.86022875736302
 30
0.0000000000000032
 10
162.3148178113163
 20
33.70395963552029
 30
0.0000000000000032
 10
162.2079019809637
 20
33.53203574175154
 30
-0.0000000000000003
 10
161.998887648343
 20
33.16176329050927
 30
-0.0000000000000004
 10
161.8961891562262
 20
32.96276659411218
 30
-0.0000000000000004
 10
161.7039427492511
 20
32.54712413881714
 30
-0.0000000000000004
 10
161.6138570946073
 20
32.33056897137146
 30
-0.0000000000000004
 10
161.4698785765563
 20
31.89265171693183
 30
-0.0000000000000004
 10
161.4143122040873
 20
31.67148078383707
 30
-0.0000000000000004
 10
161.411848283431
 20
31.46030567213671
 30
-0.0000000000000005
  0
SPLINE
  5
2D61F
330
1F
100
AcDbEntity
  8
実線
100
AcDbSpline
210
0.0
220
0.0
230
1.0
 70
     8
 71
     3
 72
    18
 73
    14
 74
     0
 42
0.000000001
 43
0.0000000001
 40
0.0
 40
0.0
 40
0.0
 40
0.0
 40
0.2499999999999986
 40
0.2499999999999986
 40
0.4999999999999973
 40
0.4999999999999973
 40
0.6249999999999978
 40
0.6249999999999978
 40
0.7499999999999986
 40
0.7499999999999986
 40
0.8749999999999992
 40
0.8749999999999992
 40
1.0
 40
1.0
 40
1.0
 40
1.0
 10
115.9911713922404
 20
84.31259744406499
 30
0.0
 10
116.5368766043839
 20
84.34119664237654
 30
0.0
 10
117.0631638180696
 20
84.45619207492676
 30
0.0
 10
118.0771585514144
 20
84.85783504357186
 30
0.0
 10
118.5412076762345
 20
85.13588493678378
 30
0.0
 10
119.164715015137
 20
85.66294419115934
 30
0.0
 10
119.3579221755763
 20
85.85556309988737
 30
0.0
 10
119.7077753978738
 20
86.26554511477081
 30
0.0
 10
119.8658151092468
 20
86.48405903926255
 30
0.0
 10
120.147303806845
 20
86.9487869109305
 30
0.0
 10
120.2695770431064
 20
87.19383283373884
 30
0.0
 10
120.4711126289803
 20
87.69579369612914
 30
0.0
 10
120.5515289535292
 20
87.95450381184549
 30
0.0
 10
120.6109644240832
 20
88.221182658824
 30
0.0
  0
SPLINE
  5
2D620
330
1F
100
AcDbEntity
  8
実線
100
AcDbSpline
210
0.0
220
0.0
230
1.0
 70
     8
 71
     3
 72
    70
 73
    66
 74
     0
 42
0.000000001
 43
0.0000000001
 40
0.0
 40
0.0
 40
0.0
 40
0.0
 40
0.02203917672603
 40
0.02203917672603
 40
0.04407835345206
 40
0.04407835345206
 40
0.08815670690412
 40
0.08815670690412
 40
0.1322350603561799
 40
0.1322350603561799
 40
0.1542742370822099
 40
0.1542742370822099
 40
0.1763134138082399
 40
0.1763134138082399
 40
0.2203917672602998
 40
0.2203917672602998
 40
0.2424309439863297
 40
0.2424309439863297
 40
0.2644701207123598
 40
0.2644701207123598
 40
0.3085484741644197
 40
0.3085484741644197
 40
0.3526268276164796
 40
0.3526268276164796
 40
0.3967051810685396
 40
0.3967051810685396
 40
0.4407835345205995
 40
0.4407835345205995
 40
0.4628227112466295
 40
0.4628227112466295
 40
0.4848618879726595
 40
0.4848618879726595
 40
0.5289402414247198
 40
0.5289402414247198
 40
0.5509794181507496
 40
0.5509794181507496
 40
0.5730185948767798
 40
0.5730185948767798
 40
0.6170969483288396
 40
0.6170969483288396
 40
0.6611753017808995
 40
0.6611753017808995
 40
0.6832144785069297
 40
0.6832144785069297
 40
0.7052536552329595
 40
0.7052536552329595
 40
0.7493320086850197
 40
0.7493320086850197
 40
0.7713711854110499
 40
0.7713711854110499
 40
0.79341036213708
 40
0.79341036213708
 40
0.8374887155891402
 40
0.8374887155891402
 40
0.8815670690412005
 40
0.8815670690412005
 40
0.9036062457672308
 40
0.9036062457672308
 40
0.9256454224932607
 40
0.9256454224932607
 40
0.9697237759453207
 40
0.9697237759453207
 40
0.9917629526713511
 40
0.9917629526713511
 40
1.0
 40
1.0
 40
1.0
 40
1.0
 10
124.7031309452729
 20
100.9787384056014
 30
0.0
 10
124.734329654405
 20
100.9824206603761
 30
-0.0000000000000002
 10
124.7968039450086
 20
100.9861000389079
 30
-0.0000000000000002
 10
124.9841015180218
 20
100.9934986975084
 30
0.0000000000000002
 10
125.1090085850308
 20
100.9972140788777
 30
0.0000000000000002
 10
125.5725047644005
 20
101.0082473435905
 30
0.0000000000000002
 10
126.0002969824313
 20
101.0154458600126
 30
0.0000000000000002
 10
127.0878349769398
 20
101.0300406849682
 30
0.0000000000000002
 10
127.7477291729812
 20
101.0373373266899
 30
0.0000000000000002
 10
128.9181669982688
 20
101.0483399361917
 30
0.0000000000000003
 10
129.3366927282568
 20
101.0520209443941
 30
0.0000000000000003
 10
130.221495736301
 20
101.0593574077839
 30
0.0000000000000003
 10
130.6888953519483
 20
101.0630227176052
 30
0.0000000000000003
 10
132.1650528868254
 20
101.0739159490372
 30
0.0000000000000003
 10
133.2473261831048
 20
101.0811121380924
 30
0.0000000000000003
 10
135.0192289953249
 20
101.0920905649592
 30
0.0000000000000003
 10
135.6347170139093
 20
101.0957662923918
 30
0.0000000000000003
 10
136.9168378964205
 20
101.1030988884353
 30
0.0000000000000003
 10
137.5775097753876
 20
101.1067375848793
 30
0.0000000000000003
 10
139.6098088456169
 20
101.1176508291462
 30
0.0000000000000003
 10
141.0344473545635
 20
101.1249557684891
 30
0.0000000000000003
 10
144.0215207586179
 20
101.1393954579499
 30
0.0000000000000003
 10
145.5853305097416
 20
101.1466493667484
 30
0.0000000000000003
 10
148.8501387076426
 20
101.1613822305724
 30
0.0000000000000003
 10
150.5159847999641
 20
101.1685665002961
 30
0.0000000000000003
 10
153.9117224672304
 20
101.1830336513553
 30
0.0000000000000003
 10
155.6416299154921
 20
101.1902990420965
 30
0.0000000000000003
 10
158.2853839558531
 20
101.2011464525865
 30
0.0000000000000003
 10
159.1768905849435
 20
101.2047869450454
 30
0.0000000000000003
 10
160.9674084474726
 20
101.2121080117586
 30
0.0000000000000003
 10
161.8605626399587
 20
101.2157645913658
 30
0.0000000000000003
 10
164.5338662210438
 20
101.226662814478
 30
0.0000000000000003
 10
166.3078788218415
 20
101.2337840690186
 30
0.0000000000000003
 10
168.9567721742619
 20
101.2446295530617
 30
0.0000000000000003
 10
169.8377079416182
 20
101.2482650497597
 30
0.0000000000000003
 10
171.5954505172017
 20
101.2555277784804
 30
0.0000000000000003
 10
172.4750432403386
 20
101.2591544414004
 30
0.0000000000000003
 10
175.0873247331683
 20
101.2700441727009
 30
0.0000000000000003
 10
176.7800618464614
 20
101.2773086077075
 30
0.0000000000000003
 10
180.0712887966529
 20
101.2916993962406
 30
0.0000000000000003
 10
181.6697674489508
 20
101.2988200984014
 30
0.0000000000000003
 10
183.9955728887789
 20
101.3097128568317
 30
0.0000000000000003
 10
184.7615240011355
 20
101.3133813798861
 30
0.0000000000000003
 10
186.2543656810217
 20
101.320635845751
 30
0.0000000000000003
 10
186.979815999792
 20
101.3242243152075
 30
0.0000000000000003
 10
189.0948989853368
 20
101.3350030589143
 30
0.0000000000000003
 10
190.4235710880818
 20
101.3422365531925
 30
0.0000000000000003
 10
192.2950538332652
 20
101.3529812291189
 30
0.0000000000000003
 10
192.898569360671
 20
101.356554744652
 30
0.0000000000000003
 10
194.0643438671195
 20
101.3637623818194
 30
0.0000000000000003
 10
194.6286229905836
 20
101.3674107049677
 30
0.0000000000000003
 10
196.2404608884135
 20
101.3783241983565
 30
0.0000000000000003
 10
197.2063253239462
 20
101.3854465939667
 30
0.0000000000000003
 10
198.9282130605181
 20
101.3997506869253
 30
0.0000000000000003
 10
199.6842808471415
 20
101.4069690011207
 30
0.0000000000000003
 10
200.6572499112096
 20
101.4177341804207
 30
0.0000000000000003
 10
200.9556234712972
 20
101.4213467081737
 30
0.0000000000000003
 10
201.4909412537331
 20
101.4285697695578
 30
0.0000000000000003
 10
201.7281803408123
 20
101.4321801097739
 30
0.0000000000000003
 10
202.3506408620546
 20
101.4429747038828
 30
0.0000000000000003
 10
202.6468514465303
 20
101.4500352448657
 30
0.0000000000000003
 10
202.914362507892
 20
101.4607656811555
 30
-0.0000000000000002
 10
202.9739663884027
 20
101.4643657991065
 30
0.0000000000000001
 10
203.0144400976776
 20
101.4693237107931
 30
0.0
 10
203.0212078641193
 20
101.4706733479466
 30
0.0
 10
203.0237223779041
 20
101.4720220276299
 30
0.0
  0
SPLINE
  5
2D628
330
1F
100
AcDbEntity
  8
実線
100
AcDbSpline
210
0.0
220
0.0
230
1.0
 70
     8
 71
     3
 72
    14
 73
    10
 74
     0
 42
0.000000001
 43
0.0000000001
 40
0.0
 40
0.0
 40
0.0
 40
0.0
 40
0.25
 40
0.25
 40
0.5
 40
0.5
 40
0.75
 40
0.75
 40
1.0
 40
1.0
 40
1.0
 40
1.0
 10
255.729799905155
 20
45.88736019253839
 30
0.0
 10
255.4723377689839
 20
46.14482232870932
 30
0.0
 10
255.1918744203317
 20
46.36984420292009
 30
0.0
 10
254.5867080233127
 20
46.75749352544108
 30
0.0
 10
254.2579154507009
 20
46.92107679727428
 30
0.0
 10
253.5825172655395
 20
47.17007024383246
 30
0.0
 10
253.234215918533
 20
47.25759351727151
 30
0.0
 10
252.5159194769458
 20
47.35698703267877
 30
0.0
 10
252.1514594206242
 20
47.36759737485289
 30
0.0
 10
251.7885178986803
 20
47.3383957933555
 30
0.0
  0
SPLINE
  5
2D62B
330
1F
100
AcDbEntity
  8
実線
100
AcDbSpline
210
0.0
220
0.0
230
1.0
 70
     8
 71
     3
 72
    16
 73
    12
 74
     0
 42
0.000000001
 43
0.0000000001
 40
0.0
 40
0.0
 40
0.0
 40
0.0
 40
0.0136955604072961
 40
0.1361865212243225
 40
0.2659502962774033
 40
0.3995171519869969
 40
0.5354574051916396
 40
0.672875287409809
 40
0.8112099148285574
 40
0.9500899874286627
 40
1.0
 40
1.0
 40
1.0
 40
1.0
 10
251.2968005715859
 20
181.832702000027
 30
0.0
 10
251.3183158191118
 20
181.8380768109872
 30
0.0
 10
251.5326046851185
 20
181.8892749138239
 30
0.0
 10
251.9644139328234
 20
181.9230088360327
 30
0.0
 10
252.5889770747767
 20
181.9221278137349
 30
0.0
 10
253.2309991867028
 20
181.8310852329675
 30
0.0
 10
253.8671550467864
 20
181.6555593003277
 30
0.0
 10
254.4827570350992
 20
181.3946692814953
 30
0.0
 10
255.0581082944334
 20
181.04806956364
 30
0.0
 10
255.4830514463501
 20
180.7265773986033
 30
0.0
 10
255.6925046290412
 20
180.5044507970833
 30
0.0
 10
255.7460987060358
 20
180.4436950620261
 30
0.0
  0
SPLINE
  5
2D62F
330
1F
100
AcDbEntity
  8
細線
100
AcDbSpline
210
0.0
220
0.0
230
1.0
 70
     8
 71
     3
 72
    15
 73
    11
 74
     0
 42
0.000000001
 43
0.0000000001
 40
0.0
 40
0.0
 40
0.0
 40
0.0
 40
0.0664296969770545
 40
0.132859393954109
 40
0.265718787908218
 40
0.398578181862327
 40
0.5314375758164359
 40
0.6642969697705449
 40
0.7971563637246542
 40
1.0
 40
1.0
 40
1.0
 40
1.0
 10
205.7463420177705
 20
44.79157016943911
 30
0.0000000000000002
 10
205.6024025401452
 20
44.88219018770633
 30
0.0000000000000002
 10
205.3480690044405
 20
45.01912089280746
 30
0.0000000000000002
 10
204.9432646098046
 20
45.19427335212379
 30
0.0000000000000002
 10
204.5750353987866
 20
45.30969111592741
 30
0.0000000000000002
 10
204.2426573156936
 20
45.38841013748743
 30
0.0000000000000002
 10
203.9668695853083
 20
45.43874818728228
 30
0.0000000000000002
 10
203.7182914840141
 20
45.4749064621186
 30
0.0000000000000002
 10
203.4423591634745
 20
45.50651738011003
 30
0.0000000000000002
 10
203.2464453233984
 20
45.52387925593893
 30
0.0000000000000002
 10
203.1260161956331
 20
45.53304952163751
 30
0.0000000000000002
  0
SPLINE
  5
2D636
330
1F
100
AcDbEntity
  8
実線
100
AcDbSpline
210
0.0
220
0.0
230
1.0
 70
     8
 71
     3
 72
    70
 73
    66
 74
     0
 42
0.000000001
 43
0.0000000001
 40
0.0
 40
0.0
 40
0.0
 40
0.0
 40
0.0028855809767554
 40
0.0028855809767554
 40
0.0241007813815048
 40
0.0241007813815048
 40
0.0665311821910049
 40
0.0665311821910049
 40
0.1089615830005038
 40
0.1089615830005038
 40
0.1301767834052533
 40
0.1301767834052533
 40
0.1513919838100027
 40
0.1513919838100027
 40
0.1938223846195016
 40
0.1938223846195016
 40
0.2362527854290017
 40
0.2362527854290017
 40
0.2786831862385006
 40
0.2786831862385006
 40
0.3211135870479995
 40
0.3211135870479995
 40
0.3423287874527502
 40
0.3423287874527502
 40
0.3635439878575009
 40
0.3635439878575009
 40
0.4059743886669998
 40
0.4059743886669998
 40
0.4484047894765001
 40
0.4484047894765001
 40
0.4696199898812505
 40
0.4696199898812505
 40
0.490835190286
 40
0.490835190286
 40
0.5332655910955002
 40
0.5332655910955002
 40
0.5544807915002508
 40
0.5544807915002508
 40
0.5756959919050005
 40
0.5756959919050005
 40
0.6181263927145003
 40
0.6181263927145003
 40
0.6605567935239992
 40
0.6605567935239992
 40
0.6817719939287499
 40
0.6817719939287499
 40
0.7029871943335007
 40
0.7029871943335007
 40
0.7454175951429996
 40
0.7454175951429996
 40
0.76663279554775
 40
0.76663279554775
 40
0.7878479959525007
 40
0.7878479959525007
 40
0.8302783967619994
 40
0.8302783967619994
 40
0.8727087975714995
 40
0.8727087975714995
 40
0.893923997976249
 40
0.893923997976249
 40
0.9151391983809995
 40
0.9151391983809995
 40
0.9575695991904996
 40
0.9575695991904996
 40
1.0
 40
1.0
 40
1.0
 40
1.0
 10
202.169384385089
 20
101.965440707982
 30
0.0
 10
202.169365174168
 20
101.9644909001281
 30
0.0
 10
202.1688284701931
 20
101.9635398032639
 30
0.0
 10
202.1600140149447
 20
101.955583577954
 30
0.0000000000000001
 10
202.1239847441477
 20
101.948497154235
 30
-0.0000000000000001
 10
201.930963227051
 20
101.9273616334905
 30
0.0000000000000003
 10
201.6911041299736
 20
101.9135871220708
 30
0.0000000000000003
 10
200.9967354201803
 20
101.8857491595305
 30
0.0000000000000003
 10
200.5422083919555
 20
101.8717995240405
 30
0.0000000000000003
 10
199.6966985571505
 20
101.8509308135324
 30
0.0000000000000003
 10
199.3869557716991
 20
101.8439505800055
 30
0.0000000000000003
 10
198.7134426968464
 20
101.8298453607474
 30
0.0000000000000003
 10
198.3524322571779
 20
101.8228014687389
 30
0.0000000000000003
 10
197.1985055489401
 20
101.801823147911
 30
0.0000000000000003
 10
196.3349893012346
 20
101.7880964471185
 30
0.0000000000000003
 10
194.4218509827756
 20
101.7602436351431
 30
0.0000000000000003
 10
193.3722503235881
 20
101.7462442424986
 30
0.0000000000000003
 10
191.0794983324599
 20
101.7182014642023
 30
0.0000000000000003
 10
189.8593298723858
 20
101.7041958339107
 30
0.0000000000000003
 10
187.285162846822
 20
101.6763393550029
 30
0.0000000000000003
 10
185.9298496178703
 20
101.662616208574
 30
0.0000000000000003
 10
183.7935240225381
 20
101.6416474033847
 30
0.0000000000000003
 10
183.0641353395798
 20
101.6346108880595
 30
0.0000000000000003
 10
181.5699368638966
 20
101.6205234109894
 30
0.0000000000000003
 10
180.8081459282819
 20
101.613502080257
 30
0.0000000000000003
 10
178.5022038986753
 20
101.5926209398253
 30
0.0000000000000003
 10
176.9286496609934
 20
101.5786850041839
 30
0.0000000000000003
 10
173.7104122660175
 20
101.5508519460232
 30
0.0000000000000003
 10
172.0657320773154
 20
101.5370882286523
 30
0.0000000000000003
 10
169.5436121620792
 20
101.5159694744099
 30
0.0000000000000003
 10
168.6940210671896
 20
101.5088748102838
 30
0.0000000000000003
 10
167.0016531453382
 20
101.4948563341431
 30
0.0000000000000003
 10
166.1557167469793
 20
101.4879056709084
 30
0.0000000000000003
 10
163.6186378825364
 20
101.4671283367214
 30
0.0000000000000003
 10
161.928224100192
 20
101.4532022733922
 30
0.0000000000000003
 10
159.3940655287051
 20
101.4322774825437
 30
0.0000000000000003
 10
158.5495902993275
 20
101.4253157002971
 30
0.0000000000000003
 10
156.8611393948049
 20
101.4113515705933
 30
0.0000000000000003
 10
156.0154326252291
 20
101.4043229083668
 30
0.0000000000000003
 10
153.5157695597971
 20
101.3832458352439
 30
0.0000000000000003
 10
151.887690577335
 20
101.369305621908
 30
0.0000000000000003
 10
148.7062753491136
 20
101.3416494756492
 30
0.0000000000000003
 10
147.1529411729882
 20
101.3276890059195
 30
0.0000000000000003
 10
144.880455545785
 20
101.3066455295247
 30
0.0000000000000003
 10
144.1300688982771
 20
101.2996071057788
 30
0.0000000000000003
 10
142.6681633268717
 20
101.2856409509099
 30
0.0000000000000003
 10
141.9551850219257
 20
101.2786869542875
 30
0.0000000000000003
 10
139.8690352565836
 20
101.2577303063451
 30
0.0000000000000003
 10
138.5484265043483
 20
101.2438254706147
 30
0.0000000000000003
 10
136.6723669945752
 20
101.223051147714
 30
0.0000000000000003
 10
136.0645451251109
 20
101.216109556603
 30
0.0000000000000003
 10
134.8845876758343
 20
101.2020724754254
 30
0.0000000000000003
 10
134.3104414060783
 20
101.1949815345384
 30
0.0000000000000003
 10
132.6600915453373
 20
101.1738876713226
 30
0.0000000000000003
 10
131.6569665263018
 20
101.1601200004967
 30
0.0000000000000003
 10
129.8386201212663
 20
101.1322469536782
 30
0.0000000000000003
 10
129.0234094114339
 20
101.1183328991127
 30
0.0000000000000003
 10
127.9442152275137
 20
101.097457994273
 30
0.0000000000000003
 10
127.6076504157449
 20
101.0904462537029
 30
0.0000000000000003
 10
126.9879089733592
 20
101.076334823234
 30
0.0000000000000003
 10
126.7060773615508
 20
101.0693012376723
 30
0.0000000000000003
 10
125.942633731008
 20
101.048357926102
 30
0.0000000000000003
 10
125.5427305623038
 20
101.0346308528284
 30
0.0000000000000002
 10
124.9587844731884
 20
101.0067370206348
 30
0.0000000000000002
 10
124.7746758355699
 20
100.9927623441084
 30
-0.0000000000000002
 10
124.703130945144
 20
100.9787384055861
 30
0.0
  0
SPLINE
  5
2D638
330
1F
100
AcDbEntity
  8
実線
100
AcDbSpline
210
0.0
220
0.0
230
1.0
 70
     8
 71
     3
 72
     8
 73
     4
 74
     0
 42
0.000000001
 43
0.0000000001
 40
0.0
 40
0.0
 40
0.0
 40
0.0
 40
1.0
 40
1.0
 40
1.0
 40
1.0
 10
71.06101572591251
 20
46.45158267499924
 30
0.0
 10
71.07564119064226
 20
46.42540870269281
 30
0.0
 10
71.07751931892199
 20
46.40471626746392
 30
0.0
 10
71.06663093202155
 20
46.3895058334167
 30
0.0
  0
SPLINE
  5
2D63B
330
1F
100
AcDbEntity
  8
実線
100
AcDbSpline
210
0.0000000000000011
220
-0.0000000000000018
230
-1.0
 70
     8
 71
     3
 72
    16
 73
    12
 74
     0
 42
0.000000001
 43
0.0000000001
 40
0.0
 40
0.0
 40
0.0
 40
0.0
 40
0.2499999999999993
 40
0.2499999999999993
 40
0.4999999999999988
 40
0.4999999999999988
 40
0.6249999999999984
 40
0.6249999999999984
 40
0.7499999999999979
 40
0.7499999999999979
 40
1.0
 40
1.0
 40
1.0
 40
1.0
 10
203.6152327898685
 20
41.40654824059582
 30
0.0000000000000002
 10
203.8191247210086
 20
41.7549579365558
 30
0.0000000000000002
 10
204.0604866230731
 20
42.07192965856973
 30
0.0000000000000002
 10
204.6155569007083
 20
42.6451731646814
 30
-0.0000000000000002
 10
204.9320352502198
 20
42.90161842107432
 30
-0.0000000000000002
 10
205.4376314380704
 20
43.219332106529
 30
-0.0000000000000002
 10
205.612212051665
 20
43.3150430890447
 30
-0.0000000000000002
 10
205.9736178492296
 20
43.48582943797578
 30
-0.0000000000000002
 10
206.1616605441257
 20
43.56124345950678
 30
-0.0000000000000002
 10
206.7330727868905
 20
43.75115493520138
 30
-0.0000000000000001
 10
207.1246369254509
 20
43.83107929633438
 30
-0.0000000000000001
 10
207.5269969516862
 20
43.86355976149377
 30
-0.0000000000000001
  0
SPLINE
  5
2D63C
330
1F
100
AcDbEntity
  8
実線
100
AcDbSpline
210
0.0000000000005536
220
0.0000000000002527
230
1.0
 70
     8
 71
     3
 72
     8
 73
     4
 74
     0
 42
0.000000001
 43
0.0000000001
 40
0.0
 40
0.0
 40
0.0
 40
0.0
 40
1.0
 40
1.0
 40
1.0
 40
1.0
 10
165.652958927189
 20
29.74068650269902
 30
-0.0000000000000001
 10
165.6288303960762
 20
29.77709888700662
 30
0.0000000000000003
 10
165.6051019074675
 20
29.82950712117349
 30
-0.0000000000000006
 10
165.5811330022486
 20
29.89790499471093
 30
-0.0000000000000006
  0
SPLINE
  5
2D647
330
1F
100
AcDbEntity
  8
実線
100
AcDbSpline
210
0.0
220
0.0
230
1.0
 70
     8
 71
     3
 72
     8
 73
     4
 74
     0
 42
0.000000001
 43
0.0000000001
 40
0.0
 40
0.0
 40
0.0
 40
0.0
 40
1.0
 40
1.0
 40
1.0
 40
1.0
 10
165.4695567106939
 20
30.54317088781033
 30
-0.0000000000000005
 10
165.4550304317231
 20
30.65738910717584
 30
-0.0000000000000005
 10
165.4408169401993
 20
30.96256074346343
 30
-0.0000000000000005
 10
165.4269188895268
 20
31.46030567213632
 30
-0.0000000000000005
  0
SPLINE
  5
2D649
330
1F
100
AcDbEntity
  8
実線
100
AcDbSpline
210
0.0000000000000165
220
-0.0000000000000008
230
1.0
 70
     8
 71
     3
 72
    16
 73
    12
 74
     0
 42
0.000000001
 43
0.0000000001
 40
0.0
 40
0.0
 40
0.0
 40
0.0
 40
0.2500000000000002
 40
0.2500000000000002
 40
0.5000000000000006
 40
0.5000000000000006
 40
0.6250000000000006
 40
0.6250000000000006
 40
0.7500000000000002
 40
0.7500000000000002
 40
1.0
 40
1.0
 40
1.0
 40
1.0
 10
201.341229581654
 20
95.14468255893229
 30
-0.0000000000000001
 10
201.341229581654
 20
95.33382487608902
 30
-0.0000000000000001
 10
201.3435320403242
 20
95.52161015316068
 30
-0.0000000000000001
 10
201.3517833689982
 20
95.87000910183002
 30
-0.0000000000000001
 10
201.3577921955775
 20
96.0330401040502
 30
-0.0000000000000001
 10
201.3679675853993
 20
96.24004816939716
 30
0.0
 10
201.3716049399636
 20
96.30395547457728
 30
0.0
 10
201.3788394786398
 20
96.41536511403344
 30
0.0
 10
201.3824666816333
 20
96.46359529382529
 30
0.0
 10
201.3931215105713
 20
96.58520430694105
 30
0.0
 10
201.3996239847306
 20
96.63246472368555
 30
0.0
 10
201.4048507325351
 20
96.64262686106413
 30
0.0
  0
SPLINE
  5
2D64B
330
1F
100
AcDbEntity
  8
実線
100
AcDbSpline
210
-0.0000351198022016
220
-0.0000608232940313
230
0.9999999975335631
 70
     8
 71
     2
 72
     6
 73
     3
 74
     0
 42
0.000000001
 43
0.0000000001
 40
0.0
 40
0.0
 40
0.0
 40
1.0
 40
1.0
 40
1.0
 10
123.6051503713536
 20
103.957766501469
 30
0.0
 10
124.1372575175414
 20
103.650524924403
 30
0.0
 10
124.6693637449843
 20
103.3432821369252
 30
-0.0000000000000001
  0
SPLINE
  5
2D64D
330
1F
100
AcDbEntity
  8
実線
100
AcDbSpline
210
0.0
220
0.0
230
1.0
 70
     8
 71
     3
 72
    12
 73
     8
 74
     0
 42
0.000000001
 43
0.0000000001
 40
0.0
 40
0.0
 40
0.0
 40
0.0
 40
0.2500000000000006
 40
0.2500000000000006
 40
0.5000000000000015
 40
0.5000000000000015
 40
1.0
 40
1.0
 40
1.0
 40
1.0
 10
192.4465968295271
 20
32.47152062771159
 30
0.0
 10
192.7297105689454
 20
32.56289009686941
 30
0.0000000000000001
 10
193.0041243513178
 20
32.65678537216401
 30
0.0000000000000001
 10
193.539939482001
 20
32.84997223244761
 30
0.0000000000000001
 10
193.7951984924916
 20
32.94707703733621
 30
0.0000000000000001
 10
194.5244493620471
 20
33.23786243300129
 30
0.0000000000000001
 10
194.9691919799691
 20
33.43357353958777
 30
0.0000000000000001
 10
195.3880189067881
 20
33.63571219296171
 30
-0.0000000000000001
  0
SPLINE
  5
2D64F
330
1F
100
AcDbEntity
  8
実線
100
AcDbSpline
210
0.0
220
0.0
230
1.0
 70
     8
 71
     3
 72
     8
 73
     4
 74
     0
 42
0.000000001
 43
0.0000000001
 40
0.0
 40
0.0
 40
0.0
 40
0.0
 40
1.0
 40
1.0
 40
1.0
 40
1.0
 10
202.3411927221687
 20
93.40910137671428
 30
-0.0000000000000002
 10
202.2576954400097
 20
93.45721434437541
 30
-0.0000000000000002
 10
202.1741979032309
 20
93.50532686957778
 30
-0.0000000000000002
 10
202.0907001070073
 20
93.55343894390847
 30
-0.0000000000000002
  0
SPLINE
  5
2D653
330
1F
100
AcDbEntity
  8
実線
100
AcDbSpline
210
0.0000000000000001
220
-0.0000000000000094
230
1.0
 70
     8
 71
     3
 72
    48
 73
    44
 74
     0
 42
0.000000001
 43
0.0000000001
 40
0.0
 40
0.0
 40
0.0
 40
0.0
 40
0.0323329672911471
 40
0.0323329672911471
 40
0.066521366450602
 40
0.066521366450602
 40
0.1007097656100564
 40
0.1007097656100564
 40
0.1690865639289663
 40
0.1690865639289663
 40
0.2374633622478756
 40
0.2374633622478756
 40
0.305840160566785
 40
0.305840160566785
 40
0.3400285597262399
 40
0.3400285597262399
 40
0.3742169588856943
 40
0.3742169588856943
 40
0.4425937572046041
 40
0.4425937572046041
 40
0.4767821563640586
 40
0.4767821563640586
 40
0.5109705555235136
 40
0.5109705555235136
 40
0.5793473538424233
 40
0.5793473538424233
 40
0.6477241521613322
 40
0.6477241521613322
 40
0.6819125513207877
 40
0.6819125513207877
 40
0.716100950480243
 40
0.716100950480243
 40
0.7844777487991528
 40
0.7844777487991528
 40
0.8186661479586073
 40
0.8186661479586073
 40
0.8528545471180628
 40
0.8528545471180628
 40
0.9212313454369724
 40
0.9212313454369724
 40
0.9896081437558812
 40
0.9896081437558812
 40
1.0
 40
1.0
 40
1.0
 40
1.0
 10
124.6692933280287
 20
103.3455559997214
 30
0.0
 10
124.6692891046675
 20
103.3521304064742
 30
-0.0000000000000001
 10
124.6941447074525
 20
103.3587263611447
 30
-0.0000000000000001
 10
124.7969049545497
 20
103.3723754176304
 30
-0.0000000000000001
 10
124.8782284406543
 20
103.3794174465454
 30
0.0000000000000004
 10
125.0970982314825
 20
103.3934304264975
 30
0.0000000000000004
 10
125.2340362943082
 20
103.4003759240288
 30
0.0000000000000004
 10
125.7253704203801
 20
103.421280036795
 30
0.0000000000000004
 10
126.159950240899
 20
103.4352614499232
 30
0.0000000000000004
 10
127.2411276215091
 20
103.4629693686198
 30
0.0000000000000004
 10
127.8884875619446
 20
103.4769115510695
 30
0.0000000000000004
 10
129.4011252987764
 20
103.5051710781981
 30
0.0000000000000004
 10
130.2551333065014
 20
103.5190627535885
 30
0.0000000000000004
 10
131.6819435444456
 20
103.54015122642
 30
0.0000000000000004
 10
132.1828584590615
 20
103.5472505664607
 30
0.0000000000000004
 10
133.2224662743922
 20
103.5613037482616
 30
0.0000000000000004
 10
133.7622787815314
 20
103.5682754999047
 30
0.0000000000000004
 10
135.4405753881515
 20
103.5890788328661
 30
0.0000000000000004
 10
136.6376705287471
 20
103.6029418052132
 30
0.0000000000000004
 10
138.5506245874339
 20
103.6238825612538
 30
0.0000000000000004
 10
139.2078898754096
 20
103.6308536463232
 30
0.0000000000000004
 10
140.5624138287905
 20
103.6448111691858
 30
0.0000000000000004
 10
141.2622350867591
 20
103.6518223715219
 30
0.0000000000000004
 10
143.3952724500145
 20
103.6728716658724
 30
0.0000000000000004
 10
144.8662240546953
 20
103.6868726114418
 30
0.0000000000000004
 10
147.903124299575
 20
103.7145477330041
 30
0.0000000000000004
 10
149.4690744422198
 20
103.728438967285
 30
0.0000000000000004
 10
151.8908479352476
 20
103.7494889017017
 30
0.0000000000000004
 10
152.7133780623405
 20
103.7565345947736
 30
0.0000000000000004
 10
154.3664018905335
 20
103.7705270383961
 30
0.0000000000000004
 10
155.1960065400878
 20
103.7774684909984
 30
0.0000000000000004
 10
157.6938845254501
 20
103.7983907190519
 30
0.0000000000000004
 10
159.3711849779679
 20
103.8123495820936
 30
0.0000000000000004
 10
161.905082602168
 20
103.8331263656553
 30
0.0000000000000004
 10
162.7527157001307
 20
103.8400431915879
 30
0.0000000000000004
 10
164.4540775731816
 20
103.854033265074
 30
0.0000000000000004
 10
165.3101634306463
 20
103.8611132964954
 30
0.0000000000000004
 10
167.8714465669643
 20
103.882266872856
 30
0.0000000000000004
 10
169.5530230023003
 20
103.8960507799711
 30
0.0000000000000004
 10
172.8661406783615
 20
103.9238684148015
 30
0.0000000000000004
 10
174.4976779214589
 20
103.9378302625909
 30
0.0000000000000004
 10
176.3479049501197
 20
103.9538543474486
 30
0.0000000000000004
 10
176.5914608188966
 20
103.9559693643727
 30
0.0000000000000004
 10
176.8344263851106
 20
103.9580874549518
 30
0.0000000000000004
  0
SPLINE
  5
2D654
330
1F
100
AcDbEntity
  8
実線
100
AcDbSpline
210
0.0
220
0.0
230
1.0
 70
     8
 71
     2
 72
     6
 73
     3
 74
     0
 42
0.000000001
 43
0.0000000001
 40
0.0
 40
0.0
 40
0.0
 40
1.0
 40
1.0
 40
1.0
 10
202.1574969119849
 20
102.3364068464408
 30
0.0
 10
202.7903463020534
 20
102.7018195990917
 30
0.0
 10
203.423196902067
 20
103.0672305980774
 30
0.0
  0
SPLINE
  5
2D668
330
1F
100
AcDbEntity
  8
実線
100
AcDbSpline
210
0.0
220
0.0
230
1.0
 70
    12
 71
     2
 72
     6
 73
     3
 74
     0
 42
0.000000001
 43
0.0000000001
 40
0.0
 40
0.0
 40
0.0
 40
1.0
 40
1.0
 40
1.0
 10
161.1858082457688
 20
29.74068650269902
 30
-0.0000000000000001
 41
0.5000004815328186
 10
161.1858342030207
 20
29.73872321221904
 30
-0.0000000000000001
 41
0.4999995184671814
 10
161.1858678649055
 20
29.73676004463584
 30
-0.0000000000000001
 41
0.5000004815328186
  0
SPLINE
  5
2D669
330
1F
100
AcDbEntity
  8
実線
100
AcDbSpline
210
0.0
220
0.0
230
1.0
 70
     8
 71
     3
 72
     8
 73
     4
 74
     0
 42
0.000000001
 43
0.0000000001
 40
0.0
 40
0.0
 40
0.0
 40
0.0
 40
1.0
 40
1.0
 40
1.0
 40
1.0
 10
161.411848283431
 20
31.46030567213654
 30
-0.0000000000000005
 10
161.3979502327584
 20
30.96256074346354
 30
-0.0000000000000005
 10
161.3837367412345
 20
30.65738910717584
 30
-0.0000000000000005
 10
161.3692104622639
 20
30.54317088781033
 30
-0.0000000000000005
  0
SPLINE
  5
2D66A
330
1F
100
AcDbEntity
  8
実線
100
AcDbSpline
210
0.0
220
0.0
230
1.0
 70
     8
 71
     3
 72
    10
 73
     6
 74
     0
 42
0.000000001
 43
0.0000000001
 40
0.0
 40
0.0
 40
0.0
 40
0.0
 40
0.5
 40
0.5
 40
1.0
 40
1.0
 40
1.0
 40
1.0
 10
195.3880189067913
 20
33.63571219296307
 30
-0.0000000000000001
 10
196.1450617901286
 20
34.02321928219311
 30
-0.0000000000000001
 10
196.8787696687295
 20
34.46106216956946
 30
0.0000000000000002
 10
198.305943538071
 20
35.44318553043559
 30
-0.0000000000000002
 10
199.0027260266968
 20
35.99110025623679
 30
-0.0000000000000002
 10
199.6659622278585
 20
36.58258024657039
 30
-0.0000000000000001
  0
SPLINE
  5
2D66B
330
1F
100
AcDbEntity
  8
実線
100
AcDbSpline
210
0.0
220
0.0
230
1.0
 70
     8
 71
     3
 72
    76
 73
    72
 74
     0
 42
0.000000001
 43
0.0000000001
 40
0.0
 40
0.0
 40
0.0
 40
0.0
 40
0.0099356559789522
 40
0.0099356559789522
 40
0.0309722315065755
 40
0.0309722315065755
 40
0.0520088070341988
 40
0.0520088070341988
 40
0.0940819580894455
 40
0.0940819580894455
 40
0.1151185336170689
 40
0.1151185336170689
 40
0.1361551091446921
 40
0.1361551091446921
 40
0.178228260199939
 40
0.178228260199939
 40
0.2203014112551858
 40
0.2203014112551858
 40
0.2413379867828091
 40
0.2413379867828091
 40
0.2623745623104325
 40
0.2623745623104325
 40
0.3044477133656793
 40
0.3044477133656793
 40
0.3254842888933027
 40
0.3254842888933027
 40
0.3465208644209261
 40
0.3465208644209261
 40
0.3885940154761727
 40
0.3885940154761727
 40
0.4306671665314197
 40
0.4306671665314197
 40
0.4517037420590427
 40
0.4517037420590427
 40
0.4727403175866662
 40
0.4727403175866662
 40
0.514813468641913
 40
0.514813468641913
 40
0.5568866196971594
 40
0.5568866196971594
 40
0.5779231952247829
 40
0.5779231952247829
 40
0.5989597707524063
 40
0.5989597707524063
 40
0.641032921807653
 40
0.641032921807653
 40
0.6620694973352764
 40
0.6620694973352764
 40
0.6831060728628997
 40
0.6831060728628997
 40
0.725179223918147
 40
0.725179223918147
 40
0.7672523749733938
 40
0.7672523749733938
 40
0.7882889505010171
 40
0.7882889505010171
 40
0.8093255260286403
 40
0.8093255260286403
 40
0.8513986770838871
 40
0.8513986770838871
 40
0.8724352526115104
 40
0.8724352526115104
 40
0.893471828139134
 40
0.893471828139134
 40
0.9355449791943808
 40
0.9355449791943808
 40
0.9776181302496276
 40
0.9776181302496276
 40
0.9986547057772511
 40
0.9986547057772511
 40
1.0
 40
1.0
 40
1.0
 40
1.0
 10
124.6693565923458
 20
101.3458728970803
 30
-0.0000000000000001
 10
124.6698044450193
 20
101.3491861272364
 30
-0.0000000000000001
 10
124.6765611294779
 20
101.3525063534897
 30
-0.0000000000000001
 10
124.7172591518006
 20
101.3628958485373
 30
-0.0000000000000002
 10
124.7735281575692
 20
101.3699824623101
 30
-0.0000000000000002
 10
124.9414443598023
 20
101.383998064726
 30
0.0000000000000003
 10
125.0530286021483
 20
101.3909420808394
 30
0.0000000000000003
 10
125.4689829265389
 20
101.411737766028
 30
0.0000000000000003
 10
125.8542136683725
 20
101.4257142840597
 30
0.0000000000000003
 10
126.5936495025973
 20
101.4465797290255
 30
0.0000000000000003
 10
126.867145096312
 20
101.4535167435264
 30
0.0000000000000003
 10
127.4691800327255
 20
101.4674574700112
 30
0.0000000000000003
 10
127.7991239623993
 20
101.4745153832871
 30
0.0000000000000003
 10
128.8610146105322
 20
101.4956540173087
 30
0.0000000000000003
 10
129.6645092004344
 20
101.5095449775429
 30
0.0000000000000003
 10
131.4567506767903
 20
101.5372086492609
 30
0.0000000000000003
 10
132.4455050673625
 20
101.5512071399738
 30
0.0000000000000003
 10
134.0704807139743
 20
101.5721752747806
 30
0.0000000000000003
 10
134.637885991503
 20
101.579183376437
 30
0.0000000000000003
 10
135.8113320479938
 20
101.5931786009687
 30
0.0000000000000003
 10
136.4156346548877
 20
101.600176273485
 30
0.0000000000000003
 10
138.2800332783213
 20
101.6211752706248
 30
0.0000000000000003
 10
139.5914060893129
 20
101.6350211420774
 30
0.0000000000000003
 10
141.6602405554522
 20
101.6557884182311
 30
0.0000000000000003
 10
142.3668685478373
 20
101.6627563619267
 30
0.0000000000000003
 10
143.8146741981086
 20
101.6767852763593
 30
0.0000000000000003
 10
144.557302091011
 20
101.6838370313298
 30
0.0000000000000003
 10
146.829028194802
 20
101.7049312601749
 30
0.0000000000000003
 10
148.3799935159697
 20
101.7187460810896
 30
0.0000000000000003
 10
151.5521467824678
 20
101.7466515037722
 30
0.0000000000000003
 10
153.1733440824559
 20
101.7604966863758
 30
0.0000000000000003
 10
155.6585504848835
 20
101.7813517130282
 30
0.0000000000000003
 10
156.4958819089133
 20
101.7883653467845
 30
0.0000000000000003
 10
158.1888853028577
 20
101.8025068955062
 30
0.0000000000000003
 10
159.0361967311701
 20
101.8095435157825
 30
0.0000000000000003
 10
161.5752615540768
 20
101.83047108485
 30
0.0000000000000003
 10
163.2664797357549
 20
101.8442387268331
 30
0.0000000000000003
 10
166.64597239731
 20
101.8721413000779
 30
0.0000000000000003
 10
168.3342491828066
 20
101.8860295168475
 30
0.0000000000000003
 10
170.8643757937689
 20
101.9070434755461
 30
0.0000000000000003
 10
171.7032683347041
 20
101.9140940623613
 30
0.0000000000000003
 10
173.356986731452
 20
101.9281301864407
 30
0.0000000000000003
 10
174.1741698933785
 20
101.9351164581449
 30
0.0000000000000003
 10
176.597149570749
 20
101.9559490951162
 30
0.0000000000000003
 10
178.1744970640709
 20
101.9697134919852
 30
0.0000000000000003
 10
180.4831558569974
 20
101.9907060599205
 30
0.0000000000000003
 10
181.2431186644676
 20
101.9977171652635
 30
0.0000000000000003
 10
182.7434162005977
 20
102.0117455272432
 30
0.0000000000000003
 10
183.4829270335599
 20
102.0187561654234
 30
0.0000000000000003
 10
185.6391644667628
 20
102.0396679892185
 30
0.0000000000000003
 10
187.0051252153693
 20
102.053681760521
 30
0.0000000000000003
 10
189.5971380987545
 20
102.0814233900759
 30
0.0000000000000003
 10
190.8231940648502
 20
102.0952288611849
 30
0.0000000000000003
 10
192.5541994830321
 20
102.1163567257159
 30
0.0000000000000003
 10
193.1139406479012
 20
102.1234373275059
 30
0.0000000000000003
 10
194.1807510645219
 20
102.1374258125797
 30
0.0000000000000003
 10
194.689924118081
 20
102.1443587445936
 30
0.0000000000000003
 10
196.1461400646092
 20
102.1651622956749
 30
0.0000000000000003
 10
197.0221790129219
 20
102.1791556912551
 30
0.0000000000000003
 10
198.1940500240464
 20
102.2000028830414
 30
0.0000000000000003
 10
198.5609008236226
 20
102.206936084268
 30
0.0000000000000003
 10
199.2461155537892
 20
102.2208972402513
 30
0.0000000000000003
 10
199.5653467703923
 20
102.2279806311257
 30
0.0000000000000003
 10
200.4368535136655
 20
102.2491046377767
 30
0.0000000000000003
 10
200.9069015347206
 20
102.2629502817155
 30
0.0000000000000003
 10
201.6314541716672
 20
102.2906351972424
 30
0.0000000000000003
 10
201.8859526147546
 20
102.3046524289259
 30
0.0000000000000003
 10
202.1023202402191
 20
102.3256088412163
 30
-0.0000000000000001
 10
202.1467899381373
 20
102.3326181098764
 30
0.0000000000000001
 10
202.163698799721
 20
102.3400638195121
 30
0.0
 10
202.1645993473376
 20
102.340511420524
 30
0.0
 10
202.1653842786575
 20
102.3409590786457
 30
0.0
  0
LINE
  5
2D66E
102
{ACAD_REACTORS
330
2D8C8
102
}
330
1F
100
AcDbEntity
  8
一点鎖線
 48
0.5
100
AcDbLine
 10
42.33929214068917
 20
63.69777676604065
 30
0.0
 11
278.2011615741444
 21
63.69777676604065
 31
0.0
  0
LINE
  5
2D66F
330
1F
100
AcDbEntity
  8
一点鎖線
 48
0.5
100
AcDbLine
 10
163.4193835621004
 20
21.77830437441645
 30
0.0000000000000032
 11
163.4193835621004
 21
145.9920537924336
 31
0.0
  0
LINE
  5
2D670
330
1F
100
AcDbEntity
  8
一点鎖線
 48
0.5
100
AcDbLine
 10
44.70380661130161
 20
198.2870554353026
 30
0.0
 11
283.0595919707898
 21
198.2870554353026
 31
0.0
  0
LINE
  5
2D671
330
1F
100
AcDbEntity
  8
一点鎖線
 48
0.5
100
AcDbLine
 10
163.4193837621547
 20
254.8707575424198
 30
0.0
 11
163.4193837621547
 21
139.4644789678586
 31
0.0
  0
TEXT
  5
2D681
330
1F
100
AcDbEntity
  8
文字
100
AcDbText
 10
143.3401910780819
 20
52.92241410587723
 30
-0.0000000000000023
 40
14.0
  1
25
  7
ｽﾀｲﾙ2
 72
     1
 11
152.6492819871728
 21
59.92241410587723
 31
-0.0000000000000023
100
AcDbText
 73
     2
  0
TEXT
  5
2D682
330
1F
100
AcDbEntity
  8
文字
100
AcDbText
 10
165.5340675053299
 20
59.70323435048945
 30
-0.0000000000000023
 40
9.53352585041472
  1
mm
  7
ｽﾀｲﾙ2
 72
     1
 11
175.0552121533415
 21
64.46999727569681
 31
-0.0000000000000023
100
AcDbText
 73
     2
  0
TEXT
  5
2D683
330
1F
100
AcDbEntity
  8
文字
100
AcDbText
 10
94.2027949543187
 20
58.43314967708299
 30
-0.0000000000000023
 40
8.0
  1
19 E
  7
ｽﾀｲﾙ2
 72
     1
 11
103.4859118374356
 21
62.43314967708299
 31
-0.0000000000000023
100
AcDbText
 73
     2
  0
LINE
  5
2D684
330
1F
100
AcDbEntity
  8
実線
 48
0.5
100
AcDbLine
 10
174.8102949616391
 20
85.28906152193275
 30
0.0
 11
182.6502949616391
 21
81.92906152193263
 31
0.0
  0
LINE
  5
2D685
330
1F
100
AcDbEntity
  8
実線
 48
0.5
100
AcDbLine
 10
174.8102949616391
 20
78.56906152193261
 30
0.0
 11
182.6502949616391
 21
81.92906152193263
 31
0.0
  0
LINE
  5
2D686
330
1F
100
AcDbEntity
  8
実線
 48
0.5
100
AcDbLine
 10
144.5702949616391
 20
78.56906152193278
 30
0.0
 11
146.8102949616391
 21
80.80906152193273
 31
0.0
  0
LINE
  5
2D687
330
1F
100
AcDbEntity
  8
実線
 48
0.5
100
AcDbLine
 10
164.7302949616389
 20
78.56906152193261
 30
0.0
 11
166.9702949616389
 21
80.80906152193263
 31
0.0
  0
LINE
  5
2D688
330
1F
100
AcDbEntity
  8
実線
 48
0.5
100
AcDbLine
 10
174.8102949616391
 20
80.80906152193263
 30
0.0
 11
174.8102949616391
 21
78.56906152193261
 31
0.0
  0
LINE
  5
2D689
330
1F
100
AcDbEntity
  8
実線
 48
0.5
100
AcDbLine
 10
144.5702949616391
 20
85.28906152193275
 30
0.0
 11
164.7302949616389
 21
85.28906152193258
 31
0.0
  0
LINE
  5
2D68A
330
1F
100
AcDbEntity
  8
実線
 48
0.5
100
AcDbLine
 10
144.5702949616391
 20
83.04906152193256
 30
0.0
 11
174.8102949616391
 21
83.04906152193256
 31
0.0
  0
LINE
  5
2D68B
330
1F
100
AcDbEntity
  8
実線
 48
0.5
100
AcDbLine
 10
144.5702949616391
 20
80.80906152193273
 30
0.0
 11
174.8102949616391
 21
80.80906152193263
 31
0.0
  0
LINE
  5
2D68C
330
1F
100
AcDbEntity
  8
実線
 48
0.5
100
AcDbLine
 10
174.8102949616391
 20
83.04906152193256
 30
0.0
 11
174.8102949616391
 21
85.28906152193275
 31
0.0
  0
LINE
  5
2D68D
330
1F
100
AcDbEntity
  8
実線
 48
0.5
100
AcDbLine
 10
164.7302949616389
 20
85.28906152193258
 30
0.0
 11
166.9702949616389
 21
83.04906152193256
 31
0.0
  0
LINE
  5
2D68E
330
1F
100
AcDbEntity
  8
実線
 48
0.5
100
AcDbLine
 10
144.5702949616391
 20
85.28906152193275
 30
0.0
 11
146.8102949616391
 21
83.04906152193273
 31
0.0
  0
LINE
  5
2D68F
330
1F
100
AcDbEntity
  8
実線
 48
0.5
100
AcDbLine
 10
144.5702949616391
 20
80.80906152193273
 30
0.0
 11
144.5702949616391
 21
83.04906152193256
 31
0.0
  0
LINE
  5
2D690
330
1F
100
AcDbEntity
  8
実線
 48
0.5
100
AcDbLine
 10
144.5702949616391
 20
78.56906152193278
 30
0.0
 11
164.7302949616389
 21
78.56906152193261
 31
0.0
  0
ARC
  5
2D691
330
1F
100
AcDbEntity
  8
実線
100
AcDbCircle
 10
163.4193837621547
 20
198.2870554353026
 30
0.0
 40
44.0
100
AcDbArc
 50
191.8558570207919
 51
213.1971083096943
  0
ARC
  5
2D692
330
1F
100
AcDbEntity
  8
実線
100
AcDbCircle
 10
163.4193837621547
 20
198.2870554353026
 30
0.0
 40
44.0
100
AcDbArc
 50
236.8028916903063
 51
303.1971083096902
  0
ARC
  5
2D693
330
1F
100
AcDbEntity
  8
実線
100
AcDbCircle
 10
163.4193837621547
 20
198.2870554353026
 30
0.0
 40
44.0
100
AcDbArc
 50
326.8028916903056
 51
346.8853284394277
  0
ARC
  5
2D694
330
1F
100
AcDbEntity
  8
実線
100
AcDbCircle
 10
163.4193837621547
 20
198.2870554353026
 30
0.0
 40
44.0
100
AcDbArc
 50
37.24519802186016
 51
123.1971083096936
  0
ARC
  5
2D695
330
1F
100
AcDbEntity
  8
実線
100
AcDbCircle
 10
163.4193837621547
 20
198.2870554353026
 30
0.0
 40
44.0
100
AcDbArc
 50
146.8028916903056
 51
168.1441429792076
  0
LINE
  5
2D696
330
1F
100
AcDbEntity
  8
実線
100
AcDbLine
 10
168.4193837621546
 20
148.2870554353026
 30
0.0
 11
158.4193837621547
 21
148.2870554353026
 31
0.0
  0
LINE
  5
2D697
102
{ACAD_REACTORS
330
2D898
102
}
330
1F
100
AcDbEntity
  8
実線
100
AcDbLine
 10
167.9193837621546
 20
154.517773969873
 30
0.0
 11
168.4193837621546
 21
148.2870554353026
 31
0.0
  0
LINE
  5
2D698
330
1F
100
AcDbEntity
  8
実線
100
AcDbLine
 10
158.4193837621547
 20
148.2870554353026
 30
0.0
 11
158.9193837621546
 21
154.517773969873
 31
0.0
  0
LINE
  5
2D699
330
1F
100
AcDbEntity
  8
実線
100
AcDbLine
 10
158.4193837621547
 20
248.2870554353026
 30
0.0
 11
168.4193837621546
 21
248.2870554353026
 31
0.0
  0
LINE
  5
2D69A
330
1F
100
AcDbEntity
  8
実線
100
AcDbLine
 10
158.9193837621546
 20
242.0563369007323
 30
0.0
 11
158.4193837621547
 21
248.2870554353026
 31
0.0
  0
LINE
  5
2D69B
102
{ACAD_REACTORS
330
2D898
102
}
330
1F
100
AcDbEntity
  8
実線
100
AcDbLine
 10
168.4193837621546
 20
248.2870554353026
 30
0.0
 11
167.9193837621546
 21
242.0563369007323
 31
0.0
  0
LINE
  5
2D69C
330
1F
100
AcDbEntity
  8
実線
100
AcDbLine
 10
211.6752644825969
 20
203.1470941074172
 30
0.0
 11
213.4193837621547
 21
203.2870554353026
 31
0.0
  0
LINE
  5
2D69D
330
1F
100
AcDbEntity
  8
実線
100
AcDbLine
 10
213.4193837621547
 20
193.2870554353026
 30
0.0
 11
211.6752644825969
 21
193.427016763188
 31
0.0
  0
LINE
  5
2D69E
330
1F
100
AcDbEntity
  8
実線
100
AcDbLine
 10
213.4193837621547
 20
203.2870554353026
 30
0.0
 11
213.4193837621547
 21
193.2870554353026
 31
0.0
  0
CIRCLE
  5
2D69F
330
1F
100
AcDbEntity
  8
実線
100
AcDbCircle
 10
163.4193837621547
 20
198.2870554353026
 30
0.0
 40
38.5
  0
ARC
  5
2D6A0
330
1F
100
AcDbEntity
  8
実線
100
AcDbCircle
 10
163.4193837621547
 20
198.2870554353026
 30
0.0
 40
42.5
100
AcDbArc
 50
14.64762024163352
 51
345.3523797583665
  0
ARC
  5
2D6A1
330
1F
100
AcDbEntity
  8
実線
100
AcDbCircle
 10
205.5056047851926
 20
209.2870554353026
 30
0.0
 40
1.0
100
AcDbArc
 50
194.6476202416335
 51
270.0
  0
ARC
  5
2D6A2
330
1F
100
AcDbEntity
  8
実線
100
AcDbCircle
 10
205.5056047851926
 20
187.2870554353026
 30
0.0
 40
1.0
100
AcDbArc
 50
90.0
 51
165.3523797583657
  0
LINE
  5
2D6A4
330
1F
100
AcDbEntity
  8
実線
100
AcDbLine
 10
111.4193837621547
 20
190.7870554353026
 30
0.0
 11
111.4193837621547
 21
205.7870554353026
 31
0.0
  0
LINE
  5
2D6A5
330
1F
100
AcDbEntity
  8
実線
100
AcDbLine
 10
112.9193837621546
 20
207.2870554353026
 30
0.0
 11
119.9136370153166
 21
207.2870554353026
 31
0.0
  0
LINE
  5
2D6A6
330
1F
100
AcDbEntity
  8
実線
100
AcDbLine
 10
112.9193837621546
 20
189.2870554353026
 30
0.0
 11
119.9136370153166
 21
189.2870554353026
 31
0.0
  0
ARC
  5
2D6A7
330
1F
100
AcDbEntity
  8
実線
100
AcDbCircle
 10
112.9193837621546
 20
205.7870554353026
 30
0.0
 40
1.5
100
AcDbArc
 50
90.0
 51
180.0
  0
ARC
  5
2D6A8
330
1F
100
AcDbEntity
  8
実線
100
AcDbCircle
 10
112.9193837621546
 20
190.7870554353026
 30
0.0
 40
1.5
100
AcDbArc
 50
180.0
 51
270.0
  0
ARC
  5
2D6A9
330
1F
100
AcDbEntity
  8
実線
100
AcDbCircle
 10
119.9136370153166
 20
209.7870554353026
 30
0.0
 40
2.5
100
AcDbArc
 50
270.0
 51
345.1934930881042
  0
ARC
  5
2D6AA
330
1F
100
AcDbEntity
  8
実線
100
AcDbCircle
 10
119.9136370153166
 20
186.7870554353025
 30
0.0
 40
2.5
100
AcDbArc
 50
14.8065069118954
 51
90.0
  0
ARC
  5
2D6B4
330
1F
100
AcDbEntity
  8
実線
100
AcDbCircle
 10
163.4193837621547
 20
198.2870554353026
 30
0.0
 40
48.5
100
AcDbArc
 50
349.0779293878095
 51
10.92207061219049
  0
ARC
  5
2D6B5
330
1F
100
AcDbEntity
  8
実線
100
AcDbCircle
 10
210.0589592319209
 20
189.2870554353026
 30
0.0
 40
1.0
100
AcDbArc
 50
270.0
 51
349.0779293878095
  0
ARC
  5
2D6B6
330
1F
100
AcDbEntity
  8
実線
100
AcDbCircle
 10
210.0589592319209
 20
207.2870554353026
 30
0.0
 40
1.0
100
AcDbArc
 50
10.92207061219049
 51
90.0
  0
LINE
  5
2D6B7
330
1F
100
AcDbEntity
  8
実線
100
AcDbLine
 10
205.5056047851926
 20
208.2870554353026
 30
0.0
 11
210.0589592319209
 21
208.2870554353026
 31
0.0
  0
LINE
  5
2D6B8
330
1F
100
AcDbEntity
  8
実線
100
AcDbLine
 10
205.5056047851926
 20
188.2870554353026
 30
0.0
 11
210.0589592319209
 21
188.2870554353026
 31
0.0
  0
LINE
  5
2D6C1
330
1F
100
AcDbEntity
  8
実線
100
AcDbLine
 10
166.4193837621544
 20
228.2870554353026
 30
0.0
 11
176.4193837621544
 21
228.2870554353026
 31
0.0
  0
LINE
  5
2D6C2
330
1F
100
AcDbEntity
  8
実線
100
AcDbLine
 10
176.4193837621544
 20
228.2870554353026
 30
0.0
 11
176.4193837621544
 21
168.2870554353026
 31
0.0
  0
LINE
  5
2D6C3
330
1F
100
AcDbEntity
  8
実線
100
AcDbLine
 10
176.4193837621544
 20
168.2870554353026
 30
0.0
 11
166.4193837621544
 21
168.2870554353026
 31
0.0
  0
LINE
  5
2D6C4
330
1F
100
AcDbEntity
  8
実線
100
AcDbLine
 10
166.4193837621544
 20
168.2870554353026
 30
0.0
 11
166.4193837621544
 21
228.2870554353026
 31
0.0
  0
TEXT
  5
2D6C5
330
1F
100
AcDbEntity
  8
文字
100
AcDbText
 10
188.9193837621546
 20
182.5073151755623
 30
0.0
 40
9.0
  1
25
 50
90.0
 41
1.3
  7
スタイル3
 72
     1
 11
184.4193837621546
 21
190.2870554353026
 31
0.0
100
AcDbText
 73
     2
  0
TEXT
  5
2D6C6
330
1F
100
AcDbEntity
  8
文字
100
AcDbText
 10
189.3289987983669
 20
198.6469905002376
 30
0.0
 40
9.0
  1
mm
 50
90.0
 41
0.85
  7
スタイル3
 72
     1
 11
184.8289987983669
 21
206.2870554353026
 31
0.0
100
AcDbText
 73
     2
  0
INSERT
  5
2D6C7
330
1F
100
AcDbEntity
  8
実線
100
AcDbBlockReference
  2
mark
 10
152.1893837621546
 20
188.7870554353026
 30
0.0
 41
0.38
 42
0.38
 43
0.38
 50
90.0
  0
TEXT
  5
2D6C9
330
1F
100
AcDbEntity
  8
文字
100
AcDbText
 10
162.8163756751731
 20
176.0539965691364
 30
0.0
 40
9.0
  1
K
 50
169.9999999999997
  7
スタイル3
 72
     1
 11
158.8177070539807
 21
172.1896499804791
 31
0.0
100
AcDbText
 73
     2
  0
TEXT
  5
2D6CA
330
1F
100
AcDbEntity
  8
文字
100
AcDbText
 10
141.4193837621546
 20
196.6828346560818
 30
0.0
 40
9.0
  1
I
 50
90.0
  7
スタイル3
 72
     1
 11
136.9193837621546
 21
198.2870554353026
 31
0.0
100
AcDbText
 73
     2
  0
TEXT
  5
2D6CB
330
1F
100
AcDbEntity
  8
文字
100
AcDbText
 10
155.2536487199944
 20
177.5981329156812
 30
0.0
 40
9.0
  1
A
 50
149.9999999999994
  7
スタイル3
 72
     1
 11
150.1693837621544
 21
175.3373822350149
 31
0.0
100
AcDbText
 73
     2
  0
TEXT
  5
2D6CC
330
1F
100
AcDbEntity
  8
文字
100
AcDbText
 10
148.6738311052951
 20
181.634196597973
 30
0.0
 40
9.0
  1
S
 50
130.0000000000001
  7
スタイル3
 72
     1
 11
143.1192060195017
 21
181.2531837786093
 31
0.0
100
AcDbText
 73
     2
  0
TEXT
  5
2D6CD
330
1F
100
AcDbEntity
  8
文字
100
AcDbText
 10
143.9704227542692
 20
187.3989398327338
 30
0.0
 40
9.0
  1
H
 50
110.0000000000001
  7
スタイル3
 72
     1
 11
138.5175293113282
 21
189.2235216371723
 31
0.0
100
AcDbText
 73
     2
  0
TEXT
  5
2D6CE
330
1F
100
AcDbEntity
  8
文字
100
AcDbText
 10
141.5218694554604
 20
202.4478261390631
 30
0.0
 40
9.0
  1
H
 50
69.99999999999992
  7
スタイル3
 72
     1
 11
138.5175293113282
 21
207.3505892334327
 31
0.0
100
AcDbText
 73
     2
  0
TEXT
  5
2D6CF
330
1F
100
AcDbEntity
  8
文字
100
AcDbText
 10
144.4627374727448
 20
209.9213283072897
 30
0.0
 40
9.0
  1
A
 50
49.99999999999991
  7
スタイル3
 72
     1
 11
143.1192060195017
 21
215.3209270919958
 31
0.0
100
AcDbText
 73
     2
  0
TEXT
  5
2D6D0
330
1F
100
AcDbEntity
  8
文字
100
AcDbText
 10
149.4282219941488
 20
215.6126662666121
 30
0.0
 40
9.0
  1
R
 50
30.00000000000055
  7
スタイル3
 72
     1
 11
150.1693837621549
 21
221.2367286355902
 31
0.0
100
AcDbText
 73
     2
  0
TEXT
  5
2D6D1
330
1F
100
AcDbEntity
  8
文字
100
AcDbText
 10
156.3761166618055
 20
219.3845228746612
 30
0.0
 40
9.0
  1
A
 50
10.00000000000021
  7
スタイル3
 72
     1
 11
158.8177070539807
 21
224.3844608901261
 31
0.0
100
AcDbText
 73
     2
  0
MTEXT
  5
2D6D4
330
1F
100
AcDbEntity
  8
文字
370
     9
100
AcDbMText
 10
161.3526251868652
 20
153.8837729438216
 30
0.0
 40
5.0
 41
19.85484558976438
 46
0.0
 71
     1
 72
     5
  1
{\fMS PMincho|b0|i0|c128|p18;\W1.05;E}
  7
寸法
 73
     1
 44
1.0
  0
LINE
  5
2D6E2
330
1F
100
AcDbEntity
  8
実線
100
AcDbLine
 10
119.4193835621004
 20
103.9577767660407
 30
0.0000000000000032
 11
207.4193835621004
 21
103.9577767660407
 31
0.0000000000000032
  0
LINE
  5
2D6E3
330
1F
100
AcDbEntity
  8
実線
100
AcDbLine
 10
205.9193835621004
 20
103.9577767660407
 30
0.0000000000000032
 11
205.9193835621004
 21
103.9577767660407
 31
0.0000000000000032
  0
LINE
  5
2D6E4
330
1F
100
AcDbEntity
  8
実線
100
AcDbLine
 10
120.9193835621004
 20
103.9577767660407
 30
0.0000000000000032
 11
120.9193835621004
 21
103.9577767660407
 31
0.0000000000000032
  0
LINE
  5
2D6E8
330
1F
100
AcDbEntity
  8
実線
100
AcDbLine
 10
203.4193835621004
 20
128.1977767661043
 30
0.0
 11
205.9193835621004
 21
128.1977767661043
 31
0.0
  0
LINE
  5
2D6E9
330
1F
100
AcDbEntity
  8
実線
100
AcDbLine
 10
205.9193835621004
 20
128.1977767661043
 30
0.0
 11
205.9193835621004
 21
123.6977767661044
 31
0.0
  0
LINE
  5
2D6EA
330
1F
100
AcDbEntity
  8
実線
100
AcDbLine
 10
207.4193835621004
 20
122.1977767661044
 30
0.0
 11
207.4193835621004
 21
122.1977767661044
 31
0.0
  0
ARC
  5
2D6EB
330
1F
100
AcDbEntity
  8
実線
100
AcDbCircle
 10
207.4193835621004
 20
123.6977767661044
 30
0.0
 40
1.5
100
AcDbArc
 50
180.0
 51
270.0
  0
LINE
  5
2D6EC
330
1F
100
AcDbEntity
  8
実線
100
AcDbLine
 10
119.4193835621004
 20
103.9577767660407
 30
0.0000000000000032
 11
119.4193835621004
 21
122.1977767661044
 31
0.0
  0
ARC
  5
2D6ED
330
1F
100
AcDbEntity
  8
実線
100
AcDbCircle
 10
119.4193835621004
 20
123.6977767661044
 30
0.0
 40
1.5
100
AcDbArc
 50
270.0
 51
0.0
  0
LINE
  5
2D6EE
330
1F
100
AcDbEntity
  8
実線
100
AcDbLine
 10
120.9193835621004
 20
128.1977767661043
 30
0.0
 11
120.9193835621004
 21
123.6977767661044
 31
0.0
  0
LINE
  5
2D6EF
330
1F
100
AcDbEntity
  8
実線
100
AcDbLine
 10
163.4193835621004
 20
128.1977767661043
 30
0.0
 11
120.9193835621004
 21
128.1977767661043
 31
0.0
  0
LINE
  5
2D6F0
330
1F
100
AcDbEntity
  8
実線
100
AcDbLine
 10
119.4193835621004
 20
122.1977767661044
 30
0.0
 11
119.4193835621004
 21
122.1977767661044
 31
0.0
  0
LINE
  5
2D6F1
330
1F
100
AcDbEntity
  8
実線
100
AcDbLine
 10
208.9193835621004
 20
105.4577767660407
 30
0.0000000000000032
 11
213.4193835621004
 21
105.4577767660407
 31
0.0000000000000032
  0
LINE
  5
2D6F2
330
1F
100
AcDbEntity
  8
実線
100
AcDbLine
 10
213.4193835621004
 20
105.4577767660407
 30
0.0000000000000032
 11
213.4193835621004
 21
121.1977767661044
 31
0.0
  0
LINE
  5
2D6F3
330
1F
100
AcDbEntity
  8
実線
100
AcDbLine
 10
213.4193835621004
 20
121.1977767661044
 30
0.0
 11
207.4193835621004
 21
121.1977767661044
 31
0.0
  0
ARC
  5
2D6F4
330
1F
100
AcDbEntity
  8
実線
100
AcDbCircle
 10
208.9193835621004
 20
103.9577767660407
 30
0.0000000000000032
 40
1.5
100
AcDbArc
 50
90.0
 51
180.0
  0
LINE
  5
2D6F5
330
1F
100
AcDbEntity
  8
実線
100
AcDbLine
 10
207.4193835621004
 20
122.1977767661044
 30
0.0
 11
207.4193835621004
 21
103.9577767660407
 31
0.0000000000000032
  0
LINE
  5
2D6F6
330
1F
100
AcDbEntity
  8
実線
100
AcDbLine
 10
163.4193835621004
 20
105.4577767660407
 30
0.0000000000000032
 11
158.4193835621004
 21
105.4577767660407
 31
0.0000000000000032
  0
LINE
  5
2D6F7
330
1F
100
AcDbEntity
  8
実線
100
AcDbLine
 10
158.4193835621004
 20
105.4577767660407
 30
0.0000000000000032
 11
158.4193835621004
 21
121.1977767661044
 31
0.0
  0
LINE
  5
2D6F8
330
1F
100
AcDbEntity
  8
実線
100
AcDbLine
 10
158.4193835621004
 20
121.1977767661044
 30
0.0
 11
163.4193835621004
 21
121.1977767661044
 31
0.0
  0
LINE
  5
2D6F9
330
1F
100
AcDbEntity
  8
実線
100
AcDbLine
 10
119.4193835621004
 20
122.1977767661044
 30
0.0
 11
163.4193835621004
 21
122.1977767661044
 31
0.0
  0
LINE
  5
2D6FA
330
1F
100
AcDbEntity
  8
実線
100
AcDbLine
 10
117.9193835621004
 20
105.4577767660407
 30
0.0000000000000032
 11
111.4193835621004
 21
105.4577767660407
 31
0.0000000000000032
  0
ARC
  5
2D6FB
330
1F
100
AcDbEntity
  8
実線
100
AcDbCircle
 10
117.9193835621004
 20
103.9577767660407
 30
0.0000000000000032
 40
1.5
100
AcDbArc
 50
0.0
 51
90.0
  0
LINE
  5
2D6FC
330
1F
100
AcDbEntity
  8
実線
100
AcDbLine
 10
111.4193835621004
 20
105.4577767660407
 30
0.0000000000000032
 11
111.4193835621004
 21
123.6977767661044
 31
0.0
  0
LINE
  5
2D6FD
330
1F
100
AcDbEntity
  8
実線
100
AcDbLine
 10
114.9193835621004
 20
127.1977767661043
 30
0.0
 11
120.9193835621004
 21
127.1977767661043
 31
0.0
  0
ARC
  5
2D6FE
330
1F
100
AcDbEntity
  8
実線
100
AcDbCircle
 10
114.9193835621004
 20
123.6977767661044
 30
0.0
 40
3.5
100
AcDbArc
 50
90.0
 51
180.0
  0
CIRCLE
  5
2D6FF
330
1F
100
AcDbEntity
  8
実線
100
AcDbCircle
 10
114.9193835621004
 20
123.6977767661044
 30
0.0
 40
1.35
  0
ARC
  5
2D700
330
1F
100
AcDbEntity
  8
実線
100
AcDbCircle
 10
84.33800604631267
 20
135.4471900208407
 30
0.0
 40
37.5
100
AcDbArc
 50
316.2339370535018
 51
347.2918860001934
  0
LINE
  5
2D701
330
1F
100
AcDbEntity
  8
実線
100
AcDbLine
 10
163.4193835621004
 20
128.1977767661043
 30
0.0
 11
205.9193835621004
 21
128.1977767661043
 31
0.0
  0
LINE
  5
2D702
330
1F
100
AcDbEntity
  8
実線
100
AcDbLine
 10
163.4193835621004
 20
105.4577767660407
 30
0.0000000000000032
 11
168.4193835621004
 21
105.4577767660407
 31
0.0000000000000032
  0
LINE
  5
2D703
330
1F
100
AcDbEntity
  8
実線
100
AcDbLine
 10
168.4193835621004
 20
105.4577767660407
 30
0.0000000000000032
 11
168.4193835621004
 21
121.1977767661044
 31
0.0
  0
LINE
  5
2D704
330
1F
100
AcDbEntity
  8
実線
100
AcDbLine
 10
168.4193835621004
 20
121.1977767661044
 30
0.0
 11
163.4193835621004
 21
121.1977767661044
 31
0.0
  0
LINE
  5
2D705
330
1F
100
AcDbEntity
  8
実線
100
AcDbLine
 10
207.4193835621004
 20
122.1977767661044
 30
0.0
 11
163.4193835621004
 21
122.1977767661044
 31
0.0
  0
LINE
  5
2D706
330
1F
100
AcDbEntity
  8
実線
100
AcDbLine
 10
118.9193835621004
 20
140.1977767660406
 30
0.0
 11
118.9193835621004
 21
131.1977767660406
 31
0.0
  0
ARC
  5
2D707
330
1F
100
AcDbEntity
  8
実線
100
AcDbCircle
 10
120.4193835621004
 20
140.1977767660406
 30
0.0
 40
1.5
100
AcDbArc
 50
90.0
 51
180.0
  0
LINE
  5
2D708
330
1F
100
AcDbEntity
  8
実線
100
AcDbLine
 10
205.9193835621004
 20
141.6977767660406
 30
0.0
 11
205.9193835621004
 21
140.1977767660407
 31
0.0
  0
LINE
  5
2D709
330
1F
100
AcDbEntity
  8
実線
100
AcDbLine
 10
125.9193835621004
 20
135.6977767660406
 30
0.0
 11
200.9193835621004
 21
135.6977767660406
 31
0.0
  0
LINE
  5
2D70A
330
1F
100
AcDbEntity
  8
実線
100
AcDbLine
 10
127.4193835621004
 20
137.6977767660406
 30
0.0
 11
199.4193835621004
 21
137.6977767660406
 31
0.0
  0
LINE
  5
2D70B
330
1F
100
AcDbEntity
  8
実線
100
AcDbLine
 10
127.4193835621004
 20
135.6977767660406
 30
0.0
 11
127.4193835621004
 21
137.6977767660406
 31
0.0
  0
LINE
  5
2D70C
330
1F
100
AcDbEntity
  8
実線
100
AcDbLine
 10
199.4193835621004
 20
137.6977767660406
 30
0.0
 11
199.4193835621004
 21
135.6977767660406
 31
0.0
  0
LINE
  5
2D70D
330
1F
100
AcDbEntity
  8
実線
100
AcDbLine
 10
129.4193835621004
 20
140.1977767660407
 30
0.0
 11
143.4193835621004
 21
140.1977767660407
 31
0.0
  0
LINE
  5
2D70E
330
1F
100
AcDbEntity
  8
実線
100
AcDbLine
 10
125.9193835621004
 20
137.6977767660406
 30
0.0
 11
125.9193835621004
 21
131.1977767660406
 31
0.0
  0
LINE
  5
2D70F
330
1F
100
AcDbEntity
  8
実線
100
AcDbLine
 10
200.9193835621004
 20
138.8580308038851
 30
0.0
 11
205.9193835621004
 21
140.1977767660407
 31
0.0
  0
LINE
  5
2D710
330
1F
100
AcDbEntity
  8
実線
100
AcDbLine
 10
205.9193835621004
 20
141.6977767660406
 30
0.0
 11
200.1193835621005
 21
141.6977767660406
 31
0.0
  0
LINE
  5
2D711
330
1F
100
AcDbEntity
  8
実線
100
AcDbLine
 10
125.9193835621004
 20
137.6977767660406
 30
0.0
 11
118.9193835621004
 21
137.6977767660406
 31
0.0
  0
ARC
  5
2D712
330
1F
100
AcDbEntity
  8
実線
100
AcDbCircle
 10
122.4193835621004
 20
132.1977767660406
 30
0.0
 40
3.5
100
AcDbArc
 50
180.0
 51
0.0
  0
CIRCLE
  5
2D713
330
1F
100
AcDbEntity
  8
実線
100
AcDbCircle
 10
122.4193835621004
 20
132.1977767660406
 30
0.0
 40
1.35
  0
LINE
  5
2D714
330
1F
100
AcDbEntity
  8
実線
100
AcDbLine
 10
129.4193835621004
 20
141.6977767660406
 30
0.0
 11
129.4193835621004
 21
140.1977767660407
 31
0.0
  0
LINE
  5
2D715
330
1F
100
AcDbEntity
  8
実線
100
AcDbLine
 10
198.2193835621003
 20
141.6977767660406
 30
0.0
 11
200.1193835621005
 21
141.6977767660406
 31
0.0
  0
LINE
  5
2D716
102
{ACAD_REACTORS
330
2D951
102
}
330
1F
100
AcDbEntity
  8
実線
100
AcDbLine
 10
120.4193835621004
 20
141.6977767660406
 30
0.0
 11
198.2193835621003
 21
141.6977767660406
 31
0.0
  0
LINE
  5
2D717
330
1F
100
AcDbEntity
  8
実線
100
AcDbLine
 10
197.4193835621004
 20
141.6977767660406
 30
0.0
 11
197.4193835621004
 21
140.1977767660407
 31
0.0
  0
LINE
  5
2D718
330
1F
100
AcDbEntity
  8
実線
100
AcDbLine
 10
197.4193835621004
 20
140.1977767660407
 30
0.0
 11
180.4193835621004
 21
140.1977767660407
 31
0.0
  0
LINE
  5
2D719
330
1F
100
AcDbEntity
  8
実線
100
AcDbLine
 10
180.4193835621004
 20
140.1977767660407
 30
0.0
 11
180.4193835621004
 21
141.6977767660406
 31
0.0
  0
LINE
  5
2D71A
330
1F
100
AcDbEntity
  8
実線
100
AcDbLine
 10
200.9193835621004
 20
135.6977767660406
 30
0.0
 11
200.9193835621004
 21
138.8580308038851
 31
0.0
  0
LINE
  5
2D71B
330
1F
100
AcDbEntity
  8
実線
100
AcDbLine
 10
226.8492365621002
 20
124.1790701251035
 30
0.0
 11
226.9979525621002
 21
132.6990311251035
 31
0.0
  0
LINE
  5
2D71C
330
1F
100
AcDbEntity
  8
実線
100
AcDbLine
 10
229.0502965621004
 20
132.6977771251035
 30
0.0
 11
229.0502965621004
 21
135.6977771251035
 31
0.0
  0
LINE
  5
2D71D
330
1F
100
AcDbEntity
  8
実線
100
AcDbLine
 10
226.7132165621003
 20
132.6977771251035
 30
0.0
 11
226.7132165621003
 21
135.6977771251035
 31
0.0
  0
LINE
  5
2D71E
330
1F
100
AcDbEntity
  8
実線
100
AcDbLine
 10
225.1862795621002
 20
124.1803241251036
 30
0.0
 11
225.2894185621003
 21
132.6977771251035
 31
0.0
  0
LINE
  5
2D71F
330
1F
100
AcDbEntity
  8
実線
100
AcDbLine
 10
211.1342795621003
 20
128.1977771251035
 30
0.0
 11
215.5636475621002
 21
128.1977771251035
 31
0.0
  0
LINE
  5
2D720
330
1F
100
AcDbEntity
  8
実線
100
AcDbLine
 10
218.8756825621003
 20
124.1803241251036
 30
0.0
 11
225.1862795621002
 21
124.1803241251036
 31
0.0
  0
LINE
  5
2D721
330
1F
100
AcDbEntity
  8
実線
100
AcDbLine
 10
143.9178635621003
 20
134.6934131251035
 30
0.0
 11
128.4175975621003
 21
134.6934131251035
 31
0.0
  0
LINE
  5
2D722
330
1F
100
AcDbEntity
  8
実線
100
AcDbLine
 10
198.4211685621003
 20
134.6934131251035
 30
0.0
 11
182.9209025621003
 21
134.6934131251035
 31
0.0
  0
SPLINE
  5
2D723
330
1F
100
AcDbEntity
  8
実線
100
AcDbSpline
210
0.0000000000000005
220
-0.0000000000000007
230
1.0
 70
     8
 71
     3
 72
    11
 73
     7
 74
     0
 42
0.000000001
 43
0.0000000001
 40
0.0
 40
0.0
 40
0.0
 40
0.0
 40
0.2259189453175958
 40
0.4749437486470577
 40
0.7389082183377647
 40
1.0
 40
1.0
 40
1.0
 40
1.0
 10
225.6916935289819
 20
123.1977767662535
 30
-0.0000000000000008
 10
225.8236228335763
 20
123.1957081593767
 30
-0.0000000000000008
 10
226.0866697416572
 20
123.2307078704945
 30
-0.0000000000000008
 10
226.4775325270018
 20
123.4105879978746
 30
-0.0000000000000008
 10
226.7727599580997
 20
123.7517054628894
 30
-0.0000000000000007
 10
226.8425683842261
 20
124.0272621306812
 30
-0.0000000000000007
 10
226.8492564778899
 20
124.1803243597052
 30
-0.0000000000000007
  0
SPLINE
  5
2D724
330
1F
100
AcDbEntity
  8
実線
100
AcDbSpline
210
0.0
220
0.0
230
1.0
 70
    24
 71
     1
 72
     4
 73
     2
 74
     0
 42
0.000000001
 43
0.0000000001
 40
0.0
 40
0.0
 40
1.0
 40
1.0
 10
211.606412178545
 20
128.1974640471948
 30
-0.0000000000000005
 10
211.7148521181107
 20
124.1705283620105
 30
-0.0000000000000007
  0
SPLINE
  5
2D725
330
1F
100
AcDbEntity
  8
実線
100
AcDbSpline
210
-0.0000000000000006
220
-0.0000000000000007
230
1.0
 70
     8
 71
     3
 72
    13
 73
     9
 74
     0
 42
0.000000001
 43
0.0000000001
 40
0.0
 40
0.0
 40
0.0
 40
0.0
 40
0.1115201039487749
 40
0.2278635016244231
 40
0.3489508537731877
 40
0.4776140031074334
 40
0.7471369611342269
 40
1.0
 40
1.0
 40
1.0
 40
1.0
 10
211.7147011469626
 20
124.170888624455
 30
-0.0000000000000007
 10
211.7164856800428
 20
124.1075786320545
 30
-0.0000000000000007
 10
211.7319305615242
 20
123.980894223626
 30
-0.0000000000000007
 10
211.7937360133271
 20
123.7903657165369
 30
-0.0000000000000007
 10
211.8962925656035
 20
123.6100923929515
 30
-0.0000000000000007
 10
212.0797039023912
 20
123.4055026414134
 30
-0.0000000000000008
 10
212.3749328649012
 20
123.2426926436145
 30
-0.0000000000000008
 10
212.6539994214388
 20
123.1981596155236
 30
-0.0000000000000008
 10
212.8010817993231
 20
123.1977767660406
 30
-0.0000000000000008
  0
SPLINE
  5
2D726
330
1F
100
AcDbEntity
  8
実線
100
AcDbSpline
210
0.0
220
0.0
230
1.0
 70
    24
 71
     3
 72
    14
 73
    10
 74
     0
 42
0.000000001
 43
0.0000000001
 40
0.0
 40
0.0
 40
0.0
 40
0.0
 40
0.25
 40
0.25
 40
0.5
 40
0.5
 40
0.75
 40
0.75
 40
1.0
 40
1.0
 40
1.0
 40
1.0
 10
183.817107926432
 20
135.6977767660406
 30
0.0
 10
180.7961813444603
 20
135.6977767660406
 30
0.0
 10
177.4959400483349
 20
135.6977767660406
 30
0.0
 10
170.6032169436209
 20
135.6977767660406
 30
0.0
 10
167.0114990946995
 20
135.6977767660406
 30
0.0
 10
159.8272671273966
 20
135.6977767660406
 30
0.0
 10
156.2355492782655
 20
135.6977767660406
 30
0.0
 10
149.3428261727308
 20
135.6977767660406
 30
0.0
 10
146.0425848759939
 20
135.6977767660406
 30
0.0
 10
143.0216582932344
 20
135.6977767660406
 30
0.0
  0
SPLINE
  5
2D727
330
1F
100
AcDbEntity
  8
実線
100
AcDbSpline
210
0.0
220
0.0
230
1.0
 70
    24
 71
     1
 72
     4
 73
     2
 74
     0
 42
0.000000001
 43
0.0000000001
 40
0.0
 40
0.0
 40
1.0
 40
1.0
 10
211.1306817383231
 20
132.6977767660407
 30
-0.0000000000000002
 10
226.7132167383231
 20
132.6977767660407
 30
-0.0000000000000002
  0
SPLINE
  5
2D728
330
1F
100
AcDbEntity
  8
実線
100
AcDbSpline
210
0.0
220
0.0
230
1.0
 70
    24
 71
     3
 72
    10
 73
     6
 74
     0
 42
0.000000001
 43
0.0000000001
 40
0.0
 40
0.0
 40
0.0
 40
0.0
 40
0.5
 40
0.5
 40
1.0
 40
1.0
 40
1.0
 40
1.0
 10
226.7132167403631
 20
132.697776766339
 30
-0.0000000000000002
 10
227.449805125574
 20
132.697776766339
 30
-0.0000000000000002
 10
228.0415529912216
 20
132.697776766339
 30
-0.0000000000000002
 10
228.841971451073
 20
132.697776766339
 30
-0.0000000000000002
 10
229.0503070954232
 20
132.697776766339
 30
-0.0000000000000002
 10
229.0502913438481
 20
132.697776766339
 30
-0.0000000000000002
  0
SPLINE
  5
2D729
330
1F
100
AcDbEntity
  8
実線
100
AcDbSpline
210
0.0
220
0.0
230
1.0
 70
     8
 71
     3
 72
    18
 73
    14
 74
     0
 42
0.000000001
 43
0.0000000001
 40
0.0
 40
0.0
 40
0.0
 40
0.0
 40
0.062470076537805
 40
0.1249495076892241
 40
0.2500641950362941
 40
0.3745810240093161
 40
0.4998099936103095
 40
0.624241027455021
 40
0.7493929959937287
 40
0.8740897937830245
 40
0.9370844937144704
 40
0.9685127315902519
 40
1.0
 40
1.0
 40
1.0
 40
1.0
 10
143.0216582932344
 20
135.6977767660406
 30
0.0
 10
143.0496909108869
 20
135.6968607629134
 30
0.0
 10
143.1057603439503
 20
135.6950286194916
 30
0.0
 10
143.2174558185534
 20
135.6753776898232
 30
0.0
 10
143.3540821729509
 20
135.6286236738864
 30
0.0
 10
143.5072276863475
 20
135.5366145315439
 30
0.0
 10
143.6435383581342
 20
135.4126545077769
 30
0.0
 10
143.7579788406406
 20
135.2603532733787
 30
0.0
 10
143.8452686786818
 20
135.0856022785644
 30
0.0
 10
143.8922663181215
 20
134.9258989123558
 30
0.0
 10
143.9101067743117
 20
134.8105224765867
 30
-0.0000000000000001
 10
143.9161392707947
 20
134.7436788213889
 30
-0.0000000000000001
 10
143.9172884549593
 20
134.7101790549506
 30
-0.0000000000000001
 10
143.9178635861533
 20
134.6934134561376
 30
-0.0000000000000001
  0
SPLINE
  5
2D72A
330
1F
100
AcDbEntity
  8
実線
100
AcDbSpline
210
0.0000000000000006
220
-0.0000000000000006
230
1.0
 70
     8
 71
     3
 72
    17
 73
    13
 74
     0
 42
0.000000001
 43
0.0000000001
 40
0.0
 40
0.0
 40
0.0
 40
0.0
 40
0.0624113752594375
 40
0.1249211180700301
 40
0.2500682483801164
 40
0.374600153538278
 40
0.4997707322151781
 40
0.6245569077250872
 40
0.7493767487460984
 40
0.8745050327104333
 40
0.9372725646200736
 40
1.0
 40
1.0
 40
1.0
 40
1.0
 10
182.9209026338258
 20
134.6934134561376
 30
-0.0000000000000001
 10
182.9224623905888
 20
134.7266549156534
 30
-0.0000000000000001
 10
182.9255843624723
 20
134.7931902270729
 30
-0.0000000000000001
 10
182.946520221778
 20
134.9248618466719
 30
0.0
 10
182.9929111000763
 20
135.0843104442637
 30
0.0
 10
183.0802387926803
 20
135.2594359544729
 30
0.0
 10
183.1944069380276
 20
135.4117777236367
 30
0.0
 10
183.330833736393
 20
135.5360787009444
 30
0.0
 10
183.4838508085033
 20
135.628250458912
 30
0.0
 10
183.6207092919514
 20
135.6752290422631
 30
0.0
 10
183.732647031652
 20
135.6950019924713
 30
0.0
 10
183.7889602923364
 20
135.6968520387032
 30
0.0
 10
183.8171079264359
 20
135.697776766268
 30
0.0
  0
SPLINE
  5
2D72B
330
1F
100
AcDbEntity
  8
実線
100
AcDbSpline
210
0.0
220
0.0
230
1.0
 70
    24
 71
     1
 72
     4
 73
     2
 74
     0
 42
0.000000001
 43
0.0000000001
 40
0.0
 40
0.0
 40
1.0
 40
1.0
 10
211.1428931987703
 20
134.6934134570405
 30
-0.0000000000000001
 10
211.1028105124562
 20
128.1977767660406
 30
-0.0000000000000005
  0
SPLINE
  5
2D72C
330
1F
100
AcDbEntity
  8
実線
100
AcDbSpline
210
0.0
220
0.0
230
1.0
 70
    24
 71
     1
 72
     4
 73
     2
 74
     0
 42
0.000000001
 43
0.0000000001
 40
0.0
 40
0.0
 40
1.0
 40
1.0
 10
128.4175974428758
 20
134.6934134570405
 30
-0.0000000000000001
 10
128.4175974391901
 20
128.1977767660406
 30
-0.0000000000000005
  0
SPLINE
  5
2D72D
330
1F
100
AcDbEntity
  8
実線
100
AcDbSpline
210
0.0
220
0.0
230
1.0
 70
     8
 71
     3
 72
     8
 73
     4
 74
     0
 42
0.000000001
 43
0.0000000001
 40
0.0
 40
0.0
 40
0.0
 40
0.0
 40
1.0
 40
1.0
 40
1.0
 40
1.0
 10
143.9178635861533
 20
134.6934134561376
 30
-0.0000000000000001
 10
143.9646450204802
 20
132.5282012261265
 30
-0.0000000000000002
 10
144.0113821279456
 20
130.3629889961154
 30
-0.0000000000000003
 10
144.0580748769916
 20
128.1977767661043
 30
-0.0000000000000005
  0
SPLINE
  5
2D72E
330
1F
100
AcDbEntity
  8
実線
100
AcDbSpline
210
0.0
220
0.0
230
1.0
 70
    24
 71
     1
 72
     4
 73
     2
 74
     0
 42
0.000000001
 43
0.0000000001
 40
0.0
 40
0.0
 40
1.0
 40
1.0
 10
115.695873015876
 20
134.6934134570405
 30
-0.0000000000000001
 10
115.73595570219
 20
128.1977767660406
 30
-0.0000000000000005
  0
SPLINE
  5
2D72F
330
1F
100
AcDbEntity
  8
実線
100
AcDbSpline
210
0.0
220
0.0
230
1.0
 70
    24
 71
     1
 72
     4
 73
     2
 74
     0
 42
0.000000001
 43
0.0000000001
 40
0.0
 40
0.0
 40
1.0
 40
1.0
 10
198.4211687816923
 20
134.6934134560405
 30
-0.0000000000000001
 10
198.4211687809102
 20
128.1977767660406
 30
-0.0000000000000005
  0
SPLINE
  5
2D730
330
1F
100
AcDbEntity
  8
実線
100
AcDbSpline
210
0.0
220
0.0
230
1.0
 70
    24
 71
     1
 72
     4
 73
     2
 74
     0
 42
0.000000001
 43
0.0000000001
 40
0.0
 40
0.0
 40
1.0
 40
1.0
 10
182.9209026470716
 20
134.6934134570407
 30
-0.0000000000000001
 10
182.7806913458789
 20
128.1977767660406
 30
-0.0000000000000005
  0
SPLINE
  5
2D731
330
1F
100
AcDbEntity
  8
実線
100
AcDbSpline
210
0.0
220
0.0
230
1.0
 70
    24
 71
     1
 72
     4
 73
     2
 74
     0
 42
0.000000001
 43
0.0000000001
 40
0.0
 40
0.0
 40
1.0
 40
1.0
 10
115.6958730174128
 20
134.6934134560405
 30
-0.0000000000000001
 10
115.7359557069103
 20
128.1977767660406
 30
-0.0000000000000005
  0
SPLINE
  5
2D732
330
1F
100
AcDbEntity
  8
実線
100
AcDbSpline
210
0.0
220
0.0
230
1.0
 70
    24
 71
     1
 72
     4
 73
     2
 74
     0
 42
0.000000001
 43
0.0000000001
 40
0.0
 40
0.0
 40
1.0
 40
1.0
 10
211.1214355822581
 20
131.1977767658246
 30
-0.0000000000000001
 10
216.9720245822582
 20
131.1977767658246
 30
-0.0000000000000003
  0
SPLINE
  5
2D733
330
1F
100
AcDbEntity
  8
実線
100
AcDbSpline
210
0.0
220
0.0
230
1.0
 70
    24
 71
     1
 72
     4
 73
     2
 74
     0
 42
0.000000001
 43
0.0000000001
 40
0.0
 40
0.0
 40
1.0
 40
1.0
 10
216.9720245822582
 20
131.1977767658246
 30
-0.0000000000000003
 10
216.9509067091628
 20
128.1977767653929
 30
0.0000000000000004
  0
SPLINE
  5
2D734
330
1F
100
AcDbEntity
  8
実線
100
AcDbSpline
210
0.0
220
0.0
230
1.0
 70
    24
 71
     1
 72
     4
 73
     2
 74
     0
 42
0.000000001
 43
0.0000000001
 40
0.0
 40
0.0
 40
1.0
 40
1.0
 10
215.563647446053
 20
128.1977767660406
 30
0.0000000000000004
 10
215.584765310859
 20
131.1977767660406
 30
-0.0000000000000003
  0
SPLINE
  5
2D735
330
1F
100
AcDbEntity
  8
実線
100
AcDbSpline
210
0.0
220
0.0
230
1.0
 70
    24
 71
     1
 72
     4
 73
     2
 74
     0
 42
0.000000001
 43
0.0000000001
 40
0.0
 40
0.0
 40
1.0
 40
1.0
 10
218.8312052671035
 20
128.1977767653929
 30
-0.0000000000000005
 10
218.8756823291142
 20
124.1803243600406
 30
-0.0000000000000007
  0
SPLINE
  5
2D736
330
1F
100
AcDbEntity
  8
実線
100
AcDbSpline
210
0.0
220
0.0
230
1.0
 70
     8
 71
     3
 72
    18
 73
    14
 74
     0
 42
0.000000001
 43
0.0000000001
 40
0.0
 40
0.0
 40
0.0
 40
0.0
 40
0.0909102076715635
 40
0.1818197452705851
 40
0.2727287617006676
 40
0.3636374058679873
 40
0.4545458266805398
 40
0.5454541730474335
 40
0.6363625938781203
 40
0.7272712380817115
 40
0.8181802545661993
 40
0.90908979223776
 40
1.0
 40
1.0
 40
1.0
 40
1.0
 10
215.5636474482003
 20
128.1977767664231
 30
0.0000000000000004
 10
215.6101053405089
 20
128.1977759042994
 30
0.0000000000000004
 10
215.7030207826988
 20
128.1977741800582
 30
0.0000000000000004
 10
215.841716792751
 20
128.1977648636505
 30
0.0000000000000004
 10
215.9790617790079
 20
128.1977552906423
 30
0.0000000000000004
 10
216.1143893003182
 20
128.1977473095613
 30
0.0000000000000004
 10
216.2470416285189
 20
128.197742902047
 30
0.0000000000000004
 10
216.3763780228217
 20
128.1977429020463
 30
0.0000000000000004
 10
216.5017588748731
 20
128.1977473095593
 30
0.0000000000000004
 10
216.622619592541
 20
128.1977552906393
 30
0.0000000000000004
 10
216.7382091883117
 20
128.1977648636465
 30
0.0000000000000004
 10
216.8485797607123
 20
128.1977741800534
 30
0.0000000000000004
 10
216.9167976430906
 20
128.1977759042944
 30
0.0000000000000004
 10
216.9509067099871
 20
128.1977767664181
 30
0.0000000000000004
  0
SPLINE
  5
2D737
330
1F
100
AcDbEntity
  8
実線
100
AcDbSpline
210
0.0
220
0.0
230
1.0
 70
    24
 71
     1
 72
     4
 73
     2
 74
     0
 42
0.000000001
 43
0.0000000001
 40
0.0
 40
0.0
 40
1.0
 40
1.0
 10
216.9509067091628
 20
128.1977767653929
 30
0.0000000000000004
 10
218.8312052671035
 20
128.1977767653929
 30
-0.0000000000000005
  0
SPLINE
  5
2D738
330
1F
100
AcDbEntity
  8
実線
100
AcDbSpline
210
0.0
220
0.0
230
1.0
 70
    24
 71
     1
 72
     4
 73
     2
 74
     0
 42
0.000000001
 43
0.0000000001
 40
0.0
 40
0.0
 40
1.0
 40
1.0
 10
182.7806913458789
 20
128.1977767660406
 30
-0.0000000000000005
 10
198.4211687754562
 20
128.1977767660406
 30
-0.0000000000000005
  0
SPLINE
  5
2D739
330
1F
100
AcDbEntity
  8
実線
100
AcDbSpline
210
0.0
220
0.0
230
1.0
 70
    24
 71
     1
 72
     4
 73
     2
 74
     0
 42
0.000000001
 43
0.0000000001
 40
0.0
 40
0.0
 40
1.0
 40
1.0
 10
128.4175974391901
 20
128.1977767660406
 30
-0.0000000000000005
 10
144.0580748687673
 20
128.1977767660406
 30
-0.0000000000000005
  0
SPLINE
  5
2D73A
330
1F
100
AcDbEntity
  8
実線
100
AcDbSpline
210
0.0
220
0.0
230
1.0
 70
    24
 71
     1
 72
     4
 73
     2
 74
     0
 42
0.000000001
 43
0.0000000001
 40
0.0
 40
0.0
 40
1.0
 40
1.0
 10
115.7359557069103
 20
128.1977767660406
 30
-0.0000000000000005
 10
128.4175974337361
 20
128.1977767660406
 30
-0.0000000000000005
  0
SPLINE
  5
2D73B
330
1F
100
AcDbEntity
  8
実線
100
AcDbSpline
210
0.0
220
0.0
230
1.0
 70
    24
 71
     1
 72
     4
 73
     2
 74
     0
 42
0.000000001
 43
0.0000000001
 40
0.0
 40
0.0
 40
1.0
 40
1.0
 10
198.4211687809102
 20
128.1977767660406
 30
-0.0000000000000005
 10
211.1028105077362
 20
128.1977767660406
 30
-0.0000000000000005
  0
SPLINE
  5
2D73C
330
1F
100
AcDbEntity
  8
実線
100
AcDbSpline
210
0.0
220
0.0
230
1.0
 70
    24
 71
     3
 72
    14
 73
    10
 74
     0
 42
0.000000001
 43
0.0000000001
 40
0.0
 40
0.0
 40
0.0
 40
0.0
 40
0.25
 40
0.25
 40
0.5
 40
0.5
 40
0.75
 40
0.75
 40
1.0
 40
1.0
 40
1.0
 40
1.0
 10
144.0580748769916
 20
128.1977767661043
 30
-0.0000000000000005
 10
146.9607598000209
 20
128.1977767661043
 30
-0.0000000000000005
 10
150.1029578680897
 20
128.1977767661043
 30
-0.0000000000000005
 10
156.6368571859059
 20
128.1977767661043
 30
-0.0000000000000005
 10
160.0279665359408
 20
128.1977767661043
 30
-0.0000000000000005
 10
166.8107996862115
 20
128.1977767661043
 30
-0.0000000000000005
 10
170.2019090360563
 20
128.1977767661043
 30
-0.0000000000000005
 10
176.7358083531267
 20
128.1977767661043
 30
-0.0000000000000005
 10
179.8780064206398
 20
128.1977767661043
 30
-0.0000000000000005
 10
182.7806913429508
 20
128.1977767661043
 30
-0.0000000000000005
  0
SPLINE
  5
2D73D
330
1F
100
AcDbEntity
  8
実線
100
AcDbSpline
210
0.0
220
0.0
230
1.0
 70
     8
 71
     3
 72
     8
 73
     4
 74
     0
 42
0.000000001
 43
0.0000000001
 40
0.0
 40
0.0
 40
0.0
 40
0.0
 40
1.0
 40
1.0
 40
1.0
 40
1.0
 10
211.8879284305983
 20
124.1803243650271
 30
-0.0000000000000007
 10
211.8524423313981
 20
125.5194762204282
 30
-0.0000000000000006
 10
211.8169196512095
 20
126.8586270545073
 30
-0.0000000000000005
 10
211.7813601568712
 20
128.197776812514
 30
-0.0000000000000005
  0
SPLINE
  5
2D73E
330
1F
100
AcDbEntity
  8
実線
100
AcDbSpline
210
0.0
220
0.0
230
1.0
 70
     8
 71
     3
 72
     8
 73
     4
 74
     0
 42
0.000000001
 43
0.0000000001
 40
0.0
 40
0.0
 40
0.0
 40
0.0
 40
1.0
 40
1.0
 40
1.0
 40
1.0
 10
215.5250680263655
 20
124.180324360044
 30
-0.0000000000000007
 10
215.5100052430639
 20
125.5194751620642
 30
-0.0000000000000006
 10
215.4948841027219
 20
126.8586259640841
 30
-0.0000000000000005
 10
215.4797047737836
 20
128.1977767661043
 30
-0.0000000000000005
  0
SPLINE
  5
2D73F
330
1F
100
AcDbEntity
  8
実線
100
AcDbSpline
210
0.0
220
0.0
230
1.0
 70
     8
 71
     3
 72
    11
 73
     7
 74
     0
 42
0.000000001
 43
0.0000000001
 40
0.0
 40
0.0
 40
0.0
 40
0.0
 40
0.1149657792339902
 40
0.3833393396974598
 40
0.6810635366111423
 40
1.0
 40
1.0
 40
1.0
 40
1.0
 10
211.7153889495166
 20
124.1704262060624
 30
-0.0000000000000007
 10
211.7144738819502
 20
124.170707412132
 30
-0.0000000000000007
 10
211.7143748629719
 20
124.1716829918825
 30
-0.0000000000000007
 10
211.7318261425408
 20
124.1736536253949
 30
-0.0000000000000007
 10
211.7850664060556
 20
124.1766588500305
 30
-0.0000000000000007
 10
211.8528637115073
 20
124.1790748246427
 30
-0.0000000000000007
 10
211.8879284305983
 20
124.1803243650271
 30
-0.0000000000000007
  0
SPLINE
  5
2D740
330
1F
100
AcDbEntity
  8
実線
100
AcDbSpline
210
0.0000000000000001
220
-0.0000000000000001
230
1.0
 70
    12
 71
     2
 72
     6
 73
     3
 74
     0
 42
0.000000001
 43
0.0000000001
 40
0.0
 40
0.0
 40
0.0
 40
1.0
 40
1.0
 40
1.0
 10
218.1820527073232
 20
123.1977767660406
 30
-0.0000000000000008
 41
1.0
 10
218.8637844783234
 20
123.1977767660407
 30
-0.0000000000000008
 41
0.713250449154184
 10
218.8756823383233
 20
124.1803243600406
 30
-0.0000000000000007
 41
1.0
  0
SPLINE
  5
2D741
330
1F
100
AcDbEntity
  8
実線
100
AcDbSpline
210
0.0
220
0.0
230
1.0
 70
     8
 71
     3
 72
    25
 73
    21
 74
     0
 42
0.000000001
 43
0.0000000001
 40
0.0
 40
0.0
 40
0.0
 40
0.0
 40
0.0340600320258166
 40
0.067148870438772
 40
0.0989921468915188
 40
0.1293296933274707
 40
0.1579209471848954
 40
0.1845488881889696
 40
0.2090224007097537
 40
0.2311771260611704
 40
0.2508750058897336
 40
0.3779359328408304
 40
0.5001444140740114
 40
0.6225634798598121
 40
0.74989648982634
 40
0.7870055596822624
 40
0.8316872953358613
 40
0.8829550217545103
 40
0.9395527336366795
 40
1.0
 40
1.0
 40
1.0
 40
1.0
 10
215.5250680229638
 20
124.1803244087863
 30
-0.0000000000000007
 10
215.5353193414162
 20
124.1795484760436
 30
-0.0000000000000007
 10
215.5555296704633
 20
124.1780187356375
 30
-0.0000000000000007
 10
215.5978656338013
 20
124.1758631095005
 30
-0.0000000000000007
 10
215.6468627170736
 20
124.1738903063903
 30
-0.0000000000000007
 10
215.7016669556394
 20
124.1721272554563
 30
-0.0000000000000007
 10
215.760165788826
 20
124.1705816938153
 30
-0.0000000000000007
 10
215.8204788390367
 20
124.169250975673
 30
-0.0000000000000007
 10
215.8806862801216
 20
124.1681206691186
 30
-0.0000000000000007
 10
215.9390064955378
 20
124.1671720023395
 30
-0.0000000000000007
 10
216.0958140622211
 20
124.1648741443474
 30
-0.0000000000000007
 10
216.3924167658024
 20
124.1620219771847
 30
-0.0000000000000007
 10
216.8786935207986
 20
124.1608365276658
 30
-0.0000000000000007
 10
217.4077318000907
 20
124.1620263682641
 30
-0.0000000000000007
 10
217.8214619949272
 20
124.1650882561406
 30
-0.0000000000000007
 10
218.1094499458243
 20
124.1679965589648
 30
-0.0000000000000007
 10
218.2878225080687
 20
124.1700822780452
 30
-0.0000000000000007
 10
218.4831012996465
 20
124.1728524172962
 30
-0.0000000000000007
 10
218.6863788292085
 20
124.1763007262955
 30
-0.0000000000000007
 10
218.8112125932416
 20
124.1789540919716
 30
-0.0000000000000007
 10
218.875682337256
 20
124.1803244087863
 30
-0.0000000000000007
  0
SPLINE
  5
2D742
330
1F
100
AcDbEntity
  8
実線
100
AcDbSpline
210
-0.0000000000000002
220
-0.0000000000000002
230
1.0
 70
    12
 71
     3
 72
     8
 73
     4
 74
     0
 42
0.000000001
 43
0.0000000001
 40
0.0
 40
0.0
 40
0.0
 40
0.0
 40
1.0
 40
1.0
 40
1.0
 40
1.0
 10
216.5067455504667
 20
123.1977767662535
 30
-0.0000000000000008
 41
0.9570772342603667
 10
215.9395323377184
 20
123.1977767656685
 30
-0.0000000000000008
 41
0.774116256033456
 10
215.5349672582263
 20
123.6027004134279
 30
-0.0000000000000007
 41
0.7741162560334552
 10
215.5250680227246
 20
124.1803243597052
 30
-0.0000000000000007
 41
0.9570772342603628
  0
SPLINE
  5
2D743
330
1F
100
AcDbEntity
  8
実線
100
AcDbSpline
210
-0.0000000000000001
220
-0.0000000000000001
230
1.0
 70
    12
 71
     2
 72
     6
 73
     3
 74
     0
 42
0.000000001
 43
0.0000000001
 40
0.0
 40
0.0
 40
0.0
 40
1.0
 40
1.0
 40
1.0
 10
212.8010817993231
 20
123.1977767660406
 30
-0.0000000000000008
 41
1.0
 10
211.9035917913233
 20
123.1977767660406
 30
-0.0000000000000008
 41
0.7132504491541754
 10
211.8879284303232
 20
124.1803243600406
 30
-0.0000000000000007
 41
1.0
  0
SPLINE
  5
2D744
330
1F
100
AcDbEntity
  8
実線
100
AcDbSpline
210
0.0
220
0.0
230
1.0
 70
    24
 71
     3
 72
     8
 73
     4
 74
     0
 42
0.000000001
 43
0.0000000001
 40
0.0
 40
0.0
 40
0.0
 40
0.0
 40
1.0
 40
1.0
 40
1.0
 40
1.0
 10
211.8879284524194
 20
124.1803243602713
 30
-0.0000000000000007
 10
213.5347904163068
 20
124.1803243602713
 30
-0.0000000000000007
 10
214.7577356369452
 20
124.1803243602713
 30
-0.0000000000000007
 10
215.5250680263621
 20
124.1803243602713
 30
-0.0000000000000007
  0
SPLINE
  5
2D745
330
1F
100
AcDbEntity
  8
実線
100
AcDbSpline
210
0.0000000000000003
220
-0.0000000000000002
230
1.0
 70
    12
 71
     3
 72
     8
 73
     4
 74
     0
 42
0.000000001
 43
0.0000000001
 40
0.0
 40
0.0
 40
0.0
 40
0.0
 40
1.0
 40
1.0
 40
1.0
 40
1.0
 10
225.1862790872397
 20
124.1803243597053
 30
-0.0000000000000007
 41
0.9570772342603618
 10
225.1792845270053
 20
123.6027004134279
 30
-0.0000000000000007
 41
0.7741162560334463
 10
224.8934286134331
 20
123.1977767656685
 30
-0.0000000000000008
 41
0.7741162560334474
 10
224.4926494563183
 20
123.1977767662535
 30
-0.0000000000000008
 41
0.9570772342603655
  0
SPLINE
  5
2D746
330
1F
100
AcDbEntity
  8
実線
100
AcDbSpline
210
0.0
220
0.0
230
1.0
 70
    28
 71
     3
 72
     8
 73
     4
 74
     0
 42
0.000000001
 43
0.0000000001
 40
0.0
 40
0.0
 40
0.0
 40
0.0
 40
1.0
 40
1.0
 40
1.0
 40
1.0
 10
226.843578341917
 20
124.1803243597052
 30
-0.0000000000000007
 41
0.6766130647479553
 10
226.9204579558842
 20
124.1803243597052
 30
-0.0000000000000007
 41
0.7143040799283335
 10
226.2570342475688
 20
124.1803243597053
 30
-0.0000000000000007
 41
0.8077921364324691
 10
225.1862790872396
 20
124.1803243597053
 30
-0.0000000000000007
 41
0.9570772342603619
  0
SPLINE
  5
2D747
330
1F
100
AcDbEntity
  8
実線
100
AcDbSpline
210
0.0
220
0.0
230
1.0
 70
    28
 71
     3
 72
     8
 73
     4
 74
     0
 42
0.000000001
 43
0.0000000001
 40
0.0
 40
0.0
 40
0.0
 40
0.0
 40
1.0
 40
1.0
 40
1.0
 40
1.0
 10
224.4926494563185
 20
123.1977767662534
 30
-0.0000000000000008
 41
0.9570772342603619
 10
224.9917596720562
 20
123.1977767662534
 30
-0.0000000000000008
 41
0.8656741225232515
 10
225.390439644631
 20
123.1977767662534
 30
-0.0000000000000008
 41
0.7951880504034296
 10
225.6266544563184
 20
123.1977767662534
 30
-0.0000000000000008
 41
0.7456190179008955
  0
SPLINE
  5
2D748
330
1F
100
AcDbEntity
  8
実線
100
AcDbSpline
210
0.0
220
0.0
230
1.0
 70
    28
 71
     3
 72
     8
 73
     4
 74
     0
 42
0.000000001
 43
0.0000000001
 40
0.0
 40
0.0
 40
0.0
 40
0.0
 40
1.0
 40
1.0
 40
1.0
 40
1.0
 10
212.8010818001849
 20
123.1977767662535
 30
-0.0000000000000008
 41
0.9570772342603635
 10
214.4826335551825
 20
123.1977767662535
 30
-0.0000000000000008
 41
0.9529151437572908
 10
215.7232499375805
 20
123.1977767662535
 30
-0.0000000000000008
 41
0.9529151437572908
 10
216.5067455504666
 20
123.1977767662535
 30
-0.0000000000000008
 41
0.9570772342603635
  0
SPLINE
  5
2D749
330
1F
100
AcDbEntity
  8
実線
100
AcDbSpline
210
0.0
220
0.0
230
1.0
 70
    24
 71
     3
 72
    36
 73
    32
 74
     0
 42
0.000000001
 43
0.0000000001
 40
0.0
 40
0.0
 40
0.0
 40
0.0
 40
0.062499999999998
 40
0.062499999999998
 40
0.1250000000000011
 40
0.1250000000000011
 40
0.1874999999999994
 40
0.1874999999999994
 40
0.218750000000001
 40
0.218750000000001
 40
0.2499999999999977
 40
0.2499999999999977
 40
0.3125000000000008
 40
0.3125000000000008
 40
0.3749999999999989
 40
0.3749999999999989
 40
0.5000000000000006
 40
0.5000000000000006
 40
0.5624999999999996
 40
0.5624999999999996
 40
0.625
 40
0.625
 40
0.6875
 40
0.6875
 40
0.7499999999999996
 40
0.7499999999999996
 40
0.8124999999999998
 40
0.8124999999999998
 40
0.875
 40
0.875
 40
1.0
 40
1.0
 40
1.0
 40
1.0
 10
216.5067455503231
 20
123.1977767660406
 30
-0.0000000000000008
 10
216.5152940933231
 20
123.1977767660406
 30
-0.0000000000000008
 10
216.5268571943232
 20
123.1977767660406
 30
-0.0000000000000008
 10
216.5557027453233
 20
123.1977767660406
 30
-0.0000000000000008
 10
216.5728393883231
 20
123.1977767660406
 30
-0.0000000000000008
 10
216.6123506353233
 20
123.1977767660406
 30
-0.0000000000000008
 10
216.6347256503232
 20
123.1977767660406
 30
-0.0000000000000008
 10
216.6722900983232
 20
123.1977767660406
 30
-0.0000000000000008
 10
216.6855196333231
 20
123.1977767660406
 30
-0.0000000000000008
 10
216.7131779453232
 20
123.1977767660406
 30
-0.0000000000000008
 10
216.7275326483232
 20
123.1977767660406
 30
-0.0000000000000008
 10
216.7721343083231
 20
123.1977767660406
 30
-0.0000000000000008
 10
216.8039121613233
 20
123.1977767660406
 30
-0.0000000000000008
 10
216.8715166433234
 20
123.1977767660406
 30
-0.0000000000000008
 10
216.9074450883231
 20
123.1977767660406
 30
-0.0000000000000008
 10
217.0209324253233
 20
123.1977767660406
 30
-0.0000000000000008
 10
217.1014729323233
 20
123.1977767660406
 30
-0.0000000000000008
 10
217.2294559683233
 20
123.1977767660406
 30
-0.0000000000000008
 10
217.2735382483231
 20
123.1977767660406
 30
-0.0000000000000008
 10
217.3615926963232
 20
123.1977767660406
 30
-0.0000000000000008
 10
217.4058502693233
 20
123.1977767660406
 30
-0.0000000000000008
 10
217.4948209403233
 20
123.1977767660406
 30
-0.0000000000000008
 10
217.5396011063231
 20
123.1977767660406
 30
-0.0000000000000008
 10
217.6293610053231
 20
123.1977767660406
 30
-0.0000000000000008
 10
217.6734479393231
 20
123.1977767660406
 30
-0.0000000000000008
 10
217.7600971823231
 20
123.1977767660406
 30
-0.0000000000000008
 10
217.8026593183231
 20
123.1977767660406
 30
-0.0000000000000008
 10
217.8862362463233
 20
123.1977767660406
 30
-0.0000000000000008
 10
217.9274499283233
 20
123.1977767660406
 30
-0.0000000000000008
 10
218.0452079243232
 20
123.1977767660406
 30
-0.0000000000000008
 10
218.1170633083232
 20
123.1977767660406
 30
-0.0000000000000008
 10
218.1820527073232
 20
123.1977767660406
 30
-0.0000000000000008
  0
SPLINE
  5
2D74A
330
1F
100
AcDbEntity
  8
実線
100
AcDbSpline
210
0.0
220
0.0
230
1.0
 70
    24
 71
     1
 72
     4
 73
     2
 74
     0
 42
0.000000001
 43
0.0000000001
 40
0.0
 40
0.0
 40
1.0
 40
1.0
 10
224.4926494537815
 20
123.1977767660406
 30
-0.0000000000000008
 10
218.1820527124898
 20
123.1977767660406
 30
-0.0000000000000008
  0
SPLINE
  5
2D74B
330
1F
100
AcDbEntity
  8
実線
100
AcDbSpline
210
0.0
220
0.0
230
1.0
 70
    24
 71
     3
 72
     9
 73
     5
 74
     0
 42
0.000000001
 43
0.0000000001
 40
0.0
 40
0.0
 40
0.0
 40
0.0
 40
0.4999999999716401
 40
1.0
 40
1.0
 40
1.0
 40
1.0
 10
224.9193831080997
 20
123.1977767659952
 30
-0.0000000000000008
 10
224.8610573324354
 20
122.5311100993444
 30
-0.0000000000000008
 10
224.7444057810997
 20
121.197776765967
 30
-0.0000000000000009
 10
224.6277542297696
 20
119.8644434325892
 30
-0.000000000000001
 10
224.5694284541014
 20
119.1977767658624
 30
-0.000000000000001
  0
SPLINE
  5
2D74C
330
1F
100
AcDbEntity
  8
実線
100
AcDbSpline
210
0.0
220
0.0
230
1.0
 70
    24
 71
     3
 72
     8
 73
     4
 74
     0
 42
0.000000001
 43
0.0000000001
 40
0.0
 40
0.0
 40
0.0
 40
0.0
 40
1.0
 40
1.0
 40
1.0
 40
1.0
 10
218.2693377320516
 20
119.1977767635886
 30
-0.000000000000001
 10
218.1526861807208
 20
120.5311100968905
 30
-0.0000000000000009
 10
218.0360346293978
 20
121.8644434301922
 30
-0.0000000000000008
 10
217.9193830780673
 20
123.1977767634941
 30
-0.0000000000000008
  0
SPLINE
  5
2D74D
330
1F
100
AcDbEntity
  8
実線
100
AcDbSpline
210
0.0
220
0.0
230
1.0
 70
    24
 71
     2
 72
    26
 73
    23
 74
     0
 42
0.000000001
 43
0.0000000001
 40
0.0
 40
0.0
 40
0.0
 40
0.0078125
 40
0.015625
 40
0.03125
 40
0.0625
 40
0.125
 40
0.1875
 40
0.25
 40
0.3125
 40
0.375
 40
0.4375
 40
0.5
 40
0.5625
 40
0.625
 40
0.6875
 40
0.75
 40
0.8125
 40
0.875
 40
0.9375
 40
0.96875
 40
0.98125
 40
1.0
 40
1.0
 40
1.0
 10
224.5694284516105
 20
119.1977767660407
 30
-0.000000000000001
 10
224.5694149419762
 20
119.1977767660407
 30
-0.000000000000001
 10
224.5675569990112
 20
119.1977767660407
 30
-0.000000000000001
 10
224.5619026891552
 20
119.1977767660407
 30
-0.000000000000001
 10
224.5392452123545
 20
119.1977767660407
 30
-0.000000000000001
 10
224.4485327759089
 20
119.1977767660407
 30
-0.000000000000001
 10
224.2111750208076
 20
119.1977767660407
 30
-0.000000000000001
 10
223.8665302693612
 20
119.1977767660407
 30
-0.000000000000001
 10
223.4278430213397
 20
119.1977767660407
 30
-0.000000000000001
 10
222.9119717891201
 20
119.1977767660407
 30
-0.000000000000001
 10
222.3387412034967
 20
119.1977767660407
 30
0.0000000000000008
 10
221.7301802128577
 20
119.1977767660407
 30
0.0000000000000008
 10
221.1096754522039
 20
119.1977767660407
 30
0.0000000000000008
 10
220.5010725946213
 20
119.1977767660407
 30
0.0000000000000008
 10
219.9277598839394
 20
119.1977767660407
 30
-0.000000000000001
 10
219.4117694246979
 20
119.1977767660407
 30
-0.000000000000001
 10
218.972930429448
 20
119.1977767660407
 30
-0.000000000000001
 10
218.6281072421202
 20
119.1977767660407
 30
-0.000000000000001
 10
218.3905512197187
 20
119.1977767660407
 30
-0.000000000000001
 10
218.2996819527175
 20
119.1977767660407
 30
-0.000000000000001
 10
218.2784598636835
 20
119.1977767660407
 30
-0.000000000000001
 10
218.2693702391073
 20
119.1977767660407
 30
-0.000000000000001
 10
218.2693377630358
 20
119.1977767660407
 30
-0.000000000000001
  0
SPLINE
  5
2D74E
330
1F
100
AcDbEntity
  8
実線
100
AcDbSpline
210
0.0
220
0.0
230
1.0
 70
    24
 71
     1
 72
     4
 73
     2
 74
     0
 42
0.000000001
 43
0.0000000001
 40
0.0
 40
0.0
 40
1.0
 40
1.0
 10
127.7073985607949
 20
135.6977767660406
 30
0.0
 10
143.0216583405377
 20
135.6977767660406
 30
0.0
  0
SPLINE
  5
2D74F
330
1F
100
AcDbEntity
  8
実線
100
AcDbSpline
210
0.0000000000000006
220
-0.0000000000000005
230
1.0
 70
     8
 71
     2
 72
    24
 73
    21
 74
     0
 42
0.000000001
 43
0.0000000001
 40
0.0
 40
0.0
 40
0.0
 40
0.015625
 40
0.03125
 40
0.0625
 40
0.125
 40
0.175
 40
0.25
 40
0.3
 40
0.375
 40
0.425
 40
0.5
 40
0.55
 40
0.625
 40
0.675
 40
0.75
 40
0.8
 40
0.875
 40
0.9375
 40
0.9625
 40
1.0
 40
1.0
 40
1.0
 10
199.1313676476814
 20
135.6977767660406
 30
0.0
 10
199.1224303578199
 20
135.6977629959105
 30
0.0
 10
199.1056060350445
 20
135.6971928504014
 30
0.0
 10
199.0795361077043
 20
135.695401654881
 30
0.0
 10
199.0276380840798
 20
135.6881965254812
 30
0.0
 10
198.9659379610029
 20
135.670854986079
 30
0.0
 10
198.8989535501281
 20
135.6441555660186
 30
0.0
 10
198.8343296349525
 20
135.6063097710768
 30
0.0
 10
198.7722756194937
 20
135.5616173781585
 30
0.0
 10
198.7140803888148
 20
135.5066565284384
 30
0.0
 10
198.6593546879578
 20
135.4456981905509
 30
0.0
 10
198.6098369453252
 20
135.375746120389
 30
0.0
 10
198.5645543019195
 20
135.3008774247525
 30
0.0
 10
198.5256275567776
 20
135.2186372529756
 30
0.0
 10
198.4915378103294
 20
135.1327513120422
 30
0.0
 10
198.4647062730873
 20
135.0414010103579
 30
0.0
 10
198.4431267316483
 20
134.9478166783912
 30
0.0
 10
198.4280572130556
 20
134.841192578915
 30
-0.0000000000000001
 10
198.4232487695333
 20
134.7726984192797
 30
-0.0000000000000001
 10
198.4211922443746
 20
134.7238727842697
 30
-0.0000000000000001
 10
198.4211687816923
 20
134.6934134560405
 30
-0.0000000000000001
  0
SPLINE
  5
2D750
330
1F
100
AcDbEntity
  8
実線
100
AcDbSpline
210
0.0
220
0.0
230
1.0
 70
    24
 71
     1
 72
     4
 73
     2
 74
     0
 42
0.000000001
 43
0.0000000001
 40
0.0
 40
0.0
 40
1.0
 40
1.0
 10
210.501913783934
 20
135.6977767660406
 30
0.0
 10
226.7132167839341
 20
135.6977767660406
 30
0.0
  0
SPLINE
  5
2D751
330
1F
100
AcDbEntity
  8
実線
100
AcDbSpline
210
-0.0000000000000007
220
-0.0000000000000005
230
1.0
 70
     8
 71
     2
 72
    24
 73
    21
 74
     0
 42
0.000000001
 43
0.0000000001
 40
0.0
 40
0.0
 40
0.0
 40
0.015625
 40
0.03125
 40
0.0625
 40
0.125
 40
0.175
 40
0.25
 40
0.3
 40
0.375
 40
0.425
 40
0.5
 40
0.55
 40
0.625
 40
0.675
 40
0.75
 40
0.8
 40
0.875
 40
0.9375
 40
0.9625
 40
1.0
 40
1.0
 40
1.0
 10
128.4175974329541
 20
134.6934134560405
 30
-0.0000000000000001
 10
128.4175876971007
 20
134.7060525712947
 30
-0.0000000000000001
 10
128.4171845414562
 20
134.7298455285828
 30
-0.0000000000000001
 10
128.4159179654289
 20
134.7667136200989
 30
-0.0000000000000001
 10
128.4108231241342
 20
134.8401078066503
 30
-0.0000000000000001
 10
128.3985606862068
 20
134.9273641247906
 30
0.0
 10
128.3796811631318
 20
135.0220934859814
 30
0.0
 10
128.3529198862068
 20
135.1134846375593
 30
0.0
 10
128.3213172912833
 20
135.2012414371039
 30
0.0
 10
128.2824537378233
 20
135.2835411431128
 30
0.0
 10
128.2393492746366
 20
135.3609342332153
 30
0.0
 10
128.1898852140348
 20
135.4309622195877
 30
0.0
 10
128.1369445444511
 20
135.4950009364485
 30
0.0
 10
128.0787914106304
 20
135.5500511523811
 30
0.0
 10
128.0180603047708
 20
135.5982608780599
 30
0.0
 10
127.9534652753743
 20
135.6362060350285
 30
0.0
 10
127.8872905308537
 20
135.6667238206411
 30
0.0
 10
127.8118951878273
 20
135.6880351333317
 30
0.0
 10
127.7634620395247
 20
135.6948352386411
 30
0.0
 10
127.7289367711748
 20
135.6977435810505
 30
0.0
 10
127.7073985669649
 20
135.6977767660406
 30
0.0
  0
SPLINE
  5
2D752
330
1F
100
AcDbEntity
  8
実線
100
AcDbSpline
210
0.0000000000000006
220
-0.0000000000000005
230
1.0
 70
     8
 71
     2
 72
    24
 73
    21
 74
     0
 42
0.000000001
 43
0.0000000001
 40
0.0
 40
0.0
 40
0.0
 40
0.015625
 40
0.03125
 40
0.0625
 40
0.125
 40
0.175
 40
0.25
 40
0.3
 40
0.375
 40
0.425
 40
0.5
 40
0.55
 40
0.625
 40
0.675
 40
0.75
 40
0.8
 40
0.875
 40
0.9375
 40
0.9625
 40
1.0
 40
1.0
 40
1.0
 10
116.3998742486813
 20
135.6977767660406
 30
0.0
 10
116.3909370437913
 20
135.6977629959105
 30
0.0
 10
116.3741162392184
 20
135.6971928504014
 30
0.0
 10
116.3480573648266
 20
135.695401654881
 30
0.0
 10
116.2962038019661
 20
135.6881965254812
 30
0.0
 10
116.2346106884997
 20
135.670854986079
 30
0.0
 10
116.1677910320031
 20
135.6441555660186
 30
0.0
 10
116.1034006522529
 20
135.6063097710768
 30
0.0
 10
116.0416224205901
 20
135.5616173781585
 30
0.0
 10
115.9837663373762
 20
135.5066565284384
 30
0.0
 10
115.9294167927444
 20
135.4456981905509
 30
0.0
 10
115.8803307040507
 20
135.375746120389
 30
0.0
 10
115.8355100536537
 20
135.3008774247525
 30
0.0
 10
115.7970907887622
 20
135.2186372529756
 30
0.0
 10
115.7635310195487
 20
135.1327513120422
 30
0.0
 10
115.7372631785265
 20
135.0414010103579
 30
0.0
 10
115.7162611188607
 20
134.9478166783912
 30
0.0
 10
115.7018495466648
 20
134.841192578915
 30
-0.0000000000000001
 10
115.6974637607384
 20
134.7726984192797
 30
-0.0000000000000001
 10
115.6957085244141
 20
134.7238727842697
 30
-0.0000000000000001
 10
115.6958730174128
 20
134.6934134560405
 30
-0.0000000000000001
  0
SPLINE
  5
2D753
330
1F
100
AcDbEntity
  8
実線
100
AcDbSpline
210
0.0
220
0.0
230
1.0
 70
    24
 71
     2
 72
    16
 73
    13
 74
     0
 42
0.000000001
 43
0.0000000001
 40
0.0
 40
0.0
 40
0.0
 40
0.03125
 40
0.0625
 40
0.125
 40
0.25
 40
0.3928571428571428
 40
0.5
 40
0.6428571428571428
 40
0.75
 40
0.875
 40
0.925
 40
1.0
 40
1.0
 40
1.0
 10
226.7132167839341
 20
135.6977767660406
 30
0.0
 10
226.7826946816467
 20
135.6977767660406
 30
0.0
 10
226.9170218856932
 20
135.6977767660406
 30
0.0
 10
227.1138620629356
 20
135.6977767660406
 30
0.0
 10
227.4854591742819
 20
135.6977767660406
 30
0.0
 10
227.9532207938991
 20
135.6977767660406
 30
0.0
 10
228.3124525583084
 20
135.6977767660406
 30
0.0
 10
228.6136752782216
 20
135.6977767660406
 30
0.0
 10
228.8306193502924
 20
135.6977767660406
 30
0.0
 10
228.9733731643003
 20
135.6977767660406
 30
0.0
 10
229.0271999489391
 20
135.6977767660406
 30
0.0
 10
229.0502630008757
 20
135.6977767660406
 30
0.0
 10
229.0502960662871
 20
135.6977767660406
 30
0.0
  0
SPLINE
  5
2D754
330
1F
100
AcDbEntity
  8
実線
100
AcDbSpline
210
0.0
220
0.0
230
1.0
 70
    24
 71
     1
 72
     4
 73
     2
 74
     0
 42
0.000000001
 43
0.0000000001
 40
0.0
 40
0.0
 40
1.0
 40
1.0
 10
127.7073985669649
 20
135.6977767660406
 30
0.0
 10
116.3998742486813
 20
135.6977767660406
 30
0.0
  0
SPLINE
  5
2D755
330
1F
100
AcDbEntity
  8
実線
100
AcDbSpline
210
0.0
220
0.0
230
1.0
 70
    24
 71
     1
 72
     4
 73
     2
 74
     0
 42
0.000000001
 43
0.0000000001
 40
0.0
 40
0.0
 40
1.0
 40
1.0
 10
210.438891965965
 20
135.6977767660406
 30
0.0
 10
199.1313676476814
 20
135.6977767660406
 30
0.0
  0
SPLINE
  5
2D756
330
1F
100
AcDbEntity
  8
実線
100
AcDbSpline
210
0.0000000000000007
220
0.0000000000000005
230
-1.0
 70
     8
 71
     2
 72
    24
 73
    21
 74
     0
 42
0.000000001
 43
0.0000000001
 40
0.0
 40
0.0
 40
0.0
 40
0.015625
 40
0.03125
 40
0.0625
 40
0.125
 40
0.175
 40
0.25
 40
0.3
 40
0.375
 40
0.425
 40
0.5
 40
0.55
 40
0.625
 40
0.675
 40
0.75
 40
0.8
 40
0.875
 40
0.9375
 40
0.9625
 40
1.0
 40
1.0
 40
1.0
 10
211.1428931972334
 20
134.6934134560405
 30
-0.0000000000000001
 10
211.1429614536951
 20
134.7060525712947
 30
-0.0000000000000001
 10
211.1427051174901
 20
134.7298455285828
 30
-0.0000000000000001
 10
211.1416660437637
 20
134.7667136200989
 30
-0.0000000000000001
 10
211.1370240967099
 20
134.8401078066503
 30
-0.0000000000000001
 10
211.1253000922172
 20
134.9273641247906
 30
0.0
 10
211.1070051165589
 20
135.0220934859814
 30
0.0
 10
211.0808077879267
 20
135.1134846375593
 30
0.0
 10
211.0497467147636
 20
135.2012414371039
 30
0.0
 10
211.0113910089224
 20
135.2835411431128
 30
0.0
 10
210.968764116051
 20
135.3609342332153
 30
0.0
 10
210.9197321778449
 20
135.4309622195877
 30
0.0
 10
210.8671866726118
 20
135.4950009364485
 30
0.0
 10
210.8093732377088
 20
135.5500511523811
 30
0.0
 10
210.7489396200858
 20
135.5982608780599
 30
0.0
 10
210.684578739249
 20
135.6362060350285
 30
0.0
 10
210.618592311133
 20
135.6667238206411
 30
0.0
 10
210.543328474037
 20
135.6880351333317
 30
0.0
 10
210.494937287212
 20
135.6948352386411
 30
0.0
 10
210.4604299654002
 20
135.6977435810505
 30
0.0
 10
210.438891965965
 20
135.6977767660406
 30
0.0
  0
SPLINE
  5
2D757
330
1F
100
AcDbEntity
  8
実線
100
AcDbSpline
210
0.0
220
0.0
230
1.0
 70
    24
 71
     1
 72
     4
 73
     2
 74
     0
 42
0.000000001
 43
0.0000000001
 40
0.0
 40
0.0
 40
1.0
 40
1.0
 10
183.8171079701666
 20
135.6977767660406
 30
0.0
 10
199.1313676359075
 20
135.6977767660406
 30
0.0
  0
LINE
  5
2D758
330
1F
100
AcDbEntity
  8
実線
100
AcDbLine
 10
143.4193835621004
 20
141.6977767660406
 30
0.0
 11
143.4193835621004
 21
140.1977767660407
 31
0.0
  0
LINE
  5
2D7D3
330
1F
100
AcDbEntity
  8
実線
100
AcDbLine
 10
196.5417795088394
 20
224.9170554353026
 30
0.0
 11
221.4193837621546
 21
224.9170554353026
 31
0.0
  0
LINE
  5
2D7D4
330
1F
100
AcDbEntity
  8
実線
100
AcDbLine
 10
197.4043745669202
 20
223.8070554353027
 30
0.0
 11
221.4193837621546
 21
223.8070554353026
 31
0.0
  0
LINE
  5
2D7D6
330
1F
100
AcDbEntity
  8
実線
100
AcDbLine
 10
122.2195180977249
 20
165.5724711451116
 30
0.0
 11
125.0479452224709
 21
168.4008982698576
 31
0.0
  0
LINE
  5
2D7D7
330
1F
100
AcDbEntity
  8
実線
100
AcDbLine
 10
130.7047994719634
 20
157.0871897708729
 30
0.0
 11
133.5332265967096
 21
159.9156168956191
 31
0.0
  0
LINE
  5
2D7D8
330
1F
100
AcDbEntity
  8
実線
100
AcDbLine
 10
118.330430801199
 20
165.9260245357046
 30
0.0
 11
127.6849443560729
 21
175.2805380905788
 31
0.0
  0
LINE
  5
2D7D9
330
1F
100
AcDbEntity
  8
実線
100
AcDbLine
 10
131.0583528625569
 20
153.1981024743468
 30
0.0
 11
140.4128664174309
 21
162.5526160292208
 31
0.0
  0
LINE
  5
2D7DB
330
1F
100
AcDbEntity
  8
一点鎖線
100
AcDbLine
 10
147.3359962866717
 20
214.3704429107859
 30
0.0
 11
99.6511416649281
 21
262.0552975325296
 31
0.0
  0
LINE
  5
2D7DC
330
1F
100
AcDbEntity
  8
実線
100
AcDbLine
 10
137.0687605026422
 20
256.45748384821
 30
0.0
 11
121.5124113165378
 21
272.0138330343139
 31
0.0
  0
ARC
  5
2D7DD
330
1F
100
AcDbEntity
  8
実線
100
AcDbCircle
 10
119.3910909729783
 20
269.8925126907542
 30
0.0
 40
3.0
100
AcDbArc
 50
45.00000000000831
 51
134.9999999999915
  0
LINE
  5
2D7DE
330
1F
100
AcDbEntity
  8
実線
100
AcDbLine
 10
105.2489553492477
 20
224.6376786948153
 30
0.0
 11
89.69260616314375
 21
240.1940278809191
 31
0.0
  0
LINE
  5
2D7DF
330
1F
100
AcDbEntity
  8
実線
100
AcDbLine
 10
138.8365274556089
 20
251.1541829893107
 30
0.0
 11
135.300993549676
 21
254.6897168952436
 31
0.0
  0
LINE
  5
2D7E0
330
1F
100
AcDbEntity
  8
実線
100
AcDbLine
 10
110.5522562081468
 20
222.8699117418487
 30
0.0
 11
107.0167223022141
 21
226.4054456477814
 31
0.0
  0
LINE
  5
2D7E1
330
1F
100
AcDbEntity
  8
実線
100
AcDbLine
 10
132.4372110858704
 20
236.9766920265204
 30
0.0
 11
128.5481237893444
 21
240.8657793230462
 31
0.0
  0
LINE
  5
2D7E2
330
1F
100
AcDbEntity
  8
実線
100
AcDbLine
 10
124.729747170937
 20
229.269228111587
 30
0.0
 11
120.8406598744112
 21
233.158315408113
 31
0.0
  0
LINE
  5
2D7E3
330
1F
100
AcDbEntity
  8
実線
100
AcDbLine
 10
141.3114011897618
 20
253.6290567234634
 30
0.0
 11
137.7758672838284
 21
257.1645906293964
 31
0.0
  0
LINE
  5
2D7E4
330
1F
100
AcDbEntity
  8
実線
100
AcDbLine
 10
108.0773824739939
 20
220.3950380076957
 30
0.0
 11
104.541848568061
 21
223.9305719136286
 31
0.0
  0
LINE
  5
2D7E5
330
1F
100
AcDbEntity
  8
実線
100
AcDbLine
 10
118.330430801199
 20
165.9260245357046
 30
0.0
 11
131.0583528625569
 21
153.1981024743468
 31
0.0
  0
LINE
  5
2D7E6
330
1F
100
AcDbEntity
  8
実線
100
AcDbLine
 10
122.2195180977249
 20
165.5724711451116
 30
0.0
 11
130.7047994719636
 21
157.087189770873
 31
0.0
  0
LINE
  5
2D7E7
330
1F
100
AcDbEntity
  8
実線
100
AcDbLine
 10
125.0479452224709
 20
168.4008982698577
 30
0.0
 11
133.5332265967096
 21
159.9156168956191
 31
0.0
  0
LINE
  5
2D7E8
330
1F
100
AcDbEntity
  8
実線
100
AcDbLine
 10
195.7804146617526
 20
153.1981024743472
 30
0.0
 11
186.4259011068788
 21
162.5526160292211
 31
0.0
  0
LINE
  5
2D7E9
330
1F
100
AcDbEntity
  8
実線
100
AcDbLine
 10
208.5083367231106
 20
165.9260245357051
 30
0.0
 11
199.1538231682366
 21
175.280538090579
 31
0.0
  0
LINE
  5
2D7EA
330
1F
100
AcDbEntity
  8
実線
100
AcDbLine
 10
195.7804146617526
 20
153.1981024743472
 30
0.0
 11
208.5083367231106
 21
165.9260245357051
 31
0.0
  0
LINE
  5
2D7EB
330
1F
100
AcDbEntity
  8
実線
100
AcDbLine
 10
131.0583528625565
 20
243.3760083962584
 30
0.0
 11
140.4128664174306
 21
234.0214948413841
 31
0.0
  0
LINE
  5
2D7EC
330
1F
100
AcDbEntity
  8
実線
100
AcDbLine
 10
118.3304308011985
 20
230.6480863349004
 30
0.0
 11
127.6849443560729
 21
221.2935727800263
 31
0.0
  0
LINE
  5
2D7ED
330
1F
100
AcDbEntity
  8
実線
100
AcDbLine
 10
141.3114011897615
 20
253.6290567234634
 30
0.0
 11
108.0773824739939
 21
220.3950380076957
 31
0.0
  0
LINE
  5
2D7EE
330
1F
100
AcDbEntity
  8
実線
100
AcDbLine
 10
132.4372110858706
 20
236.9766920265205
 30
0.0
 11
124.7297471709372
 21
229.269228111587
 31
0.0
  0
LINE
  5
2D7EF
330
1F
100
AcDbEntity
  8
実線
100
AcDbLine
 10
196.1339680523457
 20
157.0871897708731
 30
0.0
 11
193.3055409275997
 21
159.9156168956192
 31
0.0
  0
LINE
  5
2D7F0
330
1F
100
AcDbEntity
  8
実線
100
AcDbLine
 10
204.6192494265844
 20
165.5724711451116
 30
0.0
 11
201.7908223018381
 21
168.4008982698578
 31
0.0
  0
LINE
  5
2D7F1
330
1F
100
AcDbEntity
  8
実線
100
AcDbLine
 10
196.1339680523457
 20
157.0871897708731
 30
0.0
 11
204.6192494265844
 21
165.5724711451116
 31
0.0
  0
LINE
  5
2D7F2
330
1F
100
AcDbEntity
  8
実線
100
AcDbLine
 10
193.3055409275995
 20
159.9156168956192
 30
0.0
 11
201.7908223018381
 21
168.4008982698578
 31
0.0
  0
LINE
  5
2D7F3
330
1F
100
AcDbEntity
  8
実線
100
AcDbLine
 10
130.7047994719634
 20
239.4869210997325
 30
0.0
 11
133.5332265967092
 21
236.6584939749864
 31
0.0
  0
LINE
  5
2D7F4
330
1F
100
AcDbEntity
  8
実線
100
AcDbLine
 10
122.2195180977247
 20
231.001639725494
 30
0.0
 11
125.0479452224709
 21
228.1732126007478
 31
0.0
  0
LINE
  5
2D7F5
330
1F
100
AcDbEntity
  8
実線
100
AcDbLine
 10
130.7047994719634
 20
239.4869210997325
 30
0.0
 11
130.3158907423109
 21
239.0980123700799
 31
0.0
  0
LINE
  5
2D7F6
330
1F
100
AcDbEntity
  8
実線
100
AcDbLine
 10
122.6084268273774
 20
231.3905484551467
 30
0.0
 11
122.2195180977247
 21
231.0016397254939
 31
0.0
  0
LINE
  5
2D7F7
330
1F
100
AcDbEntity
  8
実線
100
AcDbLine
 10
137.7758672838287
 20
257.1645906293964
 30
0.0
 11
104.5418485680612
 21
223.9305719136286
 31
0.0
  0
LINE
  5
2D7F8
330
1F
100
AcDbEntity
  8
実線
100
AcDbLine
 10
117.2697706294187
 20
272.0138330343139
 30
0.0
 11
89.69260616314375
 21
244.4366685680384
 31
0.0
  0
ARC
  5
2D7F9
330
1F
100
AcDbEntity
  8
実線
100
AcDbCircle
 10
91.8139265067033
 20
242.3153482244787
 30
0.0
 40
3.0
100
AcDbArc
 50
134.9999999999915
 51
225.0000000000083
  0
LINE
  5
2D7FA
330
1F
100
AcDbEntity
  8
実線
100
AcDbLine
 10
133.5332265967096
 20
236.6584939749864
 30
0.0
 11
125.0479452224709
 21
228.1732126007478
 31
0.0
  0
ARC
  5
2D7FB
330
1F
100
AcDbEntity
  8
実線
100
AcDbCircle
 10
221.4193837621546
 20
217.2870554353026
 30
0.0
 40
7.629999999999999
100
AcDbArc
 50
314.7985754463344
 51
90.0
  0
ARC
  5
2D7FC
330
1F
100
AcDbEntity
  8
実線
100
AcDbCircle
 10
221.4193837621546
 20
217.2870554353026
 30
0.0
 40
6.519999999999998
100
AcDbArc
 50
314.7985754463344
 51
90.0
  0
LINE
  5
2D7FD
330
1F
100
AcDbEntity
  8
実線
100
AcDbLine
 10
226.7956081727958
 20
211.872897043971
 30
0.0
 11
213.4193837621547
 21
198.5903923588771
 31
0.0
  0
LINE
  5
2D7FE
330
1F
100
AcDbEntity
  8
実線
100
AcDbLine
 10
226.0134837827812
 20
212.6605400078475
 30
0.0
 11
213.4193837621547
 21
200.1546798044679
 31
0.0
  0
DIMENSION
  5
2D881
102
{ACAD_XDICTIONARY
360
2D88E
102
}
102
{ACAD_REACTORS
330
2D898
102
}
330
1F
100
AcDbEntity
  8
寸法
100
AcDbDimension
280
     0
  2
*D7
 10
290.8897236717357
 20
248.2870554353026
 30
0.0
 11
288.1397236717357
 21
198.2870554353026
 31
0.0
 70
    32
 71
     5
 42
100.0
 73
     0
 74
     0
 75
     0
  3
ｺﾋﾟｰ - ISO-25
100
AcDbAlignedDimension
 13
168.4193837621546
 23
148.2870554353026
 33
0.0
 14
168.4193837621546
 24
248.2870554353026
 34
0.0
 50
90.0
100
AcDbRotatedDimension
  0
DIMENSION
  5
2D899
102
{ACAD_XDICTIONARY
360
2D8A6
102
}
102
{ACAD_REACTORS
330
2D8B0
102
}
330
1F
100
AcDbEntity
  8
寸法
100
AcDbDimension
280
     0
  2
*D8
 10
273.4193832621545
 20
24.2723409720835
 30
0.0
 11
160.9193832621546
 21
27.0223409720835
 31
0.0
 70
    32
 71
     5
 42
224.9999999999998
 73
     0
 74
     0
 75
     0
  3
ｺﾋﾟｰ - ISO-25
100
AcDbAlignedDimension
 13
48.41938326215473
 23
44.74777676604065
 33
0.0
 14
273.4193832621545
 24
44.74777676604065
 34
0.0
100
AcDbRotatedDimension
  0
DIMENSION
  5
2D8B1
102
{ACAD_XDICTIONARY
360
2D8BE
102
}
102
{ACAD_REACTORS
330
2D8C8
102
}
330
1F
100
AcDbEntity
  8
寸法
100
AcDbDimension
280
     0
  2
*D9
 10
38.62550618585919
 20
63.69777676604065
 30
0.0
 11
35.87550618585918
 21
46.19777624798178
 31
0.0
 70
    32
 71
     5
 42
35.00000103611774
 73
     0
 74
     0
 75
     0
  3
ｺﾋﾟｰ - ISO-25
100
AcDbAlignedDimension
 13
135.3176934909871
 23
28.69777572992289
 33
0.0
 14
42.33929214068914
 24
63.69777676604065
 34
0.0
 50
90.0
100
AcDbRotatedDimension
  0
DIMENSION
  5
2D93A
102
{ACAD_XDICTIONARY
360
2D947
102
}
102
{ACAD_REACTORS
330
2D951
102
}
330
1F
100
AcDbEntity
  8
寸法
100
AcDbDimension
280
     0
  2
*D10
 10
31.94877202511837
 20
141.6977767660406
 30
0.0
 11
29.19877202511834
 21
85.19777624798178
 31
0.0
 70
    32
 71
     5
 42
113.0000010361177
 73
     0
 74
     0
 75
     0
  3
ｺﾋﾟｰ - ISO-25
100
AcDbAlignedDimension
 13
135.3176934909871
 23
28.69777572992289
 33
0.0
 14
120.4193835621004
 24
141.6977767660406
 34
0.0
 50
90.0
100
AcDbRotatedDimension
  0
TEXT
  5
2D973
330
1F
100
AcDbEntity
  8
0
100
AcDbText
 10
362.0810329945233
 20
50.90516497261692
 30
0.0
 40
3.5
  1
A-225120
 41
0.9
 72
     1
 11
374.2310329945234
 21
52.65516497261693
 31
0.0
100
AcDbText
 73
     2
  0
LINE
  5
2D995
330
1F
100
AcDbEntity
  8
0
100
AcDbLine
 10
405.0
 20
277.0
 30
0.0
 11
25.0
 21
277.0
 31
0.0
  0
LINE
  5
2D996
330
1F
100
AcDbEntity
  8
0
100
AcDbLine
 10
405.0
 20
20.0
 30
0.0
 11
405.0
 21
277.0
 31
0.0
  0
LINE
  5
2D997
330
1F
100
AcDbEntity
  8
0
100
AcDbLine
 10
25.0
 20
277.0
 30
0.0
 11
25.0
 21
20.0
 31
0.0
  0
LINE
  5
2D998
330
1F
100
AcDbEntity
  8
0
100
AcDbLine
 10
25.0
 20
20.0
 30
0.0
 11
405.0
 21
20.0
 31
0.0
  0
VIEWPORT
  5
6B
330
50
100
AcDbEntity
 67
     1
  8
0
348
276B
100
AcDbViewport
 10
433.5371052199573
 20
123.3251464112375
 30
0.0
 40
833.2744282326544
 41
415.0001327249073
 68
     1
 69
     1
 12
433.5371052199573
 22
123.3251464112375
 13
0.0
 23
0.0
 14
10.0
 24
10.0
 15
10.0
 25
10.0
 16
0.0
 26
0.0
 36
1.0
 17
0.0
 27
0.0
 37
0.0
 42
50.0
 43
0.0
 44
0.0
 45
415.0001327249073
 50
0.0
 51
0.0
 72
   100
 90
    32800
  1

281
     0
 71
     1
 74
     0
110
0.0
120
0.0
130
0.0
111
1.0
121
0.0
131
0.0
112
0.0
122
1.0
132
0.0
 79
     0
146
0.0
170
     0
 61
     5
292
     1
282
     1
141
0.0
142
0.0
 63
   250
421
  3355443
  0
VIEWPORT
  5
6D
330
50
100
AcDbEntity
 67
     1
  8
0
348
276B
100
AcDbViewport
 10
194.6747247325147
 20
118.9168694143202
 30
0.0
 40
506.9942499588641
 41
411.2802053937703
 68
     2
 69
     2
 12
200.9197229890301
 22
122.5631282670758
 13
0.0
 23
0.0
 14
10.0
 24
10.0
 15
10.0
 25
10.0
 16
0.0
 26
0.0
 36
1.0
 17
0.0
 27
0.0
 37
0.0
 42
50.0
 43
0.0
 44
0.0
 45
411.2802071812528
 50
0.0
 51
0.0
 72
   100
 90
    32864
  1

281
     0
 71
     1
 74
     0
110
0.0
120
0.0
130
0.0
111
1.0
121
0.0
131
0.0
112
0.0
122
1.0
132
0.0
 79
     0
146
0.0
170
     0
 61
     5
292
     1
282
     1
141
0.0
142
0.0
 63
   250
421
  3355443
  0
ENDSEC
  0
SECTION
  2
OBJECTS
  0
DICTIONARY
  5
C
330
0
100
AcDbDictionary
281
     1
  3
ACAD_CIP_PREVIOUS_PRODUCT_INFO
350
2DACA
  3
ACAD_COLOR
350
2776
  3
ACAD_DETAILVIEWSTYLE
350
2DABA
  3
ACAD_GROUP
350
D
  3
ACAD_LAYOUT
350
1A
  3
ACAD_MATERIAL
350
2761
  3
ACAD_MLEADERSTYLE
350
247F1
  3
ACAD_MLINESTYLE
350
17
  3
ACAD_PLOTSETTINGS
350
19
  3
ACAD_PLOTSTYLENAME
350
E
  3
ACAD_SCALELIST
350
247DF
  3
ACAD_SECTIONVIEWSTYLE
350
2DAB8
  3
ACAD_TABLESTYLE
350
2777
  3
ACAD_VISUALSTYLE
350
2765
  3
ACDB_RECOMPOSE_DATA
350
2DAFB
  3
AcDbVariableDictionary
350
5E
  0
DICTIONARY
  5
279F
330
2
100
AcDbDictionary
280
     1
281
     1
  3
ACAD_LAYERFILTERS
360
2DF9
  3
ACAD_LAYERSTATES
360
2E2E
  3
ACLYDICTIONARY
360
2DF8
  0
DICTIONARY
  5
24E13
330
10
100
AcDbDictionary
280
     1
281
     1
  3
ADSK_XREC_LAYER_RECONCILED
360
24E14
  0
DICTIONARY
  5
24E15
330
A7
100
AcDbDictionary
280
     1
281
     1
  3
ADSK_XREC_LAYER_RECONCILED
360
24E16
  0
DICTIONARY
  5
24E17
330
A8
100
AcDbDictionary
280
     1
281
     1
  3
ADSK_XREC_LAYER_RECONCILED
360
24E18
  0
DICTIONARY
  5
24E19
330
A9
100
AcDbDictionary
280
     1
281
     1
  3
ADSK_XREC_LAYER_RECONCILED
360
24E1A
  0
DICTIONARY
  5
24E1B
330
AA
100
AcDbDictionary
280
     1
281
     1
  3
ADSK_XREC_LAYER_RECONCILED
360
24E1C
  0
DICTIONARY
  5
24E1D
330
AB
100
AcDbDictionary
280
     1
281
     1
  3
ADSK_XREC_LAYER_RECONCILED
360
24E1E
  0
DICTIONARY
  5
24E1F
330
AC
100
AcDbDictionary
280
     1
281
     1
  3
ADSK_XREC_LAYER_RECONCILED
360
24E20
  0
DICTIONARY
  5
24E21
330
58C
100
AcDbDictionary
280
     1
281
     1
  3
ADSK_XREC_LAYER_RECONCILED
360
24E22
  0
DICTIONARY
  5
24E23
330
1023
100
AcDbDictionary
280
     1
281
     1
  3
ADSK_XREC_LAYER_RECONCILED
360
24E24
  0
DICTIONARY
  5
24E25
330
2366
100
AcDbDictionary
280
     1
281
     1
  3
ADSK_XREC_LAYER_RECONCILED
360
24E26
  0
DICTIONARY
  5
2D98
330
1F
100
AcDbDictionary
280
     1
281
     1
  3
ACAD_SORTENTS
360
2D99
  0
DICTIONARY
  5
29CF
330
341
100
AcDbDictionary
280
     1
281
     1
  3
ACAD_SORTENTS
360
29D1
  0
DICTIONARY
  5
2D88E
330
2D881
100
AcDbDictionary
280
     1
281
     1
  3
ACAD_DIMASSOC
360
2D898
  0
DICTIONARY
  5
2D8A6
330
2D899
100
AcDbDictionary
280
     1
281
     1
  3
ACAD_DIMASSOC
360
2D8B0
  0
DICTIONARY
  5
2D8BE
330
2D8B1
100
AcDbDictionary
280
     1
281
     1
  3
ACAD_DIMASSOC
360
2D8C8
  0
DICTIONARY
  5
2D947
330
2D93A
100
AcDbDictionary
280
     1
281
     1
  3
ACAD_DIMASSOC
360
2D951
  0
XRECORD
  5
2DACA
102
{ACAD_REACTORS
330
C
102
}
330
C
100
AcDbXrecord
280
     1
300
ACDLT
300
2014
300
ACDLT_F_S
  0
DICTIONARY
  5
2776
102
{ACAD_REACTORS
330
C
102
}
330
C
100
AcDbDictionary
281
     1
  0
DICTIONARY
  5
2DABA
102
{ACAD_REACTORS
330
C
102
}
330
C
100
AcDbDictionary
281
     1
  3
Metric50
350
2DABB
  0
DICTIONARY
  5
D
102
{ACAD_REACTORS
330
C
102
}
330
C
100
AcDbDictionary
281
     1
  3
*A1
350
29F6
  0
DICTIONARY
  5
1A
102
{ACAD_REACTORS
330
C
102
}
330
C
100
AcDbDictionary
281
     1
  3
Model
350
22
  3
ﾚｲｱｳﾄ1
350
51
  3
ﾚｲｱｳﾄ2
350
56
  0
DICTIONARY
  5
2761
102
{ACAD_REACTORS
330
C
102
}
330
C
100
AcDbDictionary
281
     1
  3
ByBlock
350
2763
  3
ByLayer
350
2762
  3
Global
350
2764
  0
DICTIONARY
  5
247F1
102
{ACAD_REACTORS
330
C
102
}
330
C
100
AcDbDictionary
281
     1
  3
Standard
350
247F2
  0
DICTIONARY
  5
17
102
{ACAD_REACTORS
330
C
102
}
330
C
100
AcDbDictionary
281
     1
  3
Standard
350
18
  0
DICTIONARY
  5
19
102
{ACAD_REACTORS
330
C
102
}
330
C
100
AcDbDictionary
281
     1
  3
印刷
350
E74
  0
ACDBDICTIONARYWDFLT
  5
E
102
{ACAD_REACTORS
330
C
102
}
330
C
100
AcDbDictionary
281
     1
  3
Normal
350
F
100
AcDbDictionaryWithDefault
340
F
  0
DICTIONARY
  5
247DF
102
{ACAD_REACTORS
330
C
102
}
330
C
100
AcDbDictionary
281
     1
  3
A0
350
247E0
  3
A1
350
247E1
  3
A2
350
247E2
  3
A3
350
247E3
  3
A4
350
247E4
  3
A5
350
247E5
  3
A6
350
247E6
  3
A7
350
247E7
  3
A8
350
247E8
  3
A9
350
247E9
  3
B0
350
247EA
  3
B1
350
247EB
  3
B2
350
247EC
  3
B3
350
247ED
  3
B4
350
247EE
  3
B5
350
247EF
  3
B6
350
247F0
  0
DICTIONARY
  5
2DAB8
102
{ACAD_REACTORS
330
C
102
}
330
C
100
AcDbDictionary
281
     1
  3
Metric50
350
2DAB9
  0
DICTIONARY
  5
2777
102
{ACAD_REACTORS
330
C
102
}
330
C
100
AcDbDictionary
281
     1
  3
Standard
350
2778
  3
コピー - Standard
350
2688B
  0
DICTIONARY
  5
2765
102
{ACAD_REACTORS
330
C
102
}
330
C
100
AcDbDictionary
281
     1
  3
2dWireframe
350
276B
  3
3D Hidden
350
276D
  3
3dWireframe
350
276C
  3
Basic
350
276A
  3
Brighten
350
2771
  3
ColorChange
350
2775
  3
Conceptual
350
276E
  3
Dim
350
2770
  3
EdgeColorOff
350
247DE
  3
Facepattern
350
2774
  3
Flat
350
2766
  3
FlatWithEdges
350
2767
  3
Gouraud
350
2768
  3
GouraudWithEdges
350
2769
  3
Hidden
350
2DAB2
  3
JitterOff
350
247DC
  3
Linepattern
350
2773
  3
OverhangOff
350
247DD
  3
Realistic
350
276F
  3
Shaded
350
2DAB7
  3
Shaded with edges
350
2DAB6
  3
Shades of Gray
350
2DAB3
  3
Sketchy
350
2DAB4
  3
Thicken
350
2772
  3
Wireframe
350
2DAB1
  3
X-Ray
350
2DAB5
  0
XRECORD
  5
2DAFB
102
{ACAD_REACTORS
330
C
102
}
330
C
100
AcDbXrecord
280
     1
 90
        1
330
2778
330
2688B
330
2DAB9
330
2DABB
  0
DICTIONARY
  5
5E
102
{ACAD_REACTORS
330
C
102
}
330
C
100
AcDbDictionary
281
     1
  3
CANNOSCALE
350
24E32
  3
CMLEADERSTYLE
350
24E30
  3
CTABLESTYLE
350
2792
  3
CVIEWDETAILSTYLE
350
2DACD
  3
CVIEWSECTIONSTYLE
350
2DACE
  3
DIMASSOC
350
5F
  3
HIDETEXT
350
63
  3
LAYEREVAL
350
24E34
  3
LAYERNOTIFY
350
24E35
  3
LIGHTINGUNITS
350
24E33
  3
MSLTSCALE
350
24E31
  0
DICTIONARY
  5
2DF9
102
{ACAD_REACTORS
330
279F
102
}
330
279F
100
AcDbDictionary
281
     1
  0
DICTIONARY
  5
2E2E
102
{ACAD_REACTORS
330
279F
102
}
330
279F
100
AcDbDictionary
281
     1
  0
DICTIONARY
  5
2DF8
102
{ACAD_REACTORS
330
279F
102
}
330
279F
100
AcDbDictionary
281
     1
1001
ACAD
1000
<All
  0
XRECORD
  5
24E14
102
{ACAD_REACTORS
330
24E13
102
}
330
24E13
100
AcDbXrecord
280
     1
290
     1
  0
XRECORD
  5
24E16
102
{ACAD_REACTORS
330
24E15
102
}
330
24E15
100
AcDbXrecord
280
     1
290
     1
  0
XRECORD
  5
24E18
102
{ACAD_REACTORS
330
24E17
102
}
330
24E17
100
AcDbXrecord
280
     1
290
     1
  0
XRECORD
  5
24E1A
102
{ACAD_REACTORS
330
24E19
102
}
330
24E19
100
AcDbXrecord
280
     1
290
     1
  0
XRECORD
  5
24E1C
102
{ACAD_REACTORS
330
24E1B
102
}
330
24E1B
100
AcDbXrecord
280
     1
290
     1
  0
XRECORD
  5
24E1E
102
{ACAD_REACTORS
330
24E1D
102
}
330
24E1D
100
AcDbXrecord
280
     1
290
     1
  0
XRECORD
  5
24E20
102
{ACAD_REACTORS
330
24E1F
102
}
330
24E1F
100
AcDbXrecord
280
     1
290
     1
  0
XRECORD
  5
24E22
102
{ACAD_REACTORS
330
24E21
102
}
330
24E21
100
AcDbXrecord
280
     1
290
     1
  0
XRECORD
  5
24E24
102
{ACAD_REACTORS
330
24E23
102
}
330
24E23
100
AcDbXrecord
280
     1
290
     1
  0
XRECORD
  5
24E26
102
{ACAD_REACTORS
330
24E25
102
}
330
24E25
100
AcDbXrecord
280
     1
290
     1
  0
SORTENTSTABLE
  5
2D99
102
{ACAD_REACTORS
330
2D98
102
}
330
2D98
100
AcDbSortentsTable
330
1F
331
2D6C3
  5
2D6D4
331
29B3D
  5
24DB4
331
29B75
  5
29B58
331
2A358
  5
2A369
331
2A360
  5
2A371
331
2D467
  5
2D46E
331
2D4DD
  5
2D4EF
331
2D582
  5
2D597
331
2A370
  5
2A3C7
331
2D496
  5
2D4A7
331
2D647
  5
2D653
331
2D71C
  5
2D72B
331
2D553
  5
2D55A
331
2D64F
  5
2D66A
331
2D696
  5
2D6A6
331
2D524
  5
2D531
331
2D7D3
  5
2D7E4
331
2D69E
  5
2D6B7
331
2D6ED
  5
2D6FC
331
2D724
  5
2D733
331
2D72C
  5
2D73B
331
2D7DB
  5
2D7EA
331
2D6A6
  5
2D6C6
331
2D6F5
  5
2D704
331
2D734
  5
2D743
331
29B81
  5
29B86
331
2A378
  5
2A3F3
331
29B89
  5
29B8D
331
2A380
  5
2CB94
331
29B91
  5
2A361
331
2A351
  5
2A362
331
2D55B
  5
2D572
331
2D620
  5
2D638
331
2D628
  5
2D63B
331
2D6FD
  5
2D70C
331
2D73C
  5
2D74B
331
2D66F
  5
2D68B
331
2D6B6
  5
2D6CD
331
2D7E3
  5
2D7F2
331
2D573
  5
2D582
331
2D505
  5
2D50D
331
2D5F1
  5
2D5FA
331
2D7EB
  5
2D7FA
331
2D705
  5
2D714
331
2D638
  5
2D64B
331
2D50D
  5
2D517
331
2D744
  5
2D753
331
2D74C
  5
2D7D6
331
2D7F3
  5
2D93A
331
2D6CE
  5
2D6EF
331
2D70D
  5
2D71C
331
2D687
  5
2D696
331
2D754
  5
2D7DF
331
2D7FB
  5
2DA03
331
2D68F
  5
2D69E
331
2D715
  5
2D724
331
2D6C4
  5
2D6E2
331
29B3E
  5
24DC2
331
29B76
  5
29B81
331
2A359
  5
2A36A
331
2A361
  5
2A372
331
2A369
  5
2A37A
331
2D601
  5
2D613
331
2D497
  5
2D4A9
331
2D4DE
  5
2D4F0
331
2A371
  5
2A3EC
331
2D5D2
  5
2D5E7
331
2D4A7
  5
2D4B0
331
2D71D
  5
2D72C
331
2D697
  5
2D6A7
331
2D525
  5
2D535
331
2D4AF
  5
2D4C2
331
2D6EE
  5
2D6FD
331
2D725
  5
2D734
331
2D619
  5
2D62B
331
2D69F
  5
2D6B8
331
2D7D4
  5
2D7E5
331
2D6F6
  5
2D705
331
2D72D
  5
2D73C
331
2D6A7
  5
2D6C7
331
2D7DC
  5
2D7EB
331
2D735
  5
2D744
331
2A379
  5
2A3F4
331
29B27
  5
29B83
331
29B8A
  5
29B8E
331
108F
  5
29B3D
331
2D4BF
  5
2D4C9
331
2A352
  5
2A363
331
2D4F6
  5
2D506
331
2D535
  5
2D543
331
2D5EA
  5
2D5F4
331
2D668
  5
2D66F
331
2D480
  5
2D486
331
2D5B3
  5
2D5C0
331
2D73D
  5
2D74C
331
2D7E4
  5
2D7F3
331
2D670
  5
2D68C
331
2D6B7
  5
2D6CE
331
2D506
  5
2D50F
331
2D545
  5
2D54F
331
2D6FE
  5
2D70D
331
2D973
  5
2DAA7
331
2D745
  5
2D754
331
2D7EC
  5
2D7FB
331
2D54D
  5
2D555
331
2D5FA
  5
2D60C
331
2D4D7
  5
2D4E0
331
2D706
  5
2D715
331
2D70E
  5
2D71D
331
2D74D
  5
2D7D7
331
2D688
  5
2D697
331
2D6CF
  5
2D6F0
331
2D7F4
  5
2D952
331
2D7FC
  5
2DA6A
331
2D716
  5
2D725
331
2D755
  5
2D7E0
331
2D6C5
  5
2D6E3
331
29B3F
  5
24DBB
331
29B77
  5
29B76
331
2A35A
  5
2A36B
331
2A362
  5
2A373
331
2A36A
  5
2A37B
331
2D469
  5
2D474
331
2D490
  5
2D496
331
2D584
  5
2D59C
331
2A372
  5
2A3ED
331
2D5CB
  5
2D5E3
331
2D649
  5
2D654
331
2D690
  5
2D69F
331
2D71E
  5
2D72D
331
2D612
  5
2D61F
331
2D526
  5
2D536
331
2D555
  5
2D55B
331
2D4B0
  5
2D4C4
331
2D4EF
  5
2D4F6
331
2D59C
  5
2D5B3
331
2D698
  5
2D6A8
331
2D6A0
  5
2D6C1
331
2D6EF
  5
2D6FE
331
2D726
  5
2D735
331
2D72E
  5
2D73D
331
2D7DD
  5
2D7EC
331
2D6A8
  5
2D6C8
331
2D6F7
  5
2D706
331
2D736
  5
2D745
331
29B83
  5
29B87
331
1581D
  5
29B3F
331
2A37A
  5
2A3F5
331
29B8B
  5
29B8F
331
1090
  5
29B3E
331
2A77A
  5
2CB95
331
2D5AC
  5
2D5BE
331
2D5E3
  5
2D5F1
331
2A353
  5
2A364
331
2D4F7
  5
2D507
331
2D536
  5
2D545
331
2D55D
  5
2D573
331
2D56D
  5
2D57A
331
2D669
  5
2D670
331
2D6FF
  5
2D70E
331
2D73E
  5
2D74D
331
2D5F3
  5
2D5FC
331
2D671
  5
2D68F
331
2D507
  5
2D511
331
2D6B8
  5
2D6CF
331
2D7E5
  5
2D7F4
331
2D7ED
  5
2D7FC
331
2D707
  5
2D716
331
2D54E
  5
2D556
331
2D57D
  5
2D591
331
2D681
  5
2D690
331
2D50F
  5
2D51B
331
2D746
  5
2D755
331
2D74E
  5
2D7D8
331
2D7F5
  5
2D973
331
2D689
  5
2D698
331
2D6D0
  5
2D6F1
331
2D70F
  5
2D71E
331
2D756
  5
2D7E1
331
2D7FD
  5
2DA6B
331
2D717
  5
2D726
331
2D6C6
  5
2D6E4
331
29B58
  5
29B85
331
2A35B
  5
2A36C
331
2A363
  5
2A374
331
2D46A
  5
2D47B
331
2D491
  5
2D497
331
2A36B
  5
2A37C
331
2D517
  5
2D524
331
2A373
  5
2A3EE
331
2D4E0
  5
2D4F1
331
2D585
  5
2D59D
331
2D691
  5
2D6A0
331
2D4A9
  5
2D4B1
331
2D60B
  5
2D619
331
2D71F
  5
2D72E
331
2D699
  5
2D6A9
331
2D6E8
  5
2D6F7
331
2D59D
  5
2D5B7
331
2D527
  5
2D53A
331
2D4B1
  5
2D4C5
331
2D556
  5
2D55D
331
2D613
  5
2D620
331
2D6F0
  5
2D6FF
331
2D727
  5
2D736
331
2D6A1
  5
2D6C2
331
2D52F
  5
2D53F
331
2D7D6
  5
2D7E6
331
2D7DE
  5
2D7ED
331
2D72F
  5
2D73E
331
2D6A9
  5
2D6C9
331
2D737
  5
2D746
331
2A37B
  5
2A3F6
331
29B84
  5
29B88
331
29B8C
  5
29B90
331
2D4F0
  5
2D4F7
331
2A77B
  5
2CB96
331
2D4C1
  5
2D4CD
331
2A354
  5
2A365
331
2D6F8
  5
2D707
331
2D53F
  5
2D54B
331
2D482
  5
2D48C
331
2D4C9
  5
2D4D9
331
2D56E
  5
2D57D
331
2D62B
  5
2D63C
331
2D66A
  5
2D671
331
2D73F
  5
2D74E
331
2D7E6
  5
2D7F5
331
2D5BD
  5
2D5D2
331
2D5F4
  5
2D601
331
2D700
  5
2D70F
331
2D995
  5
108F
331
2D708
  5
2D717
331
2D747
  5
2D756
331
2D63B
  5
2D64D
331
2D682
  5
2D691
331
2D6C9
  5
2D6EA
331
2D7EE
  5
2D7FD
331
2D57E
  5
2D596
331
2D54F
  5
2D558
331
2D5FC
  5
2D612
331
2D710
  5
2D71F
331
2D74F
  5
2D7D9
331
2D68A
  5
2D699
331
2D6D1
  5
2D6F2
331
2D7F6
  5
2D995
331
2D7FE
  5
2DA6C
331
2D757
  5
2D7E2
331
2D6C7
  5
2D6E8
331
29B59
  5
29B84
331
2CB93
  5
2D465
331
2A35C
  5
2A36D
331
2A364
  5
2A376
331
2D4D9
  5
2D4E1
331
2A36C
  5
2A37D
331
2D492
  5
2D4A4
331
2D604
  5
2D616
331
2D4E1
  5
2D4F2
331
2A374
  5
2A3EF
331
2D718
  5
2D727
331
2D60C
  5
2D61D
331
2D596
  5
2D5A7
331
2D64B
  5
2D668
331
2D692
  5
2D6A1
331
2D520
  5
2D526
331
2D69A
  5
2D6AA
331
2D6E9
  5
2D6F8
331
2D720
  5
2D72F
331
2D5DD
  5
2D5F0
331
2D653
  5
2D66B
331
2D7D7
  5
2D7E7
331
2D5A6
  5
2D5B9
331
2D6A2
  5
2D6C3
331
2D6F1
  5
2D700
331
2D728
  5
2D737
331
2D730
  5
2D73F
331
2D6AA
  5
2D6CA
331
2D7DF
  5
2D7EE
331
29B85
  5
29B89
331
2A37C
  5
2A3F7
331
29B8D
  5
29B91
331
2D4F1
  5
2D4FB
331
2A355
  5
2A366
331
2BF6C
  5
2CB97
331
2D47B
  5
2D480
331
2D4C2
  5
2D4D4
331
2D6F9
  5
2D708
331
2D66B
  5
2D681
331
2D738
  5
2D747
331
2D5ED
  5
2D5F5
331
2D7E7
  5
2D7F6
331
2D5F5
  5
2D604
331
2D701
  5
2D710
331
2D740
  5
2D74F
331
2D5BE
  5
2D5D6
331
2D7EF
  5
2D7FE
331
2D996
  5
24DC1
331
2D6CA
  5
2D6EB
331
2D709
  5
2D718
331
2D63C
  5
2D64F
331
2D683
  5
2D692
331
2D748
  5
2D757
331
2D750
  5
2D7DB
331
2D7F7
  5
2D996
331
2D68B
  5
2D69A
331
2D711
  5
2D720
331
2D998
  5
24DB9
331
29B5A
  5
29B74
331
2A35D
  5
2A36E
331
2CB94
  5
2D467
331
2A365
  5
2A377
331
2D4DA
  5
2D4E2
331
2A36D
  5
2A37E
331
2D511
  5
2D520
331
2A375
  5
2A3F0
331
2D4E2
  5
2D4F4
331
2D719
  5
2D728
331
2D758
  5
2D7E3
331
2D693
  5
2D6A2
331
2D597
  5
2D5AC
331
2D521
  5
2D527
331
2D5D6
  5
2D5EA
331
2D4AB
  5
2D4BF
331
2D6E2
  5
2D6F4
331
2D721
  5
2D730
331
2D654
  5
2D66E
331
2D69B
  5
2D6B4
331
2D6EA
  5
2D6F9
331
2D6F2
  5
2D701
331
2D61D
  5
2D62F
331
2D729
  5
2D738
331
2D5A7
  5
2D5BD
331
2D7D8
  5
2D7E8
331
2D731
  5
2D740
331
2D881
  5
2DA6D
331
29A83
  5
29B40
331
2D899
  5
2DA8B
331
29ABB
  5
29B5A
331
2D8B1
  5
2DA8C
331
2A37D
  5
2A77A
331
29B86
  5
29B8A
331
29B8E
  5
2A35E
331
2D558
  5
2D568
331
2D4F2
  5
2D4FC
331
2D474
  5
2D47E
331
2D531
  5
2D542
331
2D47C
  5
2D482
331
2D568
  5
2D578
331
2A356
  5
2A367
331
2D7E0
  5
2D7EF
331
2D5B7
  5
2D5C1
331
2D484
  5
2D48D
331
2D6FA
  5
2D709
331
2D739
  5
2D748
331
2D741
  5
2D750
331
2D7E8
  5
2D7F7
331
2D702
  5
2D711
331
2D48C
  5
2D491
331
2D549
  5
2D551
331
2D578
  5
2D584
331
2D997
  5
24DBD
331
2D70A
  5
2D719
331
2D749
  5
2D758
331
2D684
  5
2D693
331
2D6CB
  5
2D6EC
331
2D7F0
  5
2D881
331
2D7F8
  5
2D997
331
2D712
  5
2D721
331
2D68C
  5
2D69B
331
2D751
  5
2D7DC
331
2D6C1
  5
2D6D0
331
29B5B
  5
29B5C
331
2CB95
  5
2D469
331
2A35E
  5
2A36F
331
2A366
  5
2A378
331
2D465
  5
2D46D
331
2D512
  5
2D521
331
2A36E
  5
2A37F
331
2D46D
  5
2D47C
331
2A376
  5
2A3F1
331
2D4A4
  5
2D4AB
331
2D6E3
  5
2D6F5
331
2D71A
  5
2D729
331
2D64D
  5
2D669
331
2D694
  5
2D6A4
331
2D551
  5
2D559
331
2D522
  5
2D52F
331
2D5D7
  5
2D5ED
331
2D69C
  5
2D6B5
331
2D6EB
  5
2D6FA
331
2D616
  5
2D628
331
2D722
  5
2D731
331
2D72A
  5
2D739
331
2D7D9
  5
2D7E9
331
2D6A4
  5
2D6C4
331
2D6F3
  5
2D702
331
2D732
  5
2D741
331
29B24
  5
29B75
331
2D93A
  5
2DAA6
331
29B87
  5
29B8B
331
2A37E
  5
2A77B
331
29B8F
  5
2A35F
331
2D559
  5
2D56D
331
2D4FB
  5
2D50B
331
2D53A
  5
2D549
331
2D5E7
  5
2D5F3
331
2A357
  5
2A368
331
2D47D
  5
2D484
331
2D4C4
  5
2D4D5
331
2D6FB
  5
2D70A
331
2D73A
  5
2D749
331
2D6B4
  5
2D6CB
331
2D485
  5
2D48E
331
2D542
  5
2D54D
331
2D7E1
  5
2D7F0
331
2D7E9
  5
2D7F8
331
2D703
  5
2D712
331
2D5F7
  5
2D60B
331
2D636
  5
2D649
331
2D742
  5
2D751
331
2D48D
  5
2D492
331
2D4D4
  5
2D4DD
331
2D50B
  5
2D512
331
2D5C0
  5
2D5D7
331
2D7F1
  5
2D899
331
2D6CC
  5
2D6ED
331
2D70B
  5
2D71A
331
2D685
  5
2D694
331
2D74A
  5
2D7D3
331
2D752
  5
2D7DD
331
2D7F9
  5
2D998
331
2D68D
  5
2D69C
331
2D6D4
  5
2D6F3
331
2D713
  5
2D722
331
29B3C
  5
24DBE
331
2D6C2
  5
2D6D1
331
29B74
  5
29B59
331
2A35F
  5
2A370
331
2CB96
  5
2D46A
331
2A367
  5
2A379
331
2D46E
  5
2D47D
331
2D495
  5
2D4A5
331
2A36F
  5
2A380
331
2D513
  5
2D522
331
2D51B
  5
2D525
331
2A377
  5
2A3F2
331
2D4A5
  5
2D4AD
331
2D591
  5
2D5A6
331
2D71B
  5
2D72A
331
2D695
  5
2D6A5
331
2D4AD
  5
2D4C1
331
2D6E4
  5
2D6F6
331
2D723
  5
2D732
331
2D69D
  5
2D6B6
331
2D6EC
  5
2D6FB
331
2D6F4
  5
2D703
331
2D72B
  5
2D73A
331
2D61F
  5
2D636
331
2D6A5
  5
2D6C5
331
2D733
  5
2D742
331
29B88
  5
29B8C
331
108D
  5
29B3C
331
2A37F
  5
2BF7F
331
29B90
  5
2A360
331
2D55A
  5
2D56E
331
2D4F4
  5
2D505
331
2D47E
  5
2D485
331
2D4C5
  5
2D4D7
331
2D4FC
  5
2D50C
331
2D73B
  5
2D74A
331
2D7E2
  5
2D7F1
331
2D6B5
  5
2D6CC
331
2D6FC
  5
2D70B
331
2D5B9
  5
2D5CB
331
2D5F0
  5
2D5F7
331
2D543
  5
2D54E
331
2D486
  5
2D490
331
2D4CD
  5
2D4DA
331
2D572
  5
2D57E
331
2D62F
  5
2D647
331
2D66E
  5
2D682
331
2D743
  5
2D752
331
2D7EA
  5
2D7F9
331
2D5C1
  5
2D5DD
331
2D704
  5
2D713
331
2D50C
  5
2D513
331
2D54B
  5
2D553
331
2D48E
  5
2D495
331
2D4D5
  5
2D4DE
331
2D57A
  5
2D585
331
2D70C
  5
2D71B
331
2D74B
  5
2D7D4
331
2D686
  5
2D695
331
2D6CD
  5
2D6EE
331
2D7F2
  5
2D8B1
331
2D7FA
  5
2DA02
331
2D714
  5
2D723
331
2D68E
  5
2D69D
331
2D753
  5
2D7DE
  0
SORTENTSTABLE
  5
29D1
102
{ACAD_REACTORS
330
29CF
102
}
330
29CF
100
AcDbSortentsTable
330
341
  0
DIMASSOC
  5
2D898
102
{ACAD_REACTORS
330
2D88E
102
}
330
2D88E
100
AcDbDimAssoc
330
2D881
 90
        3
 70
     0
 71
     0
  1
AcDbOsnapPointRef
 72
     1
331
2D697
 73
     2
 91
        0
 40
1.0
 10
0.0
 20
0.0
 30
2.000000000000000E+50
 75
     0
  1
AcDbOsnapPointRef
 72
    13
331
2D69B
 73
     2
 91
        0
 40
0.0
 10
0.0
 20
0.0
 30
2.000000000000000E+50
 75
     0
  0
DIMASSOC
  5
2D8B0
102
{ACAD_REACTORS
330
2D8A6
102
}
330
2D8A6
100
AcDbDimAssoc
330
2D899
 90
        3
 70
     0
 71
     0
  1
AcDbOsnapPointRef
 72
    13
331
2D50C
 73
     2
 91
        0
 40
0.0
 10
0.0
 20
0.0
 30
2.000000000000000E+50
 75
     0
  1
AcDbOsnapPointRef
 72
     8
331
2D465
 73
     2
 91
        0
 40
0.9999999999999984
 10
0.0
 20
0.0
 30
0.0
 75
     1
  1
AcDbOsnapPointRef
 72
    13
331
2D50C
 73
     2
 91
        0
 40
0.0
 10
0.0
 20
0.0
 30
2.000000000000000E+50
 75
     0
  0
DIMASSOC
  5
2D8C8
102
{ACAD_REACTORS
330
2D8BE
102
}
330
2D8BE
100
AcDbDimAssoc
330
2D8B1
 90
        3
 70
     0
 71
     0
  1
AcDbOsnapPointRef
 72
     1
331
2D54D
 73
     2
 91
        0
 40
7.042259009881882
 10
5.972030131768386
 20
7.042259009881882
 30
2.000000000000000E+50
 75
     0
  1
AcDbOsnapPointRef
 72
    13
331
2D66E
 73
     2
 91
        0
 40
0.0
 10
0.0
 20
0.0
 30
2.000000000000000E+50
 75
     0
  0
DIMASSOC
  5
2D951
102
{ACAD_REACTORS
330
2D947
102
}
330
2D947
100
AcDbDimAssoc
330
2D93A
 90
        3
 70
     0
 71
     0
  1
AcDbOsnapPointRef
 72
     1
331
2D54D
 73
     2
 91
        0
 40
7.042259009881882
 10
5.972030131768386
 20
7.042259009881882
 30
2.000000000000000E+50
 75
     0
  1
AcDbOsnapPointRef
 72
    13
331
2D716
 73
     2
 91
        0
 40
0.0
 10
0.0
 20
0.0
 30
2.000000000000000E+50
 75
     0
  0
ACDBDETAILVIEWSTYLE
  5
2DABB
102
{ACAD_XDICTIONARY
360
2DAD6
102
}
102
{ACAD_REACTORS
330
2DABA
102
}
330
2DABA
100
AcDbModelDocViewStyle
 70
     0
  3
Metric50
290
     0
100
AcDbDetailViewStyle
 70
     0
 71
     0
 90
        3
 71
     1
340
11
 62
   256
 40
5.0
340
0
 62
   256
 40
5.0
300

 40
0.0
280
     1
 71
     2
340
16
 90
       25
 62
   256
 71
     3
340
11
 62
   256
 40
5.0
 90
        0
 40
15.0
 90
        1
300
%<\AcVar ViewDetailId>% (%<\AcVar ViewScale \f "%sn">%)
 71
     4
340
16
 90
       25
 62
   256
340
16
 90
       25
 62
   256
280
     0
  0
GROUP
  5
29F6
102
{ACAD_REACTORS
330
D
102
}
330
D
100
AcDbGroup
300

 70
     1
 71
     1
340
29CE
340
29CD
340
29CC
340
29CB
340
29CA
340
29C9
340
29C8
340
29C7
340
29C6
340
29C5
340
29C4
340
29C3
340
29C2
340
29C1
340
29C0
340
29BF
340
29BE
340
29BD
340
29BC
340
29BB
340
29BA
340
29B9
340
29B8
340
29B7
  0
LAYOUT
  5
22
102
{ACAD_XDICTIONARY
360
24E2E
102
}
102
{ACAD_REACTORS
330
1A
102
}
330
1A
100
AcDbPlotSettings
  1

  2
Canon TS8130 series
  4
A4
  6

 40
4.180416584014891
 41
5.831417560577392
 42
4.180404663085936
 43
3.757080078125
 44
209.9733276367186
 45
296.9683227539062
 46
-0.0062006872036022
 47
1.756521382387688
 48
4.0
 49
2.0
140
82.0
141
57.4
142
1.0
143
1.374
 70
  3748
 72
     1
 73
     1
 74
     1
  7
monochrome.ctb
 75
     0
147
0.7277572728131228
 76
     1
 77
     2
 78
   300
148
-19.98230080583869
149
-9.983689057621743
100
AcDbLayout
  1
Model
 70
     1
 71
     0
 10
0.0
 20
0.0
 11
12.0
 21
9.0
 12
0.0
 22
0.0
 32
0.0
 14
0.0
 24
0.0
 34
0.0
 15
0.0
 25
0.0
 35
0.0
146
0.0
 13
0.0
 23
0.0
 33
0.0
 16
1.0
 26
0.0
 36
0.0
 17
0.0
 27
1.0
 37
0.0
 76
     0
330
1F
331
275F
1001
ACAD_PSEXT
1000
Canon TS8130 series
1000
Canon TS8130 series
1000
USB001
1000

1070
     0
  0
LAYOUT
  5
51
102
{ACAD_XDICTIONARY
360
2E30
102
}
102
{ACAD_REACTORS
330
1A
102
}
330
1A
100
AcDbPlotSettings
  1

  2
\\KASHIKEI2\EPSON PX-1001
  4
A3
  6

 40
3.757083415985106
 41
3.757076740264892
 42
3.757080078125
 43
3.757080078125
 44
296.9683227539062
 45
420.0172119140622
 46
0.0
 47
0.0
 48
0.0
 49
0.0
140
0.0
141
0.0
142
1.0
143
1.0
 70
   672
 72
     1
 73
     1
 74
     5
  7
monochrome.ctb
 75
    16
147
1.0
 76
     1
 77
     2
 78
   300
148
0.0
149
0.0
100
AcDbLayout
  1
ﾚｲｱｳﾄ1
 70
     1
 71
     1
 10
-3.757080078125
 20
-3.757083415985106
 11
416.2601318359373
 21
293.2112393379211
 12
0.0
 22
0.0
 32
0.0
 14
-58.82240024691737
 24
-86.72323328256494
 34
0.0
 15
448.1718497119468
 25
324.5569721112054
 35
0.0
146
0.0
 13
0.0
 23
0.0
 33
0.0
 16
1.0
 26
0.0
 36
0.0
 17
0.0
 27
1.0
 37
0.0
 76
     0
330
50
331
6B
1001
ACAD_PSEXT
1000
\\KASHIKEI2\EPSON PX-1001
1000
EPSON PX-1001
1000
\\KASHIKEI2
1000

1070
     0
  0
LAYOUT
  5
56
102
{ACAD_REACTORS
330
1A
102
}
330
1A
100
AcDbPlotSettings
  1

  2
none_device
  4
Letter_(8.50_x_11.00_Inches)
  6

 40
6.349999904632567
 41
6.349999904632567
 42
6.350006103515625
 43
6.350006103515625
 44
215.8999938964843
 45
279.3999938964843
 46
0.0
 47
0.0
 48
0.0
 49
0.0
140
0.0
141
0.0
142
1.0
143
1.0
 70
   688
 72
     1
 73
     1
 74
     5
  7
monochrome.ctb
 75
    16
147
1.0
 76
     0
 77
     2
 78
   300
148
0.0
149
0.0
100
AcDbLayout
  1
ﾚｲｱｳﾄ2
 70
     1
 71
     2
 10
-6.350006103515625
 20
-6.349999904632567
 11
273.0499877929687
 21
209.5499939918517
 12
0.0
 22
0.0
 32
0.0
 14
26.66076962115562
 24
20.31135699206657
 34
-0.0015258207003583
 15
240.039213369355
 25
182.8886381005154
 35
0.0000000349246037
146
0.0
 13
0.0
 23
0.0
 33
0.0
 16
1.0
 26
0.0
 36
0.0
 17
0.0
 27
1.0
 37
0.0
 76
     0
330
55
331
71
  0
MATERIAL
  5
2763
102
{ACAD_REACTORS
330
2761
102
}
330
2761
100
AcDbMaterial
  1
ByBlock
 73
     1
 78
     1
172
     1
176
     1
270
     1
274
     1
 94
       63
  0
MATERIAL
  5
2762
102
{ACAD_REACTORS
330
2761
102
}
330
2761
100
AcDbMaterial
  1
ByLayer
 73
     1
 78
     1
172
     1
176
     1
270
     1
274
     1
 94
       63
  0
MATERIAL
  5
2764
102
{ACAD_REACTORS
330
2761
102
}
330
2761
100
AcDbMaterial
  1
Global
 73
     1
 78
     1
172
     1
176
     1
270
     1
274
     1
 94
       63
  0
MLEADERSTYLE
  5
247F2
102
{ACAD_REACTORS
330
247F1
102
}
330
247F1
100
AcDbMLeaderStyle
179
     2
170
     2
171
     1
172
     0
 90
        2
 40
0.0
 41
0.0
173
     1
 91
-1056964608
340
14
 92
       -2
290
     1
 42
2.0
291
     1
 43
0.36
  3
Standard
 44
4.0
300

342
11
174
     1
178
     6
175
     1
176
     0
 93
-1056964608
 45
4.0
292
     0
297
     0
 46
4.0
 94
-1056964608
 47
1.0
 49
1.0
140
1.0
293
     1
141
0.0
294
     1
177
     0
142
1.0
295
     0
296
     0
143
0.125
271
     0
272
     9
273
     9
298
     0
  0
MLINESTYLE
  5
18
102
{ACAD_REACTORS
330
17
102
}
330
17
100
AcDbMlineStyle
  2
STANDARD
 70
     0
  3

 62
   256
 51
90.0
 52
90.0
 71
     2
 49
0.5
 62
   256
  6
BYLAYER
 49
-0.5
 62
   256
  6
BYLAYER
  0
PLOTSETTINGS
  5
E74
102
{ACAD_REACTORS
330
19
102
}
330
19
100
AcDbPlotSettings
  1
印刷
  2
EPSON PM-930C.pc3
  4
A4
  6

 40
3.757083177566528
 41
14.7637300491333
 42
3.757080078125
 43
3.757080078125
 44
209.9733276367186
 45
296.9683227539062
 46
-3.77
 47
-9.279999999999999
 48
0.0
 49
0.0
140
0.0
141
0.0
142
1.0
143
1.0
 70
  1716
 72
     1
 73
     0
 74
     2
  7
黒.ctb
 75
    16
147
1.0
 76
     0
 77
     2
 78
   300
148
0.0
149
0.0
  0
ACDBPLACEHOLDER
  5
F
102
{ACAD_REACTORS
330
E
102
}
330
E
  0
SCALE
  5
247E0
102
{ACAD_REACTORS
330
247DF
102
}
330
247DF
100
AcDbScale
 70
     0
300
1:1
140
1.0
141
1.0
290
     1
  0
SCALE
  5
247E1
102
{ACAD_REACTORS
330
247DF
102
}
330
247DF
100
AcDbScale
 70
     0
300
1:2
140
1.0
141
2.0
290
     0
  0
SCALE
  5
247E2
102
{ACAD_REACTORS
330
247DF
102
}
330
247DF
100
AcDbScale
 70
     0
300
1:4
140
1.0
141
4.0
290
     0
  0
SCALE
  5
247E3
102
{ACAD_REACTORS
330
247DF
102
}
330
247DF
100
AcDbScale
 70
     0
300
1:5
140
1.0
141
5.0
290
     0
  0
SCALE
  5
247E4
102
{ACAD_REACTORS
330
247DF
102
}
330
247DF
100
AcDbScale
 70
     0
300
1:8
140
1.0
141
8.0
290
     0
  0
SCALE
  5
247E5
102
{ACAD_REACTORS
330
247DF
102
}
330
247DF
100
AcDbScale
 70
     0
300
1:10
140
1.0
141
10.0
290
     0
  0
SCALE
  5
247E6
102
{ACAD_REACTORS
330
247DF
102
}
330
247DF
100
AcDbScale
 70
     0
300
1:16
140
1.0
141
16.0
290
     0
  0
SCALE
  5
247E7
102
{ACAD_REACTORS
330
247DF
102
}
330
247DF
100
AcDbScale
 70
     0
300
1:20
140
1.0
141
20.0
290
     0
  0
SCALE
  5
247E8
102
{ACAD_REACTORS
330
247DF
102
}
330
247DF
100
AcDbScale
 70
     0
300
1:30
140
1.0
141
30.0
290
     0
  0
SCALE
  5
247E9
102
{ACAD_REACTORS
330
247DF
102
}
330
247DF
100
AcDbScale
 70
     0
300
1:40
140
1.0
141
40.0
290
     0
  0
SCALE
  5
247EA
102
{ACAD_REACTORS
330
247DF
102
}
330
247DF
100
AcDbScale
 70
     0
300
1:50
140
1.0
141
50.0
290
     0
  0
SCALE
  5
247EB
102
{ACAD_REACTORS
330
247DF
102
}
330
247DF
100
AcDbScale
 70
     0
300
1:100
140
1.0
141
100.0
290
     0
  0
SCALE
  5
247EC
102
{ACAD_REACTORS
330
247DF
102
}
330
247DF
100
AcDbScale
 70
     0
300
2:1
140
2.0
141
1.0
290
     0
  0
SCALE
  5
247ED
102
{ACAD_REACTORS
330
247DF
102
}
330
247DF
100
AcDbScale
 70
     0
300
4:1
140
4.0
141
1.0
290
     0
  0
SCALE
  5
247EE
102
{ACAD_REACTORS
330
247DF
102
}
330
247DF
100
AcDbScale
 70
     0
300
8:1
140
8.0
141
1.0
290
     0
  0
SCALE
  5
247EF
102
{ACAD_REACTORS
330
247DF
102
}
330
247DF
100
AcDbScale
 70
     0
300
10:1
140
10.0
141
1.0
290
     0
  0
SCALE
  5
247F0
102
{ACAD_REACTORS
330
247DF
102
}
330
247DF
100
AcDbScale
 70
     0
300
100:1
140
100.0
141
1.0
290
     0
  0
ACDBSECTIONVIEWSTYLE
  5
2DAB9
102
{ACAD_XDICTIONARY
360
2DAD4
102
}
102
{ACAD_REACTORS
330
2DAB8
102
}
330
2DAB8
100
AcDbModelDocViewStyle
 70
     0
  3
Metric50
290
     0
100
AcDbSectionViewStyle
 70
     0
 71
     0
 90
      102
 71
     1
340
11
 62
   256
 40
5.0
340
0
340
0
 62
   256
 40
5.0
300
I, O, Q, S, X, Z
 40
10.0
 90
        0
 40
2.5
 90
        0
 71
     2
340
16
 90
       25
 62
   256
340
16
 90
       50
 62
   256
 40
5.0
 40
2.5
 40
5.0
 71
     3
340
11
 62
   256
 40
5.0
 90
        0
 40
15.0
 90
        1
300
%<\AcVar ViewSectionStartId>%-%<\AcVar ViewSectionEndId>% (%<\AcVar ViewScale \f "%sn">%)
 71
     4
 62
   256
 62
   257
300
ANSI31
 40
1.0
 90
        0
290
     0
290
     0
 90
        6
 40
0.0
 40
1.570796326794896
 40
0.2617993877991494
 40
1.308996938995747
 40
-0.2617993877991494
 40
1.832595714594045
  0
TABLESTYLE
  5
2778
102
{ACAD_XDICTIONARY
360
2DAD0
102
}
102
{ACAD_REACTORS
330
2777
102
}
330
2777
100
AcDbTableStyle
280
     0
  3
Standard
 70
     0
 71
     0
 40
1.5
 41
1.5
280
     0
281
     0
  7
Standard
140
4.5
170
     2
 62
     0
 63
     7
283
     0
 90
      512
 91
        0
  1

274
    -2
284
     1
 64
     0
275
    -2
285
     1
 65
     0
276
    -2
286
     1
 66
     0
277
    -2
287
     1
 67
     0
278
    -2
288
     1
 68
     0
279
    -2
289
     1
 69
     0
  7
Standard
140
6.0
170
     5
 62
     0
 63
     7
283
     0
 90
      512
 91
        0
  1

274
    -2
284
     1
 64
     0
275
    -2
285
     1
 65
     0
276
    -2
286
     1
 66
     0
277
    -2
287
     1
 67
     0
278
    -2
288
     1
 68
     0
279
    -2
289
     1
 69
     0
  7
Standard
140
4.5
170
     5
 62
     0
 63
     7
283
     0
 90
      512
 91
        0
  1

274
    -2
284
     1
 64
     0
275
    -2
285
     1
 65
     0
276
    -2
286
     1
 66
     0
277
    -2
287
     1
 67
     0
278
    -2
288
     1
 68
     0
279
    -2
289
     1
 69
     0
  0
TABLESTYLE
  5
2688B
102
{ACAD_XDICTIONARY
360
2DAD2
102
}
102
{ACAD_REACTORS
330
2777
102
}
330
2777
100
AcDbTableStyle
280
     0
  3
Standard
 70
     0
 71
     0
 40
1.5
 41
1.5
280
     0
281
     0
  7
ｽﾀｲﾙ1
140
4.5
170
     2
 62
     2
 63
     7
283
     0
 90
      512
 91
        0
  1

274
    -2
284
     1
 64
     0
275
    -2
285
     1
 65
     0
276
    -2
286
     1
 66
     0
277
    -2
287
     1
 67
     0
278
    -2
288
     1
 68
     0
279
    -2
289
     1
 69
     0
  7
Standard
140
6.0
170
     5
 62
     0
 63
     7
283
     0
 90
      512
 91
        0
  1

274
    -2
284
     1
 64
     0
275
    -2
285
     1
 65
     0
276
    -2
286
     1
 66
     0
277
    -2
287
     1
 67
     0
278
    -2
288
     1
 68
     0
279
    -2
289
     1
 69
     0
  7
ｽﾀｲﾙ1
140
4.5
170
     5
 62
     2
 63
     7
283
     0
 90
      512
 91
        0
  1

274
    -2
284
     1
 64
     0
275
    -2
285
     1
 65
     0
276
    -2
286
     1
 66
     0
277
    -2
287
     1
 67
     0
278
    -2
288
     1
 68
     0
279
    -2
289
     1
 69
     0
  0
VISUALSTYLE
  5
276B
102
{ACAD_REACTORS
330
2765
102
}
330
2765
100
AcDbVisualStyle
  2
2dWireframe
 70
     4
177
     3
291
     0
 70
    58
 90
        0
176
     1
 90
        2
176
     1
 90
        0
176
     1
 90
        0
176
     1
 40
0.6
176
     1
 40
30.0
176
     1
 62
     7
420
 16777215
176
     1
 90
        1
176
     1
 90
        4
176
     1
 62
     7
176
     1
 62
   257
176
     1
 90
        1
176
     1
 90
        1
176
     1
 40
1.0
176
     1
 90
        0
176
     1
 62
   257
176
     1
 40
1.0
176
     1
 90
        1
176
     1
 90
        6
176
     1
 90
        2
176
     1
 62
     7
176
     1
 90
        5
176
     1
 90
        0
176
     1
 90
        0
176
     1
290
     0
176
     1
 90
        1
176
     1
 40
0.0
176
     1
 90
        0
176
     1
290
     1
176
     1
290
     1
176
     1
290
     0
176
     1
290
     0
176
     1
290
     0
176
     1
290
     0
176
     1
290
     0
176
     1
290
     0
176
     1
290
     0
176
     1
 90
       50
176
     1
 40
0.0
176
     1
 40
1.0
176
     1
 90
        0
176
     1
 62
    18
176
     1
 90
       50
176
     1
 90
        3
176
     1
 62
     5
420
      255
176
     1
290
     0
176
     1
 90
       50
176
     1
 90
       50
176
     1
 90
       50
176
     1
290
     0
176
     1
 90
       50
176
     1
 62
   256
176
     0
 40
1.0
176
     0
 90
        2
176
     1
  1
strokes_ogs.tif
176
     1
290
     0
176
     1
 40
1.0
176
     1
 40
1.0
176
     1
  0
VISUALSTYLE
  5
276D
102
{ACAD_REACTORS
330
2765
102
}
330
2765
100
AcDbVisualStyle
  2
3D Hidden
 70
     6
177
     3
291
     0
 70
    58
 90
        1
176
     1
 90
        2
176
     1
 90
        2
176
     1
 90
        0
176
     1
 40
0.6
176
     1
 40
30.0
176
     1
 62
     7
420
 16777215
176
     1
 90
        2
176
     1
 90
        2
176
     1
 62
     7
176
     1
 62
   257
176
     1
 90
        2
176
     1
 90
        1
176
     1
 40
40.0
176
     1
 90
        0
176
     1
 62
   257
176
     1
 40
1.0
176
     1
 90
        1
176
     1
 90
        6
176
     1
 90
        2
176
     1
 62
     7
176
     1
 90
        3
176
     1
 90
        0
176
     1
 90
        0
176
     1
290
     0
176
     1
 90
        1
176
     1
 40
0.0
176
     1
 90
        0
176
     1
290
     0
176
     1
290
     1
176
     1
290
     1
176
     1
290
     0
176
     1
290
     0
176
     1
290
     0
176
     1
290
     0
176
     1
290
     0
176
     1
290
     0
176
     1
 90
       50
176
     1
 40
0.0
176
     1
 40
1.0
176
     1
 90
        0
176
     1
 62
    18
176
     1
 90
       50
176
     1
 90
        3
176
     1
 62
     5
420
      255
176
     1
290
     0
176
     1
 90
       50
176
     1
 90
       50
176
     1
 90
       50
176
     1
290
     0
176
     1
 90
       50
176
     1
 62
   256
176
     0
 40
1.0
176
     0
 90
        2
176
     1
  1
strokes_ogs.tif
176
     1
290
     0
176
     1
 40
1.0
176
     1
 40
1.0
176
     1
  0
VISUALSTYLE
  5
276C
102
{ACAD_REACTORS
330
2765
102
}
330
2765
100
AcDbVisualStyle
  2
3dWireframe
 70
     5
177
     3
291
     0
 70
    58
 90
        0
176
     1
 90
        2
176
     1
 90
        0
176
     1
 90
        0
176
     1
 40
0.6
176
     1
 40
30.0
176
     1
 62
     7
420
 16777215
176
     1
 90
        1
176
     1
 90
        4
176
     1
 62
     7
176
     1
 62
   257
176
     1
 90
        1
176
     1
 90
        1
176
     1
 40
1.0
176
     1
 90
        0
176
     1
 62
   257
176
     1
 40
1.0
176
     1
 90
        1
176
     1
 90
        6
176
     1
 90
        2
176
     1
 62
     7
176
     1
 90
        5
176
     1
 90
        0
176
     1
 90
        0
176
     1
290
     0
176
     1
 90
        1
176
     1
 40
0.0
176
     1
 90
        0
176
     1
290
     0
176
     1
290
     1
176
     1
290
     1
176
     1
290
     0
176
     1
290
     0
176
     1
290
     0
176
     1
290
     0
176
     1
290
     0
176
     1
290
     0
176
     1
 90
       50
176
     1
 40
0.0
176
     1
 40
1.0
176
     1
 90
        0
176
     1
 62
    18
176
     1
 90
       50
176
     1
 90
        3
176
     1
 62
     5
420
      255
176
     1
290
     0
176
     1
 90
       50
176
     1
 90
       50
176
     1
 90
       50
176
     1
290
     0
176
     1
 90
       50
176
     1
 62
   256
176
     0
 40
1.0
176
     0
 90
        2
176
     1
  1
strokes_ogs.tif
176
     1
290
     0
176
     1
 40
1.0
176
     1
 40
1.0
176
     1
  0
VISUALSTYLE
  5
276A
102
{ACAD_REACTORS
330
2765
102
}
330
2765
100
AcDbVisualStyle
  2
Basic
 70
     7
177
     3
291
     1
 70
    58
 90
        1
176
     1
 90
        0
176
     1
 90
        1
176
     1
 90
        0
176
     1
 40
0.6
176
     1
 40
30.0
176
     1
 62
     7
420
 16777215
176
     1
 90
        0
176
     1
 90
        4
176
     1
 62
     7
176
     1
 62
   257
176
     1
 90
        1
176
     1
 90
        1
176
     1
 40
1.0
176
     1
 90
        8
176
     1
 62
     7
176
     1
 40
1.0
176
     1
 90
        1
176
     1
 90
        6
176
     1
 90
        2
176
     1
 62
     7
176
     1
 90
        5
176
     1
 90
        0
176
     1
 90
        0
176
     1
290
     0
176
     1
 90
        1
176
     1
 40
0.0
176
     1
 90
        0
176
     1
290
     0
176
     1
290
     1
176
     1
290
     1
176
     1
290
     0
176
     1
290
     0
176
     1
290
     0
176
     1
290
     0
176
     1
290
     0
176
     1
290
     0
176
     1
 90
       50
176
     1
 40
0.0
176
     1
 40
1.0
176
     1
 90
        0
176
     1
 62
    18
176
     1
 90
       50
176
     1
 90
        3
176
     1
 62
     5
420
      255
176
     1
290
     0
176
     1
 90
       50
176
     1
 90
       50
176
     1
 90
       50
176
     1
290
     0
176
     1
 90
       50
176
     1
 62
   256
176
     0
 40
1.0
176
     0
 90
        2
176
     1
  1
strokes_ogs.tif
176
     1
290
     0
176
     1
 40
1.0
176
     1
 40
1.0
176
     1
  0
VISUALSTYLE
  5
2771
102
{ACAD_REACTORS
330
2765
102
}
330
2765
100
AcDbVisualStyle
  2
Brighten
 70
    12
177
     3
291
     1
 70
    58
 90
        2
176
     1
 90
        2
176
     1
 90
        0
176
     1
 90
        0
176
     1
 40
0.6
176
     1
 40
30.0
176
     1
 62
     7
420
 16777215
176
     1
 90
        1
176
     1
 90
        4
176
     1
 62
     7
176
     1
 62
   257
176
     1
 90
        1
176
     1
 90
        1
176
     1
 40
1.0
176
     1
 90
        8
176
     1
 62
     7
176
     1
 40
1.0
176
     1
 90
        1
176
     1
 90
        6
176
     1
 90
        2
176
     1
 62
     7
176
     1
 90
        5
176
     1
 90
        0
176
     1
 90
        0
176
     1
290
     0
176
     1
 90
        1
176
     1
 40
50.0
176
     1
 90
        0
176
     1
290
     0
176
     1
290
     1
176
     1
290
     1
176
     1
290
     0
176
     1
290
     0
176
     1
290
     0
176
     1
290
     0
176
     1
290
     0
176
     1
290
     0
176
     1
 90
       50
176
     1
 40
0.0
176
     1
 40
1.0
176
     1
 90
        0
176
     1
 62
    18
176
     1
 90
       50
176
     1
 90
        3
176
     1
 62
     5
420
      255
176
     1
290
     0
176
     1
 90
       50
176
     1
 90
       50
176
     1
 90
       50
176
     1
290
     0
176
     1
 90
       50
176
     1
 62
   256
176
     0
 40
1.0
176
     0
 90
        2
176
     1
  1
strokes_ogs.tif
176
     1
290
     0
176
     1
 40
1.0
176
     1
 40
1.0
176
     1
  0
VISUALSTYLE
  5
2775
102
{ACAD_REACTORS
330
2765
102
}
330
2765
100
AcDbVisualStyle
  2
ColorChange
 70
    16
177
     3
291
     1
 70
    58
 90
        2
176
     1
 90
        2
176
     1
 90
        3
176
     1
 90
        0
176
     1
 40
0.6
176
     1
 40
30.0
176
     1
 62
     8
420
  8421504
176
     1
 90
        1
176
     1
 90
        4
176
     1
 62
     7
176
     1
 62
   257
176
     1
 90
        1
176
     1
 90
        1
176
     1
 40
1.0
176
     1
 90
        8
176
     1
 62
     8
420
  8421504
176
     1
 40
1.0
176
     1
 90
        1
176
     1
 90
        6
176
     1
 90
        2
176
     1
 62
     7
176
     1
 90
        5
176
     1
 90
        0
176
     1
 90
        0
176
     1
290
     0
176
     1
 90
        1
176
     1
 40
0.0
176
     1
 90
        0
176
     1
290
     0
176
     1
290
     1
176
     1
290
     1
176
     1
290
     0
176
     1
290
     0
176
     1
290
     0
176
     1
290
     0
176
     1
290
     0
176
     1
290
     0
176
     1
 90
       50
176
     1
 40
0.0
176
     1
 40
1.0
176
     1
 90
        0
176
     1
 62
    18
176
     1
 90
       50
176
     1
 90
        3
176
     1
 62
     5
420
      255
176
     1
290
     0
176
     1
 90
       50
176
     1
 90
       50
176
     1
 90
       50
176
     1
290
     0
176
     1
 90
       50
176
     1
 62
   256
176
     0
 40
1.0
176
     0
 90
        2
176
     1
  1
strokes_ogs.tif
176
     1
290
     0
176
     1
 40
1.0
176
     1
 40
1.0
176
     1
  0
VISUALSTYLE
  5
276E
102
{ACAD_REACTORS
330
2765
102
}
330
2765
100
AcDbVisualStyle
  2
Conceptual
 70
     9
177
     3
291
     0
 70
    58
 90
        3
176
     1
 90
        2
176
     1
 90
        0
176
     1
 90
        0
176
     1
 40
0.6
176
     1
 40
30.0
176
     1
 62
     7
420
 16777215
176
     1
 90
        2
176
     1
 90
        2
176
     1
 62
     7
176
     1
 62
   257
176
     1
 90
        1
176
     1
 90
        1
176
     1
 40
40.0
176
     1
 90
        8
176
     1
 62
     7
176
     1
 40
1.0
176
     1
 90
        1
176
     1
 90
        6
176
     1
 90
        2
176
     1
 62
     7
176
     1
 90
        3
176
     1
 90
        0
176
     1
 90
        0
176
     1
290
     0
176
     1
 90
        1
176
     1
 40
0.0
176
     1
 90
        0
176
     1
290
     0
176
     1
290
     1
176
     1
290
     1
176
     1
290
     0
176
     1
290
     0
176
     1
290
     0
176
     1
290
     0
176
     1
290
     0
176
     1
290
     0
176
     1
 90
       50
176
     1
 40
0.0
176
     1
 40
1.0
176
     1
 90
        0
176
     1
 62
    18
176
     1
 90
       50
176
     1
 90
        3
176
     1
 62
     5
420
      255
176
     1
290
     0
176
     1
 90
       50
176
     1
 90
       50
176
     1
 90
       50
176
     1
290
     0
176
     1
 90
       50
176
     1
 62
   256
176
     0
 40
1.0
176
     0
 90
        2
176
     1
  1
strokes_ogs.tif
176
     1
290
     0
176
     1
 40
1.0
176
     1
 40
1.0
176
     1
  0
VISUALSTYLE
  5
2770
102
{ACAD_REACTORS
330
2765
102
}
330
2765
100
AcDbVisualStyle
  2
Dim
 70
    11
177
     3
291
     1
 70
    58
 90
        2
176
     1
 90
        2
176
     1
 90
        0
176
     1
 90
        0
176
     1
 40
0.6
176
     1
 40
30.0
176
     1
 62
     7
420
 16777215
176
     1
 90
        1
176
     1
 90
        4
176
     1
 62
     7
176
     1
 62
   257
176
     1
 90
        1
176
     1
 90
        1
176
     1
 40
1.0
176
     1
 90
        8
176
     1
 62
     7
176
     1
 40
1.0
176
     1
 90
        1
176
     1
 90
        6
176
     1
 90
        2
176
     1
 62
     7
176
     1
 90
        5
176
     1
 90
        0
176
     1
 90
        0
176
     1
290
     0
176
     1
 90
        1
176
     1
 40
-50.0
176
     1
 90
        0
176
     1
290
     0
176
     1
290
     1
176
     1
290
     1
176
     1
290
     0
176
     1
290
     0
176
     1
290
     0
176
     1
290
     0
176
     1
290
     0
176
     1
290
     0
176
     1
 90
       50
176
     1
 40
0.0
176
     1
 40
1.0
176
     1
 90
        0
176
     1
 62
    18
176
     1
 90
       50
176
     1
 90
        3
176
     1
 62
     5
420
      255
176
     1
290
     0
176
     1
 90
       50
176
     1
 90
       50
176
     1
 90
       50
176
     1
290
     0
176
     1
 90
       50
176
     1
 62
   256
176
     0
 40
1.0
176
     0
 90
        2
176
     1
  1
strokes_ogs.tif
176
     1
290
     0
176
     1
 40
1.0
176
     1
 40
1.0
176
     1
  0
VISUALSTYLE
  5
247DE
102
{ACAD_REACTORS
330
2765
102
}
330
2765
100
AcDbVisualStyle
  2
EdgeColorOff
 70
    22
177
     3
291
     1
 70
    58
 90
        2
176
     0
 90
        2
176
     0
 90
        0
176
     0
 90
        0
176
     0
 40
0.6
176
     0
 40
30.0
176
     0
 62
     7
420
 16777215
176
     0
 90
        1
176
     0
 90
        4
176
     0
 62
     7
176
     0
 62
   257
176
     0
 90
        1
176
     0
 90
        1
176
     0
 40
1.0
176
     0
 90
        8
176
     2
 62
     7
176
     0
 40
1.0
176
     0
 90
        1
176
     0
 90
        6
176
     0
 90
        2
176
     0
 62
     7
176
     0
 90
        5
176
     0
 90
        0
176
     0
 90
        0
176
     0
290
     0
176
     0
 90
        1
176
     0
 40
0.0
176
     0
 90
        0
176
     0
290
     0
176
     1
290
     1
176
     1
290
     1
176
     1
290
     0
176
     1
290
     0
176
     1
290
     0
176
     1
290
     0
176
     1
290
     0
176
     1
290
     0
176
     1
 90
       50
176
     1
 40
0.0
176
     1
 40
1.0
176
     1
 90
        0
176
     1
 62
    18
176
     1
 90
       50
176
     1
 90
        3
176
     1
 62
     5
420
      255
176
     1
290
     0
176
     1
 90
       50
176
     1
 90
       50
176
     1
 90
       50
176
     1
290
     0
176
     1
 90
       50
176
     1
 62
   256
176
     0
 40
1.0
176
     0
 90
        2
176
     1
  1
strokes_ogs.tif
176
     1
290
     0
176
     1
 40
1.0
176
     1
 40
1.0
176
     1
  0
VISUALSTYLE
  5
2774
102
{ACAD_REACTORS
330
2765
102
}
330
2765
100
AcDbVisualStyle
  2
Facepattern
 70
    15
177
     3
291
     1
 70
    58
 90
        2
176
     1
 90
        2
176
     1
 90
        0
176
     1
 90
        0
176
     1
 40
0.6
176
     1
 40
30.0
176
     1
 62
     7
420
 16777215
176
     1
 90
        1
176
     1
 90
        4
176
     1
 62
     7
176
     1
 62
   257
176
     1
 90
        1
176
     1
 90
        1
176
     1
 40
1.0
176
     1
 90
        8
176
     1
 62
     7
176
     1
 40
1.0
176
     1
 90
        1
176
     1
 90
        6
176
     1
 90
        2
176
     1
 62
     7
176
     1
 90
        5
176
     1
 90
        0
176
     1
 90
        0
176
     1
290
     0
176
     1
 90
        1
176
     1
 40
0.0
176
     1
 90
        0
176
     1
290
     0
176
     1
290
     1
176
     1
290
     1
176
     1
290
     0
176
     1
290
     0
176
     1
290
     0
176
     1
290
     0
176
     1
290
     0
176
     1
290
     0
176
     1
 90
       50
176
     1
 40
0.0
176
     1
 40
1.0
176
     1
 90
        0
176
     1
 62
    18
176
     1
 90
       50
176
     1
 90
        3
176
     1
 62
     5
420
      255
176
     1
290
     0
176
     1
 90
       50
176
     1
 90
       50
176
     1
 90
       50
176
     1
290
     0
176
     1
 90
       50
176
     1
 62
   256
176
     0
 40
1.0
176
     0
 90
        2
176
     1
  1
strokes_ogs.tif
176
     1
290
     0
176
     1
 40
1.0
176
     1
 40
1.0
176
     1
  0
VISUALSTYLE
  5
2766
102
{ACAD_REACTORS
330
2765
102
}
330
2765
100
AcDbVisualStyle
  2
Flat
 70
     0
177
     3
291
     1
 70
    58
 90
        2
176
     1
 90
        1
176
     1
 90
        1
176
     1
 90
        2
176
     1
 40
0.6
176
     1
 40
30.0
176
     1
 62
     7
420
 16777215
176
     1
 90
        0
176
     1
 90
        4
176
     1
 62
     7
176
     1
 62
   257
176
     1
 90
        1
176
     1
 90
        1
176
     1
 40
1.0
176
     1
 90
        8
176
     1
 62
     7
176
     1
 40
1.0
176
     1
 90
        1
176
     1
 90
        6
176
     1
 90
        2
176
     1
 62
     7
176
     1
 90
        5
176
     1
 90
        0
176
     1
 90
        0
176
     1
290
     0
176
     1
 90
       13
176
     1
 40
0.0
176
     1
 90
        0
176
     1
290
     0
176
     1
290
     1
176
     1
290
     1
176
     1
290
     0
176
     1
290
     0
176
     1
290
     0
176
     1
290
     0
176
     1
290
     0
176
     1
290
     0
176
     1
 90
       50
176
     1
 40
0.0
176
     1
 40
1.0
176
     1
 90
        0
176
     1
 62
    18
176
     1
 90
       50
176
     1
 90
        3
176
     1
 62
     5
420
      255
176
     1
290
     0
176
     1
 90
       50
176
     1
 90
       50
176
     1
 90
       50
176
     1
290
     0
176
     1
 90
       50
176
     1
 62
   256
176
     0
 40
1.0
176
     0
 90
        2
176
     1
  1
strokes_ogs.tif
176
     1
290
     0
176
     1
 40
1.0
176
     1
 40
1.0
176
     1
  0
VISUALSTYLE
  5
2767
102
{ACAD_REACTORS
330
2765
102
}
330
2765
100
AcDbVisualStyle
  2
FlatWithEdges
 70
     1
177
     3
291
     1
 70
    58
 90
        2
176
     1
 90
        1
176
     1
 90
        1
176
     1
 90
        2
176
     1
 40
0.6
176
     1
 40
30.0
176
     1
 62
     7
420
 16777215
176
     1
 90
        1
176
     1
 90
        4
176
     1
 62
     7
176
     1
 62
   257
176
     1
 90
        1
176
     1
 90
        1
176
     1
 40
1.0
176
     1
 90
        0
176
     1
 62
   257
176
     1
 40
1.0
176
     1
 90
        1
176
     1
 90
        6
176
     1
 90
        2
176
     1
 62
     7
176
     1
 90
        5
176
     1
 90
        0
176
     1
 90
        0
176
     1
290
     0
176
     1
 90
       13
176
     1
 40
0.0
176
     1
 90
        0
176
     1
290
     0
176
     1
290
     1
176
     1
290
     1
176
     1
290
     0
176
     1
290
     0
176
     1
290
     0
176
     1
290
     0
176
     1
290
     0
176
     1
290
     0
176
     1
 90
       50
176
     1
 40
0.0
176
     1
 40
1.0
176
     1
 90
        0
176
     1
 62
    18
176
     1
 90
       50
176
     1
 90
        3
176
     1
 62
     5
420
      255
176
     1
290
     0
176
     1
 90
       50
176
     1
 90
       50
176
     1
 90
       50
176
     1
290
     0
176
     1
 90
       50
176
     1
 62
   256
176
     0
 40
1.0
176
     0
 90
        2
176
     1
  1
strokes_ogs.tif
176
     1
290
     0
176
     1
 40
1.0
176
     1
 40
1.0
176
     1
  0
VISUALSTYLE
  5
2768
102
{ACAD_REACTORS
330
2765
102
}
330
2765
100
AcDbVisualStyle
  2
Gouraud
 70
     2
177
     3
291
     1
 70
    58
 90
        2
176
     1
 90
        2
176
     1
 90
        1
176
     1
 90
        2
176
     1
 40
0.6
176
     1
 40
30.0
176
     1
 62
     7
420
 16777215
176
     1
 90
        0
176
     1
 90
        4
176
     1
 62
     7
176
     1
 62
   257
176
     1
 90
        1
176
     1
 90
        1
176
     1
 40
1.0
176
     1
 90
        0
176
     1
 62
     7
176
     1
 40
1.0
176
     1
 90
        1
176
     1
 90
        6
176
     1
 90
        2
176
     1
 62
     7
176
     1
 90
        5
176
     1
 90
        0
176
     1
 90
        0
176
     1
290
     0
176
     1
 90
       13
176
     1
 40
0.0
176
     1
 90
        0
176
     1
290
     0
176
     1
290
     1
176
     1
290
     1
176
     1
290
     0
176
     1
290
     0
176
     1
290
     0
176
     1
290
     0
176
     1
290
     0
176
     1
290
     0
176
     1
 90
       50
176
     1
 40
0.0
176
     1
 40
1.0
176
     1
 90
        0
176
     1
 62
    18
176
     1
 90
       50
176
     1
 90
        3
176
     1
 62
     5
420
      255
176
     1
290
     0
176
     1
 90
       50
176
     1
 90
       50
176
     1
 90
       50
176
     1
290
     0
176
     1
 90
       50
176
     1
 62
   256
176
     0
 40
1.0
176
     0
 90
        2
176
     1
  1
strokes_ogs.tif
176
     1
290
     0
176
     1
 40
1.0
176
     1
 40
1.0
176
     1
  0
VISUALSTYLE
  5
2769
102
{ACAD_REACTORS
330
2765
102
}
330
2765
100
AcDbVisualStyle
  2
GouraudWithEdges
 70
     3
177
     3
291
     1
 70
    58
 90
        2
176
     1
 90
        2
176
     1
 90
        1
176
     1
 90
        2
176
     1
 40
0.6
176
     1
 40
30.0
176
     1
 62
     7
420
 16777215
176
     1
 90
        1
176
     1
 90
        4
176
     1
 62
     7
176
     1
 62
   257
176
     1
 90
        1
176
     1
 90
        1
176
     1
 40
1.0
176
     1
 90
        0
176
     1
 62
   257
176
     1
 40
1.0
176
     1
 90
        1
176
     1
 90
        6
176
     1
 90
        2
176
     1
 62
     7
176
     1
 90
        5
176
     1
 90
        0
176
     1
 90
        0
176
     1
290
     0
176
     1
 90
       13
176
     1
 40
0.0
176
     1
 90
        0
176
     1
290
     0
176
     1
290
     1
176
     1
290
     1
176
     1
290
     0
176
     1
290
     0
176
     1
290
     0
176
     1
290
     0
176
     1
290
     0
176
     1
290
     0
176
     1
 90
       50
176
     1
 40
0.0
176
     1
 40
1.0
176
     1
 90
        0
176
     1
 62
    18
176
     1
 90
       50
176
     1
 90
        3
176
     1
 62
     5
420
      255
176
     1
290
     0
176
     1
 90
       50
176
     1
 90
       50
176
     1
 90
       50
176
     1
290
     0
176
     1
 90
       50
176
     1
 62
   256
176
     0
 40
1.0
176
     0
 90
        2
176
     1
  1
strokes_ogs.tif
176
     1
290
     0
176
     1
 40
1.0
176
     1
 40
1.0
176
     1
  0
VISUALSTYLE
  5
2DAB2
102
{ACAD_REACTORS
330
2765
102
}
330
2765
100
AcDbVisualStyle
  2
Hidden
 70
     6
177
     3
291
     0
 70
    58
 90
        1
176
     1
 90
        2
176
     1
 90
        2
176
     1
 90
        0
176
     1
 40
0.6
176
     1
 40
30.0
176
     1
 62
     7
420
 16777215
176
     1
 90
        2
176
     1
 90
        2
176
     1
 62
     7
176
     1
 62
   257
176
     1
 90
        2
176
     1
 90
        1
176
     1
 40
40.0
176
     1
 90
        0
176
     1
 62
   257
176
     1
 40
1.0
176
     1
 90
        1
176
     1
 90
        6
176
     1
 90
        2
176
     1
 62
     7
176
     1
 90
        3
176
     1
 90
        0
176
     1
 90
        0
176
     1
290
     0
176
     1
 90
        1
176
     1
 40
0.0
176
     1
 90
        0
176
     1
290
     0
176
     1
290
     1
176
     1
290
     1
176
     1
290
     0
176
     1
290
     0
176
     1
290
     0
176
     1
290
     0
176
     1
290
     0
176
     1
290
     0
176
     1
 90
       50
176
     1
 40
0.0
176
     1
 40
1.0
176
     1
 90
        0
176
     1
 62
    18
176
     1
 90
       50
176
     1
 90
        3
176
     1
 62
     5
420
      255
176
     1
290
     0
176
     1
 90
       50
176
     1
 90
       50
176
     1
 90
       50
176
     1
290
     0
176
     1
 90
       50
176
     1
 62
   256
176
     0
 40
1.0
176
     0
 90
        2
176
     1
  1
strokes_ogs.tif
176
     1
290
     0
176
     1
 40
1.0
176
     1
 40
1.0
176
     1
  0
VISUALSTYLE
  5
247DC
102
{ACAD_REACTORS
330
2765
102
}
330
2765
100
AcDbVisualStyle
  2
JitterOff
 70
    20
177
     3
291
     1
 70
    58
 90
        2
176
     0
 90
        2
176
     0
 90
        0
176
     0
 90
        0
176
     0
 40
0.6
176
     0
 40
30.0
176
     0
 62
     7
420
 16777215
176
     0
 90
        1
176
     0
 90
        4
176
     0
 62
     7
176
     0
 62
   257
176
     0
 90
        1
176
     0
 90
        1
176
     0
 40
1.0
176
     0
 90
       10
176
     2
 62
     7
176
     0
 40
1.0
176
     0
 90
        1
176
     0
 90
        6
176
     0
 90
        2
176
     0
 62
     7
176
     0
 90
        5
176
     0
 90
        0
176
     0
 90
        0
176
     0
290
     0
176
     0
 90
        1
176
     0
 40
0.0
176
     0
 90
        0
176
     0
290
     0
176
     1
290
     1
176
     1
290
     1
176
     1
290
     0
176
     1
290
     0
176
     1
290
     0
176
     1
290
     0
176
     1
290
     0
176
     1
290
     0
176
     1
 90
       50
176
     1
 40
0.0
176
     1
 40
1.0
176
     1
 90
        0
176
     1
 62
    18
176
     1
 90
       50
176
     1
 90
        3
176
     1
 62
     5
420
      255
176
     1
290
     0
176
     1
 90
       50
176
     1
 90
       50
176
     1
 90
       50
176
     1
290
     0
176
     1
 90
       50
176
     1
 62
   256
176
     0
 40
1.0
176
     0
 90
        2
176
     1
  1
strokes_ogs.tif
176
     1
290
     0
176
     1
 40
1.0
176
     1
 40
1.0
176
     1
  0
VISUALSTYLE
  5
2773
102
{ACAD_REACTORS
330
2765
102
}
330
2765
100
AcDbVisualStyle
  2
Linepattern
 70
    14
177
     3
291
     1
 70
    58
 90
        2
176
     1
 90
        2
176
     1
 90
        0
176
     1
 90
        0
176
     1
 40
0.6
176
     1
 40
30.0
176
     1
 62
     7
420
 16777215
176
     1
 90
        1
176
     1
 90
        4
176
     1
 62
     7
176
     1
 62
   257
176
     1
 90
        7
176
     1
 90
        7
176
     1
 40
1.0
176
     1
 90
        8
176
     1
 62
     7
176
     1
 40
1.0
176
     1
 90
        1
176
     1
 90
        6
176
     1
 90
        2
176
     1
 62
     7
176
     1
 90
        5
176
     1
 90
        0
176
     1
 90
        0
176
     1
290
     0
176
     1
 90
        1
176
     1
 40
0.0
176
     1
 90
        0
176
     1
290
     0
176
     1
290
     1
176
     1
290
     1
176
     1
290
     0
176
     1
290
     0
176
     1
290
     0
176
     1
290
     0
176
     1
290
     0
176
     1
290
     0
176
     1
 90
       50
176
     1
 40
0.0
176
     1
 40
1.0
176
     1
 90
        0
176
     1
 62
    18
176
     1
 90
       50
176
     1
 90
        3
176
     1
 62
     5
420
      255
176
     1
290
     0
176
     1
 90
       50
176
     1
 90
       50
176
     1
 90
       50
176
     1
290
     0
176
     1
 90
       50
176
     1
 62
   256
176
     0
 40
1.0
176
     0
 90
        2
176
     1
  1
strokes_ogs.tif
176
     1
290
     0
176
     1
 40
1.0
176
     1
 40
1.0
176
     1
  0
VISUALSTYLE
  5
247DD
102
{ACAD_REACTORS
330
2765
102
}
330
2765
100
AcDbVisualStyle
  2
OverhangOff
 70
    21
177
     3
291
     1
 70
    58
 90
        2
176
     0
 90
        2
176
     0
 90
        0
176
     0
 90
        0
176
     0
 40
0.6
176
     0
 40
30.0
176
     0
 62
     7
420
 16777215
176
     0
 90
        1
176
     0
 90
        4
176
     0
 62
     7
176
     0
 62
   257
176
     0
 90
        1
176
     0
 90
        1
176
     0
 40
1.0
176
     0
 90
        9
176
     2
 62
     7
176
     0
 40
1.0
176
     0
 90
        1
176
     0
 90
        6
176
     0
 90
        2
176
     0
 62
     7
176
     0
 90
        5
176
     0
 90
        0
176
     0
 90
        0
176
     0
290
     0
176
     0
 90
        1
176
     0
 40
0.0
176
     0
 90
        0
176
     0
290
     0
176
     1
290
     1
176
     1
290
     1
176
     1
290
     0
176
     1
290
     0
176
     1
290
     0
176
     1
290
     0
176
     1
290
     0
176
     1
290
     0
176
     1
 90
       50
176
     1
 40
0.0
176
     1
 40
1.0
176
     1
 90
        0
176
     1
 62
    18
176
     1
 90
       50
176
     1
 90
        3
176
     1
 62
     5
420
      255
176
     1
290
     0
176
     1
 90
       50
176
     1
 90
       50
176
     1
 90
       50
176
     1
290
     0
176
     1
 90
       50
176
     1
 62
   256
176
     0
 40
1.0
176
     0
 90
        2
176
     1
  1
strokes_ogs.tif
176
     1
290
     0
176
     1
 40
1.0
176
     1
 40
1.0
176
     1
  0
VISUALSTYLE
  5
276F
102
{ACAD_REACTORS
330
2765
102
}
330
2765
100
AcDbVisualStyle
  2
Realistic
 70
     8
177
     3
291
     0
 70
    58
 90
        2
176
     1
 90
        2
176
     1
 90
        0
176
     1
 90
        0
176
     1
 40
0.6
176
     1
 40
30.0
176
     1
 62
     7
420
 16777215
176
     1
 90
        1
176
     1
 90
        0
176
     1
 62
     7
176
     1
 62
   257
176
     1
 90
        1
176
     1
 90
        1
176
     1
 40
1.0
176
     1
 90
        8
176
     1
 62
     8
420
  7895160
176
     1
 40
1.0
176
     1
 90
        1
176
     1
 90
        6
176
     1
 90
        2
176
     1
 62
     7
176
     1
 90
        5
176
     1
 90
        0
176
     1
 90
        0
176
     1
290
     0
176
     1
 90
       13
176
     1
 40
0.0
176
     1
 90
        0
176
     1
290
     0
176
     1
290
     1
176
     1
290
     1
176
     1
290
     0
176
     1
290
     0
176
     1
290
     0
176
     1
290
     0
176
     1
290
     0
176
     1
290
     0
176
     1
 90
       50
176
     1
 40
0.0
176
     1
 40
1.0
176
     1
 90
        0
176
     1
 62
    18
176
     1
 90
       50
176
     1
 90
        3
176
     1
 62
     5
420
      255
176
     1
290
     0
176
     1
 90
       50
176
     1
 90
       50
176
     1
 90
       50
176
     1
290
     0
176
     1
 90
       50
176
     1
 62
   256
176
     0
 40
1.0
176
     0
 90
        2
176
     1
  1
strokes_ogs.tif
176
     1
290
     0
176
     1
 40
1.0
176
     1
 40
1.0
176
     1
  0
VISUALSTYLE
  5
2DAB7
102
{ACAD_REACTORS
330
2765
102
}
330
2765
100
AcDbVisualStyle
  2
Shaded
 70
    27
177
     3
291
     0
 70
    58
 90
        2
176
     1
 90
        2
176
     1
 90
        1
176
     1
 90
        2
176
     1
 40
0.6
176
     1
 40
30.0
176
     1
 62
     7
420
 16777215
176
     1
 90
        0
176
     1
 90
        4
176
     1
 62
     7
176
     1
 62
   257
176
     1
 90
        1
176
     1
 90
        1
176
     1
 40
1.0
176
     1
 90
        8
176
     1
 62
   257
176
     1
 40
1.0
176
     1
 90
        1
176
     1
 90
        6
176
     1
 90
        2
176
     1
 62
     8
420
  7895160
176
     1
 90
        3
176
     1
 90
        0
176
     1
 90
        0
176
     1
290
     0
176
     1
 90
        5
176
     1
 40
0.0
176
     1
 90
        0
176
     1
290
     0
176
     1
290
     1
176
     1
290
     1
176
     1
290
     0
176
     1
290
     0
176
     1
290
     0
176
     1
290
     0
176
     1
290
     0
176
     1
290
     0
176
     1
 90
       50
176
     1
 40
0.0
176
     1
 40
1.0
176
     1
 90
        0
176
     1
 62
    18
176
     1
 90
       50
176
     1
 90
        3
176
     1
 62
     5
420
      255
176
     1
290
     0
176
     1
 90
       50
176
     1
 90
       50
176
     1
 90
       50
176
     1
290
     0
176
     1
 90
       50
176
     1
 62
   256
176
     0
 40
1.0
176
     0
 90
        2
176
     1
  1
strokes_ogs.tif
176
     1
290
     0
176
     1
 40
1.0
176
     1
 40
1.0
176
     1
  0
VISUALSTYLE
  5
2DAB6
102
{ACAD_REACTORS
330
2765
102
}
330
2765
100
AcDbVisualStyle
  2
Shaded with edges
 70
    26
177
     3
291
     0
 70
    58
 90
        2
176
     1
 90
        2
176
     1
 90
        1
176
     1
 90
        2
176
     1
 40
0.6
176
     1
 40
30.0
176
     1
 62
     7
420
 16777215
176
     1
 90
        1
176
     1
 90
       10
176
     1
 62
     7
176
     1
 62
   257
176
     1
 90
        2
176
     1
 90
        1
176
     1
 40
1.0
176
     1
 90
        8
176
     1
 62
   257
176
     1
 40
1.0
176
     1
 90
        1
176
     1
 90
        6
176
     1
 90
        2
176
     1
 62
     7
176
     1
 90
        3
176
     1
 90
        0
176
     1
 90
        0
176
     1
290
     0
176
     1
 90
        5
176
     1
 40
0.0
176
     1
 90
        0
176
     1
290
     0
176
     1
290
     1
176
     1
290
     1
176
     1
290
     0
176
     1
290
     0
176
     1
290
     0
176
     1
290
     0
176
     1
290
     0
176
     1
290
     0
176
     1
 90
       50
176
     1
 40
0.0
176
     1
 40
1.0
176
     1
 90
        0
176
     1
 62
    18
176
     1
 90
       50
176
     1
 90
        3
176
     1
 62
     5
420
      255
176
     1
290
     0
176
     1
 90
       50
176
     1
 90
       50
176
     1
 90
       50
176
     1
290
     0
176
     1
 90
       50
176
     1
 62
   256
176
     0
 40
1.0
176
     0
 90
        2
176
     1
  1
strokes_ogs.tif
176
     1
290
     0
176
     1
 40
1.0
176
     1
 40
1.0
176
     1
  0
VISUALSTYLE
  5
2DAB3
102
{ACAD_REACTORS
330
2765
102
}
330
2765
100
AcDbVisualStyle
  2
Shades of Gray
 70
    23
177
     3
291
     0
 70
    58
 90
        2
176
     1
 90
        2
176
     1
 90
        3
176
     1
 90
        0
176
     1
 40
0.6
176
     1
 40
30.0
176
     1
 62
     7
420
 16777215
176
     1
 90
        2
176
     1
 90
        2
176
     1
 62
     7
176
     1
 62
     7
176
     1
 90
        1
176
     1
 90
        1
176
     1
 40
40.0
176
     1
 90
        8
176
     1
 62
     7
176
     1
 40
1.0
176
     1
 90
        1
176
     1
 90
        6
176
     1
 90
        2
176
     1
 62
     7
176
     1
 90
        3
176
     1
 90
        0
176
     1
 90
        0
176
     1
290
     0
176
     1
 90
        1
176
     1
 40
0.0
176
     1
 90
        0
176
     1
290
     0
176
     1
290
     1
176
     1
290
     1
176
     1
290
     0
176
     1
290
     0
176
     1
290
     0
176
     1
290
     0
176
     1
290
     0
176
     1
290
     0
176
     1
 90
       50
176
     1
 40
0.0
176
     1
 40
1.0
176
     1
 90
        0
176
     1
 62
    18
176
     1
 90
       50
176
     1
 90
        3
176
     1
 62
     5
420
      255
176
     1
290
     0
176
     1
 90
       50
176
     1
 90
       50
176
     1
 90
       50
176
     1
290
     0
176
     1
 90
       50
176
     1
 62
   256
176
     0
 40
1.0
176
     0
 90
        2
176
     1
  1
strokes_ogs.tif
176
     1
290
     0
176
     1
 40
1.0
176
     1
 40
1.0
176
     1
  0
VISUALSTYLE
  5
2DAB4
102
{ACAD_REACTORS
330
2765
102
}
330
2765
100
AcDbVisualStyle
  2
Sketchy
 70
    24
177
     3
291
     0
 70
    58
 90
        1
176
     1
 90
        2
176
     1
 90
        2
176
     1
 90
        0
176
     1
 40
0.6
176
     1
 40
30.0
176
     1
 62
     7
420
 16777215
176
     1
 90
        2
176
     1
 90
        2
176
     1
 62
     7
176
     1
 62
     7
176
     1
 90
        1
176
     1
 90
        1
176
     1
 40
40.0
176
     1
 90
       11
176
     1
 62
     7
176
     1
 40
1.0
176
     1
 90
        1
176
     1
 90
        6
176
     1
 90
        2
176
     1
 62
     7
176
     1
 90
        6
176
     1
 90
        0
176
     1
 90
        0
176
     1
290
     0
176
     1
 90
        1
176
     1
 40
0.0
176
     1
 90
        0
176
     1
290
     0
176
     1
290
     1
176
     1
290
     1
176
     1
290
     0
176
     1
290
     0
176
     1
290
     0
176
     1
290
     0
176
     1
290
     0
176
     1
290
     0
176
     1
 90
       50
176
     1
 40
0.0
176
     1
 40
1.0
176
     1
 90
        0
176
     1
 62
    18
176
     1
 90
       50
176
     1
 90
        3
176
     1
 62
     5
420
      255
176
     1
290
     0
176
     1
 90
       50
176
     1
 90
       50
176
     1
 90
       50
176
     1
290
     0
176
     1
 90
       50
176
     1
 62
   256
176
     0
 40
1.0
176
     0
 90
        2
176
     1
  1
strokes_ogs.tif
176
     1
290
     0
176
     1
 40
1.0
176
     1
 40
1.0
176
     1
  0
VISUALSTYLE
  5
2772
102
{ACAD_REACTORS
330
2765
102
}
330
2765
100
AcDbVisualStyle
  2
Thicken
 70
    13
177
     3
291
     1
 70
    58
 90
        2
176
     1
 90
        2
176
     1
 90
        0
176
     1
 90
        0
176
     1
 40
0.6
176
     1
 40
30.0
176
     1
 62
     7
420
 16777215
176
     1
 90
        1
176
     1
 90
        4
176
     1
 62
     7
176
     1
 62
   257
176
     1
 90
        1
176
     1
 90
        1
176
     1
 40
1.0
176
     1
 90
       12
176
     1
 62
     7
176
     1
 40
1.0
176
     1
 90
        1
176
     1
 90
        6
176
     1
 90
        2
176
     1
 62
     7
176
     1
 90
        5
176
     1
 90
        0
176
     1
 90
        0
176
     1
290
     0
176
     1
 90
        1
176
     1
 40
0.0
176
     1
 90
        0
176
     1
290
     0
176
     1
290
     1
176
     1
290
     1
176
     1
290
     0
176
     1
290
     0
176
     1
290
     0
176
     1
290
     0
176
     1
290
     0
176
     1
290
     0
176
     1
 90
       50
176
     1
 40
0.0
176
     1
 40
1.0
176
     1
 90
        0
176
     1
 62
    18
176
     1
 90
       50
176
     1
 90
        3
176
     1
 62
     5
420
      255
176
     1
290
     0
176
     1
 90
       50
176
     1
 90
       50
176
     1
 90
       50
176
     1
290
     0
176
     1
 90
       50
176
     1
 62
   256
176
     0
 40
1.0
176
     0
 90
        2
176
     1
  1
strokes_ogs.tif
176
     1
290
     0
176
     1
 40
1.0
176
     1
 40
1.0
176
     1
  0
VISUALSTYLE
  5
2DAB1
102
{ACAD_REACTORS
330
2765
102
}
330
2765
100
AcDbVisualStyle
  2
Wireframe
 70
     5
177
     3
291
     0
 70
    58
 90
        0
176
     1
 90
        2
176
     1
 90
        0
176
     1
 90
        0
176
     1
 40
0.6
176
     1
 40
30.0
176
     1
 62
     7
420
 16777215
176
     1
 90
        1
176
     1
 90
        4
176
     1
 62
     7
176
     1
 62
   257
176
     1
 90
        1
176
     1
 90
        1
176
     1
 40
1.0
176
     1
 90
        0
176
     1
 62
   257
176
     1
 40
1.0
176
     1
 90
        1
176
     1
 90
        6
176
     1
 90
        2
176
     1
 62
     7
176
     1
 90
        3
176
     1
 90
        0
176
     1
 90
        0
176
     1
290
     0
176
     1
 90
        1
176
     1
 40
0.0
176
     1
 90
        0
176
     1
290
     0
176
     1
290
     1
176
     1
290
     1
176
     1
290
     0
176
     1
290
     0
176
     1
290
     0
176
     1
290
     0
176
     1
290
     0
176
     1
290
     0
176
     1
 90
       50
176
     1
 40
0.0
176
     1
 40
1.0
176
     1
 90
        0
176
     1
 62
    18
176
     1
 90
       50
176
     1
 90
        3
176
     1
 62
     5
420
      255
176
     1
290
     0
176
     1
 90
       50
176
     1
 90
       50
176
     1
 90
       50
176
     1
290
     0
176
     1
 90
       50
176
     1
 62
   256
176
     0
 40
1.0
176
     0
 90
        2
176
     1
  1
strokes_ogs.tif
176
     1
290
     0
176
     1
 40
1.0
176
     1
 40
1.0
176
     1
  0
VISUALSTYLE
  5
2DAB5
102
{ACAD_REACTORS
330
2765
102
}
330
2765
100
AcDbVisualStyle
  2
X-Ray
 70
    25
177
     3
291
     0
 70
    58
 90
        2
176
     1
 90
        2
176
     1
 90
        1
176
     1
 90
        1
176
     1
 40
0.5
176
     1
 40
30.0
176
     1
 62
     7
420
 16777215
176
     1
 90
        1
176
     1
 90
        0
176
     1
 62
     7
176
     1
 62
   257
176
     1
 90
        1
176
     1
 90
        1
176
     1
 40
1.0
176
     1
 90
        8
176
     1
 62
     7
176
     1
 40
1.0
176
     1
 90
        1
176
     1
 90
        6
176
     1
 90
        2
176
     1
 62
     7
176
     1
 90
        3
176
     1
 90
        0
176
     1
 90
        0
176
     1
290
     0
176
     1
 90
       13
176
     1
 40
0.0
176
     1
 90
        0
176
     1
290
     0
176
     1
290
     1
176
     1
290
     1
176
     1
290
     0
176
     1
290
     0
176
     1
290
     0
176
     1
290
     0
176
     1
290
     0
176
     1
290
     0
176
     1
 90
       50
176
     1
 40
0.0
176
     1
 40
1.0
176
     1
 90
        0
176
     1
 62
    18
176
     1
 90
       50
176
     1
 90
        3
176
     1
 62
     5
420
      255
176
     1
290
     0
176
     1
 90
       50
176
     1
 90
       50
176
     1
 90
       50
176
     1
290
     0
176
     1
 90
       50
176
     1
 62
   256
176
     0
 40
1.0
176
     0
 90
        2
176
     1
  1
strokes_ogs.tif
176
     1
290
     0
176
     1
 40
1.0
176
     1
 40
1.0
176
     1
  0
DICTIONARYVAR
  5
24E32
102
{ACAD_REACTORS
330
5E
102
}
330
5E
100
DictionaryVariables
280
     0
  1
1:1
  0
DICTIONARYVAR
  5
24E30
102
{ACAD_REACTORS
330
5E
102
}
330
5E
100
DictionaryVariables
280
     0
  1
STANDARD
  0
DICTIONARYVAR
  5
2792
102
{ACAD_REACTORS
330
5E
102
}
330
5E
100
DictionaryVariables
280
     0
  1
STANDARD
  0
DICTIONARYVAR
  5
2DACD
102
{ACAD_REACTORS
330
5E
102
}
330
5E
100
DictionaryVariables
280
     0
  1
Metric50
  0
DICTIONARYVAR
  5
2DACE
102
{ACAD_REACTORS
330
5E
102
}
330
5E
100
DictionaryVariables
280
     0
  1
Metric50
  0
DICTIONARYVAR
  5
5F
102
{ACAD_REACTORS
330
5E
102
}
330
5E
100
DictionaryVariables
280
     0
  1
2
  0
DICTIONARYVAR
  5
63
102
{ACAD_REACTORS
330
5E
102
}
330
5E
100
DictionaryVariables
280
     0
  1
1
  0
DICTIONARYVAR
  5
24E34
102
{ACAD_REACTORS
330
5E
102
}
330
5E
100
DictionaryVariables
280
     0
  1
1
  0
DICTIONARYVAR
  5
24E35
102
{ACAD_REACTORS
330
5E
102
}
330
5E
100
DictionaryVariables
280
     0
  1
15
  0
DICTIONARYVAR
  5
24E33
102
{ACAD_REACTORS
330
5E
102
}
330
5E
100
DictionaryVariables
280
     0
  1
0
  0
DICTIONARYVAR
  5
24E31
102
{ACAD_REACTORS
330
5E
102
}
330
5E
100
DictionaryVariables
280
     0
  1
0
  0
DICTIONARY
  5
2DAD6
330
2DABB
100
AcDbDictionary
280
     1
281
     1
  3
ACAD_XREC_ROUNDTRIP
360
2DAFA
  0
DICTIONARY
  5
24E2E
330
22
100
AcDbDictionary
280
     1
281
     1
  3
AcPublish_PlotSettingsOverride
360
2DACC
  0
DICTIONARY
  5
2E30
330
51
100
AcDbDictionary
280
     1
281
     1
  0
DICTIONARY
  5
2DAD4
330
2DAB9
100
AcDbDictionary
280
     1
281
     1
  3
ACAD_XREC_ROUNDTRIP
360
2DAF9
  0
DICTIONARY
  5
2DAD0
330
2778
100
AcDbDictionary
280
     1
281
     1
  3
ACAD_ROUNDTRIP_2008_TABLESTYLE_CELLSTYLEMAP
360
2DAF7
  0
DICTIONARY
  5
2DAD2
330
2688B
100
AcDbDictionary
280
     1
281
     1
  3
ACAD_ROUNDTRIP_2008_TABLESTYLE_CELLSTYLEMAP
360
2DAF8
  0
XRECORD
  5
2DAFA
102
{ACAD_REACTORS
330
2DAD6
102
}
330
2DAD6
100
AcDbXrecord
280
     1
102
DISPLAYNAME
  1
Metric50
102
FLAGS
 90
        0
  0
PLOTSETTINGS
  5
2DACC
102
{ACAD_REACTORS
330
24E2E
102
}
330
24E2E
100
AcDbPlotSettings
  1

  2
Canon TS8130 series
  4
A4
  6

 40
4.180416584014891
 41
5.831417560577392
 42
4.180404663085936
 43
3.757080078125
 44
209.9733276367186
 45
296.9683227539062
 46
5.844166984916212
 47
-81.09375986328345
 48
4.0
 49
2.0
140
82.0
141
57.4
142
1.0
143
1.374
 70
  3748
 72
     1
 73
     1
 74
     0
  7
monochrome.ctb
 75
     0
147
0.7277572728131228
 76
     1
 77
     2
 78
   300
148
89.26865622688955
149
-18.0220949306636
1001
ACAD_PSEXT
1000
Canon TS8130 series
1000
Canon TS8130 series
1000
USB001
1000

1070
     0
  0
XRECORD
  5
2DAF9
102
{ACAD_REACTORS
330
2DAD4
102
}
330
2DAD4
100
AcDbXrecord
280
     1
102
DISPLAYNAME
  1
Metric50
102
FLAGS
 90
        0
  0
CELLSTYLEMAP
  5
2DAF7
102
{ACAD_REACTORS
330
2DAD0
102
}
330
2DAD0
100
AcDbCellStyleMap
 90
        3
300
CELLSTYLE
  1
TABLEFORMAT_BEGIN
 90
        5
170
     1
 91
        0
 92
    32768
 62
   257
 93
        1
300
CONTENTFORMAT
  1
CONTENTFORMAT_BEGIN
 90
        0
 91
        0
 92
      512
 93
        0
300

 40
0.0
140
1.0
 94
        5
 62
     0
340
11
144
6.0
309
CONTENTFORMAT_END
171
     1
301
MARGIN
  1
CELLMARGIN_BEGIN
 40
1.5
 40
1.5
 40
1.5
 40
1.5
 40
0.18
 40
0.18
309
CELLMARGIN_END
 94
        6
 95
        1
302
GRIDFORMAT
  1
GRIDFORMAT_BEGIN
 90
        0
 91
        1
 62
     0
 92
       -2
340
0
 93
        0
 40
0.045
309
GRIDFORMAT_END
 95
        2
302
GRIDFORMAT
  1
GRIDFORMAT_BEGIN
 90
        0
 91
        1
 62
     0
 92
       -2
340
0
 93
        0
 40
0.045
309
GRIDFORMAT_END
 95
        4
302
GRIDFORMAT
  1
GRIDFORMAT_BEGIN
 90
        0
 91
        1
 62
     0
 92
       -2
340
0
 93
        0
 40
0.045
309
GRIDFORMAT_END
 95
        8
302
GRIDFORMAT
  1
GRIDFORMAT_BEGIN
 90
        0
 91
        1
 62
     0
 92
       -2
340
0
 93
        0
 40
0.045
309
GRIDFORMAT_END
 95
       16
302
GRIDFORMAT
  1
GRIDFORMAT_BEGIN
 90
        0
 91
        1
 62
     0
 92
       -2
340
0
 93
        0
 40
0.045
309
GRIDFORMAT_END
 95
       32
302
GRIDFORMAT
  1
GRIDFORMAT_BEGIN
 90
        0
 91
        1
 62
     0
 92
       -2
340
0
 93
        0
 40
0.045
309
GRIDFORMAT_END
309
TABLEFORMAT_END
  1
CELLSTYLE_BEGIN
 90
        1
 91
        1
300
_TITLE
309
CELLSTYLE_END
300
CELLSTYLE
  1
TABLEFORMAT_BEGIN
 90
        5
170
     1
 91
        0
 92
        0
 62
   257
 93
        1
300
CONTENTFORMAT
  1
CONTENTFORMAT_BEGIN
 90
        0
 91
        0
 92
      512
 93
        0
300

 40
0.0
140
1.0
 94
        5
 62
     0
340
11
144
4.5
309
CONTENTFORMAT_END
171
     1
301
MARGIN
  1
CELLMARGIN_BEGIN
 40
1.5
 40
1.5
 40
1.5
 40
1.5
 40
0.18
 40
0.18
309
CELLMARGIN_END
 94
        6
 95
        1
302
GRIDFORMAT
  1
GRIDFORMAT_BEGIN
 90
        0
 91
        1
 62
     0
 92
       -2
340
0
 93
        0
 40
0.045
309
GRIDFORMAT_END
 95
        2
302
GRIDFORMAT
  1
GRIDFORMAT_BEGIN
 90
        0
 91
        1
 62
     0
 92
       -2
340
0
 93
        0
 40
0.045
309
GRIDFORMAT_END
 95
        4
302
GRIDFORMAT
  1
GRIDFORMAT_BEGIN
 90
        0
 91
        1
 62
     0
 92
       -2
340
0
 93
        0
 40
0.045
309
GRIDFORMAT_END
 95
        8
302
GRIDFORMAT
  1
GRIDFORMAT_BEGIN
 90
        0
 91
        1
 62
     0
 92
       -2
340
0
 93
        0
 40
0.045
309
GRIDFORMAT_END
 95
       16
302
GRIDFORMAT
  1
GRIDFORMAT_BEGIN
 90
        0
 91
        1
 62
     0
 92
       -2
340
0
 93
        0
 40
0.045
309
GRIDFORMAT_END
 95
       32
302
GRIDFORMAT
  1
GRIDFORMAT_BEGIN
 90
        0
 91
        1
 62
     0
 92
       -2
340
0
 93
        0
 40
0.045
309
GRIDFORMAT_END
309
TABLEFORMAT_END
  1
CELLSTYLE_BEGIN
 90
        2
 91
        1
300
_HEADER
309
CELLSTYLE_END
300
CELLSTYLE
  1
TABLEFORMAT_BEGIN
 90
        5
170
     1
 91
        0
 92
        0
 62
   257
 93
        1
300
CONTENTFORMAT
  1
CONTENTFORMAT_BEGIN
 90
        0
 91
        0
 92
      512
 93
        0
300

 40
0.0
140
1.0
 94
        2
 62
     0
340
11
144
4.5
309
CONTENTFORMAT_END
171
     1
301
MARGIN
  1
CELLMARGIN_BEGIN
 40
1.5
 40
1.5
 40
1.5
 40
1.5
 40
0.18
 40
0.18
309
CELLMARGIN_END
 94
        6
 95
        1
302
GRIDFORMAT
  1
GRIDFORMAT_BEGIN
 90
        0
 91
        1
 62
     0
 92
       -2
340
0
 93
        0
 40
0.045
309
GRIDFORMAT_END
 95
        2
302
GRIDFORMAT
  1
GRIDFORMAT_BEGIN
 90
        0
 91
        1
 62
     0
 92
       -2
340
0
 93
        0
 40
0.045
309
GRIDFORMAT_END
 95
        4
302
GRIDFORMAT
  1
GRIDFORMAT_BEGIN
 90
        0
 91
        1
 62
     0
 92
       -2
340
0
 93
        0
 40
0.045
309
GRIDFORMAT_END
 95
        8
302
GRIDFORMAT
  1
GRIDFORMAT_BEGIN
 90
        0
 91
        1
 62
     0
 92
       -2
340
0
 93
        0
 40
0.045
309
GRIDFORMAT_END
 95
       16
302
GRIDFORMAT
  1
GRIDFORMAT_BEGIN
 90
        0
 91
        1
 62
     0
 92
       -2
340
0
 93
        0
 40
0.045
309
GRIDFORMAT_END
 95
       32
302
GRIDFORMAT
  1
GRIDFORMAT_BEGIN
 90
        0
 91
        1
 62
     0
 92
       -2
340
0
 93
        0
 40
0.045
309
GRIDFORMAT_END
309
TABLEFORMAT_END
  1
CELLSTYLE_BEGIN
 90
        3
 91
        2
300
_DATA
309
CELLSTYLE_END
  0
CELLSTYLEMAP
  5
2DAF8
102
{ACAD_REACTORS
330
2DAD2
102
}
330
2DAD2
100
AcDbCellStyleMap
 90
        3
300
CELLSTYLE
  1
TABLEFORMAT_BEGIN
 90
        5
170
     1
 91
        0
 92
    32768
 62
   257
 93
        1
300
CONTENTFORMAT
  1
CONTENTFORMAT_BEGIN
 90
        0
 91
        0
 92
      512
 93
        0
300

 40
0.0
140
1.0
 94
        5
 62
     0
340
11
144
6.0
309
CONTENTFORMAT_END
171
     1
301
MARGIN
  1
CELLMARGIN_BEGIN
 40
1.5
 40
1.5
 40
1.5
 40
1.5
 40
0.18
 40
0.18
309
CELLMARGIN_END
 94
        6
 95
        1
302
GRIDFORMAT
  1
GRIDFORMAT_BEGIN
 90
        0
 91
        1
 62
     0
 92
       -2
340
0
 93
        0
 40
0.045
309
GRIDFORMAT_END
 95
        2
302
GRIDFORMAT
  1
GRIDFORMAT_BEGIN
 90
        0
 91
        1
 62
     0
 92
       -2
340
0
 93
        0
 40
0.045
309
GRIDFORMAT_END
 95
        4
302
GRIDFORMAT
  1
GRIDFORMAT_BEGIN
 90
        0
 91
        1
 62
     0
 92
       -2
340
0
 93
        0
 40
0.045
309
GRIDFORMAT_END
 95
        8
302
GRIDFORMAT
  1
GRIDFORMAT_BEGIN
 90
        0
 91
        1
 62
     0
 92
       -2
340
0
 93
        0
 40
0.045
309
GRIDFORMAT_END
 95
       16
302
GRIDFORMAT
  1
GRIDFORMAT_BEGIN
 90
        0
 91
        1
 62
     0
 92
       -2
340
0
 93
        0
 40
0.045
309
GRIDFORMAT_END
 95
       32
302
GRIDFORMAT
  1
GRIDFORMAT_BEGIN
 90
        0
 91
        1
 62
     0
 92
       -2
340
0
 93
        0
 40
0.045
309
GRIDFORMAT_END
309
TABLEFORMAT_END
  1
CELLSTYLE_BEGIN
 90
        1
 91
        1
300
_TITLE
309
CELLSTYLE_END
300
CELLSTYLE
  1
TABLEFORMAT_BEGIN
 90
        5
170
     1
 91
        0
 92
        0
 62
   257
 93
        1
300
CONTENTFORMAT
  1
CONTENTFORMAT_BEGIN
 90
        0
 91
        0
 92
      512
 93
        0
300

 40
0.0
140
1.0
 94
        5
 62
     2
340
10EC
144
4.5
309
CONTENTFORMAT_END
171
     1
301
MARGIN
  1
CELLMARGIN_BEGIN
 40
1.5
 40
1.5
 40
1.5
 40
1.5
 40
0.18
 40
0.18
309
CELLMARGIN_END
 94
        6
 95
        1
302
GRIDFORMAT
  1
GRIDFORMAT_BEGIN
 90
        0
 91
        1
 62
     0
 92
       -2
340
0
 93
        0
 40
0.045
309
GRIDFORMAT_END
 95
        2
302
GRIDFORMAT
  1
GRIDFORMAT_BEGIN
 90
        0
 91
        1
 62
     0
 92
       -2
340
0
 93
        0
 40
0.045
309
GRIDFORMAT_END
 95
        4
302
GRIDFORMAT
  1
GRIDFORMAT_BEGIN
 90
        0
 91
        1
 62
     0
 92
       -2
340
0
 93
        0
 40
0.045
309
GRIDFORMAT_END
 95
        8
302
GRIDFORMAT
  1
GRIDFORMAT_BEGIN
 90
        0
 91
        1
 62
     0
 92
       -2
340
0
 93
        0
 40
0.045
309
GRIDFORMAT_END
 95
       16
302
GRIDFORMAT
  1
GRIDFORMAT_BEGIN
 90
        0
 91
        1
 62
     0
 92
       -2
340
0
 93
        0
 40
0.045
309
GRIDFORMAT_END
 95
       32
302
GRIDFORMAT
  1
GRIDFORMAT_BEGIN
 90
        0
 91
        1
 62
     0
 92
       -2
340
0
 93
        0
 40
0.045
309
GRIDFORMAT_END
309
TABLEFORMAT_END
  1
CELLSTYLE_BEGIN
 90
        2
 91
        1
300
_HEADER
309
CELLSTYLE_END
300
CELLSTYLE
  1
TABLEFORMAT_BEGIN
 90
        5
170
     1
 91
        0
 92
        0
 62
   257
 93
        1
300
CONTENTFORMAT
  1
CONTENTFORMAT_BEGIN
 90
        0
 91
        0
 92
      512
 93
        0
300

 40
0.0
140
1.0
 94
        2
 62
     2
340
10EC
144
4.5
309
CONTENTFORMAT_END
171
     1
301
MARGIN
  1
CELLMARGIN_BEGIN
 40
1.5
 40
1.5
 40
1.5
 40
1.5
 40
0.18
 40
0.18
309
CELLMARGIN_END
 94
        6
 95
        1
302
GRIDFORMAT
  1
GRIDFORMAT_BEGIN
 90
        0
 91
        1
 62
     0
 92
       -2
340
0
 93
        0
 40
0.045
309
GRIDFORMAT_END
 95
        2
302
GRIDFORMAT
  1
GRIDFORMAT_BEGIN
 90
        0
 91
        1
 62
     0
 92
       -2
340
0
 93
        0
 40
0.045
309
GRIDFORMAT_END
 95
        4
302
GRIDFORMAT
  1
GRIDFORMAT_BEGIN
 90
        0
 91
        1
 62
     0
 92
       -2
340
0
 93
        0
 40
0.045
309
GRIDFORMAT_END
 95
        8
302
GRIDFORMAT
  1
GRIDFORMAT_BEGIN
 90
        0
 91
        1
 62
     0
 92
       -2
340
0
 93
        0
 40
0.045
309
GRIDFORMAT_END
 95
       16
302
GRIDFORMAT
  1
GRIDFORMAT_BEGIN
 90
        0
 91
        1
 62
     0
 92
       -2
340
0
 93
        0
 40
0.045
309
GRIDFORMAT_END
 95
       32
302
GRIDFORMAT
  1
GRIDFORMAT_BEGIN
 90
        0
 91
        1
 62
     0
 92
       -2
340
0
 93
        0
 40
0.045
309
GRIDFORMAT_END
309
TABLEFORMAT_END
  1
CELLSTYLE_BEGIN
 90
        3
 91
        2
300
_DATA
309
CELLSTYLE_END
  0
ENDSEC
  0
SECTION
  2
ACDSDATA
 70
     2
 71
     6
  0
ACDSSCHEMA
 90
        0
  1
AcDb_Thumbnail_Schema
  2
AcDbDs::ID
280
    10
 91
        8
  2
Thumbnail_Data
280
    15
 91
        0
101
ACDSRECORD
 95
        0
 90
        1
  2
AcDbDs::TreatedAsObjectData
280
     1
291
     1
101
ACDSRECORD
 95
        0
 90
        2
  2
AcDbDs::Legacy
280
     1
291
     1
101
ACDSRECORD
  1
AcDbDs::ID
 90
        3
  2
AcDs:Indexable
280
     1
291
     1
101
ACDSRECORD
  1
AcDbDs::ID
 90
        4
  2
AcDbDs::HandleAttribute
280
     7
282
     1
  0
ACDSSCHEMA
 90
        1
  1
AcDbDs::TreatedAsObjectDataSchema
  2
AcDbDs::TreatedAsObjectData
280
     1
 91
        0
  0
ACDSSCHEMA
 90
        2
  1
AcDbDs::LegacySchema
  2
AcDbDs::Legacy
280
     1
 91
        0
  0
ACDSSCHEMA
 90
        3
  1
AcDbDs::IndexedPropertySchema
  2
AcDs:Indexable
280
     1
 91
        0
  0
ACDSSCHEMA
 90
        4
  1
AcDbDs::HandleAttributeSchema
  2
AcDbDs::HandleAttribute
280
     7
 91
        1
284
     1
  0
ACDSRECORD
 90
        0
  2
AcDbDs::ID
280
    10
320
22
  2
Thumbnail_Data
280
    15
 94
     2327
310
89504E470D0A1A0A0000000D49484452000001000000007F080300000037AFECF400000300504C5445000000000000FFFFFF0000000000000000000000000000000000000000000000000000330000660000990000CC0000FF0033000033330033660033990033CC0033FF0066000066330066660066990066CC0066FF0099
310
000099330099660099990099CC0099FF00CC0000CC3300CC6600CC9900CCCC00CCFF00FF0000FF3300FF6600FF9900FFCC00FFFF3300003300333300663300993300CC3300FF3333003333333333663333993333CC3333FF3366003366333366663366993366CC3366FF3399003399333399663399993399CC3399FF33CC00
310
33CC3333CC6633CC9933CCCC33CCFF33FF0033FF3333FF6633FF9933FFCC33FFFF6600006600336600666600996600CC6600FF6633006633336633666633996633CC6633FF6666006666336666666666996666CC6666FF6699006699336699666699996699CC6699FF66CC0066CC3366CC6666CC9966CCCC66CCFF66FF0066
310
FF3366FF6666FF9966FFCC66FFFF9900009900339900669900999900CC9900FF9933009933339933669933999933CC9933FF9966009966339966669966999966CC9966FF9999009999339999669999999999CC9999FF99CC0099CC3399CC6699CC9999CCCC99CCFF99FF0099FF3399FF6699FF9999FFCC99FFFFCC0000CC00
310
33CC0066CC0099CC00CCCC00FFCC3300CC3333CC3366CC3399CC33CCCC33FFCC6600CC6633CC6666CC6699CC66CCCC66FFCC9900CC9933CC9966CC9999CC99CCCC99FFCCCC00CCCC33CCCC66CCCC99CCCCCCCCCCFFCCFF00CCFF33CCFF66CCFF99CCFFCCCCFFFFFF0000FF0033FF0066FF0099FF00CCFF00FFFF3300FF3333
310
FF3366FF3399FF33CCFF33FFFF6600FF6633FF6666FF6699FF66CCFF66FFFF9900FF9933FF9966FF9999FF99CCFF99FFFFCC00FFCC33FFCC66FFCC99FFCCCCFFCCFFFFFF00FFFF33FFFF66FFFF99FFFFCCFFFFFF0000000D0D0D1A1A1A2828283535354343435050505D5D5D6B6B6B787878868686939393A1A1A1AEAEAEBB
310
BBBBC9C9C9D6D6D6E4E4E4F1F1F1FFFFFF000000000000000000000000000000000000000000000000000000000000C11FEF66000005D24944415478DAED9D4D9AA4200C86FB065CC3FB5FC16BB0623DDB6F3FFE8109060AB450A0647ABA672CDBC7BC242109A07FE6C7DB5FEA89FF9A6BDF06D05AD7BE005E004F02408953
310
51210020F55E43674AA75E3EF3460D4806608A00403B00D23500756B00AA6FA5017CDB5BA3D0F51E0600E0A701A084AE34040065ACA5190028E52F5A00A0E829F8450D5028E8E15A0080E458AD45004800A05460385437014049001F7B74FA9C1080F9350060A28259C44D0080077D0098AC4CFE394C1FCEB4969C205777DE
310
FF988E9DF0884D01A0EAAE3CF9CF02300D01801F0EEC638690AE76088077B85AE487137F368BE5672682467D006C4688D52DEFFD9FAB044D01A069D064F38B19C0C583CA86865908DA02B027C2B6BFC9EF28522B40AF006C2904AB0350545845F2837402AD01581D9F1D02E0863EADA781C1DA3F52928A5601D8F87F3500A8
310
4DFC0500B111B192DB070003E7F9174FB8886FA63F0480A70131021503103B8F1CDC7EAA59FCB951009C00BF0EBF6E4D00B8C09B3983C77A5C1166ED5F09D85A11C44411F4E2ECBAF900B6EB94D700E7CF0256BC1D9CBB5E6BE303F054E0D0F9E701DC660240DC27CC122ECE6F15DF074009707E9D00582C401B27FE0E60A1
310
C25325D319001B05EACDFA572FE70170D6EADB4F0F0088054400B8A0B15B00CB20E082231180E03F7B0140448D680002CB1EB6E35A570B40451AE6BFD337BD7CA93509C07A783A348F8CE4AC48AB19C0B734C0B4AA01A93E40FB3E60A79200A07527288D02DA1B05BA0460AB41DA1811008BDA5B0220244391A464965E1F22
310
C15D010259F0E564A80E00DC066400A60B00414D461480A800A4905A2700C10720541C010B86E3F500EA119A498705A1FD8A09361720D40388021C2B29B55684D2AAC220591E5C49941745DDCCD1E779A2068BA2D49A6D5168298DD1AAB09D33FBD85A0540C3C1B52EE495C553AFD52C80B5326E880EF08911933839D2AE09
310
B829B2E3D418F6C9B39E35C0A53B204BA79C87EC5D03DCDC98BF9DC17E4F9D246F17809B02855B21E24A6019F3C30D03E0957F1EDEF43C3B2CDCCCF2EF692480FC51BF004C1840B2FCD54D8E9E5DFF3D0328BF5274BFC5FA768D91C4B864AB78DBDC5DABC58B034854DD8C4D8EAD01C81D00021A80663520DD19E5EE77ED14
310
80900CED79E1B795A12A00FC9614BF4548116257004C0A80DC95B36D00C8B5FF1E010866ADA46CA94F13C07383402500A42763087B866C71B81D0048058074005F0F848ACF0DA69880790E005E008DF9801E73811780B4FC31B0B9602B7C0D8359BEE60A50FE86E11AD3E1ACF19F95C0862E000808548AF8E7B78D5707E060
310
DEB18208EBFCF59BE91FC0AE0442EFB70F0066E44DF1FFB225124EE7AD1A0CCDFB80846C3092050CF53AC1D4F27E523ADC318084AAB019834A303401E098CBD3216E0C8D870C8014225D2B11DC07003848E775AF0860CF94472349EDEF1BAC09C0768F030310FC8DF100800B368652B98B00CA4F8E26023848A8E21FF33EAC
310
52035E002F8017400E005F449526FF0EA0D6E70AC700ACBBC53593D11E537A6BC900D8B860F61ABA7B440D8E9B2F6F0130A72BE246472BA27430F0696CFFA55B561B2BB27891D33D1A30043480F531D1007DD480041F80605CCDD71CD60EC06C0F11C90750AF0F880130A2064CDFB34701DECB62228DC31283670188223AD3
310
BF06C0DB8E8443FA553B005306C0BD1AB04E8E6E1BFFAEC50122019E0C859362443F2A09003B80011F93F7310E601CFDC18DA4C3C3F99739DC06803E34EA0400F6D4204FBFB101A03DEE5904EF74BA21A3B809AC3E604828EF8D710031753E00400CC05D1A608200646B8802C0A7BA70BE06908D180F003082358C4100098F
310
D14B7582CC753E0E8087A604005498531040CD91E0A7CAF587C9517309008995F78C89658ECF2F97E78BE6E750286B61DC60E81359BD21379C28DCB861226FEE42E76E1809026039301D01719706D83BCC6A3A7BCB502A806D7CA85D034C68CB0C4E9AC06335C15F7FD7586CD08F75EBFBBEC122AFDB7BDF37F8380093C5E5
310
DAA935BE73B4E2F60278017C19C0AFBF7BBCD7F61F11CAB72488493D710000000049454E44AE426082
  0
ACDSRECORD
 90
        0
  2
AcDbDs::ID
280
    10
320
51
  2
Thumbnail_Data
280
    15
 94
     4181
310
89504E470D0A1A0A0000000D4948445200000100000000B5080300000087DCD12600000300504C5445000000000000FFFFFF0000000000000000000000000000000000000000000000000000330000660000990000CC0000FF0033000033330033660033990033CC0033FF0066000066330066660066990066CC0066FF0099
310
000099330099660099990099CC0099FF00CC0000CC3300CC6600CC9900CCCC00CCFF00FF0000FF3300FF6600FF9900FFCC00FFFF3300003300333300663300993300CC3300FF3333003333333333663333993333CC3333FF3366003366333366663366993366CC3366FF3399003399333399663399993399CC3399FF33CC00
310
33CC3333CC6633CC9933CCCC33CCFF33FF0033FF3333FF6633FF9933FFCC33FFFF6600006600336600666600996600CC6600FF6633006633336633666633996633CC6633FF6666006666336666666666996666CC6666FF6699006699336699666699996699CC6699FF66CC0066CC3366CC6666CC9966CCCC66CCFF66FF0066
310
FF3366FF6666FF9966FFCC66FFFF9900009900339900669900999900CC9900FF9933009933339933669933999933CC9933FF9966009966339966669966999966CC9966FF9999009999339999669999999999CC9999FF99CC0099CC3399CC6699CC9999CCCC99CCFF99FF0099FF3399FF6699FF9999FFCC99FFFFCC0000CC00
310
33CC0066CC0099CC00CCCC00FFCC3300CC3333CC3366CC3399CC33CCCC33FFCC6600CC6633CC6666CC6699CC66CCCC66FFCC9900CC9933CC9966CC9999CC99CCCC99FFCCCC00CCCC33CCCC66CCCC99CCCCCCCCCCFFCCFF00CCFF33CCFF66CCFF99CCFFCCCCFFFFFF0000FF0033FF0066FF0099FF00CCFF00FFFF3300FF3333
310
FF3366FF3399FF33CCFF33FFFF6600FF6633FF6666FF6699FF66CCFF66FFFF9900FF9933FF9966FF9999FF99CCFF99FFFFCC00FFCC33FFCC66FFCC99FFCCCCFFCCFFFFFF00FFFF33FFFF66FFFF99FFFFCCFFFFFF0000000D0D0D1A1A1A2828283535354343435050505D5D5D6B6B6B787878868686939393A1A1A1AEAEAEBB
310
BBBBC9C9C9D6D6D6E4E4E4F1F1F1FFFFFF000000000000000000000000000000000000000000000000000000000000C11FEF6600000D104944415478DAED9D4992B33A0C80FF1B700D367DFF03F81A5E694DD55B69FFF02CD93218830319A8EAA44348823E24599207FEE1776FFFFD43F8E6ED07C00088EA907667DBC7BEE1
310
017CEFF5FF01E000BEC9FBCB00BEE9DAFF007C10800E03F830004085B2FFD85D51A6D80026DBA700E0E300F8D86617007C0C80FAE957767E18805E1FF0411A80083C9EC9B58305C39F680214007C23809F0FF8F900F78448F27B62172C1FFE70007814007EAD0FF8E5029FA3014CDB6D6C4C6512EA00D70228F0324FFB7200
310
DCDCF9090E01B05F7A7935004103BC8F7C8106D02AF34BE4BFDB0734D6DF5E170AB35FA4F131AD048D7082ECCA23DEE7040B1F30DC09CABEF0AE64E88656809177AAF66A00F7074237B500439DE04B2FE3653E204FFD37728106006F81400000570040CC3E77E3A6A56DB40F2061CDC3018C0B845E1AD06D6CB3BC6D1445B1
310
AC09D2CE82F68E11DECD701B802381106C2543D8531112110C8562F57BFDD32201A6FF4D3EA01208ED00C83F55D4DB8655104A3BBF054030808A93516E1B6EF10580D90298EFD1003ECEC8887F3182D2CD1704E65C0FC695C5F31C5F3EE72B09CC0CC02C019819A9866CB08CCF8F39C1FDC05E8DF5FEB308809B00C21800C8
310
E3CA0701980F67835846827B009CF8F37E73F74A02A5029CF6017BB9C03CC3E300CCD540C87BAC54FD1253C4C650387C669EF3F0FB050092FED98719C90EFF5801C05BBC130088EAE7E177F2C2E64F85E88DFC69FABA3BC94D00564564F253AF9785C252B5A8AB1ED01CADA9D82CB356BCCCDB8E030804C002002B7A01E096
310
B23891522974AFA5AC15FAE5AF86A180750DF0DDC4909B00F4F8801D02609315BD4684F6939AFD4DEC752F00AAB748DBE51A80B2C93FE304F71038D9561340FFFA6A001BEEB1AA0162BAE635E0800F98F7375CAFBD1550270009C2445F9E28F68BF31DB2D06F48496CDE3FC3695501732E5A231015180F00A4D8F76A27D806
310
C010C060025EDE6B008034E82539335601F2E14F2517E8F401FB00D64D1B33209BF6BB747C81D9117816401AFB8395925866EEE300C0DAFC192330AD00251001D81642739F3408C0581FA02B1AA050398557AC65D0D63626E21184D0B289C0769FFB89A93EC700F048860639A211440D20D690E5609700C09DAE31E432F101
310
C4470108BD114E038CC6E7C10168A701CE1F6A210B3FD010D4CA65F05A00D2E9FDFDA9BF3F63E905010AA06A010D1132B3ED3CD1C0A30591BA0F804E27A82665BC9F330562045A1313D05213E072046822103E5828E07505913E00F1BBB4FD42A5D646415500D8FAB976EF05299A7224AC02C07ACF507B1C701280EB165825
310
53A997C0FE443401E70202804C647DC411E600B0C4340E807CAD56B140F98BAE54DE1278632016E08FE9890793E5FFFDFD09963D66BEC02CFB5ED661B87A016E8053103CDA822600265431686E2E131823CB0060B507678C0F20A7CA5BC42070BE1100C4336E74F0EF22A0A7556A515E0FA01591FEF9020D9160E040D2A304
310
805F196D32A689DAC0914211E99E9BB1E62ACB82C86500EA6735A16C025AD40C06E06896182BD415004103E07A0DA85C2B0A20B345AB15DCD65697B9360C570C2998E1B23142D01409D64CD688376539EE943FF10BA0A8027456CB2500AF4A863217E84514184F85FF3AE3040B02C218A157A7C3986442DCB90AB1841C4B47
310
18C3E18BFA905E5F130C15390C00B0A20140E76FAF7E8001803701209C2AE669A70C005B0EBEAA1771980FD0DB1B0A05FC893980543DA100DE4903A0A601C6A6950880951F6CB3ACB8FB7C271F209B80114405B346316EA300DCA1884CA7DED409C64E4F8C8E3D2B3C4DF9D11ED42813785DC748B86EC9049206908868AAE4
310
732145E8098577CB26BB6385BBFB05FCB85521F6B2971F4BAD2F007813D0472B428F00A02BFECAE5F8152728F5F2814A61D15BF980DA996626B003201C7A3A17B8C107E88D8A1D3402880D466F3ABC67026C9418101985E97CD7F40D5AB17C91ABD5040669C0CE28B1A10000B67201A20199095CEC031A4789C900A017801D
310
1CA4845EDFA9A8E8211FA774A90FBCA963C4EA3431ECED99D3B609304A902EFDB6FC470835CC193A5E16D7FBE363516145F3A6323132AC42F2D4920DA2AE5516A5C1DFBB71C061005A370C904067DB9B0068CB6FEDA515C05E5B9E79D83B00142B58C996E064B7A0FC5962BB5A036065D1D3BCE47271CF503B80BCC7CB7806
310
D3610418AF3B19D07144033600F0E9F13739C150E5320364E897D8FAB7423F8AC1FD9A390AB9605779766E029571343D93A6CAA939420C60474A190474B886520680F3F20E003DC406D0D8A6016C4D1A69BC30E63E80CDEB236B66F402881305E68A1D19D956E18827B41A106B1FAE3B806B49130284431A30AC6364DED07F
310
FFDB668C0091C8751728121D38F9156669149E0700451FE4E5C9D05CCD03431E6CC5B302C64BC27ACD272F7F3EA6416D23909B4171D870EBE4E9BE7AC02C5F7DE525C2287F7C5E3562726A61F778FD2FA71E9B6FC0EB003415448ED7038A09534EA54335C8696A90DB3F00DBE3FE13A6DEA13BF49A56604C41249F34E70C5A
310
01C9A842690CA8260415890FC612FEA4710DC179940389E900313E4E1ACB4911837C006F4F9DF02AADC7A5BC09A8861358ADE20F6BB6549B12C001486B75D138A0AAEDFD3E009365FB8B5C8EB6C4DCBD21B045ABA2B64B00BC41117BA90090E383F833DC0788ABC87402609EAD98B1105A01D5A0721500BEF148C6F3281FB0
310
A7D658E85B1973C57D35001142610245E05E29340CF401324429D22C5434DF075B0040F8298452D62A00960B40889EF1021FC0CF0E451FC0BF5E74CF5D00BAEA01B549052300280A800E8570A3E5D2D9F501389A0DB21972500E97A7C1D8000D60F861E215D8F5E9AF430342DBBF1F098EF001D33C85CD8E475A9F7D6CEF37
310
9C26360430EEC7F4384D2B0B7B9801403E9C6FF48D0E00B419F43E80BB273C6D0273A901180303B5A701CA6A40DE3574A90F48424933464E039825002E08F249CDB609A8BF09F39C78900FC8D6F46C01007D1A90BE366980D789C945374C03FCAED65AB010096E3583971745250020B528BC0D021980F501E03A8837579E6C
310
0500D704427B00C83697D56E1EFC9B5120E86BC4AE4723247ABE1924E5131A6267E9D0D9A22854678D756980CFF1FD9A15BC842302705758E71A403AC9E5CC215695C4A48A4C0440CC123E09005C0540A5CACF9CAD589D08F061902A4FA1D999AAAC8B3C2D7CA9A0282EF3981B2A9633D207CCE487E604B7001007BE00B3F1
310
242BE91751955BA1044B1300C03E80413E608ED58C541667B3FF421F7918F8C6D6EF20B2B2017258484FC49B1FE50366B1A34CA511E0B11F40816402B44E9C7AC6A01C4E207547895D634D45517959DDEB00A4C290F640BC2BD7DE65BA0268A871D845765C59340DABAC4603DD0086748CCCF59E423F679455C9759C160271
310
4581150B907E136B165BDD012D00E035C9D0360023914EA140DB0AFB886A6FD2D0153EE0C0F880130056041A9566F3E0CABC9BEF4D03259B34405C298094C92F1820710A0068656703C69F4BB32B5398E8E70E87B868B753781B00D60748ECDD6C6D08000866EF82591DDA4C304B6878303A268D4DA302E6BE74F8061F1009
310
C431224E1D20AD1C6383488D52717F840F60992F40B69658368BF13080790B407CE94128A3015EEF75D3656CF5012D2650594A0B3A3A471B340034144ED09A00163E10CE03C076008082065CBD965858522C2D21149F75BE138F033854121BD033B43F4C2A1BEFA9A5DD0787C376FA80410B2A1E0340FF992E0070AC244684
310
3A900C7D2C002856951D024056760D04C0D101E1DDCDE02D3E60288023DB5D3EC08BA7EF07D05B0F38EB03B48E8FFC698A6FE97700007D00FC625805004DDF7A15800145D1260D88730AD374481720BE16C0A01B2CF49B00BCD604FA95E61C8001DB0FC00FC02700383125F04334E06300F46E668649E7760B00FC5A1FF029
310
F71EFF01F801F801F801787300CB82576E4BDA369735780E005C119C3C0B22F442BE28EC126F52F92400EBA9A6BB07D6026C722F232FF4FA1F13BA5A0BD1FCC82702D09B00A495FC96EDC5488A550CA8813C1480393114D5BB5C8E54132ED05C0D73DFF6480D88EEB066D31D5F4A0A7681D2434DA074E1A257AF797C797F09
310
803BC8476A40E9B3E8492FD451109B61FB21ED8F355AFF7D8F6E0598DAEBCA4AAE4110844510DAED5FC8A287CCF01F1D08659A5C5B45C8EF77C79263E8FEB8846B4DFA1C003C440388C68BBE1D9917378FBAB23F3FBEB322749B0F088D5E76E6482EA6FB5F2FF2FEF2FFF702903480B9C1F2EAEA8DABCEF73F1D8033DD30DD
310
C6FA31DA9EAD0FBA9ADA48BBED473633ACC76940B87B94BF89127F5AC2AD959AA22273DCDE91CF04A06B00D8BDA57663C31518C623DFC504B8362FC22BF4C2847C7009B921A40E79DF2A90DB9EBC8D136411EA820B7F455FB27430BFC9710900E8714F368125F800084A1FDA311BD2423481CAAD9DF51600BD0DE019A1B068
310
FCE0627A7B0D330050BD674709005201E1B1B980DC0A2C91CEA2B74F8F264D0C4071D48393A1A530FE94044170ED7B148CD16C4AB26C14446EDF968D57B8B456845B0E12017CDDF603F003E000EC4EDEFFD837B240E81B75E007E01F7EF7F6DFFFC74965CB58BC5AB50000000049454E44AE426082
  0
ENDSEC
  0
EOF
